osu file format v14

[General]
AudioFilename: audio.mp3
AudioLeadIn: 0
PreviewTime: -1
Countdown: 1
SampleSet: Normal
StackLeniency: 0.7
Mode: 0
LetterboxInBreaks: 0
WidescreenStoryboard: 0

[Editor]
DistanceSpacing: 2
BeatDivisor: 4
GridSize: 16
TimelineZoom: 2.799999

[Metadata]
Title:Guess Who Is Back
TitleUnicode:Guess Who Is Back
Artist:Koda Kumi
ArtistUnicode:Koda Kumi
Creator:MagBlood
Version:1 - 2 BlessRNG
Source:
Tags:
BeatmapID:1733369
BeatmapSetID:827184

[Difficulty]
HPDrainRate:6
CircleSize:4
OverallDifficulty:9.5
ApproachRate:9.6
SliderMultiplier:1.4
SliderTickRate:1

[Events]
//Background and Video events
0,0,"yuno_landscape_magic_by_princeg07-dcal3ia.jpg",0,0
//Break Periods
//Storyboard Layer 0 (Background)
//Storyboard Layer 1 (Fail)
//Storyboard Layer 2 (Pass)
//Storyboard Layer 3 (Foreground)
//Storyboard Sound Samples

[TimingPoints]
945,327.868852459016,4,1,0,30,1,0
945,-66.6666666666667,4,1,0,30,0,0
4879,-100,4,1,0,30,0,0
5863,-66.6666666666667,4,1,0,30,0,0
9961,-142.857142857143,4,1,0,30,0,0
11436,-100,4,1,0,30,0,0
19305,-66.6666666666667,4,1,0,30,0,0
29961,-57.1428571428571,4,1,0,30,0,0
32584,-100,4,1,0,30,0,0
33158,-90.9090909090909,4,1,0,30,0,0
33813,-83.3333333333333,4,1,0,30,0,0
34469,-76.9230769230769,4,1,0,30,0,0
35125,-71.4285714285714,4,1,0,30,0,0
36518,-66.6666666666667,4,1,0,30,0,0
37666,-100,4,1,0,30,0,0
52092,-200,4,1,0,30,0,0
52420,-66.6666666666667,4,1,0,30,0,0
64070,-66.6666666666667,4,1,0,30,0,1
87338,-66.6666666666667,4,1,0,30,0,0

[HitObjects]
96,80,289,5,0,0:0:0:0:
240,128,658,1,0,0:0:0:0:
240,272,945,6,0,P|176:288|144:256,1,105.000004005432
144,160,1272,2,0,P|112:96|80:96,1,105.000004005432
240,64,1600,2,0,P|304:80|320:112,1,105.000004005432
256,208,1928,2,0,P|224:256|192:304,1,105.000004005432
224,320,2256,6,0,B|288:288|304:304|320:320,1,105.000004005432
400,224,2584,2,0,P|416:160|416:112,1,105.000004005432
224,240,2912,1,0,0:0:0:0:
400,224,3240,1,0,0:0:0:0:
320,64,3567,6,0,P|304:64|208:48,1,105.000004005432
216,50,3895,1,0,0:0:0:0:
112,128,4059,2,0,P|80:176|48:224,1,105.000004005432
53,215,4387,1,0,0:0:0:0:
224,304,4551,2,0,B|240:256|208:240|256:208,1,105.000004005432
368,48,4879,2,0,B|400:64|416:96|416:144|416:192,1,140
288,256,5863,6,0,P|240:288|176:288,1,105.000004005432
224,128,6190,2,0,P|272:96|336:96,1,105.000004005432
192,288,6518,1,0,0:0:0:0:
368,64,6682,2,0,B|400:112|368:144|336:192|384:224|416:256,1,210.000008010865
368,288,7338,2,0,B|288:304|224:304|176:256|176:240|176:240|240:224|288:208|288:208|256:160|208:128,1,420.000016021729
64,48,8485,6,0,B|96:64|144:48|160:96,1,105.000004005432
160,128,8731,1,0,0:0:0:0:
128,176,8813,2,0,B|112:208|112:256|160:288,1,105.000004005432
256,304,9305,2,0,B|320:288|368:272|288:224|256:224|352:160,1,210.000008010865
224,80,9961,2,0,B|160:96|160:96|160:160|96:160|96:160|80:208|128:272|128:272|192:272|208:272,1,367.500014019013
352,304,11436,6,0,P|384:272|384:240,1,70
160,80,11764,2,0,P|128:112|128:144,1,70
395,240,12092,6,0,P|406:197|390:169,1,70
116,143,12420,2,0,P|105:186|121:214,1,70
400,164,12748,6,0,P|389:121|361:105,1,70
111,219,13076,2,0,P|122:262|150:278,1,70
367,96,13404,6,0,P|336:64|304:64,1,70
143,288,13732,2,0,P|176:320|208:320,1,70
304,52,14059,6,0,P|261:41|233:57,1,70
207,331,14387,2,0,P|250:342|278:326,1,70
228,47,14715,6,0,P|185:58|169:86,1,70
283,336,15043,2,0,P|326:325|342:297,1,70
160,80,15371,6,0,P|128:111|128:144,1,70
351,303,15699,2,0,P|384:272|384:240,1,70
116,143,16026,6,0,P|105:186|121:214,1,70
352,304,16354,1,0,0:0:0:0:
400,128,16682,1,0,0:0:0:0:
224,256,17010,1,0,0:0:0:0:
304,64,17338,1,0,0:0:0:0:
96,224,17666,5,0,0:0:0:0:
304,64,17830,1,0,0:0:0:0:
96,224,17994,5,0,0:0:0:0:
224,80,18158,1,0,0:0:0:0:
256,208,18322,2,0,P|272:256|304:256,1,70
226,124,18649,2,0,P|255:142|256:176,1,70
416,224,19305,6,0,P|368:272|320:272,1,105.000004005432
160,256,19633,2,0,P|112:224|64:192,1,105.000004005432
256,64,19961,1,0,0:0:0:0:
368,160,20125,2,0,P|352:224|320:240,1,105.000004005432
320,239,20453,1,0,0:0:0:0:
256,192,20617,12,0,21764,0:0:0:0:
80,160,21928,6,0,P|112:96|144:80,1,105.000004005432
288,112,22256,2,0,P|272:176|240:208,1,105.000004005432
112,272,22584,1,0,0:0:0:0:
288,112,22748,1,0,0:0:0:0:
288,288,23076,5,0,0:0:0:0:
416,128,23240,1,0,0:0:0:0:
176,288,23404,1,0,0:0:0:0:
176,96,23567,2,0,P|240:64|288:64,1,105.000004005432
336,80,24059,5,0,0:0:0:0:
384,176,24223,1,0,0:0:0:0:
320,272,24387,1,0,0:0:0:0:
192,288,24551,1,0,0:0:0:0:
96,176,24879,6,0,P|96:112|144:96,3,105.000004005432
256,80,25535,1,0,0:0:0:0:
384,176,25699,1,0,0:0:0:0:
128,256,25863,1,0,0:0:0:0:
256,80,26026,2,0,P|320:64|352:80,1,105.000004005432
288,272,26354,5,0,0:0:0:0:
288,272,26436,1,0,0:0:0:0:
288,272,26518,1,0,0:0:0:0:
96,160,26682,1,0,0:0:0:0:
288,64,26846,1,0,0:0:0:0:
96,272,27010,1,0,0:0:0:0:
352,224,27174,1,0,0:0:0:0:
304,80,27502,6,0,P|224:80|176:112,3,105.000004005432
112,176,28158,1,0,0:0:0:0:
112,176,28322,1,0,0:0:0:0:
304,272,28485,1,0,0:0:0:0:
304,272,28649,1,0,0:0:0:0:
208,224,28813,1,0,0:0:0:0:
128,288,28977,5,0,0:0:0:0:
128,288,29059,1,0,0:0:0:0:
128,288,29141,1,0,0:0:0:0:
256,96,29305,1,0,0:0:0:0:
256,96,29469,1,0,0:0:0:0:
128,96,29633,6,0,P|80:128|64:176,1,105.000004005432
64,170,29961,1,0,0:0:0:0:
288,288,30125,2,0,P|352:256|384:208,1,122.500001168251
380,215,30453,1,0,0:0:0:0:
304,80,30617,2,0,P|240:64|176:48,1,122.500001168251
185,50,30944,1,0,0:0:0:0:
192,224,31108,2,0,P|240:272|320:288,1,122.500001168251
288,288,31436,1,0,0:0:0:0:
416,224,31600,5,0,0:0:0:0:
429,167,31681,1,0,0:0:0:0:
386,128,31763,1,0,0:0:0:0:
288,288,31928,1,0,0:0:0:0:
336,80,32092,1,0,0:0:0:0:
176,256,32256,1,0,0:0:0:0:
160,64,32420,1,0,0:0:0:0:
80,128,32584,5,0,0:0:0:0:
58,155,32665,1,0,0:0:0:0:
45,188,32747,1,0,0:0:0:0:
48,222,32829,1,0,0:0:0:0:
69,249,32911,1,0,0:0:0:0:
100,265,32993,1,0,0:0:0:0:
135,271,33075,1,0,0:0:0:0:
176,272,33158,5,0,0:0:0:0:
212,284,33239,1,0,0:0:0:0:
250,291,33321,1,0,0:0:0:0:
286,281,33403,1,0,0:0:0:0:
310,252,33485,1,0,0:0:0:0:
328,217,33567,1,0,0:0:0:0:
353,188,33649,1,0,0:0:0:0:
381,162,33731,1,0,0:0:0:0:
368,112,33813,5,0,0:0:0:0:
331,91,33894,1,0,0:0:0:0:
290,83,33976,1,0,0:0:0:0:
248,87,34058,1,0,0:0:0:0:
208,99,34140,1,0,0:0:0:0:
168,111,34222,1,0,0:0:0:0:
127,111,34304,1,0,0:0:0:0:
87,98,34386,1,0,0:0:0:0:
64,144,34469,5,0,0:0:0:0:
57,189,34550,1,0,0:0:0:0:
58,234,34632,1,0,0:0:0:0:
79,274,34714,1,0,0:0:0:0:
116,300,34796,1,0,0:0:0:0:
159,315,34878,1,0,0:0:0:0:
194,299,34960,1,0,0:0:0:0:
237,288,35042,1,0,0:0:0:0:
288,288,35125,5,0,0:0:0:0:
331,309,35206,1,0,0:0:0:0:
379,319,35288,1,0,0:0:0:0:
396,291,35370,1,0,0:0:0:0:
382,244,35452,1,0,0:0:0:0:
365,198,35534,1,0,0:0:0:0:
336,159,35616,1,0,0:0:0:0:
290,144,35698,1,0,0:0:0:0:
192,256,35863,5,0,0:0:0:0:
176,64,36026,1,0,0:0:0:0:
48,256,36190,1,0,0:0:0:0:
288,144,36354,1,0,0:0:0:0:
384,320,36518,2,0,P|416:304|416:272,4,52.5000020027161
224,304,37010,5,0,0:0:0:0:
176,288,37119,1,0,0:0:0:0:
181,216,37228,1,0,0:0:0:0:
189,170,37337,1,0,0:0:0:0:
131,133,37447,1,0,0:0:0:0:
147,92,37556,1,0,0:0:0:0:
208,64,37666,6,0,P|256:64|304:80,1,70
336,96,37994,1,0,0:0:0:0:
272,208,38158,1,0,0:0:0:0:
416,144,38322,1,0,0:0:0:0:
368,256,38485,1,0,0:0:0:0:
480,192,38649,2,0,P|432:176|416:144,1,70
352,64,38977,6,0,B|288:80|272:96|208:112|192:80,1,140
128,144,39469,2,0,B|96:192|96:224|128:256|128:256|80:288|176:304,1,210
320,288,40125,1,0,0:0:0:0:
416,192,40289,2,0,P|416:128|400:112,1,70
288,96,40617,2,0,B|256:160|288:192|288:192|256:224|256:224|240:224,1,140
261,218,41272,5,0,0:0:0:0:
128,96,41436,1,0,0:0:0:0:
224,256,41600,1,0,0:0:0:0:
176,80,41764,1,0,0:0:0:0:
160,272,41928,2,0,P|128:304|96:304,1,70
352,272,42584,6,0,P|400:240|400:208,1,70
352,112,42912,2,0,P|320:96|272:80,1,70
240,160,43240,1,0,0:0:0:0:
128,240,43404,1,0,0:0:0:0:
240,304,43567,1,0,0:0:0:0:
240,160,43731,1,0,0:0:0:0:
128,240,43895,1,0,0:0:0:0:
240,304,44059,6,0,P|288:288|320:272,1,70
336,224,44387,1,0,0:0:0:0:
304,176,44551,2,0,B|256:160|240:144|240:96|240:96|192:96,1,140
80,144,45043,1,0,0:0:0:0:
112,256,45207,2,0,P|144:288|176:304,1,70
288,224,45535,2,0,P|336:240|304:192,1,140
307,190,46026,1,0,0:0:0:0:
288,64,46354,6,0,P|240:64|208:64,1,70
160,224,46682,2,0,P|192:256|208:288,1,70
368,176,47010,1,0,0:0:0:0:
160,224,47174,1,0,0:0:0:0:
256,64,47338,1,0,0:0:0:0:
320,304,47502,5,0,0:0:0:0:
352,240,47666,1,0,0:0:0:0:
384,176,47830,1,0,0:0:0:0:
416,112,47994,1,0,0:0:0:0:
288,368,48158,1,0,0:0:0:0:
192,48,48813,1,0,0:0:0:0:
64,336,49469,1,0,0:0:0:0:
288,160,50125,1,0,0:0:0:0:
64,224,50781,5,0,0:0:0:0:
224,112,50944,1,0,0:0:0:0:
192,304,51108,1,0,0:0:0:0:
112,112,51272,1,0,0:0:0:0:
208,240,51436,5,0,0:0:0:0:
368,144,51600,1,0,0:0:0:0:
176,112,51764,1,0,0:0:0:0:
352,272,51928,1,0,0:0:0:0:
128,64,52092,1,0,0:0:0:0:
96,224,52420,6,0,P|144:256|192:272,1,105.000004005432
416,160,52748,2,0,P|368:128|320:112,1,105.000004005432
96,160,53076,6,0,P|144:128|192:112,1,105.000004005432
416,224,53404,2,0,P|368:256|320:272,1,105.000004005432
320,48,53731,2,0,P|256:64|224:96,1,105.000004005432
128,304,54059,1,0,0:0:0:0:
192,112,54223,1,0,0:0:0:0:
323,271,54387,1,0,0:0:0:0:
416,64,54551,5,0,0:0:0:0:
416,64,54715,1,0,0:0:0:0:
256,192,54879,1,0,0:0:0:0:
416,176,55043,5,0,0:0:0:0:
416,176,55207,1,0,0:0:0:0:
256,48,55371,1,0,0:0:0:0:
256,48,55535,1,0,0:0:0:0:
416,176,55699,5,0,0:0:0:0:
416,176,55863,1,0,0:0:0:0:
256,304,56027,1,0,0:0:0:0:
256,304,56191,1,0,0:0:0:0:
192,96,56354,5,0,0:0:0:0:
192,96,56518,1,0,0:0:0:0:
352,224,56682,1,0,0:0:0:0:
352,224,56846,1,0,0:0:0:0:
224,304,57010,5,0,0:0:0:0:
80,96,57174,1,0,0:0:0:0:
80,96,57256,1,0,0:0:0:0:
80,96,57338,1,0,0:0:0:0:
336,128,57502,1,0,0:0:0:0:
224,240,57666,6,0,B|304:272|304:272|352:288,1,105.000004005432
288,144,57994,2,0,B|208:112|208:112|160:96,1,105.000004005432
432,96,58322,6,0,B|352:64|352:64|304:48,1,105.000004005432
368,192,58650,2,0,B|448:224|448:224|496:240,1,105.000004005432
224,288,58977,2,0,P|160:256|144:208,1,105.000004005432
288,48,59305,1,0,0:0:0:0:
368,192,59469,1,0,0:0:0:0:
144,224,59633,1,0,0:0:0:0:
304,304,59797,5,0,0:0:0:0:
304,304,59961,1,0,0:0:0:0:
192,80,60125,1,0,0:0:0:0:
192,80,60289,1,0,0:0:0:0:
304,80,60453,5,0,0:0:0:0:
304,80,60617,1,0,0:0:0:0:
192,304,60781,1,0,0:0:0:0:
192,304,60945,1,0,0:0:0:0:
160,144,61108,5,0,0:0:0:0:
160,144,61272,1,0,0:0:0:0:
386,251,61436,1,0,0:0:0:0:
386,251,61600,1,0,0:0:0:0:
224,96,61764,1,0,0:0:0:0:
224,96,61928,1,0,0:0:0:0:
384,144,62092,5,0,0:0:0:0:
176,320,62256,1,0,0:0:0:0:
224,96,62420,1,0,0:0:0:0:
224,96,62502,1,0,0:0:0:0:
224,96,62584,1,0,0:0:0:0:
384,304,62748,1,0,0:0:0:0:
96,160,62912,6,0,P|112:80|128:64,1,105.000004005432
416,224,63240,2,0,P|414:275|385:318,1,105.000004005432
128,64,63567,1,0,0:0:0:0:
384,320,63731,1,0,0:0:0:0:
320,64,63895,1,0,0:0:0:0:
123,288,64059,5,0,0:0:0:0:
195,83,64223,1,0,0:0:0:0:
388,288,64387,5,0,0:0:0:0:
176,48,64551,1,0,0:0:0:0:
80,320,64715,5,0,0:0:0:0:
315,83,64879,1,0,0:0:0:0:
432,320,65043,5,0,0:0:0:0:
336,48,65207,1,0,0:0:0:0:
48,240,65371,5,0,0:0:0:0:
240,48,65535,1,0,0:0:0:0:
112,304,65699,5,0,0:0:0:0:
304,112,65863,1,0,0:0:0:0:
192,352,66026,5,0,0:0:0:0:
384,160,66190,1,0,0:0:0:0:
400,304,66354,5,0,0:0:0:0:
208,112,66518,1,0,0:0:0:0:
320,352,66681,5,0,0:0:0:0:
128,160,66845,1,0,0:0:0:0:
240,32,67010,5,0,0:0:0:0:
112,336,67174,1,0,0:0:0:0:
272,32,67338,5,0,0:0:0:0:
400,336,67502,1,0,0:0:0:0:
256,32,67666,5,0,0:0:0:0:
256,336,67830,1,0,0:0:0:0:
256,336,67912,1,0,0:0:0:0:
256,336,67994,1,0,0:0:0:0:
80,192,68158,6,0,P|64:128|96:80,1,105.000004005432
432,192,68485,2,0,P|448:256|416:304,1,105.000004005432
256,47,68813,6,0,P|203:34|164:60,1,105.000004005432
256,336,69140,2,0,P|308:349|347:323,1,105.000004005432
106,71,69469,5,0,0:0:0:0:
346,319,69633,1,0,0:0:0:0:
288,64,69797,5,0,0:0:0:0:
40,304,69961,1,0,0:0:0:0:
288,336,70125,5,0,0:0:0:0:
48,88,70289,1,0,0:0:0:0:
128,288,70453,5,0,0:0:0:0:
376,48,70617,1,0,0:0:0:0:
160,48,70781,5,0,0:0:0:0:
400,296,70945,1,0,0:0:0:0:
320,64,71108,5,0,0:0:0:0:
72,304,71272,1,0,0:0:0:0:
160,64,71436,5,0,0:0:0:0:
400,296,71600,1,0,0:0:0:0:
176,320,71764,5,0,0:0:0:0:
400,80,71928,1,0,0:0:0:0:
464,304,72092,5,0,0:0:0:0:
224,56,72256,1,0,0:0:0:0:
288,304,72420,5,0,0:0:0:0:
48,56,72584,1,0,0:0:0:0:
288,48,72748,5,0,0:0:0:0:
80,336,72912,1,0,0:0:0:0:
80,336,72994,1,0,0:0:0:0:
80,336,73076,1,0,0:0:0:0:
384,64,73240,1,0,0:0:0:0:
416,208,73404,6,0,P|368:256|320:304,1,105.000004005432
128,272,73731,2,0,P|176:224|224:176,1,105.000004005432
208,48,74059,6,0,P|181:74|133:122,1,105.000004005432
347,132,74386,2,0,P|373:105|421:57,1,105.000004005432
352,256,74715,5,0,0:0:0:0:
144,48,74879,1,0,0:0:0:0:
96,336,75043,5,0,0:0:0:0:
304,96,75207,1,0,0:0:0:0:
256,336,75371,5,0,0:0:0:0:
464,128,75535,1,0,0:0:0:0:
176,80,75699,5,0,0:0:0:0:
416,288,75863,1,0,0:0:0:0:
128,320,76026,5,0,0:0:0:0:
336,80,76190,1,0,0:0:0:0:
64,48,76354,5,0,0:0:0:0:
304,256,76518,1,0,0:0:0:0:
64,272,76682,5,0,0:0:0:0:
272,32,76846,1,0,0:0:0:0:
240,304,77010,5,0,0:0:0:0:
448,64,77174,1,0,0:0:0:0:
192,48,77338,5,0,0:0:0:0:
432,256,77502,1,0,0:0:0:0:
320,96,77666,5,0,0:0:0:0:
112,336,77830,1,0,0:0:0:0:
96,80,77994,5,0,0:0:0:0:
400,320,78158,1,0,0:0:0:0:
400,320,78240,1,0,0:0:0:0:
400,320,78322,1,0,0:0:0:0:
96,80,78485,1,0,0:0:0:0:
304,64,78649,6,0,P|368:96|400:128,1,105.000004005432
128,240,78977,2,0,P|160:304|192:336,1,105.000004005432
368,32,79305,6,0,P|432:64|464:96,1,105.000004005432
192,208,79633,2,0,P|224:272|256:304,1,105.000004005432
448,208,79961,5,0,0:0:0:0:
112,80,80125,1,0,0:0:0:0:
400,32,80289,5,0,0:0:0:0:
192,352,80453,1,0,0:0:0:0:
48,176,80617,5,0,0:0:0:0:
384,304,80781,1,0,0:0:0:0:
96,352,80945,5,0,0:0:0:0:
304,32,81109,1,0,0:0:0:0:
400,256,81272,5,0,0:0:0:0:
80,48,81436,1,0,0:0:0:0:
32,352,81600,5,0,0:0:0:0:
240,32,81764,1,0,0:0:0:0:
384,352,81928,5,0,0:0:0:0:
64,144,82092,1,0,0:0:0:0:
384,32,82256,5,0,0:0:0:0:
176,352,82420,1,0,0:0:0:0:
176,352,82502,1,0,0:0:0:0:
176,352,82584,1,0,0:0:0:0:
240,32,82748,1,0,0:0:0:0:
144,272,82912,6,0,P|96:240|80:192,1,105.000004005432
165,95,83240,2,0,P|197:47|245:31,1,105.000004005432
368,112,83567,2,0,P|416:144|432:192,1,105.000004005432
347,289,83895,2,0,P|315:337|267:353,1,105.000004005432
112,272,84223,1,0,0:0:0:0:
288,64,84442,2,0,P|208:80|128:64,1,140.000005340576
48,336,84879,5,0,0:0:0:0:
144,48,85043,1,0,0:0:0:0:
160,336,85207,5,0,0:0:0:0:
256,48,85371,1,0,0:0:0:0:
272,336,85535,5,0,0:0:0:0:
368,48,85699,1,0,0:0:0:0:
144,48,85863,5,0,0:0:0:0:
240,336,86027,1,0,0:0:0:0:
256,48,86191,5,0,0:0:0:0:
352,336,86355,1,0,0:0:0:0:
368,48,86519,5,0,0:0:0:0:
464,336,86683,1,0,0:0:0:0:
160,224,86846,1,0,0:0:0:0:
160,224,86928,1,0,0:0:0:0:
160,224,87010,1,0,0:0:0:0:
416,48,87174,1,0,0:0:0:0:
32,272,87338,1,0,0:0:0:0:
