osu file format v14

[General]
AudioFilename: audio.mp3
AudioLeadIn: 0
PreviewTime: 67385
Countdown: 1
SampleSet: Soft
StackLeniency: 0.7
Mode: 0
LetterboxInBreaks: 0
WidescreenStoryboard: 0

[Editor]
DistanceSpacing: 0.9
BeatDivisor: 4
GridSize: 8
TimelineZoom: 2.699999

[Metadata]
Title:Blue Bird (TV Size)
TitleUnicode:Blue Bird (TV Size)
Artist:Kobukuro
ArtistUnicode:Kobukuro
Creator:fartownik
Version:Hard
Source:Bakuman.
Tags:
BeatmapID:1575678
BeatmapSetID:747848

[Difficulty]
HPDrainRate:5
CircleSize:4
OverallDifficulty:7
ApproachRate:8
SliderMultiplier:2.2
SliderTickRate:1

[Events]
//Background and Video events
0,0,"Blue_Bird.png",0,0
//Break Periods
//Storyboard Layer 0 (Background)
//Storyboard Layer 1 (Fail)
//Storyboard Layer 2 (Pass)
//Storyboard Layer 3 (Foreground)
//Storyboard Sound Samples

[TimingPoints]
134,532.833333333333,4,2,1,30,1,0
6533,533.333333333333,4,2,1,30,1,0
7466,-133.333333333333,4,2,1,30,0,0
10799,-100,4,2,1,30,0,0
11466,-133.333333333333,4,2,1,30,0,0
14932,-100,4,2,1,30,0,0
15732,-133.333333333333,4,2,1,30,0,0
17199,-100,4,2,1,30,0,0
17999,-133.333333333333,4,2,1,30,0,0
22399,-100,4,2,1,30,0,0
23599,531.914893617021,4,2,1,30,1,0
30314,-83.3333333333333,4,2,1,30,0,0
30513,-71.4285714285714,4,2,1,30,0,0
31311,-62.5,4,2,1,30,0,0
31577,-55.5555555555556,4,2,1,30,0,0
32102,530.073755535872,4,2,1,30,1,0
32234,-133.333333333333,4,2,1,30,0,0
49067,530.97922020381,4,2,1,30,1,0
49067,-200,4,2,1,30,0,0
61810,-100,4,2,1,30,0,0
65925,-80,4,2,1,30,0,0
67385,-100,4,2,1,30,0,0
68182,-100,4,2,1,30,0,1
69244,-133.333333333333,4,2,1,30,0,1
85173,-200,4,2,1,30,0,0
89421,-66.6666666666667,4,2,1,30,0,0

[HitObjects]
96,112,134,6,0,P|160:80|256:104,1,165,2|0,0:0|0:0,0:0:0:0:
392,40,933,2,0,L|384:160,1,110,2|0,0:0|0:0,0:0:0:0:
424,232,1332,1,2,0:0:0:0:
424,232,1732,2,0,P|376:264|312:256,1,110,2|0,0:0|0:0,0:0:0:0:
384,96,2265,6,0,L|448:88,2,55,2|0|0,0:0|0:0|0:0,0:0:0:0:
328,152,2664,2,0,P|304:104|320:40,1,110,2|0,0:0|0:0,0:0:0:0:
232,16,3064,2,0,B|168:40|120:24|72:56,1,165,2|0,0:0|0:0,0:0:0:0:
136,128,3597,2,0,P|144:176|144:192,1,55,2|0,0:0|0:0,0:0:0:0:
80,264,3863,2,0,P|128:272|184:312,1,110,2|0,0:0|0:0,0:0:0:0:
264,280,4263,1,0,0:0:0:0:
264,280,4396,6,0,L|272:344,2,55,2|0|0,0:0|0:0|0:0,0:0:0:0:
208,224,4796,2,0,P|256:200|320:216,1,110,2|0,0:0|0:0,0:0:0:0:
168,136,5195,2,0,P|120:112|56:128,1,110,2|0,0:0|0:0,0:0:0:0:
24,200,5595,1,2,0:0:0:0:
24,200,5728,2,0,L|32:264,1,55
72,320,5995,2,0,B|120:304|136:344|192:328,1,110,2|0,0:0|0:0,0:0:0:0:
288,336,6394,2,0,L|280:304,1,27.5,2|0,0:0|0:0,0:0:0:0:
312,272,6533,6,0,P|224:272|152:168,1,220,6|0,0:0|0:0,0:0:0:0:
192,72,7333,1,0,0:0:0:0:
440,64,7599,22,0,P|448:120|472:192,2,123.750004720688,2|0|0,0:0|0:0|0:0,0:0:0:0:
96,216,8666,2,0,P|88:272|64:344,2,123.750004720688,2|0|0,0:0|0:0|0:0,0:0:0:0:
112,32,9732,2,0,P|144:88|240:120,1,165.000006294251,2|0,0:0|0:0,0:0:0:0:
235,120,10532,2,0,L|227:168,1,41.2500015735627
200,280,10799,6,0,B|288:264|320:312|432:304,1,220,4|0,0:0|0:0,0:0:0:0:
376,168,11599,1,0,0:0:0:0:
88,80,11866,22,0,P|80:136|56:208,2,123.750004720688,2|0|0,0:0|0:0|0:0,0:0:0:0:
432,232,12932,2,0,P|440:288|464:360,2,123.750004720688,2|0|0,0:0|0:0|0:0,0:0:0:0:
464,72,13999,2,0,P|424:112|312:112,1,165.000006294251,2|0,0:0|0:0,0:0:0:0:
320,116,15066,6,0,P|256:120|232:256,1,220,4|2,0:0|0:0,0:0:0:0:
328,312,15866,1,0,0:0:0:0:
112,280,16132,6,0,P|72:288|32:304,1,82.5000031471254
328,104,16666,2,0,P|368:112|408:128,1,82.5000031471254,2|0,0:0|0:0,0:0:0:0:
456,216,17066,1,0,0:0:0:0:
456,216,17199,6,0,P|448:280|352:328,1,165,4|0,0:0|0:0,0:0:0:0:
328,320,17732,1,2,0:0:0:0:
112,112,17999,6,0,P|128:176|224:232,1,165.000006294251
352,152,18799,1,2,0:0:0:0:
112,288,19066,6,0,P|120:336|128:368,2,82.5000031471254,0|6|0,0:0|0:0|0:0,0:0:0:0:
128,128,19866,1,2,0:0:0:0:
336,72,20132,2,0,P|376:80|424:80,1,82.5000031471254,2|2,0:0|0:0,0:0:0:0:
417,80,20932,1,2,0:0:0:0:
248,16,21199,6,0,P|232:72|288:168,1,165.000006294251,2|2,0:0|0:0,0:0:0:0:
440,216,21999,2,0,P|432:264|432:304,1,82.5000031471254,0|2,0:0|0:0,0:0:0:0:
176,312,22532,6,0,P|184:272|168:200,1,110,2|0,0:0|0:0,0:0:0:0:
117,137,22932,1,0,0:0:0:0:
117,137,23066,5,8,3:0:0:0:
88,216,23199,1,8,3:0:0:0:
170,205,23332,2,8,P|224:208|248:216,1,55,8|0,3:0|0:0,3:0:0:0:
304,256,23599,6,0,P|312:192|288:144,1,110,6|0,0:2|0:0,0:0:0:0:
304,264,24130,2,0,P|336:208|333:154,1,110,2|0,0:2|0:0,0:0:0:0:
300,271,24662,2,0,P|333:252|350:235,1,55,2|0,0:0|0:0,0:0:0:0:
292,276,24928,2,0,P|354:259|390:218,1,110,2|0,0:2|0:0,0:0:0:0:
284,280,25460,2,0,P|347:289|396:266,1,110,2|0,0:2|0:0,0:0:0:0:
272,360,25992,6,0,P|239:341|222:324,1,55,2|0,0:0|0:0,0:0:0:0:
272,368,26258,2,0,P|209:351|173:310,1,110,2|0,0:2|0:0,0:0:0:0:
277,376,26790,2,0,P|212:385|163:363,1,110,2|2,0:2|0:0,0:0:0:0:
144,248,27189,1,0,0:0:0:0:
144,248,27322,2,0,L|152:192,1,55,2|0,0:0|0:0,0:0:0:0:
162,116,27588,1,2,0:0:0:0:
376,72,27854,6,0,P|384:136|360:184,1,110,6|0,0:2|0:0,0:0:0:0:
376,64,28386,2,0,P|408:119|405:173,1,110,2|0,0:2|0:0,0:0:0:0:
368,59,28918,2,0,P|401:78|418:95,1,55,2|0,0:0|0:0,0:0:0:0:
358,54,29184,2,0,P|419:69|456:108,1,110,2|0,0:2|0:0,0:0:0:0:
351,50,29716,2,0,P|383:44|419:47,1,55,2|0,0:2|0:0,0:0:0:0:
272,96,29981,6,0,P|216:104|192:128,1,82.5,6|0,0:0|0:0,0:0:0:0:
197,119,30247,6,0,P|237:126|280:160,1,82.5,2|0,0:0|0:0,0:0:0:0:
271,149,30513,6,0,P|232:160|192:192,2,76.9999976501466,8|8|8,3:0|3:0|3:0,0:0:0:0:
104,256,31045,6,0,P|152:256|224:288,1,115.49999647522,6|0,0:0|0:0,0:0:0:0:
214,280,31311,6,0,P|166:280|88:328,1,132,2|0,0:0|0:0,0:0:0:0:
94,320,31577,6,0,P|160:328|224:384,1,148.49999546814,8|0,3:0|0:0,0:0:0:0:
221,379,31843,6,0,L|213:267,2,98.9999969787599,8|8|4,3:0|3:0|1:2,0:0:0:0:
408,320,32367,5,2,0:0:0:0:
208,200,32632,2,0,P|168:216|136:256,2,82.5000031471254,2|0|2,0:0|0:0|0:0,0:0:0:0:
320,160,33427,1,2,0:0:0:0:
176,80,33692,2,0,P|136:72|96:48,1,82.5000031471254,2|0,0:0|0:0,0:0:0:0:
48,120,34089,1,0,0:0:0:0:
48,120,34222,6,0,L|64:248,1,123.750004720688,2|0,0:0|0:0,0:0:0:0:
56,272,34752,1,2,0:0:0:0:
256,168,35017,2,0,L|240:336,1,165.000006294251,2|0,0:0|0:0,0:0:0:0:
384,280,35812,2,0,L|344:288,1,41.2500015735627,2|0,0:0|0:0,0:0:0:0:
392,264,36077,2,0,L|440:272,1,41.2500015735627,2|0,0:0|0:0,0:0:0:0:
384,248,36342,6,0,P|368:200|392:120,1,123.750004720688,6|0,0:0|0:0,0:0:0:0:
408,112,36872,1,2,0:0:0:0:
128,96,37137,2,0,P|184:88|264:160,1,165.000006294251,2|2,0:0|0:0,0:0:0:0:
296,264,37932,1,2,0:0:0:0:
80,264,38197,6,0,P|88:312|104:344,1,82.5000031471254,2|0,0:0|0:0,0:0:0:0:
102,342,38727,1,2,0:0:0:0:
185,159,38992,2,0,P|177:199|73:263,1,165.000006294251,2|0,0:0|0:0,0:0:0:0:
56,128,39788,1,0,0:0:0:0:
240,48,40053,2,0,L|336:56,1,82.5000031471254,2|2,0:0|0:0,0:0:0:0:
408,32,40450,1,0,0:0:0:0:
408,32,40583,6,0,L|416:160,1,123.750004720688,2|0,0:0|0:0,0:0:0:0:
432,184,41113,1,2,0:0:0:0:
240,184,41378,2,0,P|192:200|128:304,1,165.000006294251,2|2,0:0|0:0,0:0:0:0:
272,368,42173,1,2,0:0:0:0:
136,120,42438,6,0,P|112:80|88:48,2,82.5000031471254,0|2|2,0:0|0:0|0:0,0:0:0:0:
128,296,43233,1,2,0:0:0:0:
280,88,43498,2,0,P|328:104|392:208,1,165.000006294251,2|2,0:0|0:0,0:0:0:0:
424,272,44161,1,0,0:0:0:0:
424,272,44293,2,0,P|384:280|344:320,1,82.5000031471254,2|2,0:0|0:0,0:0:0:0:
184,336,44823,6,0,P|152:288|88:264,1,123.750004720688,2|0,0:0|0:0,0:0:0:0:
64,272,45353,1,2,0:0:0:0:
136,24,45618,2,0,L|160:200,1,165.000006294251,2|2,0:0|0:0,0:0:0:0:
328,96,46413,2,0,P|376:104|416:128,1,82.5000031471254,2|2,0:0|0:0,0:0:0:0:
456,192,46811,1,0,0:0:0:0:
456,192,46944,6,0,L|448:248,1,41.2500015735627,2|0,0:0|0:0,0:0:0:0:
344,240,47209,2,0,L|336:288,1,41.2500015735627,2|0,0:0|0:0,0:0:0:0:
232,336,47474,1,8,3:0:0:0:
232,336,47739,2,0,P|184:336|96:256,1,165.000006294251,8|8,3:0|3:0,0:0:0:0:
112,48,48534,1,8,3:0:0:0:
112,48,49067,6,0,P|96:96|224:184,1,220,4|0,0:0|0:0,0:0:0:0:
288,136,50394,1,0,0:0:0:0:
288,224,50659,2,0,P|296:256|304:280,1,55,2|0,0:0|0:0,0:0:0:0:
360,80,51190,6,0,P|328:56|248:64,1,110,6|2,0:0|0:0,0:0:0:0:
64,288,51987,2,0,P|102:298|173:260,1,110
208,184,52783,2,0,P|200:152|200:120,1,55,2|0,0:0|0:0,0:0:0:0:
288,248,53182,1,0,0:0:0:0:
288,248,53314,6,0,P|344:240|408:272,1,110,6|2,0:0|0:0,0:0:0:0:
448,328,54111,1,0,0:0:0:0:
424,176,54376,2,0,P|416:144|416:120,1,55,2|0,0:0|0:0,0:0:0:0:
288,248,54907,2,0,P|296:280|296:304,1,55,2|0,0:0|0:0,0:0:0:0:
112,296,55438,5,6,0:0:0:0:
72,152,55704,2,0,P|104:152|128:144,1,55,2|0,0:0|0:0,0:0:0:0:
184,80,56235,2,0,P|208:120|192:200,1,110
136,240,57031,2,0,L|144:304,1,55,2|0,0:0|0:0,0:0:0:0:
152,376,57429,1,0,0:0:0:0:
152,376,57562,6,0,P|184:368|208:368,2,55,6|0|2,0:0|0:0|0:0,0:0:0:0:
272,304,58359,2,0,B|328:288|368:328|440:304,1,165,2|2,0:0|0:0,0:0:0:0:
224,192,59421,2,0,B|168:176|128:216|56:192,1,165,2|2,0:0|0:0,0:0:0:0:
304,152,60483,2,0,P|312:200|288:264,1,110,2|2,0:0|0:0,0:0:0:0:
120,280,61279,5,8,3:0:0:0:
168,40,61545,1,8,3:0:0:0:
176,80,61677,1,8,3:0:0:0:
184,120,61810,6,0,P|240:104|304:112,1,110,6|0,0:0|0:0,0:0:0:0:
440,160,62341,1,2,0:0:0:0:
344,344,62606,2,0,P|280:352|192:296,1,165
184,264,63137,1,0,0:0:0:0:
344,224,63403,1,2,0:0:0:0:
64,232,63668,2,0,L|72:176,1,55,2|0,0:0|0:0,0:0:0:0:
88,96,63934,6,0,B|152:72|192:128|280:104,1,165,6|0,0:0|0:0,0:0:0:0:
288,96,64465,1,2,0:0:0:0:
440,192,64730,2,0,P|376:200|304:336,1,220,2|0,0:0|0:0,0:0:0:0:
440,344,65527,1,2,0:0:0:0:
408,88,65792,1,0,0:0:0:0:
208,224,66058,6,0,P|144:240|112:240,1,68.75,6|0,0:0|0:0,0:0:0:0:
48,200,66323,5,8,3:0:0:0:
216,80,66589,1,8,3:0:0:0:
248,320,66854,5,2,0:0:0:0:
258,258,66987,1,0,0:0:0:0:
269,197,67120,1,2,0:0:0:0:
278,135,67253,1,0,0:0:0:0:
289,74,67385,6,0,L|300:13,1,55,8|8,3:0|3:0,0:0:0:0:
496,152,67651,2,0,B|448:136|440:168|376:152,1,110,8|8,3:0|3:0,0:0:0:0:
424,256,68049,1,0,0:0:0:0:
176,320,68182,5,4,1:3:0:0:
176,320,68978,1,0,0:0:0:0:
144,80,69244,6,0,P|96:88|32:128,2,123.750004720688,2|2|0,0:0|0:0|0:0,0:0:0:0:
360,216,70306,2,0,P|408:224|472:264,2,123.750004720688,2|2|2,0:0|0:0|0:0,0:0:0:0:
288,272,71235,1,0,0:0:0:0:
288,272,71368,2,0,P|272:224|304:144,1,123.750004720688,2|0,0:0|0:0,0:0:0:0:
480,48,71899,2,0,P|496:96|464:176,1,123.750004720688,2|0,0:0|0:0,0:0:0:0:
216,56,72430,5,12,1:3:0:0:
216,56,73226,1,2,0:0:0:0:
80,280,73492,2,0,P|128:264|208:272,2,123.750004720688,2|2|2,0:0|0:0|0:0,0:0:0:0:
448,168,74554,2,0,P|400:152|320:160,2,123.750004720688,2|2|2,0:0|0:0|0:0,0:0:0:0:
472,256,75483,1,0,0:0:0:0:
472,256,75615,6,0,P|448:304|384:336,1,123.750004720688,2|0,0:0|0:0,0:0:0:0:
232,152,76146,2,0,P|256:104|320:72,1,123.750004720688,2|0,0:0|0:0,0:0:0:0:
272,312,76677,5,12,1:3:0:0:
272,312,77474,1,0,0:0:0:0:
136,224,77739,2,0,P|88:232|56:240,1,82.5000031471254,2|0,0:0|0:0,0:0:0:0:
352,104,78270,2,0,P|400:112|432:120,1,82.5000031471254,2|0,0:0|0:0,0:0:0:0:
272,160,78669,1,0,0:0:0:0:
224,24,78801,5,12,1:3:0:0:
224,24,79598,1,2,0:0:0:0:
88,168,79863,2,0,P|96:216|104:256,1,82.5000031471254,2|0,0:0|0:0,0:0:0:0:
120,328,80262,1,0,0:0:0:0:
120,328,80394,2,0,L|168:328,1,41.2500015735627,2|2,0:0|0:0,0:0:0:0:
248,328,80660,1,2,0:0:0:0:
416,200,80925,5,12,1:3:0:0:
264,104,81191,2,0,P|208:112|176:112,2,82.5000031471254,0|2|0,0:0|0:0|0:0,0:0:0:0:
384,24,81854,2,0,L|376:56,1,20.6250007867813
360,128,81987,5,12,1:3:0:0:
360,128,82518,1,2,0:0:0:0:
104,88,82784,2,0,L|112:128,1,41.2500015735627
144,288,83049,5,12,1:3:0:0:
304,256,83315,2,0,P|360:264|392:264,2,82.5000031471254,2|2|2,0:0|0:0|0:0,0:0:0:0:
208,192,84111,5,4,1:3:0:0:
320,368,84377,1,8,3:0:0:0:
472,200,84642,1,8,3:0:0:0:
408,176,84775,1,8,3:0:0:0:
344,152,84908,1,8,3:0:0:0:
104,152,85173,6,0,B|2:145|9:263|78:304|209:326|209:326|284:216|303:138|223:51|153:133,1,660,2|0,0:0|0:0,0:0:0:0:
156,129,89023,6,0,P|172:105|188:57,1,55,2|0,0:0|0:0,0:0:0:0:
96,200,89554,6,0,P|136:272|216:312,1,165.000006294251,2|0,0:0|0:0,0:0:0:0:
