osu file format v14

[General]
AudioFilename: audio.mp3
AudioLeadIn: 0
PreviewTime: 70142
Countdown: 0
SampleSet: Soft
StackLeniency: 0.7
Mode: 3
LetterboxInBreaks: 0
SpecialStyle: 0
WidescreenStoryboard: 1

[Editor]
DistanceSpacing: 0.8
BeatDivisor: 4
GridSize: 32
TimelineZoom: 1.199999

[Metadata]
Title:Mantra Hujan
TitleUnicode:Mantra Hujan
Artist:Kobo Kanaeru
ArtistUnicode:こぼ・かなえる
Creator:Slowpoke104
Version:Kobokan
Source:
Tags:kobokan Aeru holoID holoID03 holo ID hololive Indonesia hololive-ID 3rd generation COVER Matalino Musicworks hito:re β-Carotene B-Carotene VTuber virtual youtuber V Tuber バーチャルyoutuber pop indonesian other female vocalist vocals Mirsaaa
BeatmapID:3772173
BeatmapSetID:1735240

[Difficulty]
HPDrainRate:8
CircleSize:4
OverallDifficulty:8
ApproachRate:5
SliderMultiplier:1.4
SliderTickRate:1

[Events]
//Background and Video events
0,0,"Fex3b6YaAAAo0Oo.jpg",0,0
//Break Periods
//Storyboard Layer 0 (Background)
//Storyboard Layer 1 (Fail)
//Storyboard Layer 2 (Pass)
//Storyboard Layer 3 (Foreground)
//Storyboard Layer 4 (Overlay)
//Storyboard Sound Samples
Sample,6912,0,"C6H.wav",20
Sample,7287,0,"B5H.wav",20
Sample,7475,0,"A#5H_Bb5H.wav",20
Sample,7662,0,"B5H.wav",20
Sample,21162,0,"D6H.wav",20
Sample,21912,0,"D6H.wav",20
Sample,22662,0,"C6H.wav",20
Sample,23412,0,"F6H.wav",20
Sample,24162,0,"D#6H_Eb6H.wav",20

[TimingPoints]
2600,375.0,4,2,1,40,1,0
70100,-100.0,4,2,1,40,0,1
96725,-100.0,4,2,1,40,0,0

[HitObjects]
64,192,2600,128,0,3162:0:0:0:20:B5H.wav
448,192,2600,1,0,0:0:0:20:D6H.wav
192,192,2787,1,0,0:0:0:20:E6H.wav
320,192,2975,1,0,0:0:0:20:F#6H_Gb6H.wav
192,192,3162,1,0,0:0:0:20:G5H.wav
448,192,3162,128,0,3912:0:0:0:20:G6H.wav
64,192,3537,1,0,0:0:0:20:A6H.wav
320,192,3725,1,0,0:0:0:20:B6H.wav
64,192,3912,1,0,0:0:0:20:E6H.wav
192,192,3912,128,0,4662:0:0:0:20:A6H.wav
448,192,4287,1,0,0:0:0:20:D7H.wav
320,192,4475,1,0,0:0:0:20:C#7H_Db7H.wav
64,192,4662,1,0,0:0:0:20:F#6H_Gb6H.wav
448,192,4662,128,0,5412:0:0:0:20:D7H.wav
192,192,5412,1,0,0:0:0:20:B6H.wav
320,192,5506,1,0,0:0:0:20:C#7H_Db7H.wav
64,192,5600,128,0,6162:0:0:0:20:G6H.wav
448,192,5600,1,0,0:0:0:20:D7H.wav
192,192,5787,1,0,0:0:0:20:C#7H_Db7H.wav
320,192,5975,1,0,0:0:0:20:A6H.wav
192,192,6162,128,0,6912:0:0:0:20:G5H.wav
448,192,6162,128,0,6537:0:0:0:20:E6H.wav
320,192,6537,128,0,6912:0:0:0:20:D6H.wav
448,192,6912,128,0,7475:0:0:0:20:G5H.wav
64,192,7287,128,0,7662:0:0:0:20:F#5H_Gb5H.wav
320,192,7475,128,0,8131:0:0:0:10:A#4H_Bb4H.wav
192,192,7662,128,0,8225:0:0:0:10:B4H.wav
320,192,8225,128,0,8318:0:0:0:0:
192,192,8318,128,0,8412:0:0:0:0:
320,192,8412,128,0,8506:0:0:0:0:
192,192,8506,128,0,8600:0:0:0:0:
64,192,8600,1,2,0:0:0:0:
320,192,8600,1,4,0:0:0:0:
448,192,8600,1,0,0:0:0:0:
64,192,8975,1,8,0:0:0:0:
448,192,8975,128,0,9350:0:0:0:0:
320,192,9162,128,0,9350:0:0:0:0:
192,192,9256,1,8,0:0:0:0:
64,192,9350,128,0,9443:0:0:0:0:
192,192,9443,1,8,0:0:0:0:
320,192,9537,1,2,0:0:0:0:
448,192,9537,1,0,0:0:0:0:
64,192,9725,1,8,0:0:0:0:
192,192,9725,1,0,0:0:0:0:
320,192,9912,1,0,0:0:0:0:
448,192,9912,128,0,10100:0:0:0:0:
64,192,10006,1,8,0:0:0:0:
192,192,10100,1,2,0:0:0:0:
320,192,10100,1,0,0:0:0:0:
192,192,10287,128,0,10475:0:0:0:0:
64,192,10475,1,8,0:0:0:0:
320,192,10475,128,0,10662:0:0:0:0:
448,192,10662,128,0,10850:0:0:0:0:
64,192,10756,1,8,0:0:0:0:
192,192,10850,1,0,0:0:0:0:
320,192,10943,1,8,0:0:0:0:
192,192,11037,128,2,11506:0:0:0:0:
448,192,11037,1,0,0:0:0:0:
64,192,11225,128,8,11506:0:0:0:0:
320,192,11225,1,0,0:0:0:0:
448,192,11506,1,8,0:0:0:0:
320,192,11553,1,8,0:0:0:0:
64,192,11600,1,2,0:0:0:0:
192,192,11600,1,0,0:0:0:0:
192,192,11787,1,8,0:0:0:0:
448,192,11787,128,0,11975:0:0:0:0:
64,192,11975,128,8,12068:0:0:0:0:
320,192,11975,1,0,0:0:0:0:
448,192,12162,128,0,12350:0:0:0:0:
320,192,12350,1,0,0:0:0:0:
64,192,12537,1,8,0:0:0:0:
192,192,12537,1,0,0:0:0:0:
320,192,12631,1,8,0:0:0:0:
448,192,12631,1,0,0:0:0:0:
64,192,12725,1,8,0:0:0:0:
192,192,12725,1,0,0:0:0:0:
320,192,12818,1,0,0:0:0:0:
64,192,12912,1,2,0:0:0:0:
192,192,12912,128,0,13100:0:0:0:0:
320,192,13100,1,8,0:0:0:0:
448,192,13100,1,0,0:0:0:0:
64,192,13287,1,2,0:0:0:0:
448,192,13287,128,0,13475:0:0:0:0:
448,192,13662,128,0,14037:0:0:0:0:
64,192,14037,128,0,14412:0:0:0:0:
192,192,14225,128,8,14412:0:0:0:0:
320,192,14225,1,0,0:0:0:0:
320,192,14412,1,2,0:0:0:0:
448,192,14412,1,8,0:0:0:0:
64,192,14600,1,2,0:0:0:0:
192,192,14600,1,0,0:0:0:0:
192,192,14787,128,0,14881:0:0:0:0:
64,192,14975,1,8,0:0:0:0:
448,192,14975,128,0,15350:0:0:0:0:
320,192,15162,128,0,15350:0:0:0:0:
64,192,15350,1,0,0:0:0:0:
192,192,15443,1,8,0:0:0:0:
320,192,15537,1,2,0:0:0:0:
448,192,15537,1,0,0:0:0:0:
64,192,15725,1,8,0:0:0:0:
192,192,15725,1,0,0:0:0:0:
448,192,15912,128,0,16100:0:0:0:0:
320,192,16006,1,8,0:0:0:0:
64,192,16100,1,2,0:0:0:0:
192,192,16100,1,0,0:0:0:0:
320,192,16287,128,0,16475:0:0:0:0:
64,192,16475,1,8,0:0:0:0:
192,192,16475,1,0,0:0:0:0:
64,192,16662,128,0,16850:0:0:0:40:tom01.wav
448,192,16662,1,0,0:0:0:0:
320,192,16850,128,0,17037:0:0:0:0:
192,192,17037,1,2,0:0:0:0:
448,192,17037,128,0,17225:0:0:0:0:
64,192,17225,128,8,17412:0:0:0:0:
192,192,17225,1,0,0:0:0:0:
320,192,17412,1,2,0:0:0:0:
448,192,17412,1,0,0:0:0:40:tom03.wav
64,192,17600,1,2,0:0:0:0:
192,192,17600,128,0,17787:0:0:0:0:
320,192,17787,128,0,17975:0:0:0:0:
64,192,17975,128,8,18162:0:0:0:0:
448,192,17975,1,0,0:0:0:0:
192,192,18162,128,0,18350:0:0:0:0:
448,192,18350,1,0,0:0:0:0:
64,192,18443,1,8,0:0:0:0:
192,192,18490,1,8,0:0:0:0:
320,192,18537,1,2,0:0:0:0:
448,192,18537,128,0,18725:0:0:0:0:
64,192,18725,1,8,0:0:0:0:
320,192,18725,1,0,0:0:0:0:
192,192,18912,128,2,19100:0:0:0:0:
448,192,18912,1,0,0:0:0:0:
64,192,19100,1,8,0:0:0:0:
320,192,19100,1,0,0:0:0:0:
64,192,19287,1,0,0:0:0:40:tom01.wav
320,192,19287,128,0,19475:0:0:0:0:
192,192,19475,128,0,19662:0:0:0:40:tom02.wav
448,192,19475,1,0,0:0:0:0:
64,192,19662,128,2,20037:0:0:0:0:
320,192,19662,1,4,0:0:0:0:
448,192,19662,1,0,0:0:0:40:tom03.wav
192,192,20037,1,8,0:0:0:0:
448,192,20037,128,0,20506:0:0:0:0:
320,192,20131,128,8,20506:0:0:0:0:
64,192,20225,128,2,20506:0:0:0:0:
192,192,20225,128,4,20506:0:0:0:0:
192,192,20600,1,6,0:0:0:0:
320,192,20600,128,0,21912:0:0:0:20:G5H.wav
448,192,20600,128,0,20787:0:0:0:20:B6H.wav
64,192,20787,128,0,20975:0:0:0:20:C#6H_Db6H.wav
192,192,20975,128,0,21162:0:0:0:20:D6H.wav
64,192,21162,128,0,21537:0:0:0:20:A5H.wav
448,192,21537,128,0,21912:0:0:0:20:D6H.wav
64,192,21912,128,0,22287:0:0:0:20:soft-hitfinish.wav
192,192,21912,128,0,23412:0:0:0:20:A#5H_Bb5H.wav
448,192,22287,128,0,22475:0:0:0:20:E6H.wav
320,192,22475,128,0,22662:0:0:0:20:F6H.wav
448,192,22662,128,0,23037:0:0:0:20:A5H.wav
64,192,23037,128,0,23412:0:0:0:20:F6H.wav
320,192,23412,128,0,24537:0:0:0:20:soft-hitfinish.wav
448,192,23412,128,0,23787:0:0:0:20:C#6H_Db6H.wav
192,192,23787,128,0,23975:0:0:0:20:G6H.wav
64,192,23975,128,0,24162:0:0:0:20:G#6H_Ab6H.wav
448,192,24162,128,0,24537:0:0:0:20:C6H.wav
192,192,24537,128,0,24912:0:0:0:20:G#6H_Ab6H.wav
64,192,24912,1,6,0:0:0:0:
320,192,24912,1,0,0:0:0:20:D6H.wav
448,192,24912,128,0,26225:0:0:0:20:A6H.wav
64,192,25287,128,0,25475:0:0:0:20:G6H.wav
192,192,25475,128,0,25662:0:0:0:20:F#6H_Gb6H.wav
320,192,25662,128,0,25850:0:0:0:20:D6H.wav
64,192,25850,128,0,26037:0:0:0:20:A5H.wav
192,192,26037,128,0,26600:0:0:0:20:G5H.wav
320,192,26225,128,0,27256:0:0:0:20:F#5H_Gb5H.wav
64,192,26412,128,0,26600:0:0:0:20:D5H.wav
448,192,26600,128,0,27256:0:0:0:20:A4H.wav
64,192,27256,1,8,0:0:0:0:
192,192,27303,1,8,0:0:0:0:
320,192,27350,1,8,0:0:0:0:
448,192,27350,1,0,0:0:0:0:
64,192,27537,1,2,0:0:0:0:
192,192,27537,1,0,0:0:0:0:
64,192,27725,1,8,0:0:0:0:
448,192,27725,1,0,0:0:0:0:
192,192,27912,1,2,0:0:0:0:
320,192,27912,1,0,0:0:0:0:
192,192,28100,1,2,0:0:0:0:
320,192,28100,1,0,0:0:0:0:
64,192,28287,1,2,0:0:0:0:
448,192,28287,1,0,0:0:0:0:
192,192,28475,1,8,0:0:0:0:
320,192,28475,1,0,0:0:0:0:
64,192,28662,1,0,0:0:0:0:
192,192,28756,1,8,0:0:0:0:
320,192,28756,1,0,0:0:0:0:
448,192,28850,1,0,0:0:0:0:
192,192,28943,1,8,0:0:0:0:
320,192,28943,1,0,0:0:0:0:
64,192,29037,1,2,0:0:0:0:
448,192,29037,1,0,0:0:0:0:
64,192,29225,128,8,29318:0:0:0:0:
448,192,29225,1,0,0:0:0:0:
192,192,29318,128,0,29412:0:0:0:0:
320,192,29412,128,0,29506:0:0:0:0:
448,192,29506,128,8,29600:0:0:0:0:
64,192,29600,1,8,0:0:0:0:
192,192,29600,1,0,0:0:0:0:
320,192,29693,1,8,0:0:0:0:
448,192,29693,1,0,0:0:0:0:
64,192,29787,1,0,0:0:0:40:tom01.wav
192,192,29787,1,0,0:0:0:0:
320,192,29881,1,0,0:0:0:40:tom01.wav
448,192,29881,1,0,0:0:0:0:
64,192,29975,1,0,0:0:0:40:tom02.wav
192,192,29975,1,0,0:0:0:0:
320,192,30068,1,0,0:0:0:40:tom02.wav
64,192,30162,128,2,30537:0:0:0:0:
192,192,30162,128,4,30537:0:0:0:0:
448,192,30162,1,0,0:0:0:40:tom03.wav
448,192,30537,128,0,30725:0:0:0:0:
320,192,30725,128,0,30912:0:0:0:0:
192,192,30912,128,0,31100:0:0:0:0:
64,192,31100,128,2,31287:0:0:0:0:
320,192,31100,1,4,0:0:0:0:
448,192,31100,1,0,0:0:0:0:
320,192,31287,128,0,31475:0:0:0:0:
192,192,31475,1,8,0:0:0:0:
448,192,31475,128,0,31662:0:0:0:0:
64,192,31662,1,2,0:0:0:0:
192,192,31662,128,0,31850:0:0:0:0:
192,192,32225,1,8,0:0:0:0:
448,192,32225,1,0,0:0:0:0:
192,192,32412,128,0,32600:0:0:0:0:
320,192,32600,128,0,32787:0:0:0:0:
64,192,32787,128,0,32975:0:0:0:0:
192,192,32975,128,8,33162:0:0:0:0:
448,192,32975,1,0,0:0:0:0:
448,192,33162,128,0,33350:0:0:0:0:
64,192,33443,1,8,0:0:0:0:
192,192,33490,1,8,0:0:0:0:
320,192,33537,128,2,33631:0:0:0:0:
448,192,33537,1,0,0:0:0:0:
192,192,33725,128,8,33912:0:0:0:0:
448,192,33725,128,0,33818:0:0:0:0:
64,192,33912,128,8,34100:0:0:0:0:
320,192,34100,1,2,0:0:0:0:
448,192,34100,128,0,34287:0:0:0:0:
192,192,34287,128,0,34475:0:0:0:0:
64,192,34475,1,8,0:0:0:0:
320,192,34475,128,0,34662:0:0:0:0:
192,192,34662,1,2,0:0:0:0:
448,192,34662,128,0,34850:0:0:0:0:
64,192,35037,128,0,35225:0:0:0:0:
192,192,35225,1,8,0:0:0:0:
320,192,35225,1,0,0:0:0:0:
192,192,35412,128,0,35787:0:0:0:0:
448,192,35600,128,0,35787:0:0:0:0:
64,192,35881,1,8,0:0:0:0:
192,192,35928,1,8,0:0:0:0:
320,192,35975,1,8,0:0:0:0:
448,192,35975,128,0,36162:0:0:0:0:
64,192,36162,1,2,0:0:0:0:
320,192,36162,128,0,36537:0:0:0:0:
448,192,36350,1,8,0:0:0:0:
64,192,36537,1,2,0:0:0:0:
192,192,36537,128,0,36725:0:0:0:0:
320,192,36725,128,8,36912:0:0:0:0:
448,192,36725,1,0,0:0:0:0:
448,192,36912,128,0,37100:0:0:0:0:
192,192,37006,1,8,0:0:0:0:
64,192,37100,1,2,0:0:0:0:
320,192,37100,1,0,0:0:0:0:
320,192,37287,128,8,37381:0:0:0:0:
448,192,37287,1,0,0:0:0:0:
64,192,37475,1,2,0:0:0:0:
192,192,37475,128,0,37568:0:0:0:0:
64,192,37662,128,8,38037:0:0:0:0:
448,192,37662,128,0,38037:0:0:0:0:
192,192,38225,128,0,38412:0:0:0:0:
320,192,38412,128,0,38600:0:0:0:0:
64,192,38600,128,2,38975:0:0:0:0:
448,192,38600,1,0,0:0:0:0:
320,192,38787,1,8,0:0:0:0:
192,192,38975,1,8,0:0:0:0:
448,192,38975,128,0,39162:0:0:0:0:
64,192,39162,1,2,0:0:0:0:
320,192,39162,128,0,39350:0:0:0:0:
192,192,39443,1,8,0:0:0:0:
320,192,39537,1,2,0:0:0:0:
448,192,39537,1,0,0:0:0:0:
64,192,39725,1,8,0:0:0:0:
192,192,39725,1,0,0:0:0:0:
64,192,39912,128,0,40006:0:0:0:0:
192,192,40006,1,8,0:0:0:0:
320,192,40053,1,8,0:0:0:0:
64,192,40100,1,2,0:0:0:0:
448,192,40100,128,0,40381:0:0:0:0:
192,192,40475,1,8,0:0:0:0:
448,192,40475,1,0,0:0:0:0:
64,192,40662,1,2,0:0:0:0:
320,192,40662,128,0,40850:0:0:0:0:
192,192,40850,128,0,41037:0:0:0:0:
64,192,41037,1,2,0:0:0:0:
320,192,41037,128,0,41225:0:0:0:0:
64,192,41225,128,8,41412:0:0:0:0:
448,192,41225,1,0,0:0:0:0:
192,192,41412,128,8,41787:0:0:0:0:
448,192,41412,1,0,0:0:0:0:
320,192,41787,1,0,0:0:0:40:tom03.wav
448,192,41787,1,0,0:0:0:0:
192,192,41975,1,0,0:0:0:40:tom02.wav
320,192,41975,1,0,0:0:0:0:
64,192,42162,1,0,0:0:0:40:tom01.wav
192,192,42162,1,0,0:0:0:0:
320,192,42537,1,2,0:0:0:0:
448,192,42537,128,0,43006:0:0:0:0:
64,192,42725,1,8,0:0:0:0:
192,192,42725,128,0,42818:0:0:0:0:
320,192,42912,128,0,43006:0:0:0:0:
64,192,43100,128,2,43475:0:0:0:0:
192,192,43100,1,4,0:0:0:0:
448,192,43100,1,0,0:0:0:0:
320,192,43287,128,0,43475:0:0:0:0:
192,192,43475,1,8,0:0:0:0:
448,192,43475,128,0,43662:0:0:0:0:
64,192,43662,1,0,0:0:0:0:
192,192,43662,128,0,43850:0:0:0:0:
192,192,44037,1,2,0:0:0:0:
320,192,44037,1,0,0:0:0:0:
320,192,44225,1,8,0:0:0:0:
448,192,44225,1,0,0:0:0:0:
64,192,44412,128,0,44600:0:0:0:0:
320,192,44506,1,8,0:0:0:0:
192,192,44600,1,2,0:0:0:0:
448,192,44600,128,0,44787:0:0:0:0:
192,192,44787,128,0,44975:0:0:0:0:
64,192,44975,1,8,0:0:0:0:
448,192,44975,128,0,45162:0:0:0:0:
64,192,45162,128,0,45350:0:0:0:0:
192,192,45162,128,0,45350:0:0:0:0:
320,192,45350,128,0,45537:0:0:0:0:
192,192,45537,1,2,0:0:0:0:
448,192,45537,128,0,45912:0:0:0:0:
64,192,45631,1,0,0:0:0:0:
192,192,45725,1,8,0:0:0:0:
320,192,45725,1,0,0:0:0:0:
64,192,45912,1,0,0:0:0:0:
192,192,45959,1,0,0:0:0:0:
320,192,46006,1,0,0:0:0:0:
448,192,46053,1,0,0:0:0:0:
64,192,46100,1,2,0:0:0:0:
192,192,46100,128,0,46475:0:0:0:0:
64,192,46287,1,0,0:0:0:0:
320,192,46475,128,8,46850:0:0:0:0:
448,192,46475,1,0,0:0:0:0:
192,192,46662,1,0,0:0:0:0:
448,192,46662,128,0,46850:0:0:0:0:
64,192,46850,128,0,47037:0:0:0:0:
192,192,47037,1,2,0:0:0:0:
448,192,47037,128,0,47412:0:0:0:0:
64,192,47225,1,8,0:0:0:0:
320,192,47225,1,0,0:0:0:0:
192,192,47412,128,0,47787:0:0:0:0:
320,192,47506,1,8,0:0:0:0:
64,192,47600,1,2,0:0:0:0:
448,192,47600,1,0,0:0:0:0:
320,192,47787,128,0,47975:0:0:0:0:
64,192,47975,128,8,48350:0:0:0:0:
448,192,47975,1,0,0:0:0:0:
192,192,48162,128,0,48350:0:0:0:0:
448,192,48162,128,0,49100:0:0:0:0:
192,192,48537,1,2,0:0:0:0:
320,192,48537,128,0,48725:0:0:0:0:
64,192,48725,1,8,0:0:0:0:
192,192,48725,128,0,48912:0:0:0:0:
64,192,48912,128,0,49100:0:0:0:0:
192,192,49100,1,2,0:0:0:0:
320,192,49100,1,0,0:0:0:0:
320,192,49287,128,0,49475:0:0:0:0:
64,192,49475,1,8,0:0:0:0:
192,192,49475,128,0,49662:0:0:0:0:
64,192,49662,128,0,49943:0:0:0:0:
320,192,49756,1,8,0:0:0:0:
448,192,49756,1,0,0:0:0:0:
192,192,49850,1,0,0:0:0:0:
320,192,49943,1,8,0:0:0:0:
448,192,49943,1,0,0:0:0:0:
64,192,50037,1,2,0:0:0:0:
192,192,50037,128,0,50131:0:0:0:0:
320,192,50225,128,8,50318:0:0:0:0:
448,192,50225,1,0,0:0:0:0:
64,192,50412,1,0,0:0:0:0:
192,192,50459,1,0,0:0:0:0:
320,192,50506,1,0,0:0:0:0:
448,192,50553,1,0,0:0:0:0:
64,192,50600,128,2,50975:0:0:0:0:
192,192,50600,1,0,0:0:0:0:
192,192,50787,128,0,50975:0:0:0:0:
320,192,50975,128,8,51162:0:0:0:0:
448,192,50975,1,0,0:0:0:0:
448,192,51162,128,0,51350:0:0:0:0:
192,192,51256,1,8,0:0:0:0:
64,192,51350,1,0,0:0:0:0:
192,192,51443,1,8,0:0:0:0:
320,192,51537,128,2,51725:0:0:0:0:
448,192,51537,1,0,0:0:0:0:
64,192,51725,1,8,0:0:0:0:
192,192,51725,128,0,51912:0:0:0:0:
64,192,51912,128,8,52100:0:0:0:0:
448,192,51912,1,0,0:0:0:0:
320,192,52006,1,8,0:0:0:0:
192,192,52100,1,2,0:0:0:0:
448,192,52100,128,0,52475:0:0:0:0:
320,192,52287,1,0,0:0:0:0:
64,192,52475,1,8,0:0:0:0:
192,192,52475,128,0,52850:0:0:0:0:
320,192,52662,1,0,0:0:0:0:
64,192,52850,1,2,0:0:0:0:
448,192,52850,128,0,53225:0:0:0:0:
320,192,53037,128,0,53225:0:0:0:0:
64,192,53225,1,8,0:0:0:0:
192,192,53225,1,0,0:0:0:0:
64,192,53412,1,2,0:0:0:0:
192,192,53412,128,0,53693:0:0:0:0:
448,192,53412,1,0,0:0:0:0:
64,192,53787,128,0,53881:0:0:0:40:tom01.wav
448,192,53787,128,0,53881:0:0:0:0:
64,192,53975,128,0,54068:0:0:0:40:tom02.wav
448,192,53975,128,0,54068:0:0:0:0:
64,192,54162,128,2,54537:0:0:0:0:
192,192,54162,128,4,54537:0:0:0:0:
448,192,54162,128,0,54537:0:0:0:40:tom03.wav
320,192,54725,128,0,54912:0:0:0:0:
192,192,54912,128,0,55100:0:0:0:0:
64,192,55100,128,2,56037:0:0:0:0:
320,192,55100,1,4,0:0:0:0:
448,192,55100,1,0,0:0:0:0:
192,192,55287,1,0,0:0:0:0:
320,192,55475,1,0,0:0:0:0:
448,192,55662,1,0,0:0:0:0:
320,192,56037,128,0,56225:0:0:0:0:
448,192,56225,128,0,56412:0:0:0:0:
192,192,56412,128,0,56600:0:0:0:0:
64,192,56600,128,0,56975:0:0:0:0:
192,192,56975,128,0,57350:0:0:0:0:
320,192,57350,128,0,57725:0:0:0:0:
64,192,57725,128,0,57912:0:0:0:0:
192,192,57912,128,0,58100:0:0:0:0:
448,192,58100,128,0,58287:0:0:0:0:
320,192,58287,128,0,58475:0:0:0:0:
192,192,58475,128,0,58662:0:0:0:0:
64,192,58662,128,0,59037:0:0:0:0:
448,192,58662,1,0,0:0:0:0:
192,192,59037,128,0,59225:0:0:0:0:
448,192,59037,1,0,0:0:0:0:
320,192,59225,128,0,59412:0:0:0:0:
64,192,59412,1,0,0:0:0:20:soft-hitfinish.wav
448,192,59412,128,0,59600:0:0:0:0:
192,192,59787,1,0,0:0:0:0:
320,192,59975,1,0,0:0:0:0:
64,192,60162,1,0,0:0:0:20:soft-hitfinish.wav
448,192,60350,1,0,0:0:0:0:
320,192,60537,1,0,0:0:0:0:
64,192,60631,1,8,0:0:0:0:
192,192,60678,1,8,0:0:0:0:
320,192,60725,1,2,0:0:0:0:
448,192,60725,1,0,0:0:0:0:
192,192,60912,128,8,61100:0:0:0:0:
320,192,60912,1,0,0:0:0:0:
64,192,61100,1,2,0:0:0:0:
448,192,61100,128,0,61287:0:0:0:0:
64,192,61287,128,0,61475:0:0:0:0:
192,192,61475,1,8,0:0:0:0:
320,192,61475,1,0,0:0:0:0:
320,192,61662,128,2,61850:0:0:0:0:
448,192,61662,1,0,0:0:0:0:
64,192,62037,1,0,0:0:0:40:tom01.wav
192,192,62037,1,0,0:0:0:0:
320,192,62131,1,0,0:0:0:40:tom01.wav
448,192,62131,1,0,0:0:0:0:
64,192,62225,1,0,0:0:0:40:tom02.wav
192,192,62225,1,0,0:0:0:0:
320,192,62412,1,2,0:0:0:0:
448,192,62412,128,0,62787:0:0:0:0:
64,192,62787,1,8,0:0:0:0:
320,192,62787,128,0,62975:0:0:0:0:
192,192,62975,128,2,63162:0:0:0:0:
448,192,62975,1,0,0:0:0:0:
64,192,63162,128,2,63350:0:0:0:0:
320,192,63162,1,0,0:0:0:0:
64,192,63537,1,2,0:0:0:0:
448,192,63537,1,0,0:0:0:0:
192,192,63725,1,8,0:0:0:0:
320,192,63725,128,0,63912:0:0:0:0:
64,192,63912,128,2,64100:0:0:0:0:
448,192,63912,1,0,0:0:0:0:
192,192,64100,1,2,0:0:0:0:
320,192,64100,1,4,0:0:0:0:
448,192,64100,128,0,65600:0:0:0:0:
64,192,64787,1,0,0:0:0:20:tom01.wav
192,192,64850,1,0,0:0:0:40:tom01.wav
320,192,64850,1,0,0:0:0:0:
192,192,65037,1,0,0:0:0:20:tom02.wav
64,192,65100,1,0,0:0:0:40:tom02.wav
320,192,65100,1,0,0:0:0:0:
320,192,65287,1,0,0:0:0:20:tom03.wav
64,192,65350,1,0,0:0:0:40:tom03.wav
192,192,65350,1,0,0:0:0:0:
64,192,65600,1,2,0:0:0:0:
192,192,65600,1,4,0:0:0:0:
320,192,65600,1,0,0:0:0:0:
320,192,66350,1,0,0:0:0:20:soft-hitwhistle.wav
448,192,66350,1,0,0:0:0:40:tom01.wav
64,192,66475,1,0,0:0:0:20:soft-hitwhistle.wav
192,192,66475,1,0,0:0:0:40:tom01.wav
320,192,66600,1,0,0:0:0:20:soft-hitwhistle.wav
448,192,66600,1,0,0:0:0:40:tom01.wav
64,192,66725,1,0,0:0:0:20:soft-hitwhistle.wav
192,192,66725,1,0,0:0:0:40:tom02.wav
320,192,66850,1,0,0:0:0:20:soft-hitwhistle.wav
448,192,66850,1,0,0:0:0:40:tom02.wav
64,192,66975,1,0,0:0:0:20:soft-hitwhistle.wav
192,192,66975,1,0,0:0:0:40:tom03.wav
192,192,67100,128,8,67193:0:0:0:0:
320,192,67100,128,0,67193:0:0:0:40:tom02.wav
192,192,67287,128,2,67475:0:0:0:0:
320,192,67287,128,0,67475:0:0:0:20:soft-hitfinish.wav
64,192,67662,128,8,67850:0:0:0:0:
448,192,67662,128,0,67850:0:0:0:40:tom02.wav
192,192,68037,128,0,68225:0:0:0:20:soft-hitfinish.wav
320,192,68037,128,0,68225:0:0:0:40:tom02.wav
192,192,68412,128,0,68600:0:0:0:40:tom02.wav
448,192,68412,128,0,68600:0:0:0:0:
64,192,68787,128,2,68881:0:0:0:0:
448,192,68787,128,0,68881:0:0:0:0:
64,192,68975,128,2,69162:0:0:0:0:
320,192,68975,128,4,69162:0:0:0:0:
448,192,68975,128,0,69162:0:0:0:0:
192,192,69256,1,0,0:0:0:0:
64,192,69350,1,0,0:0:0:40:tom01.wav
320,192,69443,1,0,0:0:0:40:tom01.wav
448,192,69443,1,0,0:0:0:0:
64,192,69537,1,0,0:0:0:40:tom02.wav
192,192,69537,1,0,0:0:0:0:
320,192,69631,1,0,0:0:0:40:tom03.wav
448,192,69631,1,0,0:0:0:0:
64,192,69725,128,8,69818:0:0:0:0:
192,192,69725,128,0,69912:0:0:0:40:tom03.wav
320,192,69912,128,0,70006:0:0:0:0:
192,192,70006,128,0,70100:0:0:0:0:
64,192,70100,1,2,0:0:0:0:
320,192,70100,1,4,0:0:0:0:
448,192,70100,128,0,70287:0:0:0:0:
64,192,70287,128,0,70475:0:0:0:0:
192,192,70475,1,8,0:0:0:0:
320,192,70475,128,0,70662:0:0:0:0:
192,192,70662,128,2,71037:0:0:0:0:
448,192,70662,1,0,0:0:0:0:
64,192,70943,1,8,0:0:0:0:
320,192,71037,1,2,0:0:0:0:
448,192,71037,128,0,71225:0:0:0:0:
64,192,71225,128,8,71412:0:0:0:0:
192,192,71225,1,0,0:0:0:0:
320,192,71412,128,0,71787:0:0:0:0:
448,192,71412,1,0,0:0:0:0:
192,192,71506,1,8,0:0:0:0:
64,192,71600,1,2,0:0:0:0:
448,192,71600,1,0,0:0:0:0:
192,192,71787,128,0,71975:0:0:0:0:
64,192,71975,1,8,0:0:0:0:
320,192,71975,128,0,72162:0:0:0:0:
64,192,72162,128,2,72443:0:0:0:0:
448,192,72162,1,0,0:0:0:0:
320,192,72443,1,8,0:0:0:0:
192,192,72490,1,8,0:0:0:0:
64,192,72537,1,2,0:0:0:0:
448,192,72537,1,0,0:0:0:0:
64,192,72725,128,8,72912:0:0:0:0:
320,192,72725,1,0,0:0:0:0:
320,192,72912,1,2,0:0:0:0:
448,192,72912,128,0,73100:0:0:0:0:
192,192,73006,1,8,0:0:0:0:
64,192,73100,1,2,0:0:0:0:
320,192,73100,128,0,73287:0:0:0:0:
192,192,73287,128,8,73475:0:0:0:0:
448,192,73287,1,0,0:0:0:0:
64,192,73475,128,8,73662:0:0:0:0:
448,192,73475,1,0,0:0:0:0:
192,192,73662,1,2,0:0:0:0:
320,192,73662,128,0,73943:0:0:0:0:
448,192,73943,1,8,0:0:0:0:
64,192,74037,1,2,0:0:0:0:
192,192,74037,128,0,74131:0:0:0:0:
320,192,74225,128,8,74318:0:0:0:0:
448,192,74225,1,0,0:0:0:0:
64,192,74412,128,0,74506:0:0:0:0:
192,192,74506,128,8,74600:0:0:0:0:
320,192,74506,1,0,0:0:0:0:
64,192,74600,1,2,0:0:0:0:
448,192,74600,128,0,74787:0:0:0:0:
64,192,74787,128,8,74975:0:0:0:0:
192,192,74787,1,0,0:0:0:0:
320,192,74881,1,8,0:0:0:0:
192,192,74975,128,2,75162:0:0:0:0:
448,192,74975,1,0,0:0:0:0:
320,192,75162,128,8,75443:0:0:0:0:
448,192,75162,1,0,0:0:0:0:
192,192,75443,1,8,0:0:0:0:
64,192,75537,1,2,0:0:0:0:
448,192,75537,128,0,75725:0:0:0:0:
192,192,75725,1,8,0:0:0:0:
320,192,75725,1,0,0:0:0:0:
64,192,75818,1,8,0:0:0:0:
192,192,75912,1,2,0:0:0:0:
448,192,75912,128,0,76006:0:0:0:0:
320,192,76006,1,8,0:0:0:0:
64,192,76100,128,2,76287:0:0:0:0:
192,192,76100,1,0,0:0:0:0:
320,192,76287,128,0,76475:0:0:0:0:
64,192,76475,1,8,0:0:0:0:
192,192,76475,128,0,76662:0:0:0:0:
320,192,76662,128,2,77037:0:0:0:0:
448,192,76662,1,0,0:0:0:0:
192,192,76943,1,8,0:0:0:0:
64,192,77037,128,2,77225:0:0:0:0:
448,192,77037,1,0,0:0:0:0:
320,192,77225,1,8,0:0:0:0:
448,192,77225,128,0,77412:0:0:0:0:
64,192,77412,1,2,0:0:0:0:
192,192,77412,128,0,77787:0:0:0:0:
320,192,77600,1,2,0:0:0:0:
448,192,77600,1,0,0:0:0:0:
320,192,77787,128,0,77975:0:0:0:0:
64,192,77975,128,8,78162:0:0:0:0:
448,192,77975,1,0,0:0:0:0:
192,192,78162,1,2,0:0:0:0:
448,192,78162,128,0,78350:0:0:0:0:
320,192,78443,1,8,0:0:0:0:
64,192,78537,1,2,0:0:0:0:
192,192,78537,1,0,0:0:0:0:
192,192,78725,128,8,78912:0:0:0:0:
320,192,78725,1,0,0:0:0:0:
448,192,78912,128,0,79100:0:0:0:0:
64,192,79100,128,2,79287:0:0:0:0:
192,192,79100,1,0,0:0:0:0:
320,192,79287,1,8,0:0:0:0:
448,192,79287,1,0,0:0:0:0:
64,192,79381,1,8,0:0:0:0:
192,192,79381,1,0,0:0:0:0:
320,192,79475,128,8,79662:0:0:0:0:
448,192,79475,1,0,0:0:0:0:
64,192,79662,128,2,79850:0:0:0:0:
192,192,79662,1,0,0:0:0:0:
320,192,79850,1,8,0:0:0:0:
448,192,79850,128,0,80225:0:0:0:0:
64,192,80037,1,0,0:0:0:40:tom01.wav
192,192,80037,1,0,0:0:0:0:
192,192,80225,128,2,80412:0:0:0:0:
320,192,80225,1,0,0:0:0:40:tom02.wav
64,192,80412,128,2,81350:0:0:0:0:
448,192,80412,1,0,0:0:0:0:
192,192,80787,128,0,80975:0:0:0:0:
320,192,80975,128,0,81162:0:0:0:0:
448,192,81162,128,0,81256:0:0:0:0:
192,192,81256,1,8,0:0:0:0:
320,192,81303,1,8,0:0:0:0:
448,192,81350,1,8,0:0:0:0:
192,192,81443,1,8,0:0:0:0:
320,192,81537,128,2,81725:0:0:0:0:
448,192,81537,128,0,81912:0:0:0:0:
64,192,81725,128,8,81912:0:0:0:0:
192,192,81725,128,0,81818:0:0:0:0:
320,192,81818,128,0,81912:0:0:0:20:soft-hitwhistle.wav
192,192,81912,128,2,82006:0:0:0:0:
320,192,82006,128,0,82100:0:0:0:20:soft-hitwhistle.wav
64,192,82100,1,2,0:0:0:0:
192,192,82100,1,4,0:0:0:0:
448,192,82100,128,0,82287:0:0:0:0:
64,192,82287,128,0,82475:0:0:0:0:
320,192,82475,128,8,82662:0:0:0:0:
448,192,82475,1,0,0:0:0:0:
192,192,82662,128,0,83037:0:0:0:0:
64,192,82756,1,8,0:0:0:0:
448,192,82943,1,8,0:0:0:0:
64,192,83037,1,2,0:0:0:0:
320,192,83037,128,0,83225:0:0:0:0:
64,192,83225,128,8,83412:0:0:0:0:
448,192,83225,1,0,0:0:0:0:
448,192,83412,128,0,83600:0:0:0:0:
320,192,83506,1,0,0:0:0:0:
64,192,83600,1,2,0:0:0:0:
192,192,83600,1,0,0:0:0:0:
192,192,83787,128,0,83975:0:0:0:0:
64,192,83975,1,8,0:0:0:0:
320,192,83975,128,0,84162:0:0:0:0:
192,192,84162,1,2,0:0:0:0:
448,192,84162,128,0,84443:0:0:0:0:
192,192,84443,1,8,0:0:0:0:
320,192,84490,1,8,0:0:0:0:
64,192,84537,1,2,0:0:0:0:
448,192,84537,1,0,0:0:0:0:
64,192,84725,128,8,84912:0:0:0:0:
320,192,84725,1,0,0:0:0:0:
192,192,84912,1,2,0:0:0:0:
448,192,84912,128,0,85100:0:0:0:0:
64,192,85100,1,2,0:0:0:0:
320,192,85100,128,0,85287:0:0:0:0:
192,192,85287,128,8,85475:0:0:0:0:
448,192,85287,1,0,0:0:0:0:
64,192,85475,128,8,85662:0:0:0:0:
320,192,85475,1,0,0:0:0:0:
192,192,85662,1,2,0:0:0:0:
448,192,85662,128,0,85943:0:0:0:0:
192,192,85943,1,8,0:0:0:0:
64,192,86037,128,2,86131:0:0:0:0:
320,192,86037,1,0,0:0:0:0:
192,192,86225,128,8,86318:0:0:0:0:
448,192,86225,1,0,0:0:0:0:
64,192,86412,1,0,0:0:0:0:
448,192,86412,128,0,86506:0:0:0:0:
192,192,86506,1,8,0:0:0:0:
320,192,86506,128,0,86600:0:0:0:0:
64,192,86600,1,2,0:0:0:0:
448,192,86600,128,0,86787:0:0:0:0:
64,192,86787,128,8,86975:0:0:0:0:
192,192,86787,1,0,0:0:0:0:
192,192,86975,128,2,87162:0:0:0:0:
320,192,86975,1,0,0:0:0:0:
448,192,87068,1,8,0:0:0:0:
64,192,87162,1,2,0:0:0:0:
320,192,87162,128,0,87537:0:0:0:30:soft-hitfinish.wav
64,192,87443,1,8,0:0:0:0:
192,192,87537,1,2,0:0:0:0:
448,192,87537,128,0,87725:0:0:0:30:soft-hitfinish.wav
64,192,87725,1,8,0:0:0:0:
192,192,87725,1,0,0:0:0:0:
320,192,87818,1,8,0:0:0:0:
448,192,87818,1,0,0:0:0:0:
64,192,87912,1,8,0:0:0:0:
192,192,87912,1,0,0:0:0:0:
320,192,88006,1,8,0:0:0:0:
64,192,88100,1,2,0:0:0:0:
192,192,88100,1,4,0:0:0:0:
448,192,88100,128,0,88287:0:0:0:0:
64,192,88287,128,0,88475:0:0:0:0:
192,192,88381,1,8,0:0:0:0:
320,192,88475,1,8,0:0:0:0:
448,192,88475,128,0,88662:0:0:0:0:
64,192,88662,1,2,0:0:0:0:
192,192,88662,128,0,89037:0:0:0:0:
320,192,88943,1,8,0:0:0:0:
64,192,89037,128,2,89225:0:0:0:0:
448,192,89037,1,0,0:0:0:0:
192,192,89225,1,8,0:0:0:0:
448,192,89225,128,0,89412:0:0:0:0:
320,192,89412,128,0,89787:0:0:0:0:
192,192,89506,1,8,0:0:0:0:
64,192,89600,1,2,0:0:0:0:
448,192,89600,1,0,0:0:0:0:
448,192,89787,128,0,89975:0:0:0:0:
64,192,89975,1,8,0:0:0:0:
320,192,89975,128,0,90162:0:0:0:0:
64,192,90162,1,2,0:0:0:0:
192,192,90162,128,0,90725:0:0:0:0:
448,192,90256,1,8,0:0:0:0:
448,192,90443,1,8,0:0:0:0:
64,192,90537,128,2,90725:0:0:0:0:
320,192,90537,1,0,0:0:0:0:
320,192,90725,1,8,0:0:0:0:
448,192,90725,1,0,0:0:0:0:
64,192,90912,128,2,91006:0:0:0:0:
320,192,90912,1,0,0:0:0:0:
192,192,91006,128,0,91100:0:0:0:0:
320,192,91100,128,2,91287:0:0:0:0:
448,192,91100,1,0,0:0:0:0:
64,192,91287,1,8,0:0:0:0:
192,192,91287,128,0,91475:0:0:0:0:
320,192,91475,1,2,0:0:0:0:
448,192,91475,128,0,91568:0:0:0:0:
64,192,91662,1,8,0:0:0:0:
192,192,91662,1,0,0:0:0:0:
320,192,91756,1,8,0:0:0:0:
448,192,91756,1,0,0:0:0:0:
64,192,91850,1,0,0:0:0:40:tom01.wav
192,192,91850,1,0,0:0:0:0:
320,192,91943,1,0,0:0:0:40:tom01.wav
448,192,91943,1,0,0:0:0:0:
64,192,92037,1,0,0:0:0:40:tom02.wav
192,192,92037,1,0,0:0:0:0:
320,192,92131,1,0,0:0:0:40:tom02.wav
448,192,92131,1,0,0:0:0:0:
64,192,92225,1,0,0:0:0:40:tom03.wav
192,192,92225,1,0,0:0:0:0:
64,192,92412,128,2,95600:0:0:0:0:
320,192,92412,1,4,0:0:0:0:
448,192,92412,1,0,0:0:0:0:
320,192,92787,1,0,0:0:0:40:tom02.wav
448,192,92787,1,0,0:0:0:0:
192,192,92975,1,0,0:0:0:40:tom02.wav
320,192,92975,1,0,0:0:0:0:
192,192,93162,1,2,0:0:0:0:
448,192,93162,1,0,0:0:0:0:
320,192,93537,1,8,0:0:0:0:
448,192,93631,1,8,0:0:0:0:
192,192,93725,128,2,96537:0:0:0:0:
320,192,93725,128,4,96631:0:0:0:0:
448,192,95600,128,0,96725:0:0:0:0:
64,192,97100,1,2,0:0:0:0:
192,192,97100,1,4,0:0:0:0:
448,192,97100,1,0,0:0:0:0:
64,192,97475,1,8,0:0:0:0:
448,192,97475,128,0,97850:0:0:0:0:
320,192,97662,128,0,97850:0:0:0:0:
192,192,97756,1,0,0:0:0:0:
64,192,97850,128,0,97943:0:0:0:0:
192,192,97943,1,8,0:0:0:0:
320,192,98037,1,2,0:0:0:0:
448,192,98037,1,0,0:0:0:0:
64,192,98225,1,8,0:0:0:0:
192,192,98225,1,0,0:0:0:0:
320,192,98412,1,0,0:0:0:0:
448,192,98412,128,0,98600:0:0:0:0:
64,192,98506,1,8,0:0:0:0:
192,192,98600,1,2,0:0:0:0:
320,192,98600,1,0,0:0:0:0:
192,192,98787,128,0,98975:0:0:0:0:
64,192,98975,1,8,0:0:0:0:
320,192,98975,128,0,99162:0:0:0:0:
448,192,99162,128,0,99350:0:0:0:0:
64,192,99256,1,0,0:0:0:0:
192,192,99350,1,0,0:0:0:0:
320,192,99443,1,8,0:0:0:0:
192,192,99537,128,2,100006:0:0:0:0:
448,192,99537,1,0,0:0:0:0:
64,192,99725,128,8,100006:0:0:0:0:
320,192,99725,1,0,0:0:0:0:
448,192,100006,1,8,0:0:0:0:
320,192,100053,1,0,0:0:0:0:
64,192,100100,1,2,0:0:0:0:
192,192,100100,1,0,0:0:0:0:
192,192,100287,1,8,0:0:0:0:
448,192,100287,128,0,100475:0:0:0:0:
64,192,100475,128,8,100568:0:0:0:0:
320,192,100475,1,0,0:0:0:0:
448,192,100662,128,0,100850:0:0:0:0:
320,192,100850,1,0,0:0:0:0:
64,192,101037,1,8,0:0:0:0:
192,192,101037,1,0,0:0:0:0:
320,192,101131,1,8,0:0:0:0:
448,192,101131,1,0,0:0:0:0:
64,192,101225,1,8,0:0:0:0:
192,192,101225,1,0,0:0:0:0:
320,192,101318,1,0,0:0:0:0:
64,192,101412,1,2,0:0:0:0:
192,192,101412,128,0,101600:0:0:0:0:
320,192,101600,1,8,0:0:0:0:
448,192,101600,1,0,0:0:0:0:
64,192,101787,1,2,0:0:0:0:
448,192,101787,128,0,101975:0:0:0:0:
448,192,102162,128,0,102537:0:0:0:0:
64,192,102537,128,0,102912:0:0:0:0:
192,192,102725,128,8,102912:0:0:0:0:
320,192,102725,1,0,0:0:0:0:
320,192,102912,1,8,0:0:0:0:
448,192,102912,1,2,0:0:0:0:
64,192,103100,1,2,0:0:0:0:
192,192,103100,1,0,0:0:0:0:
192,192,103287,128,0,103381:0:0:0:0:
64,192,103475,1,8,0:0:0:0:
448,192,103475,128,0,103850:0:0:0:0:
320,192,103662,128,0,103850:0:0:0:0:
64,192,103850,1,0,0:0:0:0:
192,192,103943,1,8,0:0:0:0:
320,192,104037,1,2,0:0:0:0:
448,192,104037,1,0,0:0:0:0:
64,192,104225,1,8,0:0:0:0:
192,192,104225,1,0,0:0:0:0:
448,192,104412,128,0,104600:0:0:0:0:
320,192,104506,1,0,0:0:0:0:
64,192,104600,1,2,0:0:0:0:
192,192,104600,1,0,0:0:0:0:
320,192,104787,128,0,104975:0:0:0:0:
64,192,104975,1,8,0:0:0:0:
192,192,104975,1,0,0:0:0:0:
64,192,105162,128,0,105350:0:0:0:40:tom01.wav
448,192,105162,1,0,0:0:0:0:
320,192,105350,128,0,105537:0:0:0:0:
192,192,105537,1,2,0:0:0:0:
448,192,105537,128,0,105725:0:0:0:0:
64,192,105725,128,8,105912:0:0:0:0:
192,192,105725,1,0,0:0:0:0:
320,192,105912,1,2,0:0:0:0:
448,192,105912,1,0,0:0:0:40:tom02.wav
192,192,106100,1,2,0:0:0:0:
448,192,106100,128,0,106287:0:0:0:0:
320,192,106287,128,0,106475:0:0:0:0:
64,192,106475,128,8,106662:0:0:0:0:
448,192,106475,1,0,0:0:0:0:
192,192,106662,128,0,106850:0:0:0:0:
64,192,106850,1,0,0:0:0:0:
448,192,106943,1,8,0:0:0:0:
320,192,106990,1,8,0:0:0:0:
64,192,107037,1,2,0:0:0:0:
192,192,107037,128,0,107225:0:0:0:0:
320,192,107225,1,8,0:0:0:0:
448,192,107225,1,0,0:0:0:0:
64,192,107412,1,2,0:0:0:0:
448,192,107412,128,0,107600:0:0:0:0:
192,192,107600,1,8,0:0:0:0:
320,192,107600,1,0,0:0:0:0:
64,192,107787,1,0,0:0:0:40:tom01.wav
320,192,107787,128,0,107975:0:0:0:0:
192,192,107975,128,0,108162:0:0:0:40:tom02.wav
448,192,107975,1,0,0:0:0:0:
64,192,108162,128,2,108537:0:0:0:0:
320,192,108162,1,4,0:0:0:0:
448,192,108162,1,0,0:0:0:0:
192,192,108537,1,8,0:0:0:0:
448,192,108537,128,0,109100:0:0:0:0:
320,192,108631,128,8,109100:0:0:0:0:
64,192,108725,128,2,109100:0:0:0:0:
192,192,108725,128,4,109100:0:0:0:0:
