osu file format v14

[General]
AudioFilename: audio.ogg
AudioLeadIn: 0
PreviewTime: 42553
Countdown: 0
SampleSet: Soft
StackLeniency: 0.7
Mode: 0
LetterboxInBreaks: 0
WidescreenStoryboard: 1

[Editor]
Bookmarks: 600,6600,18600,30600,42600,54600,66600,78600,90600,102600,114600,114975,117412,117600
DistanceSpacing: 0.3
BeatDivisor: 4
GridSize: 16
TimelineZoom: 2.599999

[Metadata]
Title:Pizza ga Tabetakute Shouganai Minasan no Kimochi o Daibenshimashita
TitleUnicode:ピザが食べたくてしょうがない皆さんの気持ちを代弁しました
Artist:Kobayashi Yuuya (IOSYS) feat. miko
ArtistUnicode:コバヤシユウヤ (IOSYS) feat. miko
Creator:Agllius
Version:iRedi's Hard
Source:jubeat festo
Tags:bemani konami japanese pop video game rhythm I spoke for everyone who was craving pizza Kotaro's memories phase line 3 KennethBBG iRedi Wither
BeatmapID:4135629
BeatmapSetID:1971676

[Difficulty]
HPDrainRate:5
CircleSize:3.5
OverallDifficulty:6
ApproachRate:8
SliderMultiplier:1.5
SliderTickRate:1

[Events]
//Background and Video events
0,0,"bg.jpg",0,0
//Break Periods
2,78799,83850
//Storyboard Layer 0 (Background)
//Storyboard Layer 1 (Fail)
//Storyboard Layer 2 (Pass)
//Storyboard Layer 3 (Foreground)
//Storyboard Layer 4 (Overlay)
//Storyboard Sound Samples

[TimingPoints]
600,375,4,2,1,70,1,0
600,-125,4,2,1,70,0,0
4350,-100,4,2,1,70,0,0
4725,-125,4,2,1,70,0,0
6600,-100,4,2,2,80,0,0
6693,-100,4,2,1,70,0,0
12600,-100,4,2,2,80,0,0
12693,-100,4,2,1,70,0,0
18225,-100,4,2,1,60,0,0
18600,-125,4,2,2,60,0,0
18693,-125,4,2,1,50,0,0
30600,-142.857142857143,4,2,2,45,0,0
30693,-142.857142857143,4,2,1,45,0,0
39600,-111.111111111111,4,2,1,45,0,0
42600,-90.9090909090909,4,2,2,100,0,1
42693,-90.9090909090909,4,2,1,80,0,1
48600,-90.9090909090909,4,2,2,100,0,1
48693,-90.9090909090909,4,2,1,80,0,1
54037,-90.9090909090909,4,2,1,80,0,0
54600,-90.9090909090909,4,2,2,100,0,1
54693,-90.9090909090909,4,2,1,80,0,1
60600,-90.9090909090909,4,2,2,100,0,1
60693,-90.9090909090909,4,2,1,80,0,1
64912,-125,4,2,2,80,0,1
65100,-125,4,2,1,80,0,1
66600,-100,4,2,1,80,0,0
66693,-100,4,2,1,70,0,0
69600,-76.9230769230769,4,2,1,70,0,0
69975,-100,4,2,1,70,0,0
76912,-125,4,2,1,70,0,0
78600,-142.857142857143,4,2,1,40,0,0
78693,-142.857142857143,4,2,1,40,0,0
84600,-142.857142857143,4,2,1,50,0,0
87600,-125,4,2,1,50,0,0
88725,-125,4,2,1,60,0,0
89100,-111.111111111111,4,2,1,60,0,0
90600,-90.9090909090909,4,2,2,100,0,1
90693,-90.9090909090909,4,2,1,80,0,1
96600,-90.9090909090909,4,2,2,100,0,1
96693,-90.9090909090909,4,2,1,80,0,1
100912,-125,4,2,2,80,0,0
101100,-125,4,2,1,80,0,0
102600,-90.9090909090909,4,2,2,100,0,1
102693,-90.9090909090909,4,2,1,80,0,1
105600,-90.9090909090909,4,2,1,75,0,0
108600,-90.9090909090909,4,2,2,100,0,1
108693,-90.9090909090909,4,2,1,80,0,1
111600,-90.9090909090909,4,2,1,75,0,0
114975,-250,4,2,1,75,0,0

[Colours]
Combo1 : 255,94,55
Combo2 : 173,255,95
Combo3 : 17,254,176
Combo4 : 255,88,100

[HitObjects]
256,192,600,5,6,3:2:0:0:
256,192,1912,5,6,3:2:0:0:
256,192,2100,1,6,3:2:0:0:
256,192,3600,6,0,P|311:204|371:223,1,120,6|12,3:2|0:2,0:0:0:0:
467,133,4256,1,2,0:2:0:0:
467,133,4350,2,0,L|457:96,3,37.5,0|0|0|0,3:2|3:2|3:2|3:2,0:0:0:0:
419,52,4725,2,0,P|366:69|347:92,1,60,8|0,3:2|3:2,0:0:0:0:
351,128,5006,1,0,3:2:0:0:
351,128,5100,1,10,3:2:0:0:
125,29,6600,6,0,L|161:19,2,37.5,6|0|2,3:2|0:0|0:2,0:0:0:0:
42,0,6975,1,10,3:2:0:0:
42,0,7068,2,0,P|19:30|15:71,1,75,2|2,0:2|0:2,0:0:0:0:
63,96,7350,2,0,P|82:148|92:203,1,112.5,0|2,3:2|0:2,0:0:0:0:
51,231,7725,1,10,3:2:0:0:
51,231,7818,1,2,0:2:0:0:
52,347,8100,6,0,L|6:359,2,37.5,2|0|2,3:2|0:0|0:2,0:0:0:0:
136,384,8475,1,10,3:2:0:0:
136,384,8568,2,0,P|183:370|205:345,1,75,2|2,0:2|0:2,0:0:0:0:
196,300,8850,2,0,P|206:244|225:192,1,112.5,2|2,3:2|0:2,0:0:0:0:
275,168,9225,1,10,3:2:0:0:
275,168,9318,1,2,0:2:0:0:
187,79,9600,6,0,L|140:91,2,37.5,2|0|2,3:2|0:0|0:2,0:0:0:0:
259,27,9975,1,10,3:2:0:0:
259,27,10068,2,0,P|296:39|331:46,1,75,2|2,0:2|0:2,0:0:0:0:
382,24,10350,2,0,P|443:86|446:114,1,112.5,2|2,3:2|0:2,0:0:0:0:
410,147,10725,1,10,3:2:0:0:
410,147,10818,2,0,P|370:191|368:219,1,75,2|2,0:2|0:2,0:0:0:0:
395,254,11100,1,0,3:2:0:0:
303,272,11287,6,0,P|267:260|230:252,1,75,2|10,0:2|3:2,0:0:0:0:
201,205,11568,2,0,P|212:169|220:132,1,75,2|0,0:2|0:0,0:0:0:0:
270,111,11850,2,0,P|277:50|228:9,1,112.5,2|2,3:2|1:2,0:0:0:0:
194,27,12225,1,8,3:2:0:0:
140,101,12412,5,2,3:2:0:0:
140,101,12506,1,2,3:2:0:0:
140,101,12600,2,0,L|93:88,2,37.5,6|0|2,3:2|0:0|0:2,0:0:0:0:
120,185,12975,1,10,3:2:0:0:
120,185,13068,2,0,P|108:220|100:257,1,75,2|2,0:2|0:2,0:0:0:0:
55,289,13350,2,0,P|77:364|110:380,1,112.5,0|2,3:2|0:2,0:0:0:0:
150,350,13725,1,10,3:2:0:0:
150,350,13818,1,2,0:2:0:0:
281,347,14100,6,0,L|268:393,2,37.5,2|0|2,3:2|0:0|0:2,0:0:0:0:
332,277,14475,1,10,3:2:0:0:
332,277,14568,2,0,P|355:232|389:219,1,75,2|2,0:2|0:2,0:0:0:0:
423,246,14850,2,0,P|498:234|524:187,1,112.5,2|2,3:2|0:2,0:0:0:0:
502,160,15225,1,10,3:2:0:0:
502,160,15318,1,2,0:2:0:0:
426,51,15600,6,0,L|439:4,2,37.5,2|0|2,3:2|0:0|0:2,0:0:0:0:
397,130,15975,1,10,3:2:0:0:
397,130,16068,2,0,P|363:113|344:72,1,75,2|2,0:2|0:2,0:0:0:0:
305,45,16350,2,0,P|249:34|197:15,1,112.5,2|2,3:2|0:2,0:0:0:0:
158,54,16725,1,10,3:2:0:0:
158,54,16818,2,0,P|170:90|178:127,1,75,2|2,0:2|0:2,0:0:0:0:
228,149,17100,5,0,3:2:0:0:
214,236,17287,1,12,3:2:0:0:
299,205,17475,1,14,3:2:0:0:
290,302,17662,1,2,3:2:0:0:
290,302,17756,1,2,3:2:0:0:
290,302,17850,2,0,L|299:338,3,37.5,0|0|8|8,3:2|3:2|3:2|3:2,0:0:0:0:
270,384,18225,1,8,3:2:0:0:
197,329,18412,1,0,3:2:0:0:
197,329,18506,1,0,3:2:0:0:
197,329,18600,1,4,3:2:0:0:
13,359,18975,6,0,P|87:324|99:270,1,120,2|0,1:2|0:0,0:0:0:0:
47,223,19537,1,2,3:2:0:0:
53,217,19725,1,2,1:2:0:0:
102,148,19912,2,0,P|83:117|47:99,2,60,2|0|0,3:2|3:2|3:2,0:0:0:0:
138,224,20475,1,2,1:2:0:0:
188,152,20662,2,0,P|240:169|303:183,1,120,2|2,0:2|3:2,0:0:0:0:
360,253,21225,1,2,1:2:0:0:
366,247,21412,1,2,0:2:0:0:
441,203,21600,2,0,P|464:220|479:246,2,60,2|0|0,3:2|3:2|1:2,0:0:0:0:
504,13,22537,5,2,3:2:0:0:
498,7,22725,1,2,1:2:0:0:
439,72,22912,2,0,P|380:52|323:40,1,120,2|0,3:2|3:2,0:0:0:0:
248,0,23475,2,0,L|186:16,1,60,2|0,1:2|0:0,0:0:0:0:
135,81,23850,1,2,1:2:0:0:
141,87,24037,1,2,3:2:0:0:
203,146,24225,2,0,L|260:161,2,60,2|2|0,1:2|0:2|3:2,0:0:0:0:
154,216,24787,5,2,3:2:0:0:
91,156,24975,1,2,1:2:0:0:
85,162,25162,1,2,1:2:0:0:
26,224,25350,2,0,L|10:281,1,60,2|0,1:2|3:2,0:0:0:0:
45,329,25631,1,2,1:2:0:0:
45,329,25725,1,0,1:2:0:0:
124,299,25912,6,0,P|172:294|233:342,1,120,2|0,3:2|3:2,0:0:0:0:
301,377,26475,2,0,L|362:360,1,60,2|0,1:2|0:0,0:0:0:0:
361,278,26850,2,0,P|316:269|274:254,2,90,2|2|2,3:2|3:2|3:2,0:0:0:0:
434,323,27600,6,0,P|477:306|489:287,1,60,2|0,1:2|3:2,0:0:0:0:
506,213,27975,1,0,3:2:0:0:
512,207,28162,2,0,P|475:178|453:177,1,60,2|0,1:2|3:2,0:0:0:0:
378,192,28537,1,0,3:2:0:0:
372,186,28725,1,8,0:2:0:0:
339,107,28912,6,0,P|281:125|223:138,1,120,6|8,3:2|0:2,0:0:0:0:
169,205,29475,1,0,3:2:0:0:
314,350,29850,6,0,L|329:292,1,60,2|0,3:2|0:0,0:0:0:0:
304,248,30130,1,2,0:2:0:0:
304,248,30225,2,0,L|246:232,1,60,0|2,3:2|1:2,0:0:0:0:
182,287,30600,6,0,P|140:295|105:307,2,78.7499975967408,4|0|0,3:2|3:2|3:2,0:0:0:0:
57,374,31537,1,0,3:2:0:0:
63,380,31725,2,0,P|28:344|22:301,1,78.7499975967408,10|0,0:2|0:0,0:0:0:0:
0,269,32100,6,0,P|12:231|20:193,2,78.7499975967408,2|0|0,3:2|3:2|3:2,0:0:0:0:
128,184,33037,1,0,3:2:0:0:
134,190,33225,2,0,P|169:154|175:111,1,78.7499975967408,8|0,0:2|0:0,0:0:0:0:
141,84,33600,6,0,P|111:101|62:100,2,78.7499975967408,2|0|0,3:2|3:2|3:2,0:0:0:0:
299,0,34537,1,0,3:2:0:0:
305,6,34725,2,0,P|292:43|284:81,1,78.7499975967408,10|0,0:2|0:0,0:0:0:0:
263,132,35100,6,0,P|280:161|323:185,2,78.7499975967408,2|0|0,3:2|3:2|3:2,0:0:0:0:
203,70,35850,2,0,P|149:88|101:97,1,104.999996795654,10|8,0:2|0:2,0:0:0:0:
63,171,36412,1,0,3:2:0:0:
75,255,36600,6,0,P|39:242|-1:234,2,78.7499975967408,6|0|0,3:2|3:2|3:2,0:0:0:0:
174,384,37537,1,0,3:2:0:0:
168,378,37725,2,0,P|168:341|188:301,1,78.7499975967408,10|0,0:2|0:0,0:0:0:0:
241,318,38100,6,0,P|276:305|317:297,2,78.7499975967408,2|0|0,3:2|3:2|3:2,0:0:0:0:
231,234,38850,2,0,P|230:197|210:157,1,78.7499975967408,10|0,0:2|0:0,0:0:0:0:
167,128,39225,1,14,0:2:0:0:
173,122,39412,1,2,0:2:0:0:
249,81,39600,6,0,L|314:98,1,67.4999979400635,6|0,3:2|3:2,0:0:0:0:
329,183,39975,2,0,L|316:229,2,33.7499989700318,0|0|0,3:2|0:0|3:2,0:0:0:0:
397,127,40350,1,0,3:2:0:0:
403,133,40537,1,0,3:2:0:0:
473,186,40725,1,0,3:2:0:0:
467,192,40912,1,0,3:2:0:0:
401,247,41100,6,0,L|388:293,3,33.7499989700318,0|0|0|0,3:2|1:2|1:2|1:2,0:0:0:0:
346,310,41475,2,0,L|299:297,3,33.7499989700318,0|0|0|0,3:2|1:2|1:2|1:2,0:0:0:0:
267,331,41850,2,0,L|258:363,3,33.7499989700318,0|0|0|0,3:2|1:2|1:2|1:2,0:0:0:0:
207,384,42225,1,6,0:3:0:0:
53,237,42600,6,0,P|14:268|5:313,2,82.5000025177003,6|2|10,3:2|1:2|3:2,0:0:0:0:
131,172,43162,1,2,1:2:0:0:
39,141,43350,2,0,P|30:101|17:61,1,82.5000025177003,2|0,3:2|0:0,0:0:0:0:
50,20,43631,1,2,0:2:0:0:
50,20,43725,1,8,3:2:0:0:
131,73,43912,1,2,1:2:0:0:
217,30,44100,6,0,P|256:61|265:106,2,82.5000025177003,2|2|10,3:2|1:2|3:2,0:0:0:0:
131,73,44662,1,2,1:2:0:0:
185,156,44850,2,0,P|198:197|206:235,1,82.5000025177003,2|0,3:2|0:0,0:0:0:0:
258,257,45131,1,2,0:2:0:0:
258,257,45225,2,0,P|244:298|236:336,1,82.5000025177003,8|0,3:2|0:0,0:0:0:0:
320,384,45600,6,0,P|361:370|399:362,1,82.5000025177003,2|2,3:2|1:2,0:0:0:0:
422,270,45975,1,10,3:2:0:0:
508,318,46162,1,2,1:2:0:0:
508,318,46256,2,0,P|462:285|451:217,1,123.75000377655,2|2,1:2|1:2,0:0:0:0:
512,150,46725,2,0,P|499:110|490:70,1,82.5000025177003,10|2,3:2|1:2,0:0:0:0:
401,91,47100,5,2,3:2:0:0:
376,1,47287,1,2,1:2:0:0:
284,25,47475,1,10,3:2:0:0:
309,117,47662,1,2,1:2:0:0:
315,123,47850,2,0,L|298:184,3,41.2500012588501,0|8|8|8,3:2|3:2|3:2|3:2,0:0:0:0:
261,197,48225,2,0,P|220:196|185:174,1,82.5000025177003,8|0,3:2|3:2,0:0:0:0:
168,127,48506,1,0,3:2:0:0:
168,127,48600,6,0,P|182:88|189:47,2,82.5000025177003,6|2|10,3:2|1:2|3:2,0:0:0:0:
95,184,49162,1,2,1:2:0:0:
24,246,49350,2,0,P|31:286|44:325,1,82.5000025177003,2|0,3:2|0:0,0:0:0:0:
33,381,49631,1,2,0:2:0:0:
33,381,49725,1,8,3:2:0:0:
127,364,49912,1,2,1:2:0:0:
181,287,50100,6,0,P|220:298|248:328,2,82.5000025177003,2|2|10,3:2|1:2|3:2,0:0:0:0:
113,218,50662,1,2,1:2:0:0:
205,189,50850,2,0,P|191:150|184:109,1,82.5000025177003,2|0,3:2|0:0,0:0:0:0:
144,79,51131,1,2,0:2:0:0:
144,79,51225,1,8,3:2:0:0:
220,20,51412,1,2,1:2:0:0:
306,61,51600,6,0,P|345:49|373:19,2,82.5000025177003,2|0|8,3:2|1:0|3:2,0:0:0:0:
234,123,52162,2,0,P|216:178|290:255,1,165.000005035401,2|0,1:2|0:0,0:0:0:0:
339,328,52725,1,10,3:2:0:0:
345,333,52912,2,0,P|372:302|411:292,1,82.5000025177003,2|0,1:2|3:2,0:0:0:0:
483,356,53287,5,12,3:2:0:0:
489,350,53475,1,12,3:2:0:0:
505,262,53662,1,2,1:2:0:0:
505,262,53756,1,0,3:2:0:0:
505,262,53850,2,0,P|491:223|484:182,1,82.5000025177003,0|8,3:2|3:2,0:0:0:0:
441,156,54131,1,8,3:2:0:0:
441,156,54225,2,0,L|453:109,3,41.2500012588501,8|0|0|0,3:2|3:2|3:2|3:2,0:0:0:0:
430,66,54600,6,0,P|463:36|511:29,2,82.5000025177003,6|2|10,3:2|1:2|3:2,0:0:0:0:
353,125,55162,1,2,1:2:0:0:
283,62,55350,2,0,P|242:75|203:83,1,82.5000025177003,2|0,3:2|0:0,0:0:0:0:
177,133,55631,1,2,0:2:0:0:
177,133,55725,1,8,3:2:0:0:
121,57,55912,1,2,1:2:0:0:
36,91,56100,6,0,P|5:53|7:8,2,82.5000025177003,2|2|10,3:2|1:2|3:2,0:0:0:0:
88,167,56662,1,2,1:2:0:0:
13,219,56850,2,0,P|26:259|34:298,1,82.5000025177003,2|0,3:2|0:0,0:0:0:0:
81,329,57131,1,2,0:2:0:0:
81,329,57225,2,0,P|121:315|160:307,1,82.5000025177003,8|0,3:2|0:0,0:0:0:0:
204,225,57600,6,0,P|246:237|278:276,1,82.5000025177003,2|2,3:2|1:2,0:0:0:0:
244,358,57975,1,10,3:2:0:0:
338,342,58162,1,2,1:2:0:0:
338,342,58256,2,0,P|378:373|455:367,1,123.75000377655,2|2,1:2|1:2,0:0:0:0:
507,298,58725,2,0,P|492:257|485:218,1,82.5000025177003,10|2,3:2|1:2,0:0:0:0:
422,154,59100,5,2,3:2:0:0:
333,176,59287,1,2,1:2:0:0:
285,98,59475,1,10,3:2:0:0:
343,28,59662,1,2,1:2:0:0:
349,22,59850,2,0,L|410:38,3,41.2500012588501,0|8|8|8,3:2|3:2|3:2|3:2,0:0:0:0:
438,9,60225,2,0,P|492:42|502:70,1,82.5000025177003,8|0,3:2|3:2,0:0:0:0:
475,108,60506,1,0,3:2:0:0:
475,108,60600,6,0,P|461:148|453:187,2,82.5000025177003,6|2|10,3:2|1:2|3:2,0:0:0:0:
379,126,61162,1,2,1:2:0:0:
331,200,61350,2,0,P|344:240|352:279,1,82.5000025177003,2|0,3:2|0:0,0:0:0:0:
402,308,61631,1,2,0:2:0:0:
402,308,61725,1,8,3:2:0:0:
332,372,61912,1,2,1:2:0:0:
261,311,62100,6,0,P|253:270|240:232,2,82.5000025177003,2|2|10,3:2|1:2|3:2,0:0:0:0:
188,367,62662,1,2,1:2:0:0:
119,312,62850,2,0,P|82:352|44:357,1,82.5000025177003,2|0,3:2|0:0,0:0:0:0:
16,328,63131,1,2,0:2:0:0:
16,328,63225,1,8,3:2:0:0:
55,242,63412,1,2,1:2:0:0:
0,171,63600,6,0,P|12:132|21:91,1,82.5000025177003,6|0,3:2|3:2,0:0:0:0:
99,22,63975,2,0,P|107:62|120:101,1,82.5000025177003,12|2,3:2|1:2,0:0:0:0:
167,135,64256,1,0,3:2:0:0:
167,135,64350,2,0,P|207:126|246:113,1,82.5000025177003,0|0,3:2|3:2,0:0:0:0:
286,26,64724,1,2,3:2:0:0:
344,106,64912,6,0,B|350:180|290:229|277:182|214:233|226:315,1,240,6|0,3:2|3:2,0:0:0:0:
268,336,65756,1,0,3:2:0:0:
268,336,65850,2,0,P|306:323|358:315,2,80,8|0|0,3:2|3:2|3:2,0:0:0:0:
158,384,66600,6,0,P|120:371|85:364,1,75,6|2,3:2|3:2,0:0:0:0:
13,303,66975,2,0,L|22:266,3,37.5,10|2|2|2,3:2|0:2|0:2|0:2,0:0:0:0:
70,236,67350,2,0,L|106:245,3,37.5,2|2|2|2,3:2|0:2|3:2|0:2,0:0:0:0:
153,213,67725,1,10,3:2:0:0:
83,148,67912,6,0,P|91:73|160:33,1,150,2|2,3:2|3:2,0:0:0:0:
175,126,68475,2,0,L|211:116,3,37.5,10|2|2|2,0:2|0:2|0:2|0:2,0:0:0:0:
251,83,68850,2,0,L|238:36,3,37.5,2|2|2|2,3:2|0:2|3:2|0:2,0:0:0:0:
280,7,69225,2,0,L|326:-5,3,37.5,10|2|2|2,0:2|0:2|0:2|0:2,0:0:0:0:
354,38,69600,6,0,P|440:12|479:93,1,194.999991073609,2|8,3:2|0:2,0:0:0:0:
395,118,70162,1,2,0:2:0:0:
339,187,70350,2,0,P|332:223|319:259,1,75,2|2,3:2|3:2,0:0:0:0:
274,286,70631,1,0,0:0:0:0:
274,286,70725,2,0,P|280:322|293:358,1,75,10|2,0:2|3:2,0:0:0:0:
381,381,71100,6,0,P|416:371|440:343,1,75,2|2,0:2|3:2,0:0:0:0:
418,298,71381,1,0,0:0:0:0:
418,298,71475,1,10,0:2:0:0:
491,245,71662,2,0,L|500:209,3,37.5,2|0|0|0,0:2|0:0|3:2|3:2,0:0:0:0:
470,163,72037,1,0,3:2:0:0:
390,209,72225,2,0,P|351:197|317:189,1,75,12|2,3:2|0:2,0:0:0:0:
291,145,72506,1,2,0:2:0:0:
291,145,72600,6,0,L|255:154,3,37.5,2|2|2|2,3:2|0:2|3:2|0:2,0:0:0:0:
214,193,72975,2,0,L|178:183,3,37.5,10|2|2|2,0:2|0:2|0:2|0:2,0:0:0:0:
139,143,73350,2,0,P|99:161|77:195,1,75,2|0,3:2|3:2,0:0:0:0:
97,243,73631,1,0,0:0:0:0:
97,243,73725,1,10,0:2:0:0:
73,328,73912,6,0,P|31:335|0:347,2,75,0|2|2,3:2|0:2|3:2,0:0:0:0:
159,371,74475,1,10,0:2:0:0:
165,377,74662,1,2,0:2:0:0:
230,310,74850,1,2,3:2:0:0:
236,304,75037,1,2,3:2:0:0:
303,374,75225,1,10,0:2:0:0:
309,380,75412,1,2,0:2:0:0:
387,328,75600,6,0,P|422:341|458:347,2,75,2|0|8,3:2|3:2|0:2,0:0:0:0:
324,257,76162,2,0,L|314:221,3,37.5,2|0|0|8,3:2|3:2|3:2|3:2,0:0:0:0:
351,183,76537,2,0,L|360:147,3,37.5,10|8|8|0,3:2|3:2|3:2|3:2,0:0:0:0:
407,119,76912,6,0,P|409:48|287:21,1,210,6|0,3:2|0:0,0:0:0:0:
259,59,77662,2,0,B|251:149|324:209|339:152|417:215|402:315,1,300,0|6,0:0|3:2,0:0:0:0:
147,70,84600,6,0,P|96:58|46:43,3,104.999996795654,6|2|2|0,3:2|3:2|3:2|3:2,0:0:0:0:
228,191,86100,2,0,P|278:175|329:163,3,104.999996795654,2|2|2|0,3:2|3:2|3:2|3:2,0:0:0:0:
373,18,87600,6,0,P|448:50|466:96,1,120,2|0,3:2|3:2,0:0:0:0:
416,153,88162,1,2,1:2:0:0:
422,159,88350,2,0,P|402:219|390:274,1,120,2|2,0:2|1:2,0:0:0:0:
442,346,88912,1,0,3:2:0:0:
356,358,89100,5,0,3:2:0:0:
296,282,89287,1,6,3:2:0:0:
290,288,89475,1,6,3:2:0:0:
264,377,89662,1,2,3:2:0:0:
264,377,89756,1,0,3:2:0:0:
264,377,89850,2,0,P|229:366|198:359,1,67.4999979400635,0|8,3:2|3:2,0:0:0:0:
175,314,90131,1,8,3:2:0:0:
175,314,90225,2,0,L|187:267,3,33.7499989700318,8|0|0|0,3:2|3:2|3:2|3:2,0:0:0:0:
156,232,90600,6,0,P|111:244|82:283,2,82.5000025177003,6|2|10,3:2|1:2|3:2,0:0:0:0:
250,204,91162,1,2,1:2:0:0:
178,136,91350,2,0,P|169:93|156:56,1,82.5000025177003,2|0,3:2|0:0,0:0:0:0:
190,14,91631,1,2,0:2:0:0:
190,14,91725,1,8,3:2:0:0:
263,76,91912,1,2,1:2:0:0:
339,21,92100,6,0,P|367:50|407:59,2,82.5000025177003,2|2|10,3:2|1:2|3:2,0:0:0:0:
263,76,92662,1,2,1:2:0:0:
336,134,92850,2,0,P|323:173|314:213,1,82.5000025177003,2|0,3:2|0:0,0:0:0:0:
267,242,93131,1,2,0:2:0:0:
267,242,93225,2,0,P|279:281|288:321,1,82.5000025177003,8|0,3:2|0:0,0:0:0:0:
215,384,93600,6,0,P|164:368|143:329,1,82.5000025177003,2|2,3:2|1:2,0:0:0:0:
173,249,93975,1,10,3:2:0:0:
77,277,94162,1,2,1:2:0:0:
77,277,94256,2,0,P|66:211|51:155,1,123.75000377655,2|2,1:2|1:2,0:0:0:0:
26,58,94725,2,0,P|86:57|113:84,1,82.5000025177003,10|2,3:2|1:2,0:0:0:0:
151,157,95100,5,2,3:2:0:0:
205,72,95287,1,2,1:2:0:0:
285,135,95475,1,10,3:2:0:0:
339,50,95662,1,2,1:2:0:0:
345,44,95850,2,0,L|384:54,3,41.2500012588501,0|8|8|8,3:2|3:2|3:2|3:2,0:0:0:0:
434,28,96225,2,0,P|467:69|473:110,1,82.5000025177003,8|0,3:2|3:2,0:0:0:0:
437,140,96506,1,0,3:2:0:0:
437,140,96600,6,0,P|404:181|398:222,2,82.5000025177003,6|2|10,3:2|1:2|3:2,0:0:0:0:
512,196,97162,1,2,1:2:0:0:
466,279,97350,2,0,P|453:318|444:358,1,82.5000025177003,2|0,3:2|0:0,0:0:0:0:
397,384,97631,1,2,0:2:0:0:
397,384,97725,1,8,3:2:0:0:
347,295,97912,1,2,1:2:0:0:
263,345,98100,6,0,P|225:332|183:323,2,82.5000025177003,2|2|10,3:2|1:2|3:2,0:0:0:0:
347,295,98662,1,2,1:2:0:0:
258,242,98850,2,0,P|265:193|292:166,1,82.5000025177003,2|0,3:2|0:0,0:0:0:0:
343,172,99131,1,2,0:2:0:0:
343,172,99225,1,8,3:2:0:0:
405,93,99412,1,2,1:2:0:0:
307,73,99600,6,0,P|276:35|231:25,1,82.5000025177003,6|0,3:2|1:2,0:0:0:0:
151,63,99975,2,0,P|133:108|147:152,1,82.5000025177003,12|2,3:2|1:2,0:0:0:0:
171,187,100256,1,0,3:2:0:0:
171,187,100350,2,0,P|158:226|149:266,1,82.5000025177003,0|0,3:2|3:2,0:0:0:0:
58,311,100724,1,2,3:2:0:0:
142,368,100912,6,0,B|216:374|265:314|218:301|269:238|351:250,1,240,6|0,3:2|3:2,0:0:0:0:
383,278,101756,1,0,3:2:0:0:
383,278,101850,2,0,P|369:318|362:355,2,80,8|0|0,3:2|3:2|3:2,0:0:0:0:
473,181,102600,6,0,L|512:191,2,41.2500012588501,6|0|2,3:2|0:0|0:2,0:0:0:0:
378,184,102975,1,10,3:2:0:0:
378,184,103068,2,0,P|353:150|349:105,1,82.5000025177003,2|0,0:2|0:0,0:0:0:0:
325,62,103350,2,0,P|261:50|205:29,1,123.75000377655,2|2,3:2|0:2,0:0:0:0:
160,8,103725,1,10,3:2:0:0:
160,8,103818,1,2,0:2:0:0:
214,129,104100,6,0,L|224:168,2,41.2500012588501,2|0|2,3:2|0:0|0:2,0:0:0:0:
120,137,104475,1,10,3:2:0:0:
120,137,104568,2,0,P|71:140|39:169,1,82.5000025177003,2|0,0:2|0:0,0:0:0:0:
23,210,104850,2,0,P|44:268|55:328,1,123.75000377655,2|2,3:2|0:2,0:0:0:0:
68,384,105225,1,8,3:2:0:0:
68,384,105318,1,2,0:2:0:0:
144,278,105600,6,0,L|158:226,2,41.2500012588501,2|0|2,3:2|0:0|0:2,0:0:0:0:
201,358,105975,1,10,3:2:0:0:
201,358,106068,2,0,P|238:345|280:336,1,82.5000025177003,2|2,1:2|0:2,0:0:0:0:
329,365,106350,2,0,P|372:329|378:254,1,123.75000377655,2|2,3:2|0:2,0:0:0:0:
335,244,106725,1,10,3:2:0:0:
335,244,106818,2,0,P|327:203|313:164,1,82.5000025177003,2|2,0:2|0:2,0:0:0:0:
265,140,107100,1,2,3:2:0:0:
286,52,107287,6,0,P|319:30|368:31,1,82.5000025177003,2|10,0:2|3:2,0:0:0:0:
411,5,107568,2,0,P|446:23|470:65,1,82.5000025177003,2|0,0:2|0:0,0:0:0:0:
512,91,107850,2,0,P|469:127|463:202,1,123.75000377655,2|2,3:2|1:2,0:0:0:0:
499,224,108225,1,8,3:2:0:0:
425,281,108412,5,2,3:2:0:0:
425,281,108506,1,2,3:2:0:0:
425,281,108600,2,0,L|414:320,2,41.2500012588501,6|0|2,3:2|0:0|0:2,0:0:0:0:
369,196,108975,1,10,3:2:0:0:
369,196,109068,2,0,P|322:191|287:209,1,82.5000025177003,2|0,0:2|0:0,0:0:0:0:
238,218,109350,2,0,P|226:278|206:337,1,123.75000377655,2|2,3:2|0:2,0:0:0:0:
159,355,109725,1,10,3:2:0:0:
159,355,109818,1,2,0:2:0:0:
46,291,110100,6,0,L|7:281,2,41.2500012588501,2|0|2,3:2|0:0|0:2,0:0:0:0:
103,223,110475,1,10,3:2:0:0:
103,223,110568,2,0,P|89:183|81:143,1,82.5000025177003,2|0,0:2|0:0,0:0:0:0:
36,114,110850,2,0,P|48:59|119:26,1,123.75000377655,2|2,3:2|0:2,0:0:0:0:
141,72,111225,1,8,3:2:0:0:
141,72,111318,1,2,0:2:0:0:
266,39,111600,6,0,L|280:-13,2,41.2500012588501,2|0|2,3:2|0:0|0:2,0:0:0:0:
319,116,111975,1,10,3:2:0:0:
319,116,112068,2,0,P|305:155|297:195,1,82.5000025177003,2|2,0:2|0:2,0:0:0:0:
250,222,112350,2,0,P|262:277|333:310,1,123.75000377655,2|2,3:2|0:2,0:0:0:0:
362,349,112725,1,10,3:2:0:0:
362,349,112818,2,0,P|401:335|441:327,1,82.5000025177003,2|2,0:2|0:2,0:0:0:0:
484,294,113100,5,2,3:2:0:0:
410,234,113287,1,12,3:2:0:0:
499,200,113475,1,12,3:2:0:0:
432,145,113662,1,0,3:2:0:0:
432,145,113756,1,0,3:2:0:0:
432,145,113850,2,0,L|420:98,3,41.2500012588501,0|0|8|8,3:2|3:2|3:2|3:2,0:0:0:0:
380,69,114225,2,0,L|392:22,2,41.2500012588501,8|0|0,3:2|3:2|3:2,0:0:0:0:
232,189,114975,6,0,B|143:167|83:239|130:254|76:324|-11:306|-11:306|50:298|68:241,1,390,14|8,3:2|3:2,0:0:0:0:
49,167,117600,1,0,3:2:0:0:
