osu file format v14

[General]
AudioFilename: audio.mp3
AudioLeadIn: 0
PreviewTime: 15911
Countdown: 0
SampleSet: Normal
StackLeniency: 0.7
Mode: 1
LetterboxInBreaks: 0
WidescreenStoryboard: 1

[Editor]
DistanceSpacing: 0.8
BeatDivisor: 12
GridSize: 32
TimelineZoom: 2.5

[Metadata]
Title:Hinaru Medjed no Hinaru Yuuutsu
TitleUnicode:秘ナルメジェドノ悲ナル憂鬱
Artist:Kobayashi Yuuya (IOSYS) feat. Yamamoto Momiji (monotone)
ArtistUnicode:コバヤシユウヤ (IOSYS) feat. 山本椛 (monotone)
Creator:ARGENTINE DREAM
Version:Oni
Source:太鼓の達人 ブルーVer.
Tags:taiko no tatsujin blue version namco original void ボイド d.watt ディーワット shichijou lettuce 七条レタス tnt
BeatmapID:1735444
BeatmapSetID:828297

[Difficulty]
HPDrainRate:6
CircleSize:5
OverallDifficulty:6
ApproachRate:5
SliderMultiplier:1.4
SliderTickRate:1

[Events]
//Background and Video events
0,0,"mejedoo.jpg",0,-50
//Break Periods
//Storyboard Layer 0 (Background)
//Storyboard Layer 1 (Fail)
//Storyboard Layer 2 (Pass)
//Storyboard Layer 3 (Foreground)
//Storyboard Sound Samples

[TimingPoints]
966,333.333333333333,4,1,0,75,1,0
966,-125,4,1,0,75,0,0
11626,285.714285714286,4,1,0,75,1,0
11626,-144.927536231884,4,1,0,75,0,0
11911,-100,4,1,0,75,0,0
16197,-100,4,1,0,75,0,1
34768,-125,4,1,0,75,0,1
35626,-100,4,1,0,75,0,1
35911,-125,4,1,0,75,0,1
36768,-100,4,1,0,75,0,1
38483,-100,4,1,0,75,0,0
38768,-111.111111111111,4,1,0,75,0,0
39054,-111.111111111111,4,1,0,75,0,0
39196,-113.636363636364,4,1,0,75,0,0
39339,-116.279069767442,4,1,0,75,0,0
39482,-119.047619047619,4,1,0,75,0,0
39625,-121.951219512195,4,1,0,75,0,0
39768,-125,4,1,0,75,0,0
39911,-128.205128205128,4,1,0,75,0,0
40054,-131.578947368421,4,1,0,75,0,0
40196,285.714285714286,3,1,0,75,1,0
40196,-135.135135135135,4,1,0,75,0,0
40339,-138.888888888889,4,1,0,75,0,0
40482,-142.857142857143,4,1,0,75,0,0
40625,-147.058823529412,4,1,0,75,0,0
40768,-151.515151515152,4,1,0,75,0,0
41053,285.714285714286,4,1,0,75,1,0
41053,-111.111111111111,4,1,0,75,0,0
41195,-113.636363636364,4,1,0,75,0,0
41338,-116.279069767442,4,1,0,75,0,0
41481,-119.047619047619,4,1,0,75,0,0
41624,-121.951219512195,4,1,0,75,0,0
41767,-125,4,1,0,75,0,0
41910,-128.205128205128,4,1,0,75,0,0
42053,-131.578947368421,4,1,0,75,0,0
42195,285.714285714286,3,1,0,75,1,0
42195,-135.135135135135,4,1,0,75,0,0
42338,-138.888888888889,4,1,0,75,0,0
42481,-142.857142857143,4,1,0,75,0,0
42624,-147.058823529412,4,1,0,75,0,0
42767,-151.515151515152,4,1,0,75,0,0
43052,285.714285714286,4,1,0,75,1,0
43052,-111.111111111111,4,1,0,75,0,0
43194,-113.636363636364,4,1,0,75,0,0
43337,-116.279069767442,4,1,0,75,0,0
43480,-119.047619047619,4,1,0,75,0,0
43623,-121.951219512195,4,1,0,75,0,0
43766,-125,4,1,0,75,0,0
43909,-128.205128205128,4,1,0,75,0,0
44052,-131.578947368421,4,1,0,75,0,0
44194,285.714285714286,3,1,0,75,1,0
44194,-135.135135135135,4,1,0,75,0,0
44337,-138.888888888889,4,1,0,75,0,0
44480,-142.857142857143,4,1,0,75,0,0
44623,-147.058823529412,4,1,0,75,0,0
44766,-151.515151515152,4,1,0,75,0,0
45051,285.714285714286,4,1,0,75,1,0
45051,-111.111111111111,4,1,0,75,0,0
45193,-113.636363636364,4,1,0,75,0,0
45336,-116.279069767442,4,1,0,75,0,0
45479,-119.047619047619,4,1,0,75,0,0
45622,-121.951219512195,4,1,0,75,0,0
45765,-125,4,1,0,75,0,0
45908,-128.205128205128,4,1,0,75,0,0
46051,-131.578947368421,4,1,0,75,0,0
46193,-135.135135135135,4,1,0,75,0,0
46336,-138.888888888889,4,1,0,75,0,0
46479,-142.857142857143,4,1,0,75,0,0
46622,-147.058823529412,4,1,0,75,0,0
46765,-100,4,1,0,75,0,0
47336,285.714285714286,3,1,0,75,1,1
47621,-66.6666666666667,3,1,0,75,0,1
48193,285.714285714286,4,1,0,75,1,1
48478,-66.6666666666667,3,1,0,75,0,1
49050,-100,3,1,0,75,0,1
49336,285.714285714286,3,1,0,75,1,1
49621,-66.6666666666667,3,1,0,75,0,1
50193,285.714285714286,5,1,0,75,1,1
50478,-66.6666666666667,3,1,0,75,0,1
51050,-100,3,1,0,75,0,1
51621,285.714285714286,3,1,0,75,1,1
51906,-66.6666666666667,3,1,0,75,0,1
52478,285.714285714286,5,1,0,75,1,1
52763,-66.6666666666667,3,1,0,75,0,1
53335,-100,3,1,0,75,0,1
53906,285.714285714286,3,1,0,75,1,1
54191,-66.6666666666667,3,1,0,75,0,1
54763,285.714285714286,5,1,0,75,1,1
54763,-100,4,1,0,75,0,1
56191,285.714285714286,4,1,0,75,1,0
56191,-100,4,1,0,75,0,0
56333,-100,4,1,0,75,0,0
57333,-100,4,1,0,75,0,0
57476,-100,4,1,0,75,0,0
58476,-100,4,1,0,75,0,0
58619,-100,4,1,0,75,0,0
59048,-100,4,1,0,75,0,0
59191,-100,4,1,0,75,0,0
59619,-100,4,1,0,75,0,0
61048,-125,4,1,0,75,0,0
65333,-111.111111111111,4,1,0,75,0,0
65619,-107.52688172043,4,1,0,75,0,0
65905,-105.263157894737,4,1,0,75,0,0
66191,-103.092783505155,4,1,0,75,0,0
66333,-101.010101010101,4,1,0,75,0,0
66476,-100,4,1,0,75,0,0
66762,-97.0873786407767,4,1,0,75,0,0
67048,-95.2380952380952,4,1,0,75,0,0
67191,-94.3396226415094,4,1,0,75,0,0
67476,-93.4579439252336,4,1,0,75,0,0
67619,-100,4,1,0,75,0,0
69905,-100,4,1,0,75,0,1
79333,-125,4,1,0,75,0,1
81333,-100,4,1,0,75,0,1
83048,-100,4,1,0,75,0,0
83333,-111.111111111111,4,1,0,75,0,0
83619,-100,4,1,0,75,0,0
92762,-100,4,1,0,75,0,1
101905,285.714285714286,3,1,0,75,1,1
102190,-66.6666666666667,3,1,0,75,0,1
102762,285.714285714286,5,1,0,75,1,1
103047,-66.6666666666667,3,1,0,75,0,1
103619,-100,3,1,0,75,0,1
103904,285.714285714286,3,1,0,75,1,1
104189,-66.6666666666667,3,1,0,75,0,1
104761,285.714285714286,5,1,0,75,1,1
105046,-66.6666666666667,3,1,0,75,0,1
105618,-100,3,1,0,75,0,1
106189,285.714285714286,3,1,0,75,1,1
106474,-66.6666666666667,3,1,0,75,0,1
107046,285.714285714286,5,1,0,75,1,1
107331,-66.6666666666667,3,1,0,75,0,1
107903,-100,3,1,0,75,0,1
108474,285.714285714286,3,1,0,75,1,1
108759,-66.6666666666667,3,1,0,75,0,1
109331,285.714285714286,5,1,0,75,1,1
110759,285.714285714286,4,1,0,75,1,0

[HitObjects]
224,160,966,5,8,0:0:0:0:
224,160,1132,1,8,0:0:0:0:
224,224,1465,1,0,0:0:0:0:
224,160,1632,1,8,0:0:0:0:
224,160,1965,1,8,0:0:0:0:
224,224,2077,1,0,0:0:0:0:
224,224,2188,1,0,0:0:0:0:
224,160,2299,1,8,0:0:0:0:
224,160,2465,1,8,0:0:0:0:
224,224,2799,1,0,0:0:0:0:
224,160,2965,1,8,0:0:0:0:
224,160,3299,1,8,0:0:0:0:
224,160,3465,1,8,0:0:0:0:
224,224,3632,1,0,0:0:0:0:
224,160,3965,1,8,0:0:0:0:
224,224,4132,1,0,0:0:0:0:
224,160,4299,1,8,0:0:0:0:
224,224,4632,1,0,0:0:0:0:
224,224,4799,1,0,0:0:0:0:
224,160,4965,1,8,0:0:0:0:
224,160,5299,1,8,0:0:0:0:
224,160,5465,1,8,0:0:0:0:
224,224,5632,1,0,0:0:0:0:
224,224,5965,1,0,0:0:0:0:
224,224,6132,1,0,0:0:0:0:
224,160,6299,5,8,0:0:0:0:
224,160,6465,1,8,0:0:0:0:
224,224,6799,1,0,0:0:0:0:
224,160,6965,1,8,0:0:0:0:
224,160,7299,1,8,0:0:0:0:
224,224,7410,1,0,0:0:0:0:
224,224,7521,1,0,0:0:0:0:
224,160,7632,1,8,0:0:0:0:
224,160,7799,1,8,0:0:0:0:
224,224,8132,1,0,0:0:0:0:
224,160,8299,1,8,0:0:0:0:
224,160,8632,1,8,0:0:0:0:
224,160,8799,1,8,0:0:0:0:
224,224,8965,1,0,0:0:0:0:
224,160,9299,1,8,0:0:0:0:
224,224,9465,1,0,0:0:0:0:
224,160,9632,1,8,0:0:0:0:
224,160,9965,1,8,0:0:0:0:
224,160,10077,1,8,0:0:0:0:
224,224,10188,1,0,0:0:0:0:
224,224,10299,1,0,0:0:0:0:
224,160,10632,1,8,0:0:0:0:
224,224,10799,1,0,0:0:0:0:
224,160,10965,1,8,0:0:0:0:
224,224,11132,1,0,0:0:0:0:
224,224,11215,1,0,0:0:0:0:
224,160,11299,1,8,0:0:0:0:
224,160,11382,1,8,0:0:0:0:
224,224,11465,1,0,0:0:0:0:
224,224,11549,1,0,0:0:0:0:
224,160,11626,1,8,0:0:0:0:
224,160,11911,1,8,0:0:0:0:
224,160,12483,1,8,0:0:0:0:
224,224,12768,1,0,0:0:0:0:
224,160,13054,1,8,0:0:0:0:
224,160,13626,1,8,0:0:0:0:
224,224,13911,1,0,0:0:0:0:
224,160,14197,1,8,0:0:0:0:
224,224,14626,1,0,0:0:0:0:
224,160,15054,1,8,0:0:0:0:
224,160,15126,1,8,0:0:0:0:
224,224,15197,1,0,0:0:0:0:
224,160,15340,1,8,0:0:0:0:
224,160,15411,1,8,0:0:0:0:
224,224,15483,1,0,0:0:0:0:
224,224,15554,1,0,0:0:0:0:
224,160,15626,1,8,0:0:0:0:
224,224,16197,1,0,0:0:0:0:
224,224,16340,1,0,0:0:0:0:
224,160,16483,1,8,0:0:0:0:
224,224,16626,1,0,0:0:0:0:
224,160,16697,1,8,0:0:0:0:
224,224,16768,1,0,0:0:0:0:
224,224,16911,1,0,0:0:0:0:
224,160,17054,1,8,0:0:0:0:
224,160,17197,1,8,0:0:0:0:
224,224,17340,1,0,0:0:0:0:
224,224,17483,1,0,0:0:0:0:
224,160,17626,1,8,0:0:0:0:
224,224,17768,1,0,0:0:0:0:
224,160,17911,1,8,0:0:0:0:
224,160,17983,1,8,0:0:0:0:
224,224,18054,1,0,0:0:0:0:
224,224,18126,1,0,0:0:0:0:
224,160,18197,1,8,0:0:0:0:
224,224,18483,1,0,0:0:0:0:
224,224,18626,1,0,0:0:0:0:
224,160,18768,1,8,0:0:0:0:
224,224,18911,1,0,0:0:0:0:
224,160,18983,1,8,0:0:0:0:
224,224,19054,1,0,0:0:0:0:
224,224,19197,1,0,0:0:0:0:
224,160,19340,1,8,0:0:0:0:
224,160,19483,1,8,0:0:0:0:
224,224,19626,1,0,0:0:0:0:
224,224,19768,1,0,0:0:0:0:
224,224,19840,1,0,0:0:0:0:
224,160,19911,1,8,0:0:0:0:
224,224,20054,1,0,0:0:0:0:
224,224,20126,1,0,0:0:0:0:
224,160,20197,1,8,0:0:0:0:
224,224,20340,1,0,0:0:0:0:
224,224,20411,1,0,0:0:0:0:
224,160,20483,1,8,0:0:0:0:
224,160,20554,1,8,0:0:0:0:
224,224,20626,1,0,0:0:0:0:
288,160,20768,1,12,0:0:0:0:
224,160,21054,1,8,0:0:0:0:
224,224,21197,1,0,0:0:0:0:
224,160,21268,1,8,0:0:0:0:
224,224,21340,1,0,0:0:0:0:
224,224,21483,1,0,0:0:0:0:
224,160,21626,1,8,0:0:0:0:
224,160,21768,1,8,0:0:0:0:
224,224,21911,1,0,0:0:0:0:
224,224,22054,1,0,0:0:0:0:
224,160,22197,1,8,0:0:0:0:
224,224,22340,1,0,0:0:0:0:
224,160,22483,1,8,0:0:0:0:
224,160,22554,1,8,0:0:0:0:
224,224,22626,1,0,0:0:0:0:
224,224,22697,1,0,0:0:0:0:
224,160,22768,1,8,0:0:0:0:
224,160,22911,1,8,0:0:0:0:
224,224,23054,1,0,0:0:0:0:
224,224,23197,1,0,0:0:0:0:
224,160,23340,1,8,0:0:0:0:
224,160,23483,1,8,0:0:0:0:
224,224,23768,1,0,0:0:0:0:
224,160,23911,1,8,0:0:0:0:
224,160,23983,1,8,0:0:0:0:
224,160,24054,1,8,0:0:0:0:
224,160,24126,1,8,0:0:0:0:
224,224,24197,1,0,0:0:0:0:
224,160,24340,1,8,0:0:0:0:
224,160,24411,1,8,0:0:0:0:
224,224,24483,1,0,0:0:0:0:
224,160,24626,1,8,0:0:0:0:
224,160,24697,1,8,0:0:0:0:
224,224,24768,1,0,0:0:0:0:
224,224,24911,1,0,0:0:0:0:
224,224,24983,1,0,0:0:0:0:
224,160,25054,1,8,0:0:0:0:
224,160,25126,1,8,0:0:0:0:
224,224,25197,1,0,0:0:0:0:
288,224,25340,1,4,0:0:0:0:
224,160,25626,1,8,0:0:0:0:
224,224,25768,1,0,0:0:0:0:
224,160,25840,1,8,0:0:0:0:
224,224,25911,1,0,0:0:0:0:
224,224,26054,1,0,0:0:0:0:
224,160,26197,1,8,0:0:0:0:
224,160,26340,1,8,0:0:0:0:
224,224,26483,1,0,0:0:0:0:
224,224,26626,1,0,0:0:0:0:
224,160,26768,1,8,0:0:0:0:
224,224,26911,1,0,0:0:0:0:
224,160,27054,1,8,0:0:0:0:
224,160,27126,1,8,0:0:0:0:
224,224,27197,1,0,0:0:0:0:
224,224,27268,1,0,0:0:0:0:
224,160,27340,1,8,0:0:0:0:
224,224,27626,1,0,0:0:0:0:
224,224,27768,1,0,0:0:0:0:
224,160,27911,1,8,0:0:0:0:
224,224,28054,1,0,0:0:0:0:
224,160,28126,1,8,0:0:0:0:
224,224,28197,1,0,0:0:0:0:
224,224,28340,1,0,0:0:0:0:
224,160,28483,1,8,0:0:0:0:
224,160,28626,1,8,0:0:0:0:
224,224,28768,1,0,0:0:0:0:
224,160,28911,1,8,0:0:0:0:
224,224,28983,1,0,0:0:0:0:
224,160,29054,1,8,0:0:0:0:
224,160,29197,1,8,0:0:0:0:
224,224,29268,1,0,0:0:0:0:
224,160,29340,1,8,0:0:0:0:
224,160,29483,1,8,0:0:0:0:
224,160,29554,1,8,0:0:0:0:
224,160,29626,1,8,0:0:0:0:
224,160,29697,1,8,0:0:0:0:
224,224,29768,1,0,0:0:0:0:
288,160,29911,1,12,0:0:0:0:
224,160,30197,1,8,0:0:0:0:
224,224,30340,1,0,0:0:0:0:
224,160,30411,1,8,0:0:0:0:
224,224,30483,1,0,0:0:0:0:
224,224,30626,1,0,0:0:0:0:
224,160,30768,1,8,0:0:0:0:
224,160,30911,1,8,0:0:0:0:
224,224,31054,1,0,0:0:0:0:
224,224,31197,1,0,0:0:0:0:
224,160,31340,1,8,0:0:0:0:
224,224,31483,1,0,0:0:0:0:
224,160,31626,1,8,0:0:0:0:
224,160,31697,1,8,0:0:0:0:
224,224,31768,1,0,0:0:0:0:
224,224,31840,1,0,0:0:0:0:
224,160,31911,1,8,0:0:0:0:
224,224,32197,1,0,0:0:0:0:
224,224,32268,1,0,0:0:0:0:
224,224,32340,1,0,0:0:0:0:
224,224,32411,1,0,0:0:0:0:
224,160,32483,1,8,0:0:0:0:
224,224,32626,1,0,0:0:0:0:
224,224,32697,1,0,0:0:0:0:
224,160,32768,1,8,0:0:0:0:
224,160,32983,1,8,0:0:0:0:
224,224,33054,1,0,0:0:0:0:
224,160,33197,1,8,0:0:0:0:
224,160,33268,1,8,0:0:0:0:
224,224,33340,1,0,0:0:0:0:
224,224,33483,1,0,0:0:0:0:
224,160,33626,1,8,0:0:0:0:
224,224,33768,1,0,0:0:0:0:
224,160,33911,1,8,0:0:0:0:
224,160,33983,1,8,0:0:0:0:
224,224,34054,1,0,0:0:0:0:
224,224,34126,1,0,0:0:0:0:
224,160,34197,1,8,0:0:0:0:
224,224,34340,1,0,0:0:0:0:
288,224,34483,1,4,0:0:0:0:
224,160,34768,1,8,0:0:0:0:
224,160,35340,1,8,0:0:0:0:
288,224,35626,1,4,0:0:0:0:
224,160,35911,1,8,0:0:0:0:
224,160,36197,1,8,0:0:0:0:
224,160,36483,1,8,0:0:0:0:
224,224,36768,1,0,0:0:0:0:
224,224,36911,1,0,0:0:0:0:
224,224,36983,1,0,0:0:0:0:
224,160,37054,1,8,0:0:0:0:
224,224,37197,1,0,0:0:0:0:
224,224,37268,1,0,0:0:0:0:
224,160,37340,1,8,0:0:0:0:
224,224,37483,1,0,0:0:0:0:
224,224,37554,1,0,0:0:0:0:
224,160,37626,1,8,0:0:0:0:
224,224,37768,1,0,0:0:0:0:
224,224,37840,1,0,0:0:0:0:
224,160,37911,1,8,0:0:0:0:
224,224,38054,1,0,0:0:0:0:
224,224,38126,1,0,0:0:0:0:
224,160,38197,1,8,0:0:0:0:
224,160,38268,1,8,0:0:0:0:
224,224,38340,1,0,0:0:0:0:
224,224,38411,1,0,0:0:0:0:
224,160,38483,1,8,0:0:0:0:
224,224,38768,1,0,0:0:0:0:
288,224,39054,1,4,0:0:0:0:
224,160,39197,1,8,0:0:0:0:
224,160,39340,1,8,0:0:0:0:
224,224,39483,1,0,0:0:0:0:
224,160,39626,1,8,0:0:0:0:
224,160,39768,1,8,0:0:0:0:
224,224,39911,1,0,0:0:0:0:
224,160,40054,1,8,0:0:0:0:
224,160,40197,1,8,0:0:0:0:
224,224,40338,1,0,0:0:0:0:
224,160,40481,1,8,0:0:0:0:
224,160,40624,1,8,0:0:0:0:
224,224,40767,1,0,0:0:0:0:
288,224,41053,1,4,0:0:0:0:
224,160,41195,1,8,0:0:0:0:
224,224,41338,1,0,0:0:0:0:
224,224,41481,1,0,0:0:0:0:
224,160,41624,1,8,0:0:0:0:
224,224,41767,1,0,0:0:0:0:
224,224,41910,1,0,0:0:0:0:
224,160,42053,1,8,0:0:0:0:
224,224,42195,1,0,0:0:0:0:
224,224,42337,1,0,0:0:0:0:
224,160,42480,1,8,0:0:0:0:
224,224,42623,1,0,0:0:0:0:
224,224,42766,1,0,0:0:0:0:
288,224,43052,1,4,0:0:0:0:
224,160,43194,1,8,0:0:0:0:
224,160,43337,1,8,0:0:0:0:
224,224,43480,1,0,0:0:0:0:
224,160,43623,1,8,0:0:0:0:
224,160,43766,1,8,0:0:0:0:
224,224,43909,1,0,0:0:0:0:
224,160,44052,1,8,0:0:0:0:
224,160,44194,1,8,0:0:0:0:
224,224,44336,1,0,0:0:0:0:
224,160,44479,1,8,0:0:0:0:
224,160,44622,1,8,0:0:0:0:
224,224,44765,1,0,0:0:0:0:
288,224,45051,1,4,0:0:0:0:
224,160,45193,1,8,0:0:0:0:
224,224,45336,1,0,0:0:0:0:
224,224,45479,1,0,0:0:0:0:
224,160,45622,1,8,0:0:0:0:
224,224,45765,1,0,0:0:0:0:
224,224,45908,1,0,0:0:0:0:
224,160,46051,1,8,0:0:0:0:
224,224,46193,1,0,0:0:0:0:
224,224,46336,1,0,0:0:0:0:
224,160,46479,1,8,0:0:0:0:
224,224,46622,1,0,0:0:0:0:
224,160,46765,1,8,0:0:0:0:
224,160,47051,5,8,0:0:0:0:
256,192,47336,6,0,L|256:128,2,35
256,192,47621,12,0,47764,0:0:0:0:
256,192,47907,12,0,48050,0:0:0:0:
256,192,48193,6,0,L|256:128,2,35
288,224,48478,5,4,0:0:0:0:
288,160,48764,1,12,0:0:0:0:
288,160,49050,1,8,0:0:0:0:
288,160,49121,1,8,0:0:0:0:
288,160,49193,1,8,0:0:0:0:
256,192,49336,6,0,L|256:128,2,35
256,192,49621,12,0,49764,0:0:0:0:
256,192,49907,12,0,50050,0:0:0:0:
256,192,50193,6,0,L|256:128,2,35
288,160,50478,1,12,0:0:0:0:
288,224,50764,1,4,0:0:0:0:
224,160,51050,1,8,0:0:0:0:
224,160,51121,1,8,0:0:0:0:
224,160,51193,1,8,0:0:0:0:
288,160,51264,1,8,0:0:0:0:
224,224,51335,1,0,0:0:0:0:
224,224,51478,1,0,0:0:0:0:
256,192,51621,6,0,L|256:128,2,35
256,192,51906,12,0,52049,0:0:0:0:
256,192,52192,12,0,52335,0:0:0:0:
256,192,52478,6,0,L|256:128,2,35
288,224,52763,5,4,0:0:0:0:
288,160,53049,1,12,0:0:0:0:
224,224,53335,1,0,0:0:0:0:
224,224,53406,1,0,0:0:0:0:
224,224,53478,1,0,0:0:0:0:
224,224,53549,1,0,0:0:0:0:
224,160,53620,1,8,0:0:0:0:
224,160,53763,1,8,0:0:0:0:
256,192,53906,6,0,L|256:128,2,35
256,192,54191,12,0,54334,0:0:0:0:
256,192,54477,12,0,54620,0:0:0:0:
256,192,54763,6,0,L|256:128,2,35
224,160,55048,1,8,0:0:0:0:
224,224,55120,1,0,0:0:0:0:
224,224,55191,1,0,0:0:0:0:
224,160,55334,1,8,0:0:0:0:
224,224,55405,1,0,0:0:0:0:
224,224,55477,1,0,0:0:0:0:
224,160,55620,1,8,0:0:0:0:
224,160,55691,1,8,0:0:0:0:
224,224,55763,1,0,0:0:0:0:
224,160,55905,1,8,0:0:0:0:
224,160,55977,1,8,0:0:0:0:
224,224,56048,1,0,0:0:0:0:
288,224,56191,1,4,0:0:0:0:
288,224,57333,1,4,0:0:0:0:
288,224,58476,1,4,0:0:0:0:
288,224,59048,1,4,0:0:0:0:
288,224,59619,1,4,0:0:0:0:
288,224,59905,1,4,0:0:0:0:
288,224,60191,1,4,0:0:0:0:
224,160,60333,1,8,0:0:0:0:
224,160,60405,1,8,0:0:0:0:
224,160,60476,1,8,0:0:0:0:
224,160,60548,1,8,0:0:0:0:
224,160,60619,1,8,0:0:0:0:
288,224,60762,1,4,0:0:0:0:
224,160,61048,1,8,0:0:0:0:
224,160,61619,1,8,0:0:0:0:
224,224,61905,1,0,0:0:0:0:
224,160,62191,1,8,0:0:0:0:
224,160,62762,1,8,0:0:0:0:
224,224,63048,1,0,0:0:0:0:
224,160,63333,1,8,0:0:0:0:
224,160,63905,1,8,0:0:0:0:
224,224,64191,1,0,0:0:0:0:
224,160,64476,1,8,0:0:0:0:
224,160,65048,1,8,0:0:0:0:
288,224,65333,1,4,0:0:0:0:
224,224,65619,1,0,0:0:0:0:
224,224,65905,1,0,0:0:0:0:
224,224,66191,1,0,0:0:0:0:
224,224,66476,1,0,0:0:0:0:
224,224,66762,1,0,0:0:0:0:
224,224,67048,1,0,0:0:0:0:
224,224,67333,1,0,0:0:0:0:
288,160,67619,5,12,0:0:0:0:
224,160,68762,5,8,0:0:0:0:
224,224,68905,1,0,0:0:0:0:
224,224,68976,1,0,0:0:0:0:
224,160,69048,1,8,0:0:0:0:
224,224,69191,1,0,0:0:0:0:
224,224,69262,1,0,0:0:0:0:
224,160,69333,1,8,0:0:0:0:
224,224,69476,1,0,0:0:0:0:
224,224,69548,1,0,0:0:0:0:
224,160,69619,1,8,0:0:0:0:
224,160,69691,1,8,0:0:0:0:
224,160,69762,1,8,0:0:0:0:
288,224,69905,1,4,0:0:0:0:
224,224,70048,1,0,0:0:0:0:
224,160,70191,1,8,0:0:0:0:
224,224,70333,1,0,0:0:0:0:
224,160,70405,1,8,0:0:0:0:
224,224,70476,1,0,0:0:0:0:
224,224,70619,1,0,0:0:0:0:
224,160,70762,1,8,0:0:0:0:
224,160,70905,1,8,0:0:0:0:
224,224,71048,1,0,0:0:0:0:
224,224,71191,1,0,0:0:0:0:
224,160,71333,1,8,0:0:0:0:
224,224,71476,1,0,0:0:0:0:
224,160,71619,1,8,0:0:0:0:
224,160,71691,1,8,0:0:0:0:
224,224,71762,1,0,0:0:0:0:
224,224,71833,1,0,0:0:0:0:
224,160,71905,1,8,0:0:0:0:
224,224,72191,1,0,0:0:0:0:
224,224,72333,1,0,0:0:0:0:
224,160,72476,1,8,0:0:0:0:
224,224,72619,1,0,0:0:0:0:
224,160,72691,1,8,0:0:0:0:
224,224,72762,1,0,0:0:0:0:
224,224,72905,1,0,0:0:0:0:
224,160,73048,1,8,0:0:0:0:
224,160,73191,1,8,0:0:0:0:
224,224,73333,1,0,0:0:0:0:
224,160,73476,1,8,0:0:0:0:
224,224,73548,1,0,0:0:0:0:
224,160,73619,1,8,0:0:0:0:
224,160,73762,1,8,0:0:0:0:
224,224,73833,1,0,0:0:0:0:
224,160,73905,1,8,0:0:0:0:
224,160,74048,1,8,0:0:0:0:
224,160,74119,1,8,0:0:0:0:
224,160,74191,1,8,0:0:0:0:
224,160,74262,1,8,0:0:0:0:
224,224,74333,1,0,0:0:0:0:
288,160,74476,1,12,0:0:0:0:
224,160,74762,1,8,0:0:0:0:
224,224,74905,1,0,0:0:0:0:
224,160,74976,1,8,0:0:0:0:
224,224,75048,1,0,0:0:0:0:
224,224,75191,1,0,0:0:0:0:
224,160,75333,1,8,0:0:0:0:
224,160,75476,1,8,0:0:0:0:
224,224,75619,1,0,0:0:0:0:
224,224,75762,1,0,0:0:0:0:
224,160,75905,1,8,0:0:0:0:
224,224,76048,1,0,0:0:0:0:
224,160,76191,1,8,0:0:0:0:
224,160,76262,1,8,0:0:0:0:
224,224,76333,1,0,0:0:0:0:
224,224,76405,1,0,0:0:0:0:
224,160,76476,1,8,0:0:0:0:
224,224,76762,1,0,0:0:0:0:
224,224,76833,1,0,0:0:0:0:
224,224,76905,1,0,0:0:0:0:
224,224,76976,1,0,0:0:0:0:
224,160,77048,1,8,0:0:0:0:
224,224,77191,1,0,0:0:0:0:
224,224,77262,1,0,0:0:0:0:
224,160,77333,1,8,0:0:0:0:
224,160,77548,1,8,0:0:0:0:
224,224,77619,1,0,0:0:0:0:
224,160,77762,1,8,0:0:0:0:
224,160,77833,1,8,0:0:0:0:
224,224,77905,1,0,0:0:0:0:
224,224,78048,1,0,0:0:0:0:
224,160,78191,1,8,0:0:0:0:
224,224,78333,1,0,0:0:0:0:
224,160,78476,1,8,0:0:0:0:
224,160,78548,1,8,0:0:0:0:
224,224,78619,1,0,0:0:0:0:
224,224,78691,1,0,0:0:0:0:
224,160,78762,1,8,0:0:0:0:
224,224,78905,1,0,0:0:0:0:
288,224,79048,5,4,0:0:0:0:
224,160,79333,1,8,0:0:0:0:
224,160,79905,1,8,0:0:0:0:
288,224,80191,1,4,0:0:0:0:
224,160,80476,1,8,0:0:0:0:
224,160,80762,1,8,0:0:0:0:
224,160,81048,1,8,0:0:0:0:
224,224,81333,1,0,0:0:0:0:
224,224,81476,1,0,0:0:0:0:
224,224,81548,1,0,0:0:0:0:
224,160,81619,1,8,0:0:0:0:
224,224,81762,1,0,0:0:0:0:
224,224,81833,1,0,0:0:0:0:
224,160,81905,1,8,0:0:0:0:
224,224,82048,1,0,0:0:0:0:
224,224,82119,1,0,0:0:0:0:
224,160,82191,1,8,0:0:0:0:
224,224,82333,1,0,0:0:0:0:
224,224,82405,1,0,0:0:0:0:
224,160,82476,5,8,0:0:0:0:
224,224,82619,1,0,0:0:0:0:
224,224,82691,1,0,0:0:0:0:
224,160,82762,1,8,0:0:0:0:
224,160,82833,1,8,0:0:0:0:
224,224,82905,1,0,0:0:0:0:
224,224,82976,1,0,0:0:0:0:
224,160,83048,1,8,0:0:0:0:
224,224,83333,1,0,0:0:0:0:
224,160,83619,5,8,0:0:0:0:
224,160,83905,5,8,0:0:0:0:
224,224,84048,1,0,0:0:0:0:
224,224,84119,1,0,0:0:0:0:
224,160,84191,5,8,0:0:0:0:
224,224,84333,1,0,0:0:0:0:
224,224,84476,5,0,0:0:0:0:
224,160,84619,5,8,0:0:0:0:
224,224,84762,1,0,0:0:0:0:
224,160,84905,5,8,0:0:0:0:
224,160,85048,5,8,0:0:0:0:
224,224,85191,1,0,0:0:0:0:
224,160,85333,5,8,0:0:0:0:
224,160,85476,1,8,0:0:0:0:
224,224,85548,1,0,0:0:0:0:
224,160,85619,5,8,0:0:0:0:
224,160,85905,5,8,0:0:0:0:
224,160,86191,5,8,0:0:0:0:
224,224,86333,1,0,0:0:0:0:
224,224,86405,1,0,0:0:0:0:
224,160,86476,5,8,0:0:0:0:
224,224,86619,1,0,0:0:0:0:
224,224,86762,5,0,0:0:0:0:
224,160,86905,5,8,0:0:0:0:
224,224,87048,1,0,0:0:0:0:
224,160,87191,1,8,0:0:0:0:
224,160,87262,5,8,0:0:0:0:
224,224,87333,1,0,0:0:0:0:
224,160,87476,1,8,0:0:0:0:
224,160,87548,5,8,0:0:0:0:
224,224,87619,5,0,0:0:0:0:
224,160,87762,5,8,0:0:0:0:
224,160,87833,1,8,0:0:0:0:
224,224,87905,1,0,0:0:0:0:
224,224,87976,1,0,0:0:0:0:
224,160,88048,1,8,0:0:0:0:
288,160,88191,1,12,0:0:0:0:
224,160,88476,5,8,0:0:0:0:
224,224,88619,1,0,0:0:0:0:
224,224,88691,1,0,0:0:0:0:
224,160,88762,5,8,0:0:0:0:
224,224,88905,1,0,0:0:0:0:
224,224,89048,5,0,0:0:0:0:
224,160,89191,5,8,0:0:0:0:
224,224,89333,1,0,0:0:0:0:
224,160,89476,5,8,0:0:0:0:
224,160,89619,5,8,0:0:0:0:
224,224,89762,1,0,0:0:0:0:
224,160,89905,5,8,0:0:0:0:
224,160,90048,1,8,0:0:0:0:
224,224,90119,1,0,0:0:0:0:
224,160,90191,5,8,0:0:0:0:
224,224,90476,1,0,0:0:0:0:
224,224,90619,5,0,0:0:0:0:
224,224,90691,1,0,0:0:0:0:
224,160,90762,1,8,0:0:0:0:
224,160,90905,5,8,0:0:0:0:
224,160,90976,5,8,0:0:0:0:
224,224,91048,1,0,0:0:0:0:
224,160,91191,5,8,0:0:0:0:
224,224,91333,1,0,0:0:0:0:
224,224,91405,1,0,0:0:0:0:
224,224,91476,5,0,0:0:0:0:
224,224,91548,1,0,0:0:0:0:
224,160,91619,1,8,0:0:0:0:
224,160,91762,5,8,0:0:0:0:
224,160,91833,1,8,0:0:0:0:
224,224,91905,1,0,0:0:0:0:
224,224,92048,5,0,0:0:0:0:
224,160,92191,1,8,0:0:0:0:
224,160,92262,1,8,0:0:0:0:
224,160,92333,5,8,0:0:0:0:
224,160,92405,5,8,0:0:0:0:
224,224,92476,1,0,0:0:0:0:
224,224,92762,1,0,0:0:0:0:
224,160,92905,1,8,0:0:0:0:
224,224,93048,1,0,0:0:0:0:
224,224,93119,1,0,0:0:0:0:
224,160,93191,1,8,0:0:0:0:
224,224,93333,1,0,0:0:0:0:
224,160,93476,1,8,0:0:0:0:
224,224,93619,1,0,0:0:0:0:
224,224,93691,1,0,0:0:0:0:
224,160,93762,1,8,0:0:0:0:
224,224,93905,1,0,0:0:0:0:
224,160,94048,1,8,0:0:0:0:
224,224,94191,1,0,0:0:0:0:
224,224,94262,1,0,0:0:0:0:
224,224,94333,1,0,0:0:0:0:
224,224,94405,1,0,0:0:0:0:
224,160,94476,1,8,0:0:0:0:
224,224,94619,1,0,0:0:0:0:
224,224,94691,1,0,0:0:0:0:
224,160,94762,1,8,0:0:0:0:
224,224,95048,1,0,0:0:0:0:
224,160,95191,1,8,0:0:0:0:
224,224,95333,1,0,0:0:0:0:
224,224,95405,1,0,0:0:0:0:
224,160,95476,1,8,0:0:0:0:
224,224,95619,1,0,0:0:0:0:
224,160,95762,1,8,0:0:0:0:
224,224,95905,1,0,0:0:0:0:
224,224,95976,1,0,0:0:0:0:
224,160,96048,1,8,0:0:0:0:
224,160,96191,5,8,0:0:0:0:
224,160,96262,1,8,0:0:0:0:
224,160,96333,5,8,0:0:0:0:
224,160,96405,5,8,0:0:0:0:
224,224,96476,1,0,0:0:0:0:
224,160,96619,1,8,0:0:0:0:
224,160,96691,1,8,0:0:0:0:
224,224,96762,5,0,0:0:0:0:
224,160,96905,5,8,0:0:0:0:
224,160,96976,1,8,0:0:0:0:
224,224,97048,1,0,0:0:0:0:
224,160,97191,5,8,0:0:0:0:
224,224,97333,1,0,0:0:0:0:
224,160,97476,1,8,0:0:0:0:
224,224,97619,1,0,0:0:0:0:
224,224,97691,1,0,0:0:0:0:
224,160,97762,1,8,0:0:0:0:
224,224,97905,1,0,0:0:0:0:
224,160,98048,1,8,0:0:0:0:
224,224,98191,1,0,0:0:0:0:
224,224,98262,1,0,0:0:0:0:
224,160,98333,1,8,0:0:0:0:
224,224,98476,1,0,0:0:0:0:
224,160,98619,1,8,0:0:0:0:
224,224,98762,1,0,0:0:0:0:
224,224,98833,1,0,0:0:0:0:
224,224,98905,1,0,0:0:0:0:
224,224,98976,1,0,0:0:0:0:
224,160,99048,1,8,0:0:0:0:
224,224,99191,1,0,0:0:0:0:
224,224,99262,1,0,0:0:0:0:
224,160,99333,1,8,0:0:0:0:
224,160,99619,1,8,0:0:0:0:
224,160,99691,1,8,0:0:0:0:
224,224,99762,5,0,0:0:0:0:
224,224,99833,1,0,0:0:0:0:
224,160,99905,1,8,0:0:0:0:
224,224,100048,5,0,0:0:0:0:
224,224,100119,1,0,0:0:0:0:
224,160,100191,5,8,0:0:0:0:
224,224,100333,1,0,0:0:0:0:
224,160,100476,5,8,0:0:0:0:
224,160,100548,5,8,0:0:0:0:
224,224,100619,1,0,0:0:0:0:
224,224,100691,1,0,0:0:0:0:
224,160,100762,5,8,0:0:0:0:
224,224,100905,5,0,0:0:0:0:
224,224,100976,1,0,0:0:0:0:
224,160,101048,1,8,0:0:0:0:
224,160,101191,5,8,0:0:0:0:
224,224,101333,1,0,0:0:0:0:
224,160,101476,5,8,0:0:0:0:
224,160,101548,1,8,0:0:0:0:
224,224,101619,1,0,0:0:0:0:
224,224,101691,1,0,0:0:0:0:
224,160,101762,1,8,0:0:0:0:
256,192,101905,6,0,L|256:128,2,35
256,192,102190,12,0,102333,0:0:0:0:
256,192,102476,12,0,102619,0:0:0:0:
256,192,102762,6,0,L|256:128,2,35
288,224,103047,5,4,0:0:0:0:
288,160,103333,1,12,0:0:0:0:
288,160,103619,1,8,0:0:0:0:
288,160,103690,1,8,0:0:0:0:
288,160,103762,1,8,0:0:0:0:
256,192,103904,6,0,L|256:128,2,35
256,192,104189,12,0,104332,0:0:0:0:
256,192,104475,12,0,104618,0:0:0:0:
256,192,104761,6,0,L|256:128,2,35
288,160,105046,1,12,0:0:0:0:
288,224,105332,1,4,0:0:0:0:
224,160,105618,1,8,0:0:0:0:
224,160,105689,1,8,0:0:0:0:
224,160,105761,1,8,0:0:0:0:
224,160,105832,1,8,0:0:0:0:
224,224,105903,1,0,0:0:0:0:
224,224,106046,1,0,0:0:0:0:
256,192,106189,6,0,L|256:128,2,35
256,192,106474,12,0,106617,0:0:0:0:
256,192,106760,12,0,106903,0:0:0:0:
256,192,107046,6,0,L|256:128,2,35
288,224,107331,5,4,0:0:0:0:
288,160,107617,1,12,0:0:0:0:
224,224,107903,1,0,0:0:0:0:
224,224,107974,1,0,0:0:0:0:
224,224,108046,1,0,0:0:0:0:
224,224,108117,1,0,0:0:0:0:
224,160,108188,1,8,0:0:0:0:
224,160,108331,1,8,0:0:0:0:
256,192,108474,6,0,L|256:128,2,35
256,192,108759,12,0,108902,0:0:0:0:
256,192,109045,12,0,109188,0:0:0:0:
256,192,109331,6,0,L|256:128,2,35
224,160,109616,1,8,0:0:0:0:
224,224,109688,1,0,0:0:0:0:
224,224,109759,1,0,0:0:0:0:
224,160,109902,1,8,0:0:0:0:
224,224,109973,1,0,0:0:0:0:
224,224,110045,1,0,0:0:0:0:
224,160,110188,1,8,0:0:0:0:
224,160,110259,1,8,0:0:0:0:
224,224,110331,1,0,0:0:0:0:
224,160,110473,1,8,0:0:0:0:
224,160,110545,1,8,0:0:0:0:
224,224,110616,1,0,0:0:0:0:
288,224,110759,1,4,0:0:0:0:
224,224,111901,1,0,0:0:0:0:
224,160,111997,1,8,0:0:0:0:
224,160,112092,1,8,0:0:0:0:
224,224,112187,1,0,0:0:0:0:
224,160,112282,1,8,0:0:0:0:
224,160,112378,1,8,0:0:0:0:
224,224,112473,1,0,0:0:0:0:
288,160,112759,1,12,0:0:0:0:
