osu file format v14

[General]
AudioFilename: audio.mp3
AudioLeadIn: 0
PreviewTime: 15911
Countdown: 0
SampleSet: Normal
StackLeniency: 0.7
Mode: 1
LetterboxInBreaks: 0
WidescreenStoryboard: 1

[Editor]
DistanceSpacing: 0.8
BeatDivisor: 4
GridSize: 32
TimelineZoom: 2.5

[Metadata]
Title:Hinaru Medjed no Hinaru Yuuutsu
TitleUnicode:秘ナルメジェドノ悲ナル憂鬱
Artist:Kobayashi Yuuya (IOSYS) feat. Yamamoto Momiji (monotone)
ArtistUnicode:コバヤシユウヤ (IOSYS) feat. 山本椛 (monotone)
Creator:ARGENTINE DREAM
Version:Muzukashii
Source:太鼓の達人 ブルーVer.
Tags:taiko no tatsujin blue version namco original void ボイド d.watt ディーワット shichijou lettuce 七条レタス tnt
BeatmapID:1735443
BeatmapSetID:828297

[Difficulty]
HPDrainRate:5
CircleSize:5
OverallDifficulty:5
ApproachRate:5
SliderMultiplier:1.4
SliderTickRate:3

[Events]
//Background and Video events
0,0,"mejedom.jpg",0,30
//Break Periods
//Storyboard Layer 0 (Background)
//Storyboard Layer 1 (Fail)
//Storyboard Layer 2 (Pass)
//Storyboard Layer 3 (Foreground)
//Storyboard Sound Samples

[TimingPoints]
966,333.333333333333,4,1,0,75,1,0
966,-125,4,1,0,75,0,0
11626,285.714285714286,4,1,0,75,1,0
11626,-144.927536231884,4,1,0,75,0,0
11911,-100,4,1,0,75,0,0
16197,-100,4,1,0,75,0,1
38483,-100,4,1,0,75,0,0
38768,-111.111111111111,4,1,0,75,0,0
40196,285.714285714286,3,1,0,75,1,0
41053,285.714285714286,4,1,0,75,1,0
42195,285.714285714286,3,1,0,75,1,0
43052,285.714285714286,4,1,0,75,1,0
44194,285.714285714286,3,1,0,75,1,0
45051,285.714285714286,4,1,0,75,1,0
47336,285.714285714286,3,1,0,75,1,1
48193,285.714285714286,4,1,0,75,1,1
49336,285.714285714286,3,1,0,75,1,1
50193,285.714285714286,5,1,0,75,1,1
51621,285.714285714286,3,1,0,75,1,1
52478,285.714285714286,5,1,0,75,1,1
53906,285.714285714286,3,1,0,75,1,1
54763,285.714285714286,5,1,0,75,1,1
56191,285.714285714286,4,1,0,75,1,0
61048,-125,4,1,0,75,0,0
65333,-111.111111111111,4,1,0,75,0,0
68762,-100,4,1,0,75,0,0
69905,-100,4,1,0,75,0,1
83048,-100,4,1,0,75,0,0
92762,-100,4,1,0,75,0,1
101905,285.714285714286,3,1,0,75,1,1
102762,285.714285714286,5,1,0,75,1,1
103904,285.714285714286,3,1,0,75,1,1
104761,285.714285714286,5,1,0,75,1,1
106189,285.714285714286,3,1,0,75,1,1
107046,285.714285714286,5,1,0,75,1,1
108474,285.714285714286,3,1,0,75,1,1
109331,285.714285714286,5,1,0,75,1,1
110759,285.714285714286,4,1,0,75,1,0

[HitObjects]
224,224,966,5,0,0:0:0:0:
224,160,1632,1,8,0:0:0:0:
224,224,1965,1,0,0:0:0:0:
224,224,2077,1,0,0:0:0:0:
224,224,2188,1,0,0:0:0:0:
224,224,2299,1,0,0:0:0:0:
224,160,2965,1,8,0:0:0:0:
224,224,3632,1,0,0:0:0:0:
224,160,4299,1,8,0:0:0:0:
224,224,4632,1,0,0:0:0:0:
224,160,4965,1,8,0:0:0:0:
224,160,5299,1,8,0:0:0:0:
224,224,5632,1,0,0:0:0:0:
224,160,5965,1,8,0:0:0:0:
224,224,6299,1,0,0:0:0:0:
224,160,6965,1,8,0:0:0:0:
224,224,7299,1,0,0:0:0:0:
224,224,7410,1,0,0:0:0:0:
224,224,7521,1,0,0:0:0:0:
224,224,7632,1,0,0:0:0:0:
224,160,8299,1,8,0:0:0:0:
224,224,8965,1,0,0:0:0:0:
224,160,9632,1,8,0:0:0:0:
224,160,9965,1,8,0:0:0:0:
224,160,10077,1,8,0:0:0:0:
224,160,10188,1,8,0:0:0:0:
224,160,10299,1,8,0:0:0:0:
224,224,10632,1,0,0:0:0:0:
224,224,10799,1,0,0:0:0:0:
224,160,10965,1,8,0:0:0:0:
224,224,11132,1,0,0:0:0:0:
224,224,11215,1,0,0:0:0:0:
224,224,11299,1,0,0:0:0:0:
224,224,11465,1,0,0:0:0:0:
224,224,11549,1,0,0:0:0:0:
224,160,11626,1,8,0:0:0:0:
224,160,11911,1,8,0:0:0:0:
224,160,12483,1,8,0:0:0:0:
224,224,12768,1,0,0:0:0:0:
224,160,13054,1,8,0:0:0:0:
224,160,13626,1,8,0:0:0:0:
224,224,13911,1,0,0:0:0:0:
224,224,14626,1,0,0:0:0:0:
224,160,15054,1,8,0:0:0:0:
224,160,15126,1,8,0:0:0:0:
224,160,15197,1,8,0:0:0:0:
224,224,15340,1,0,0:0:0:0:
224,224,15411,1,0,0:0:0:0:
224,224,15483,1,0,0:0:0:0:
224,160,15626,1,8,0:0:0:0:
224,224,16197,1,0,0:0:0:0:
224,224,16340,1,0,0:0:0:0:
224,160,16483,1,8,0:0:0:0:
224,224,16626,1,0,0:0:0:0:
224,224,16697,1,0,0:0:0:0:
224,224,16768,1,0,0:0:0:0:
224,224,16911,1,0,0:0:0:0:
224,160,17054,1,8,0:0:0:0:
224,224,17340,1,0,0:0:0:0:
224,224,17483,1,0,0:0:0:0:
224,160,17626,1,8,0:0:0:0:
224,224,17768,1,0,0:0:0:0:
224,160,17911,1,8,0:0:0:0:
224,160,17983,1,8,0:0:0:0:
224,160,18054,1,8,0:0:0:0:
224,224,18197,1,0,0:0:0:0:
224,224,18483,1,0,0:0:0:0:
224,224,18626,1,0,0:0:0:0:
224,160,18768,1,8,0:0:0:0:
224,224,18911,1,0,0:0:0:0:
224,160,19340,1,8,0:0:0:0:
224,224,19626,1,0,0:0:0:0:
224,160,19768,1,8,0:0:0:0:
224,160,19911,1,8,0:0:0:0:
224,224,20054,1,0,0:0:0:0:
224,224,20126,1,0,0:0:0:0:
224,224,20197,1,0,0:0:0:0:
224,160,20340,1,8,0:0:0:0:
224,160,20411,1,8,0:0:0:0:
224,160,20483,1,8,0:0:0:0:
288,224,20768,1,4,0:0:0:0:
224,160,21054,1,8,0:0:0:0:
224,224,21197,1,0,0:0:0:0:
224,224,21268,1,0,0:0:0:0:
224,224,21340,1,0,0:0:0:0:
224,224,21483,1,0,0:0:0:0:
224,160,21626,1,8,0:0:0:0:
224,224,21911,1,0,0:0:0:0:
224,224,22054,1,0,0:0:0:0:
224,160,22197,1,8,0:0:0:0:
224,224,22340,1,0,0:0:0:0:
224,160,22483,1,8,0:0:0:0:
224,160,22554,1,8,0:0:0:0:
224,160,22626,1,8,0:0:0:0:
224,160,22768,1,8,0:0:0:0:
224,224,23054,1,0,0:0:0:0:
224,224,23197,1,0,0:0:0:0:
224,160,23340,1,8,0:0:0:0:
224,224,23483,1,0,0:0:0:0:
224,224,23911,1,0,0:0:0:0:
224,224,24054,1,0,0:0:0:0:
224,160,24197,1,8,0:0:0:0:
224,160,24340,1,8,0:0:0:0:
224,160,24411,1,8,0:0:0:0:
224,160,24483,1,8,0:0:0:0:
224,224,24626,1,0,0:0:0:0:
224,224,24768,1,0,0:0:0:0:
224,160,24911,1,8,0:0:0:0:
224,160,24983,1,8,0:0:0:0:
224,160,25054,1,8,0:0:0:0:
288,224,25340,1,4,0:0:0:0:
224,160,25626,1,8,0:0:0:0:
224,224,25768,1,0,0:0:0:0:
224,224,25840,1,0,0:0:0:0:
224,224,25911,1,0,0:0:0:0:
224,224,26054,1,0,0:0:0:0:
224,160,26197,1,8,0:0:0:0:
224,224,26483,1,0,0:0:0:0:
224,224,26626,1,0,0:0:0:0:
224,160,26768,1,8,0:0:0:0:
224,224,26911,1,0,0:0:0:0:
224,160,27054,1,8,0:0:0:0:
224,160,27126,1,8,0:0:0:0:
224,160,27197,1,8,0:0:0:0:
224,224,27340,1,0,0:0:0:0:
224,224,27626,1,0,0:0:0:0:
224,224,27768,1,0,0:0:0:0:
224,160,27911,1,8,0:0:0:0:
224,224,28054,1,0,0:0:0:0:
224,160,28483,1,8,0:0:0:0:
224,224,28768,1,0,0:0:0:0:
224,160,28911,1,8,0:0:0:0:
224,160,28983,1,8,0:0:0:0:
224,160,29054,1,8,0:0:0:0:
224,224,29197,1,0,0:0:0:0:
224,224,29340,1,0,0:0:0:0:
224,160,29483,1,8,0:0:0:0:
224,160,29554,1,8,0:0:0:0:
224,160,29626,1,8,0:0:0:0:
288,224,29911,1,4,0:0:0:0:
224,160,30197,1,8,0:0:0:0:
224,224,30340,1,0,0:0:0:0:
224,224,30411,1,0,0:0:0:0:
224,224,30483,1,0,0:0:0:0:
224,224,30626,1,0,0:0:0:0:
224,160,30768,1,8,0:0:0:0:
224,224,31054,1,0,0:0:0:0:
224,224,31197,1,0,0:0:0:0:
224,160,31340,1,8,0:0:0:0:
224,224,31483,1,0,0:0:0:0:
224,160,31626,1,8,0:0:0:0:
224,160,31697,1,8,0:0:0:0:
224,160,31768,1,8,0:0:0:0:
224,224,31911,1,0,0:0:0:0:
224,224,32197,1,0,0:0:0:0:
224,224,32268,1,0,0:0:0:0:
224,224,32340,1,0,0:0:0:0:
224,160,32483,1,8,0:0:0:0:
224,160,32626,1,8,0:0:0:0:
224,224,32768,1,0,0:0:0:0:
224,224,32840,1,0,0:0:0:0:
224,224,33054,1,0,0:0:0:0:
224,224,33126,1,0,0:0:0:0:
224,160,33340,1,8,0:0:0:0:
224,224,33483,1,0,0:0:0:0:
224,160,33626,1,8,0:0:0:0:
224,160,33768,1,8,0:0:0:0:
224,224,33911,1,0,0:0:0:0:
224,224,34054,1,0,0:0:0:0:
224,224,34126,1,0,0:0:0:0:
224,160,34197,1,8,0:0:0:0:
288,224,34483,1,4,0:0:0:0:
224,160,34768,1,8,0:0:0:0:
224,160,35340,1,8,0:0:0:0:
288,224,35626,1,4,0:0:0:0:
224,160,35911,1,8,0:0:0:0:
224,160,36197,1,8,0:0:0:0:
224,160,36483,1,8,0:0:0:0:
224,224,36768,1,0,0:0:0:0:
224,160,37054,1,8,0:0:0:0:
224,224,37197,1,0,0:0:0:0:
224,160,37340,1,8,0:0:0:0:
224,224,37483,1,0,0:0:0:0:
224,160,37626,1,8,0:0:0:0:
224,224,37768,1,0,0:0:0:0:
224,224,37840,1,0,0:0:0:0:
224,224,37911,1,0,0:0:0:0:
224,160,38054,1,8,0:0:0:0:
224,160,38126,1,8,0:0:0:0:
224,160,38197,1,8,0:0:0:0:
224,160,38340,1,8,0:0:0:0:
224,160,38483,1,8,0:0:0:0:
224,224,39054,1,0,0:0:0:0:
224,160,39340,1,8,0:0:0:0:
224,160,39483,1,8,0:0:0:0:
224,224,39626,1,0,0:0:0:0:
224,224,39768,1,0,0:0:0:0:
224,224,39911,1,0,0:0:0:0:
224,160,40054,1,8,0:0:0:0:
224,224,40197,1,0,0:0:0:0:
224,224,40481,1,0,0:0:0:0:
224,224,40624,1,0,0:0:0:0:
224,160,40767,1,8,0:0:0:0:
224,160,41053,1,8,0:0:0:0:
224,224,41338,1,0,0:0:0:0:
224,224,41481,1,0,0:0:0:0:
224,160,41624,1,8,0:0:0:0:
224,160,41767,1,8,0:0:0:0:
224,160,41910,1,8,0:0:0:0:
224,224,42053,1,0,0:0:0:0:
224,160,42195,1,8,0:0:0:0:
224,160,42480,1,8,0:0:0:0:
224,224,42623,1,0,0:0:0:0:
224,224,42766,1,0,0:0:0:0:
224,160,43052,1,8,0:0:0:0:
224,160,43337,1,8,0:0:0:0:
224,224,43480,1,0,0:0:0:0:
224,160,43623,1,8,0:0:0:0:
224,160,43766,1,8,0:0:0:0:
224,160,43909,1,8,0:0:0:0:
224,224,44052,1,0,0:0:0:0:
224,224,44194,1,0,0:0:0:0:
224,160,44479,1,8,0:0:0:0:
224,160,44622,1,8,0:0:0:0:
224,224,44765,1,0,0:0:0:0:
224,224,45051,1,0,0:0:0:0:
224,160,45336,1,8,0:0:0:0:
224,160,45479,1,8,0:0:0:0:
224,224,45622,1,0,0:0:0:0:
224,224,45765,1,0,0:0:0:0:
224,160,45908,1,8,0:0:0:0:
224,224,46051,1,0,0:0:0:0:
224,160,46336,1,8,0:0:0:0:
224,160,46765,1,8,0:0:0:0:
224,160,47051,1,8,0:0:0:0:
224,224,47336,1,0,0:0:0:0:
224,224,47478,1,0,0:0:0:0:
288,160,47621,1,12,0:0:0:0:
288,160,47907,1,12,0:0:0:0:
224,224,48193,1,0,0:0:0:0:
224,224,48335,1,0,0:0:0:0:
288,160,48478,1,12,0:0:0:0:
288,160,48764,1,12,0:0:0:0:
288,224,49050,1,4,0:0:0:0:
224,224,49336,1,0,0:0:0:0:
224,224,49478,1,0,0:0:0:0:
288,160,49621,1,12,0:0:0:0:
288,160,49907,1,12,0:0:0:0:
224,224,50193,1,0,0:0:0:0:
224,224,50335,1,0,0:0:0:0:
288,160,50478,1,12,0:0:0:0:
288,160,50764,1,12,0:0:0:0:
288,224,51050,1,4,0:0:0:0:
288,224,51335,1,4,0:0:0:0:
224,224,51621,1,0,0:0:0:0:
224,224,51763,1,0,0:0:0:0:
288,160,51906,1,12,0:0:0:0:
288,160,52192,1,12,0:0:0:0:
224,224,52478,1,0,0:0:0:0:
224,224,52620,1,0,0:0:0:0:
288,160,52763,1,12,0:0:0:0:
288,160,53049,1,12,0:0:0:0:
288,224,53335,1,4,0:0:0:0:
288,224,53620,1,4,0:0:0:0:
224,224,53906,1,0,0:0:0:0:
224,224,54048,1,0,0:0:0:0:
288,160,54191,1,12,0:0:0:0:
288,160,54477,1,12,0:0:0:0:
224,224,54763,1,0,0:0:0:0:
224,224,54905,1,0,0:0:0:0:
288,160,55048,1,12,0:0:0:0:
288,160,55334,1,12,0:0:0:0:
224,224,55620,1,0,0:0:0:0:
224,224,55691,1,0,0:0:0:0:
224,224,55763,1,0,0:0:0:0:
224,224,55905,1,0,0:0:0:0:
224,224,55977,1,0,0:0:0:0:
224,224,56048,1,0,0:0:0:0:
288,224,56191,1,4,0:0:0:0:
288,224,57333,1,4,0:0:0:0:
288,224,58476,1,4,0:0:0:0:
288,224,59048,1,4,0:0:0:0:
288,224,59619,1,4,0:0:0:0:
288,224,59905,1,4,0:0:0:0:
288,224,60191,1,4,0:0:0:0:
224,160,60333,1,8,0:0:0:0:
224,160,60405,1,8,0:0:0:0:
224,160,60476,1,8,0:0:0:0:
224,160,60619,1,8,0:0:0:0:
288,224,60762,1,4,0:0:0:0:
224,160,61048,1,8,0:0:0:0:
224,160,61619,1,8,0:0:0:0:
224,224,61905,1,0,0:0:0:0:
224,160,62191,1,8,0:0:0:0:
224,160,62762,1,8,0:0:0:0:
224,224,63048,1,0,0:0:0:0:
224,160,63333,1,8,0:0:0:0:
224,160,63905,1,8,0:0:0:0:
224,224,64191,1,0,0:0:0:0:
224,160,64476,1,8,0:0:0:0:
224,160,65048,1,8,0:0:0:0:
288,224,65333,1,4,0:0:0:0:
224,224,65619,1,0,0:0:0:0:
224,224,66191,1,0,0:0:0:0:
224,224,66476,1,0,0:0:0:0:
224,224,66762,1,0,0:0:0:0:
224,224,67048,1,0,0:0:0:0:
224,224,67333,1,0,0:0:0:0:
288,160,67619,5,12,0:0:0:0:
224,160,68762,5,8,0:0:0:0:
224,160,68905,1,8,0:0:0:0:
224,160,68976,1,8,0:0:0:0:
224,160,69048,1,8,0:0:0:0:
224,224,69191,1,0,0:0:0:0:
224,224,69333,1,0,0:0:0:0:
224,160,69476,1,8,0:0:0:0:
224,160,69548,1,8,0:0:0:0:
224,160,69619,1,8,0:0:0:0:
224,160,69762,1,8,0:0:0:0:
288,224,69905,1,4,0:0:0:0:
224,160,70191,1,8,0:0:0:0:
224,224,70333,1,0,0:0:0:0:
224,224,70405,1,0,0:0:0:0:
224,224,70476,1,0,0:0:0:0:
224,224,70619,1,0,0:0:0:0:
224,160,70762,1,8,0:0:0:0:
224,224,71048,1,0,0:0:0:0:
224,224,71191,1,0,0:0:0:0:
224,160,71333,1,8,0:0:0:0:
224,224,71476,1,0,0:0:0:0:
224,160,71619,1,8,0:0:0:0:
224,160,71691,1,8,0:0:0:0:
224,160,71762,1,8,0:0:0:0:
224,224,71905,1,0,0:0:0:0:
224,224,72191,1,0,0:0:0:0:
224,224,72333,1,0,0:0:0:0:
224,160,72476,1,8,0:0:0:0:
224,224,72619,1,0,0:0:0:0:
224,160,73048,1,8,0:0:0:0:
224,224,73333,1,0,0:0:0:0:
224,160,73476,1,8,0:0:0:0:
224,160,73548,1,8,0:0:0:0:
224,160,73619,1,8,0:0:0:0:
224,224,73762,1,0,0:0:0:0:
224,224,73905,1,0,0:0:0:0:
224,160,74048,1,8,0:0:0:0:
224,160,74119,1,8,0:0:0:0:
224,160,74191,1,8,0:0:0:0:
288,224,74476,1,4,0:0:0:0:
224,160,74762,1,8,0:0:0:0:
224,224,74905,1,0,0:0:0:0:
224,224,74976,1,0,0:0:0:0:
224,224,75048,1,0,0:0:0:0:
224,224,75191,1,0,0:0:0:0:
224,160,75333,1,8,0:0:0:0:
224,224,75619,1,0,0:0:0:0:
224,224,75762,1,0,0:0:0:0:
224,160,75905,1,8,0:0:0:0:
224,224,76048,1,0,0:0:0:0:
224,160,76191,1,8,0:0:0:0:
224,160,76262,1,8,0:0:0:0:
224,160,76333,1,8,0:0:0:0:
224,224,76476,1,0,0:0:0:0:
224,224,76762,1,0,0:0:0:0:
224,224,76833,1,0,0:0:0:0:
224,224,76905,1,0,0:0:0:0:
224,160,77048,1,8,0:0:0:0:
224,160,77191,1,8,0:0:0:0:
224,224,77333,1,0,0:0:0:0:
224,224,77405,1,0,0:0:0:0:
224,224,77619,1,0,0:0:0:0:
224,224,77691,1,0,0:0:0:0:
224,160,77905,1,8,0:0:0:0:
224,224,78048,1,0,0:0:0:0:
224,160,78191,1,8,0:0:0:0:
224,160,78333,1,8,0:0:0:0:
224,224,78476,1,0,0:0:0:0:
224,224,78619,1,0,0:0:0:0:
224,224,78691,1,0,0:0:0:0:
224,160,78762,1,8,0:0:0:0:
288,224,79048,1,4,0:0:0:0:
224,160,79333,1,8,0:0:0:0:
224,160,79905,1,8,0:0:0:0:
288,224,80191,1,4,0:0:0:0:
224,160,80476,1,8,0:0:0:0:
224,160,80762,1,8,0:0:0:0:
224,160,81048,1,8,0:0:0:0:
224,224,81333,1,0,0:0:0:0:
224,160,81619,1,8,0:0:0:0:
224,160,81762,1,8,0:0:0:0:
224,224,81905,1,0,0:0:0:0:
224,160,82048,1,8,0:0:0:0:
224,160,82191,1,8,0:0:0:0:
224,224,82333,1,0,0:0:0:0:
224,224,82405,1,0,0:0:0:0:
224,224,82476,5,0,0:0:0:0:
224,160,82619,1,8,0:0:0:0:
224,160,82691,1,8,0:0:0:0:
224,160,82762,1,8,0:0:0:0:
224,160,82905,1,8,0:0:0:0:
224,160,83048,1,8,0:0:0:0:
224,160,83619,5,8,0:0:0:0:
224,160,83905,5,8,0:0:0:0:
224,224,84048,1,0,0:0:0:0:
224,224,84119,1,0,0:0:0:0:
224,224,84191,5,0,0:0:0:0:
224,224,84333,1,0,0:0:0:0:
224,224,84762,1,0,0:0:0:0:
224,224,84905,5,0,0:0:0:0:
224,160,85048,5,8,0:0:0:0:
224,224,85191,1,0,0:0:0:0:
224,160,85333,5,8,0:0:0:0:
224,160,85476,1,8,0:0:0:0:
224,160,85548,1,8,0:0:0:0:
224,160,85619,5,8,0:0:0:0:
224,160,85905,5,8,0:0:0:0:
224,160,86191,5,8,0:0:0:0:
224,224,86333,1,0,0:0:0:0:
224,224,86405,1,0,0:0:0:0:
224,224,86476,5,0,0:0:0:0:
224,224,86619,1,0,0:0:0:0:
224,160,86762,5,8,0:0:0:0:
224,160,86905,5,8,0:0:0:0:
224,224,87048,1,0,0:0:0:0:
224,224,87333,5,0,0:0:0:0:
224,224,87476,5,0,0:0:0:0:
224,160,87619,5,8,0:0:0:0:
224,160,87762,5,8,0:0:0:0:
224,160,87833,1,8,0:0:0:0:
224,160,87905,1,8,0:0:0:0:
224,224,88048,1,0,0:0:0:0:
288,160,88191,1,12,0:0:0:0:
224,160,88476,5,8,0:0:0:0:
224,224,88619,1,0,0:0:0:0:
224,224,88691,1,0,0:0:0:0:
224,224,88762,5,0,0:0:0:0:
224,224,88905,1,0,0:0:0:0:
224,224,89333,1,0,0:0:0:0:
224,224,89476,5,0,0:0:0:0:
224,160,89619,5,8,0:0:0:0:
224,224,89762,1,0,0:0:0:0:
224,160,89905,5,8,0:0:0:0:
224,160,90048,1,8,0:0:0:0:
224,160,90119,1,8,0:0:0:0:
224,160,90191,5,8,0:0:0:0:
224,224,90476,1,0,0:0:0:0:
224,160,90619,5,8,0:0:0:0:
224,160,90691,1,8,0:0:0:0:
224,160,90762,1,8,0:0:0:0:
224,160,90905,5,8,0:0:0:0:
224,224,91048,1,0,0:0:0:0:
224,224,91333,1,0,0:0:0:0:
224,160,91476,5,8,0:0:0:0:
224,160,91548,1,8,0:0:0:0:
224,160,91619,1,8,0:0:0:0:
224,160,91762,5,8,0:0:0:0:
224,224,91905,1,0,0:0:0:0:
224,160,92191,1,8,0:0:0:0:
224,160,92262,1,8,0:0:0:0:
224,160,92333,1,8,0:0:0:0:
224,224,92476,1,0,0:0:0:0:
224,224,92762,1,0,0:0:0:0:
224,160,92905,1,8,0:0:0:0:
224,224,93048,1,0,0:0:0:0:
224,224,93119,1,0,0:0:0:0:
224,224,93191,1,0,0:0:0:0:
224,160,93333,1,8,0:0:0:0:
224,160,93476,1,8,0:0:0:0:
224,224,93905,1,0,0:0:0:0:
224,224,93976,1,0,0:0:0:0:
224,224,94048,1,0,0:0:0:0:
224,160,94191,1,8,0:0:0:0:
224,160,94333,1,8,0:0:0:0:
224,224,94476,1,0,0:0:0:0:
224,160,94619,1,8,0:0:0:0:
224,160,94691,1,8,0:0:0:0:
224,160,94762,1,8,0:0:0:0:
224,224,95048,1,0,0:0:0:0:
224,160,95191,1,8,0:0:0:0:
224,224,95333,1,0,0:0:0:0:
224,224,95405,1,0,0:0:0:0:
224,224,95476,1,0,0:0:0:0:
224,160,95619,1,8,0:0:0:0:
224,160,95762,1,8,0:0:0:0:
224,224,95905,1,0,0:0:0:0:
224,224,96191,5,0,0:0:0:0:
224,224,96262,1,0,0:0:0:0:
224,224,96333,5,0,0:0:0:0:
224,224,96476,1,0,0:0:0:0:
224,160,96619,1,8,0:0:0:0:
224,160,96691,1,8,0:0:0:0:
224,160,96762,5,8,0:0:0:0:
224,160,96905,5,8,0:0:0:0:
224,160,96976,1,8,0:0:0:0:
224,224,97048,1,0,0:0:0:0:
224,224,97333,1,0,0:0:0:0:
224,160,97476,1,8,0:0:0:0:
224,224,97619,1,0,0:0:0:0:
224,224,97691,1,0,0:0:0:0:
224,224,97762,1,0,0:0:0:0:
224,160,97905,1,8,0:0:0:0:
224,160,98048,1,8,0:0:0:0:
224,224,98476,1,0,0:0:0:0:
224,224,98548,1,0,0:0:0:0:
224,224,98619,1,0,0:0:0:0:
224,160,98762,1,8,0:0:0:0:
224,160,98905,1,8,0:0:0:0:
224,224,99048,1,0,0:0:0:0:
224,160,99191,1,8,0:0:0:0:
224,160,99262,1,8,0:0:0:0:
224,160,99333,1,8,0:0:0:0:
224,160,99619,1,8,0:0:0:0:
224,224,99762,5,0,0:0:0:0:
224,224,99833,1,0,0:0:0:0:
224,224,99905,1,0,0:0:0:0:
224,160,100048,5,8,0:0:0:0:
224,160,100191,1,8,0:0:0:0:
224,160,100476,5,8,0:0:0:0:
224,224,100619,1,0,0:0:0:0:
224,224,100691,1,0,0:0:0:0:
224,224,100762,1,0,0:0:0:0:
224,160,100905,5,8,0:0:0:0:
224,160,101048,1,8,0:0:0:0:
224,224,101191,5,0,0:0:0:0:
224,224,101333,1,0,0:0:0:0:
224,160,101476,5,8,0:0:0:0:
224,160,101548,1,8,0:0:0:0:
224,224,101619,1,0,0:0:0:0:
224,224,101905,1,0,0:0:0:0:
224,224,102047,1,0,0:0:0:0:
288,160,102190,1,12,0:0:0:0:
288,160,102476,1,12,0:0:0:0:
224,224,102762,1,0,0:0:0:0:
224,224,102904,1,0,0:0:0:0:
288,160,103047,1,12,0:0:0:0:
288,160,103333,1,12,0:0:0:0:
288,224,103619,1,4,0:0:0:0:
224,224,103904,1,0,0:0:0:0:
224,224,104046,1,0,0:0:0:0:
288,160,104189,1,12,0:0:0:0:
288,160,104475,1,12,0:0:0:0:
224,224,104761,1,0,0:0:0:0:
224,224,104903,1,0,0:0:0:0:
288,160,105046,1,12,0:0:0:0:
288,160,105332,1,12,0:0:0:0:
288,224,105618,1,4,0:0:0:0:
288,224,105903,1,4,0:0:0:0:
224,224,106189,1,0,0:0:0:0:
224,224,106331,1,0,0:0:0:0:
288,160,106474,1,12,0:0:0:0:
288,160,106760,1,12,0:0:0:0:
224,224,107046,1,0,0:0:0:0:
224,224,107188,1,0,0:0:0:0:
288,160,107331,1,12,0:0:0:0:
288,160,107617,1,12,0:0:0:0:
288,224,107903,1,4,0:0:0:0:
288,224,108188,1,4,0:0:0:0:
224,224,108474,1,0,0:0:0:0:
224,224,108616,1,0,0:0:0:0:
288,160,108759,1,12,0:0:0:0:
288,160,109045,1,12,0:0:0:0:
224,224,109331,1,0,0:0:0:0:
224,224,109473,1,0,0:0:0:0:
288,160,109616,1,12,0:0:0:0:
288,160,109902,1,12,0:0:0:0:
224,224,110188,1,0,0:0:0:0:
224,224,110259,1,0,0:0:0:0:
224,224,110331,1,0,0:0:0:0:
224,224,110473,1,0,0:0:0:0:
224,224,110545,1,0,0:0:0:0:
224,224,110616,1,0,0:0:0:0:
288,224,110759,5,4,0:0:0:0:
256,192,111901,2,0,L|256:128,6,46.6666666666667
288,160,112759,1,12,0:0:0:0:
