osu file format v14

[General]
AudioFilename: audio.mp3
AudioLeadIn: 0
PreviewTime: 15911
Countdown: 0
SampleSet: Normal
StackLeniency: 0.7
Mode: 1
LetterboxInBreaks: 0
WidescreenStoryboard: 1

[Editor]
DistanceSpacing: 0.8
BeatDivisor: 2
GridSize: 32
TimelineZoom: 0.8000002

[Metadata]
Title:Hinaru Medjed no Hinaru Yuuutsu
TitleUnicode:秘ナルメジェドノ悲ナル憂鬱
Artist:Kobayashi Yuuya (IOSYS) feat. Yamamoto Momiji (monotone)
ArtistUnicode:コバヤシユウヤ (IOSYS) feat. 山本椛 (monotone)
Creator:ARGENTINE DREAM
Version:Kantan
Source:太鼓の達人 ブルーVer.
Tags:taiko no tatsujin blue version namco original void ボイド d.watt ディーワット shichijou lettuce 七条レタス tnt
BeatmapID:1735442
BeatmapSetID:828297

[Difficulty]
HPDrainRate:7
CircleSize:5
OverallDifficulty:4
ApproachRate:5
SliderMultiplier:1.4
SliderTickRate:3

[Events]
//Background and Video events
0,0,"mejedoorigin.jpg",0,45
//Break Periods
//Storyboard Layer 0 (Background)
//Storyboard Layer 1 (Fail)
//Storyboard Layer 2 (Pass)
//Storyboard Layer 3 (Foreground)
//Storyboard Sound Samples

[TimingPoints]
966,333.333333333333,4,1,0,75,1,0
966,-125,4,1,0,75,0,0
11626,285.714285714286,4,1,0,75,1,0
11626,-144.927536231884,4,1,0,75,0,0
11911,-125,4,1,0,75,0,0
16197,-125,4,1,0,75,0,1
38483,-125,4,1,0,75,0,0
38768,-142.857142857143,4,1,0,75,0,0
39054,-125,4,1,0,75,0,0
40196,285.714285714286,3,1,0,75,1,0
40196,-125,4,1,0,75,0,0
41053,285.714285714286,4,1,0,75,1,0
41053,-125,4,1,0,75,0,0
42195,285.714285714286,3,1,0,75,1,0
42195,-125,4,1,0,75,0,0
43052,285.714285714286,4,1,0,75,1,0
43052,-125,4,1,0,75,0,0
44194,285.714285714286,3,1,0,75,1,0
44194,-125,4,1,0,75,0,0
45051,285.714285714286,4,1,0,75,1,0
45051,-125,4,1,0,75,0,0
47336,285.714285714286,3,1,0,75,1,1
47336,-125,4,1,0,75,0,1
48193,285.714285714286,4,1,0,75,1,1
48193,-125,4,1,0,75,0,1
49336,285.714285714286,3,1,0,75,1,1
49336,-125,4,1,0,75,0,1
50193,285.714285714286,5,1,0,75,1,1
50193,-125,4,1,0,75,0,1
51621,285.714285714286,3,1,0,75,1,1
51621,-125,3,1,0,75,0,1
52478,285.714285714286,5,1,0,75,1,1
52478,-125,4,1,0,75,0,1
53906,285.714285714286,3,1,0,75,1,1
53906,-125,4,1,0,75,0,1
54763,285.714285714286,5,1,0,75,1,1
54763,-125,4,1,0,75,0,1
56191,285.714285714286,4,1,0,75,1,0
56191,-125,4,1,0,75,0,0
61048,-166.666666666667,4,1,0,75,0,0
65333,-111.111111111111,4,1,0,75,0,0
68762,-125,4,1,0,75,0,0
69905,-125,4,1,0,75,0,1
83048,-125,4,1,0,75,0,0
92762,-125,4,1,0,75,0,1
101905,285.714285714286,3,1,0,75,1,1
101905,-125,4,1,0,75,0,1
102762,285.714285714286,5,1,0,75,1,1
102762,-125,4,1,0,75,0,1
103904,285.714285714286,3,1,0,75,1,1
103904,-125,4,1,0,75,0,1
104761,285.714285714286,5,1,0,75,1,1
104761,-125,4,1,0,75,0,1
106189,285.714285714286,3,1,0,75,1,1
106189,-125,4,1,0,75,0,1
107046,285.714285714286,5,1,0,75,1,1
107046,-125,4,1,0,75,0,1
108474,285.714285714286,3,1,0,75,1,1
108474,-125,4,1,0,75,0,1
109331,285.714285714286,5,1,0,75,1,1
109331,-125,4,1,0,75,0,1
110759,285.714285714286,4,1,0,75,1,0
110759,-125,4,1,0,75,0,0

[HitObjects]
224,224,966,5,0,0:0:0:0:
224,160,1632,1,8,0:0:0:0:
224,224,2299,1,0,0:0:0:0:
224,224,3632,1,0,0:0:0:0:
224,160,4299,1,8,0:0:0:0:
224,224,4632,1,0,0:0:0:0:
224,160,4965,1,8,0:0:0:0:
224,224,5632,1,0,0:0:0:0:
224,224,6299,1,0,0:0:0:0:
224,160,6965,1,8,0:0:0:0:
224,224,7632,1,0,0:0:0:0:
224,224,8965,1,0,0:0:0:0:
224,160,9632,1,8,0:0:0:0:
224,160,10299,1,8,0:0:0:0:
224,224,10965,1,0,0:0:0:0:
224,224,11299,1,0,0:0:0:0:
224,160,11626,1,8,0:0:0:0:
224,160,12483,1,8,0:0:0:0:
224,224,12768,1,0,0:0:0:0:
224,160,13626,1,8,0:0:0:0:
224,224,13911,1,0,0:0:0:0:
224,160,15054,1,8,0:0:0:0:
224,224,15340,1,0,0:0:0:0:
224,160,15626,1,8,0:0:0:0:
224,224,16197,1,0,0:0:0:0:
224,160,16483,1,8,0:0:0:0:
224,160,16768,1,8,0:0:0:0:
224,224,17340,1,0,0:0:0:0:
224,160,17626,1,8,0:0:0:0:
224,160,17911,1,8,0:0:0:0:
224,224,18483,1,0,0:0:0:0:
224,160,18768,1,8,0:0:0:0:
224,224,19626,1,0,0:0:0:0:
224,160,19911,1,8,0:0:0:0:
224,160,20197,1,8,0:0:0:0:
224,160,20483,1,8,0:0:0:0:
288,224,20768,1,4,0:0:0:0:
224,160,21340,1,8,0:0:0:0:
224,224,21911,1,0,0:0:0:0:
224,224,22197,1,0,0:0:0:0:
224,160,22483,1,8,0:0:0:0:
224,224,23054,1,0,0:0:0:0:
224,160,23340,1,8,0:0:0:0:
224,160,24197,1,8,0:0:0:0:
224,160,24483,1,8,0:0:0:0:
224,224,24768,1,0,0:0:0:0:
224,160,25054,1,8,0:0:0:0:
288,224,25340,1,4,0:0:0:0:
224,160,25911,1,8,0:0:0:0:
224,224,26483,1,0,0:0:0:0:
224,160,26768,1,8,0:0:0:0:
224,160,27054,1,8,0:0:0:0:
224,224,27626,1,0,0:0:0:0:
224,160,27911,1,8,0:0:0:0:
224,224,28768,1,0,0:0:0:0:
224,160,29054,1,8,0:0:0:0:
224,160,29340,1,8,0:0:0:0:
224,224,29626,1,0,0:0:0:0:
288,224,29911,1,4,0:0:0:0:
224,224,30483,1,0,0:0:0:0:
224,224,31054,1,0,0:0:0:0:
224,160,31340,1,8,0:0:0:0:
224,224,31626,1,0,0:0:0:0:
224,224,32197,1,0,0:0:0:0:
224,160,32483,1,8,0:0:0:0:
224,160,32768,1,8,0:0:0:0:
224,224,33054,1,0,0:0:0:0:
224,160,33340,1,8,0:0:0:0:
224,160,33626,1,8,0:0:0:0:
224,224,33911,1,0,0:0:0:0:
288,224,34483,1,4,0:0:0:0:
224,160,35340,1,8,0:0:0:0:
288,224,35626,1,4,0:0:0:0:
224,224,36768,1,0,0:0:0:0:
224,160,37054,1,8,0:0:0:0:
224,160,37340,1,8,0:0:0:0:
224,224,37626,1,0,0:0:0:0:
224,160,37911,1,8,0:0:0:0:
224,160,38197,1,8,0:0:0:0:
224,160,38483,1,8,0:0:0:0:
224,224,39054,1,0,0:0:0:0:
224,160,39626,1,8,0:0:0:0:
224,224,40196,1,0,0:0:0:0:
224,160,40481,1,8,0:0:0:0:
224,160,40767,1,8,0:0:0:0:
224,224,41053,1,0,0:0:0:0:
224,160,41624,1,8,0:0:0:0:
224,224,42195,1,0,0:0:0:0:
224,160,42480,1,8,0:0:0:0:
224,160,42766,1,8,0:0:0:0:
224,224,43052,1,0,0:0:0:0:
224,160,43623,1,8,0:0:0:0:
224,224,44194,1,0,0:0:0:0:
224,160,44479,1,8,0:0:0:0:
224,160,44765,1,8,0:0:0:0:
224,224,45051,1,0,0:0:0:0:
256,192,46193,12,0,47336,0:0:0:0:
288,160,47621,5,12,0:0:0:0:
288,160,47907,1,12,0:0:0:0:
288,224,48478,1,4,0:0:0:0:
288,224,48764,1,4,0:0:0:0:
288,224,49050,1,4,0:0:0:0:
288,160,49621,1,12,0:0:0:0:
288,160,49907,1,12,0:0:0:0:
288,224,50478,1,4,0:0:0:0:
288,224,50764,1,4,0:0:0:0:
288,224,51050,1,4,0:0:0:0:
288,224,51335,1,4,0:0:0:0:
288,160,51906,1,12,0:0:0:0:
288,160,52192,1,12,0:0:0:0:
288,224,52763,1,4,0:0:0:0:
288,224,53049,1,4,0:0:0:0:
288,224,53335,1,4,0:0:0:0:
288,224,53620,1,4,0:0:0:0:
288,160,54191,1,12,0:0:0:0:
288,160,54477,1,12,0:0:0:0:
288,224,55048,1,4,0:0:0:0:
288,224,55334,1,4,0:0:0:0:
288,224,55620,1,4,0:0:0:0:
288,224,55905,1,4,0:0:0:0:
288,224,56191,5,4,0:0:0:0:
288,224,57333,1,4,0:0:0:0:
288,224,58476,1,4,0:0:0:0:
288,224,59048,1,4,0:0:0:0:
288,224,59619,1,4,0:0:0:0:
288,224,59905,1,4,0:0:0:0:
288,224,60191,1,4,0:0:0:0:
224,160,60476,1,8,0:0:0:0:
288,224,60762,1,4,0:0:0:0:
224,160,61619,1,8,0:0:0:0:
224,224,61905,1,0,0:0:0:0:
224,160,62191,1,8,0:0:0:0:
224,224,63048,1,0,0:0:0:0:
224,160,63905,1,8,0:0:0:0:
224,224,64191,1,0,0:0:0:0:
224,160,64476,1,8,0:0:0:0:
288,224,65333,1,4,0:0:0:0:
224,224,65619,1,0,0:0:0:0:
224,224,66476,1,0,0:0:0:0:
224,224,66762,1,0,0:0:0:0:
288,160,67619,5,12,0:0:0:0:
224,160,68762,5,8,0:0:0:0:
224,160,69048,1,8,0:0:0:0:
224,224,69333,1,0,0:0:0:0:
224,160,69619,1,8,0:0:0:0:
288,224,69905,1,4,0:0:0:0:
224,160,70191,1,8,0:0:0:0:
224,160,70476,1,8,0:0:0:0:
224,224,71048,1,0,0:0:0:0:
224,160,71333,1,8,0:0:0:0:
224,160,71619,1,8,0:0:0:0:
224,224,72191,1,0,0:0:0:0:
224,160,72476,1,8,0:0:0:0:
224,224,73333,1,0,0:0:0:0:
224,160,73619,1,8,0:0:0:0:
224,160,73905,1,8,0:0:0:0:
224,224,74191,1,0,0:0:0:0:
288,224,74476,1,4,0:0:0:0:
224,224,75048,1,0,0:0:0:0:
224,224,75619,1,0,0:0:0:0:
224,160,75905,1,8,0:0:0:0:
224,224,76191,1,0,0:0:0:0:
224,224,76762,1,0,0:0:0:0:
224,160,77048,1,8,0:0:0:0:
224,160,77333,1,8,0:0:0:0:
224,224,77619,1,0,0:0:0:0:
224,160,77905,1,8,0:0:0:0:
224,160,78191,1,8,0:0:0:0:
224,224,78476,1,0,0:0:0:0:
288,224,79048,1,4,0:0:0:0:
224,160,79905,1,8,0:0:0:0:
288,224,80191,1,4,0:0:0:0:
224,224,81333,1,0,0:0:0:0:
224,160,81619,1,8,0:0:0:0:
224,160,81905,1,8,0:0:0:0:
224,224,82191,1,0,0:0:0:0:
224,160,82476,5,8,0:0:0:0:
224,160,82762,1,8,0:0:0:0:
224,160,83048,1,8,0:0:0:0:
224,160,83619,5,8,0:0:0:0:
224,160,83905,5,8,0:0:0:0:
224,224,84191,5,0,0:0:0:0:
224,224,84762,1,0,0:0:0:0:
224,160,85333,5,8,0:0:0:0:
224,224,85619,5,0,0:0:0:0:
224,160,85905,5,8,0:0:0:0:
224,160,86191,5,8,0:0:0:0:
224,224,86476,5,0,0:0:0:0:
224,160,87048,5,8,0:0:0:0:
224,160,87333,5,8,0:0:0:0:
288,160,88191,1,12,0:0:0:0:
224,160,88476,5,8,0:0:0:0:
224,224,88762,5,0,0:0:0:0:
224,224,89333,1,0,0:0:0:0:
224,160,89905,5,8,0:0:0:0:
224,224,90476,1,0,0:0:0:0:
224,160,90762,1,8,0:0:0:0:
224,160,91048,1,8,0:0:0:0:
224,224,91333,1,0,0:0:0:0:
224,160,91619,1,8,0:0:0:0:
224,160,91905,1,8,0:0:0:0:
224,224,92762,1,0,0:0:0:0:
224,160,93048,1,8,0:0:0:0:
224,224,93333,1,0,0:0:0:0:
224,224,93905,1,0,0:0:0:0:
224,160,94191,1,8,0:0:0:0:
224,160,94476,1,8,0:0:0:0:
224,224,94762,1,0,0:0:0:0:
224,224,95048,1,0,0:0:0:0:
224,160,95333,1,8,0:0:0:0:
224,224,95619,1,0,0:0:0:0:
224,160,96191,5,8,0:0:0:0:
224,224,96476,1,0,0:0:0:0:
224,224,97333,1,0,0:0:0:0:
224,160,97619,1,8,0:0:0:0:
224,224,97905,1,0,0:0:0:0:
224,224,98476,1,0,0:0:0:0:
224,160,98762,1,8,0:0:0:0:
224,160,99048,1,8,0:0:0:0:
224,224,99333,1,0,0:0:0:0:
224,160,99619,1,8,0:0:0:0:
224,160,100191,1,8,0:0:0:0:
224,224,100476,5,0,0:0:0:0:
224,160,100762,5,8,0:0:0:0:
224,160,101048,1,8,0:0:0:0:
224,224,101333,5,0,0:0:0:0:
288,160,102190,1,12,0:0:0:0:
288,160,102476,1,12,0:0:0:0:
288,224,103047,1,4,0:0:0:0:
288,224,103333,1,4,0:0:0:0:
288,224,103619,1,4,0:0:0:0:
288,160,104189,1,12,0:0:0:0:
288,160,104475,1,12,0:0:0:0:
288,224,105046,1,4,0:0:0:0:
288,224,105332,1,4,0:0:0:0:
288,224,105618,1,4,0:0:0:0:
288,224,105903,1,4,0:0:0:0:
288,160,106474,1,12,0:0:0:0:
288,160,106760,1,12,0:0:0:0:
288,224,107331,1,4,0:0:0:0:
288,224,107617,1,4,0:0:0:0:
288,224,107903,1,4,0:0:0:0:
288,224,108188,1,4,0:0:0:0:
288,160,108759,1,12,0:0:0:0:
288,160,109045,1,12,0:0:0:0:
288,224,109616,1,4,0:0:0:0:
288,224,109902,1,4,0:0:0:0:
288,224,110188,1,4,0:0:0:0:
288,224,110473,1,4,0:0:0:0:
288,224,110759,5,4,0:0:0:0:
256,192,111901,6,0,L|256:128,6,37.3333333333333
288,160,112759,1,12,0:0:0:0:
