osu file format v14

[General]
AudioFilename: audio.mp3
AudioLeadIn: 0
PreviewTime: -1
Countdown: 0
SampleSet: Normal
StackLeniency: 0.7
Mode: 0
LetterboxInBreaks: 0
WidescreenStoryboard: 0

[Editor]
Bookmarks: 38299,43355
DistanceSpacing: 1.4
BeatDivisor: 4
GridSize: 16
TimelineZoom: 3.499999

[Metadata]
Title:NEVER-END TALE
TitleUnicode:NEVER-END TALE
Artist:Kobayashi Tatsuyuki & Suzuki Konomi
ArtistUnicode:Kobayashi Tatsuyuki & Suzuki Konomi
Creator:Queno
Version:END
Source:Fairy Tail
Tags:
BeatmapID:1475019
BeatmapSetID:696313

[Difficulty]
HPDrainRate:5
CircleSize:3.6
OverallDifficulty:8
ApproachRate:9.2
SliderMultiplier:1.6
SliderTickRate:1

[Events]
//Background and Video events
0,0,"END.png",0,0
//Break Periods
//Storyboard Layer 0 (Background)
//Storyboard Layer 1 (Fail)
//Storyboard Layer 2 (Pass)
//Storyboard Layer 3 (Foreground)
//Storyboard Sound Samples

[TimingPoints]
547,337.078651685393,4,1,0,100,1,0
2064,-83.3333333333333,4,1,0,100,0,0
6277,-100,4,1,0,100,0,0
7457,-83.3333333333333,4,1,0,100,0,0
15547,-100,4,1,0,100,0,0
16053,-66.6666666666667,4,1,0,100,0,0
19086,-100,4,1,0,100,0,0
21108,-66.6666666666667,4,1,0,100,0,0
21699,-83.3333333333333,4,1,0,100,0,0
25322,-142.857142857143,4,2,0,70,0,0
30210,-100,4,1,0,100,0,0
33918,-71.4285714285714,4,1,0,100,0,0
62063,-83.3333333333333,4,1,0,100,0,0
62569,-66.6666666666667,4,1,0,100,0,1
69142,-83.3333333333333,4,1,0,100,0,1
69985,-66.6666666666667,4,1,0,100,0,1
84479,-66.6666666666667,4,1,0,100,0,0

[HitObjects]
67,182,547,5,0,0:0:0:0:
102,163,631,1,0,0:0:0:0:
141,158,715,1,0,0:0:0:0:
180,170,799,1,0,0:0:0:0:
216,187,884,1,0,0:0:0:0:
254,199,968,1,0,0:0:0:0:
293,193,1052,1,0,0:0:0:0:
325,170,1136,1,0,0:0:0:0:
349,150,1221,1,0,0:0:0:0:
354,57,1558,1,0,0:0:0:0:
354,57,2064,6,0,L|354:126,1,47.9999985351563
279,160,2232,2,0,L|279:111,1,47.9999985351563
207,51,2401,2,0,L|207:120,1,47.9999985351563
136,159,2570,2,0,L|136:90,1,47.9999985351563
63,50,2738,2,0,L|63:117,1,47.9999985351563
112,256,2907,1,0,0:0:0:0:
112,256,3412,6,0,P|174:270|211:278,1,95.9999970703126,0|0,0:3|0:0,0:0:0:0:
164,111,3749,2,0,P|108:143|61:170,1,95.9999970703126
322,226,4086,1,0,0:0:0:0:
322,226,4254,2,0,L|254:140,1,95.9999970703126
160,64,4761,5,0,0:0:0:0:
322,226,4929,1,0,0:0:0:0:
120,196,5098,1,0,0:0:0:0:
334,94,5266,1,0,0:0:0:0:
334,94,5435,1,0,0:0:0:0:
120,196,5603,5,0,0:0:0:0:
322,226,5772,1,0,0:0:0:0:
160,64,5940,1,0,0:0:0:0:
160,64,6109,1,0,0:0:0:0:
210,230,6277,5,0,0:0:0:0:
210,230,6446,2,0,L|218:339,1,80
379,370,6952,2,0,B|408:323|417:270|402:214,1,160
372,136,7457,6,0,L|360:80,3,47.9999985351563
281,196,7794,2,0,L|291:143,3,47.9999985351563
178,204,8131,2,0,L|209:132,3,47.9999985351563
85,156,8468,2,0,L|147:121,3,47.9999985351563
79,33,8805,6,0,P|116:32|175:41,1,95.9999970703126,0|0,0:3|0:3,0:3:0:0:
197,49,9058,1,0,0:0:0:0:
228,62,9142,1,0,0:0:0:0:
257,80,9226,1,0,0:0:0:0:
284,102,9310,1,0,0:0:0:0:
307,127,9395,1,0,0:0:0:0:
326,155,9479,1,0,0:0:0:0:
342,186,9563,1,0,0:0:0:0:
353,218,9647,1,0,0:0:0:0:
310,297,9817,5,0,0:0:0:0:
397,113,9985,1,0,0:0:0:0:
397,113,10154,1,0,0:0:0:0:
230,291,10322,5,0,0:0:0:0:
442,181,10491,1,0,0:0:0:0:
442,181,10659,1,0,0:0:0:0:
150,261,10827,5,0,0:0:0:0:
438,263,10996,2,0,L|341:225,1,95.9999970703126
144,163,11333,5,0,0:0:0:0:
383,332,11502,1,0,0:0:0:0:
256,192,11839,12,0,12682,0:0:0:0:
256,160,13019,5,0,0:0:0:0:
369,126,13187,1,0,0:0:0:0:
408,223,13356,1,0,0:0:0:0:
288,261,13525,1,0,0:0:0:0:
176,206,13693,6,0,P|135:159|129:113,1,95.9999970703126
293,156,14030,2,0,P|327:197|334:241,1,95.9999970703126
201,106,14367,2,0,P|240:75|286:65,1,95.9999970703126
247,269,14704,2,0,P|210:301|142:297,1,95.9999970703126
87,271,15041,5,0,0:0:0:0:
79,98,15209,1,0,0:0:0:0:
57,193,15378,1,0,0:0:0:0:
158,43,15547,2,0,B|197:30|197:30|241:55|241:55|278:28|314:35|333:42,1,160
376,114,16053,2,0,B|382:128|382:128|369:136|369:136|381:148|381:148|368:160|368:160|380:172|380:172|369:187|369:187|379:215,1,120.000004577637
277,206,16390,2,0,B|271:192|271:192|284:184|284:184|272:172|272:172|285:160|285:160|273:148|273:148|284:133|284:133|274:105,1,120.000004577637
85,44,16727,5,0,0:0:0:0:
85,44,16811,1,0,0:0:0:0:
85,44,16895,2,0,L|92:112,1,60.0000022888184
199,104,17064,1,0,0:0:0:0:
199,104,17148,1,0,0:0:0:0:
199,104,17232,2,0,L|180:176,1,60.0000022888184
84,207,17401,1,0,0:0:0:0:
84,207,17485,1,0,0:0:0:0:
84,207,17570,2,0,L|101:265,1,60.0000022888184
255,321,17738,5,0,0:0:0:0:
255,321,18075,1,0,0:0:0:0:
278,309,18159,1,0,0:0:0:0:
303,289,18243,1,0,0:0:0:0:
323,270,18327,1,0,0:0:0:0:
342,245,18412,1,0,0:0:0:0:
362,215,18496,1,0,0:0:0:0:
378,176,18580,1,0,0:0:0:0:
395,129,18664,1,0,0:0:0:0:
411,69,18749,1,0,0:0:0:0:
423,20,19086,6,0,B|436:61|386:74|484:92|388:123|422:211,1,160
297,301,19761,1,0,0:0:0:0:
188,144,19929,1,0,0:0:0:0:
323,170,20098,1,0,0:0:0:0:
146,266,20266,1,0,0:0:0:0:
64,160,20435,2,0,B|88:95|88:95|134:69|201:52|274:60,1,240
346,145,21108,6,0,L|407:195,1,60.0000022888184
332,258,21277,2,0,L|286:220,1,60.0000022888184
230,57,21446,2,0,L|286:106,1,60.0000022888184
217,169,21614,2,0,L|161:125,1,60.0000022888184,0|0,0:3|0:0,0:0:0:0:
68,43,21951,2,0,P|94:73|108:127,1,95.9999970703126
48,208,22288,1,0,0:0:0:0:
197,44,22457,1,0,0:0:0:0:
197,44,22794,6,0,P|196:96|197:148,1,95.9999970703126
197,160,23046,1,0,0:0:0:0:
197,186,23130,1,0,0:0:0:0:
197,212,23214,1,0,0:0:0:0:
197,239,23298,1,0,0:0:0:0:
197,265,23383,1,0,0:0:0:0:
197,292,23467,1,0,0:0:0:0:
256,192,23637,12,0,24817,0:0:0:0:
136,39,25322,6,0,B|26:69|4:159|115:349|230:191|240:100|255:20|411:32|537:127|386:264,1,727.999977783204
305,295,27682,1,0,0:0:0:0:
305,295,27850,2,0,B|253:270|209:252|127:239|71:277|70:338|97:387|164:401|242:382|236:250|200:227|135:172,1,503.999984619141
108,80,29536,2,0,B|124:72|144:69|166:70|181:85|200:94|221:103|244:105|280:78,1,167.999994873047
360,46,30210,2,0,B|355:57|355:57|362:67|362:67|355:83|355:83|361:102|361:102|355:115|355:115|361:131|361:131|356:143|356:143|361:159|361:159|354:174|354:174|359:196,1,160
294,313,30716,5,0,0:0:0:0:
139,259,30884,1,0,0:0:0:0:
140,286,31053,1,0,0:0:0:0:
294,181,31221,1,0,0:0:0:0:
295,206,31390,1,0,0:0:0:0:
142,115,31558,1,0,0:0:0:0:
143,139,31727,1,0,0:0:0:0:
295,57,31895,1,0,0:0:0:0:
295,84,32064,1,0,0:0:0:0:
52,48,32232,5,0,0:0:0:0:
53,62,32317,1,0,0:0:0:0:
54,81,32401,1,0,0:0:0:0:
54,93,32485,1,0,0:0:0:0:
55,108,32570,1,0,0:0:0:0:
55,122,32654,1,0,0:0:0:0:
56,134,32738,1,0,0:0:0:0:
57,150,32822,1,0,0:0:0:0:
58,164,32907,1,0,0:0:0:0:
58,179,32991,1,0,0:0:0:0:
59,193,33075,1,0,0:0:0:0:
361,327,33749,5,0,0:0:0:0:
361,327,33834,1,0,0:0:0:0:
361,327,33918,2,0,L|361:213,1,111.999996582031
228,249,34255,2,0,L|228:368,2,111.999996582031
274,167,34760,2,0,P|218:168|168:143,1,111.999996582031
162,50,35097,2,0,P|217:50|266:25,1,111.999996582031
62,152,35435,5,0,0:0:0:0:
49,194,35519,1,0,0:0:0:0:
44,238,35603,1,0,0:0:0:0:
51,283,35687,1,0,0:0:0:0:
72,321,35772,2,0,B|111:337|111:337|148:311|148:311|188:331|229:341|278:271,1,223.999993164063
416,205,36277,6,0,P|451:163|441:106,1,111.999996582031
243,47,36614,2,0,P|201:82|202:140,1,111.999996582031
323,120,36951,1,0,0:0:0:0:
423,62,37288,2,0,P|390:18|332:15,1,111.999996582031
230,180,37625,2,0,P|262:224|317:229,1,111.999996582031
323,120,37962,1,0,0:0:0:0:
171,137,38131,6,0,L|123:238,1,111.999996582031
54,208,38468,2,0,L|101:106,1,111.999996582031
171,47,38805,1,0,0:0:0:0:
47,42,38974,2,0,L|0:144,1,111.999996582031
207,231,39311,2,0,L|255:130,1,111.999996582031
171,47,39648,2,0,B|175:50|162:61|153:75|156:96|156:96|146:100|146:100|149:118|149:118|132:127|132:127|134:148|134:148|116:156|116:156|117:174|117:174|105:178|105:178|109:197|109:197|94:206|94:206|95:221,1,223.999993164063
274,316,40153,5,0,0:0:0:0:
264,291,40238,1,0,0:0:0:0:
259,266,40322,1,0,0:0:0:0:
259,243,40406,1,0,0:0:0:0:
264,223,40490,1,0,0:0:0:0:
272,199,40575,1,0,0:0:0:0:
282,177,40659,2,0,P|306:130|297:68,1,111.999996582031
182,27,40996,5,0,0:0:0:0:
113,238,41164,1,0,0:0:0:0:
113,36,41333,1,0,0:0:0:0:
130,265,41502,1,0,0:0:0:0:
51,67,41670,1,0,0:0:0:0:
152,291,41839,1,0,0:0:0:0:
0,111,42007,1,0,0:0:0:0:
226,349,42344,1,0,0:0:0:0:
307,293,43018,6,0,L|327:372,1,55.9999982910157
343,219,43187,2,0,L|397:281,1,55.9999982910157
352,133,43355,2,0,L|428:168,1,55.9999982910157
291,63,43524,1,0,0:0:0:0:
291,63,43608,1,0,0:0:0:0:
291,63,43693,2,0,B|271:54|271:54|252:73|252:73|239:51|239:51|211:74|192:56|170:46|139:41|116:52|89:71,1,223.999993164063
21,215,44199,5,0,0:0:0:0:
59,237,44283,1,0,0:0:0:0:
112,239,44367,1,0,0:0:0:0:
170,228,44452,1,0,0:0:0:0:
216,210,44535,2,0,P|282:174|311:142,1,111.999996582031
331,40,44872,1,0,0:0:0:0:
376,58,44957,1,0,0:0:0:0:
420,100,45041,1,0,0:0:0:0:
439,157,45125,1,0,0:0:0:0:
440,203,45209,2,0,P|433:233|391:303,1,111.999996582031
289,346,45546,5,0,0:0:0:0:
248,299,45631,1,0,0:0:0:0:
239,244,45715,1,0,0:0:0:0:
276,199,45799,1,0,0:0:0:0:
314,168,45884,2,0,B|335:102|416:136|417:84|414:51|397:26|359:17|332:30|326:61|357:80,1,223.999993164063
179,164,46389,2,0,B|164:111|83:145|82:93|85:60|102:35|140:26|167:39|173:70|160:63,1,223.999993164063
210,279,46895,5,0,0:0:0:0:
210,279,47063,2,0,L|176:168,1,111.999996582031
151,261,47400,2,0,L|167:149,1,111.999996582031
102,223,47738,2,0,L|146:117,1,111.999996582031
60,177,48075,2,0,L|136:92,1,111.999996582031
191,30,48411,5,0,0:0:0:0:
273,28,48580,1,0,0:0:0:0:
355,43,48748,1,0,0:0:0:0:
414,103,48917,1,0,0:0:0:0:
414,103,49086,2,0,L|357:200,1,111.999996582031
327,195,49423,2,0,L|352:81,1,111.999996582031
291,135,49760,2,0,L|305:254,1,111.999996582031
290,285,50097,2,0,L|235:181,1,111.999996582031
226,252,50434,2,0,L|317:326,1,111.999996582031
63,198,50771,5,0,0:0:0:0:
179,100,50940,1,0,0:0:0:0:
111,137,51108,1,0,0:0:0:0:
256,96,51277,2,0,B|275:97|282:115|298:111|303:100|312:87|325:83|333:97|332:111|346:116|355:108|361:92|378:86|390:94|400:106|412:100|488:101,1,223.999993164063
435,183,51782,2,0,P|429:232|381:283,1,111.999996582031
287,296,52120,5,0,0:0:0:0:
160,185,52288,1,0,0:0:0:0:
287,296,52457,5,0,0:0:0:0:
309,134,52625,1,0,0:0:0:0:
287,296,52794,5,0,0:0:0:0:
160,185,52962,1,0,0:0:0:0:
287,296,53131,5,0,0:0:0:0:
309,134,53299,1,0,0:0:0:0:
287,296,53468,6,0,B|174:295,1,111.999996582031
32,252,53805,2,0,L|87:252,1,55.9999982910157
162,180,53973,2,0,L|103:181,1,55.9999982910157
32,110,54142,2,0,L|92:110,1,55.9999982910157
263,56,54311,5,0,0:0:0:0:
424,100,54479,1,0,0:0:0:0:
288,187,54648,5,0,0:0:0:0:
424,100,54816,1,0,0:0:0:0:
263,56,54985,5,0,0:0:0:0:
424,100,55153,1,0,0:0:0:0:
288,187,55322,5,0,0:0:0:0:
424,100,55490,1,0,0:0:0:0:
208,55,55659,6,0,B|238:51|238:51|285:61|285:61|318:56,2,111.999996582031
97,72,56164,5,0,0:0:0:0:
25,145,56333,1,0,0:0:0:0:
108,221,56502,1,0,0:0:0:0:
28,284,56670,1,0,0:0:0:0:
109,345,56839,1,0,0:0:0:0:
124,348,56923,1,0,0:0:0:0:
141,349,57007,1,0,0:0:0:0:
155,349,57091,1,0,0:0:0:0:
173,347,57176,2,0,P|223:322|261:280,1,111.999996582031,0|0,2:0|2:0,2:0:0:0:
373,237,57513,6,0,P|364:181|334:134,1,111.999996582031
334,134,57850,2,0,P|281:113|221:114,1,111.999996582031
226,112,58187,2,0,P|176:139|141:191,1,111.999996582031
83,237,58524,2,0,L|105:354,1,111.999996582031
191,345,58861,2,0,L|222:231,1,111.999996582031
301,228,59198,2,0,L|326:347,1,111.999996582031
407,352,59535,1,0,0:0:0:0:
407,352,59620,1,0,0:0:0:0:
407,352,59704,2,0,P|452:257|397:160,1,223.999993164063
333,89,60209,5,0,0:0:0:0:
108,181,60378,1,0,0:0:0:0:
382,220,60546,1,0,0:0:0:0:
124,49,60715,1,0,0:0:0:0:
433,151,60884,1,0,0:0:0:0:
54,118,61052,1,0,0:0:0:0:
419,40,61221,1,0,0:0:0:0:
68,216,61389,5,0,0:0:0:0:
82,226,61473,1,0,0:0:0:0:
103,234,61558,1,0,0:0:0:0:
127,241,61642,1,0,0:0:0:0:
151,244,61726,2,0,L|204:229,1,55.9999982910157
272,117,61895,2,0,L|201:135,1,55.9999982910157
322,220,62063,2,0,P|379:183|393:152,1,95.9999970703126
449,74,62569,2,0,P|481:157|400:272,1,240.000009155274
272,256,63075,6,0,L|216:235,1,60.0000022888184
212,281,63243,2,0,L|174:234,1,60.0000022888184
142,269,63412,2,0,L|137:209,1,60.0000022888184
98,219,63580,2,0,L|118:162,1,60.0000022888184
176,48,63917,2,0,P|80:80|16:208,1,240.000009155274
169,241,64423,2,0,P|227:247|275:212,1,120.000004577637
308,133,64760,2,0,P|248:132|199:164,1,120.000004577637
91,305,65097,2,0,B|99:309|99:309|112:308|112:308|121:317|121:317|134:313|134:313|140:324|140:324|153:321|153:321|161:330|161:330|175:329|175:329|186:334|186:334|198:341|215:346|216:351|242:350|257:350|274:352|296:344|319:334,1,240.000009155274
309,338,65771,1,0,0:0:0:0:
178,169,65940,6,0,P|175:109|171:50,2,120.000004577637
131,233,66445,2,0,P|186:252|236:222,1,120.000004577637,0|0,0:3|0:3,0:3:0:0:
334,284,66951,1,0,0:0:0:0:
334,284,67035,1,0,0:0:0:0:
334,284,67120,2,0,L|396:284,1,60.0000022888184
261,352,67288,2,0,L|198:352,1,60.0000022888184
95,272,67457,2,0,L|166:272,1,60.0000022888184
272,208,67625,2,0,L|175:208,1,60.0000022888184
80,128,67794,2,0,L|144:128,1,60.0000022888184
224,128,67962,6,0,B|267:141|290:86|286:40|299:20|321:-12|366:-12|392:15|384:41,1,240.000009155274
384,128,68468,2,0,P|382:188|367:246,1,120.000004577637
256,288,68805,2,0,P|241:231|239:171,1,120.000004577637
309,57,69142,2,0,P|264:31|202:37,2,95.9999970703126
204,126,69648,2,0,P|264:151|322:134,2,95.9999970703126
74,112,70322,1,0,0:0:0:0:
112,320,70490,1,0,0:0:0:0:
320,208,70659,1,0,0:0:0:0:
320,208,71164,5,0,0:0:0:0:
72,85,71333,1,0,0:0:0:0:
97,207,71502,1,0,0:0:0:0:
356,85,71670,1,0,0:0:0:0:
217,292,71839,1,0,0:0:0:0:
223,0,72007,1,0,0:0:0:0:
225,19,72513,5,0,0:0:0:0:
229,38,72850,1,0,0:0:0:0:
320,334,73018,1,0,0:0:0:0:
320,334,73355,2,0,P|243:242|223:126,1,240.000009155274
68,247,73861,5,0,0:0:0:0:
68,247,74198,1,0,0:0:0:0:
409,205,74367,1,0,0:0:0:0:
409,205,74704,2,0,P|343:266|197:304,1,240.000009155274
119,319,75209,6,0,P|40:316|0:300,1,120.000004577637
286,204,75546,2,0,P|231:264|193:281,1,120.000004577637
324,16,75884,2,0,P|335:93|326:135,1,120.000004577637,0|0,0:0|0:0,2:0:0:0:
183,19,76221,2,0,L|231:146,1,120.000004577637
49,102,76558,2,0,P|95:148|171:178,1,120.000004577637
56,258,76895,2,0,P|94:260|132:248,1,60.0000022888184
164,332,77063,2,0,P|195:311|220:279,1,60.0000022888184
318,300,77232,2,0,P|328:263|326:223,1,60.0000022888184
337,113,77400,6,0,B|287:99|287:99|257:136|257:136|224:97|224:97|193:136|193:136|163:96|163:96|117:115,1,300.000011444092
90,130,77906,1,0,0:0:0:0:
65,165,77990,1,0,0:0:0:0:
56,215,78075,1,0,0:0:0:0:
70,264,78159,1,0,0:0:0:0:
99,298,78243,2,0,L|193:298,1,60.0000022888184
432,274,78749,2,0,P|370:279|280:248,1,120.000004577637
220,216,79086,5,0,0:0:0:0:
167,186,79170,1,0,0:0:0:0:
137,136,79254,1,0,0:0:0:0:
116,80,79338,1,0,0:0:0:0:
75,44,79423,2,0,P|46:18|17:14,3,60.0000022888184
237,157,79760,2,0,P|274:155|298:138,3,60.0000022888184
58,170,80097,2,0,P|27:192|16:219,3,60.0000022888184
208,30,80434,2,0,P|244:20|264:-1,3,60.0000022888184
148,116,80771,5,0,0:0:0:0:
148,137,80855,1,0,0:0:0:0:
148,158,80939,1,0,0:0:0:0:
148,179,81023,1,0,0:0:0:0:
148,200,81108,1,0,0:0:0:0:
148,221,81192,1,0,0:0:0:0:
148,242,81276,1,0,0:0:0:0:
148,263,81360,1,0,0:0:0:0:
150,285,81445,6,0,P|256:282|313:253,1,120.000004577637
456,146,81782,1,0,0:0:0:0:
454,252,81951,2,0,P|348:249|291:220,1,120.000004577637
158,78,82288,1,0,0:0:0:0:
151,186,82457,2,0,P|257:183|314:154,1,120.000004577637
456,8,82794,1,0,0:0:0:0:
453,114,82962,2,0,P|393:119|335:106,1,120.000004577637
186,15,83299,1,0,0:0:0:0:
166,33,83636,5,0,0:0:0:0:
147,64,83720,1,0,0:0:0:0:
144,100,83804,1,0,0:0:0:0:
154,135,83888,1,0,0:0:0:0:
164,170,83973,1,0,0:0:0:0:
167,206,84057,1,0,0:0:0:0:
159,244,84142,1,0,0:0:0:0:
133,280,84226,2,0,P|103:304|74:310,3,60.0000022888184
359,252,84648,6,0,L|359:131,1,120.000004577637
295,64,84985,2,0,L|427:64,2,120.000004577637
222,3,85490,2,0,L|222:132,1,120.000004577637
288,195,85827,2,0,L|123:195,2,120.000004577637
360,217,86333,2,0,L|360:157,1,60.0000022888184
328,64,86502,2,0,L|389:64,1,60.0000022888184
222,36,86670,2,0,L|222:96,1,60.0000022888184
260,195,86839,2,0,L|198:195,1,60.0000022888184
97,326,87176,5,0,0:0:0:0:
97,326,87344,2,0,P|92:255|88:204,1,120.000004577637
207,288,87681,2,0,P|183:224|152:169,1,120.000004577637
303,214,88018,2,0,P|259:150|182:124,1,120.000004577637
88,206,88524,1,0,0:0:0:0:
158,178,88693,1,0,0:0:0:0:
222,131,88861,1,0,0:0:0:0:
