osu file format v14

[General]
AudioFilename: corn chicken cheese.mp3
AudioLeadIn: 0
PreviewTime: 56501
Countdown: 0
SampleSet: Soft
StackLeniency: 0.7
Mode: 0
LetterboxInBreaks: 0
WidescreenStoryboard: 0

[Editor]
Bookmarks: 153341,184301,215021,301153
DistanceSpacing: 0.4
BeatDivisor: 8
GridSize: 16
TimelineZoom: 2.300007

[Metadata]
Title:HANAKANZASHI
TitleUnicode:花簪 HANAKANZASHI
Artist:Kobayakawa Sae (CV: Tachibana Rika)
ArtistUnicode:小早川紗枝(CV:立花理香)
Creator:domSaur
Version:Floral Hairpin
Source:アイドルマスター シンデレラガールズ
Tags:the idolm@ster cinderella girls master 029 idolmaster im@s imas starlight stage deresute arm iosys ricca
BeatmapID:1356025
BeatmapSetID:639353

[Difficulty]
HPDrainRate:6
CircleSize:4.3
OverallDifficulty:8
ApproachRate:8.5
SliderMultiplier:1.8
SliderTickRate:1

[Events]
//Background and Video events
0,0,"xd.png",0,0
//Break Periods
//Storyboard Layer 0 (Background)
//Storyboard Layer 1 (Fail)
//Storyboard Layer 2 (Pass)
//Storyboard Layer 3 (Foreground)
//Storyboard Sound Samples

[TimingPoints]
847,666.666666666667,4,2,1,50,1,0
6401,666.666666666667,4,2,1,50,1,0
6513,521.739130434783,4,2,1,50,1,0
7180,666.666666666667,4,2,1,50,1,0
10180,-100,4,2,1,60,0,0
11501,480,4,2,1,60,1,0
13421,-133.333333333333,4,2,2,60,0,0
15101,-133.333333333333,4,2,2,50,0,0
15341,-133.333333333333,4,2,2,60,0,0
16781,-133.333333333333,4,2,2,50,0,0
17261,-133.333333333333,4,2,2,60,0,0
18941,-133.333333333333,4,2,2,50,0,0
19181,-133.333333333333,4,2,2,60,0,0
20141,-133.333333333333,4,2,1,60,0,0
21101,-133.333333333333,4,2,3,50,0,0
23021,-133.333333333333,4,2,1,55,0,0
38381,-100,4,2,1,60,0,0
38741,-100,4,2,1,5,0,0
38861,-100,4,2,1,60,0,0
49901,-100,4,2,2,60,0,0
53741,-100,4,2,2,60,0,0
54941,-100,4,2,2,40,0,0
55661,-100,4,2,2,50,0,0
56021,-100,4,2,2,40,0,0
56621,-83.3333333333333,4,2,2,60,0,0
56981,-83.3333333333333,4,2,2,5,0,0
57101,-133.333333333333,4,2,1,60,0,0
57461,-133.333333333333,4,2,1,5,0,0
57581,-83.3333333333333,4,2,1,70,0,1
71021,-83.3333333333333,4,2,1,60,0,0
72941,-83.3333333333333,4,2,1,70,0,1
82901,-83.3333333333333,4,2,1,5,0,1
83021,-83.3333333333333,4,2,1,70,0,1
84461,-133.333333333333,4,2,2,60,0,0
86621,-133.333333333333,4,2,2,40,0,0
88301,-83.3333333333333,4,2,1,70,0,1
88421,-83.3333333333333,4,2,1,60,0,0
101801,-83.3333333333333,4,2,1,20,0,0
102221,-83.3333333333333,4,2,1,60,0,0
103661,-166.666666666667,4,2,1,60,0,0
103781,-166.666666666667,4,2,1,50,0,0
111341,-133.333333333333,4,2,2,60,0,0
112061,-133.333333333333,4,2,2,50,0,0
112301,-133.333333333333,4,2,2,60,0,0
113981,-133.333333333333,4,2,2,50,0,0
114221,-133.333333333333,4,2,2,60,0,0
119021,-100,4,2,1,60,0,0
125741,-100,4,2,1,50,0,0
126701,-100,4,2,1,60,0,0
130541,-100,4,2,2,60,0,0
135581,-100,4,2,2,40,0,0
136301,-100,4,2,2,50,0,0
136661,-100,4,2,2,40,0,0
137261,-83.3333333333333,4,2,2,60,0,0
137621,-83.3333333333333,4,2,2,5,0,0
137741,-133.333333333333,4,2,1,60,0,0
138101,-133.333333333333,4,2,1,5,0,0
138221,-83.3333333333333,4,2,1,70,0,1
151661,-83.3333333333333,4,2,1,60,0,0
153581,-83.3333333333333,4,2,1,70,0,1
163541,-83.3333333333333,4,2,1,5,0,1
163661,-83.3333333333333,4,2,1,70,0,1
165101,-133.333333333333,4,2,2,60,0,0
168941,-133.333333333333,4,2,2,40,0,0
169901,-133.333333333333,4,2,2,50,0,0
170021,-133.333333333333,4,2,2,40,0,0
176621,-111.111111111111,4,2,3,40,0,0
184301,-200,4,2,1,50,0,0
213101,-100,4,2,1,60,0,0
215021,-100,4,2,1,70,0,1
215141,-100,4,2,1,70,0,0
228461,-133.333333333333,4,2,2,60,0,0
231581,-133.333333333333,4,2,2,40,0,0
233261,-83.3333333333333,4,2,2,60,0,0
233621,-83.3333333333333,4,2,2,5,0,0
233741,-133.333333333333,4,2,1,60,0,0
234101,-133.333333333333,4,2,1,5,0,0
234221,-83.3333333333333,4,2,1,70,0,1
247661,-83.3333333333333,4,2,1,60,0,0
249581,-83.3333333333333,4,2,1,70,0,1
261101,-133.333333333333,4,2,2,60,0,0
264941,-83.3333333333333,4,2,1,70,0,1
265061,-83.3333333333333,4,2,1,60,0,0
268781,-133.333333333333,4,2,1,60,0,0
272621,-133.333333333333,4,2,2,60,0,0
273581,-133.333333333333,4,2,2,50,0,0
276521,-133.333333333333,4,2,2,20,0,0
277181,-133.333333333333,4,2,1,5,0,0
277421,-133.333333333333,4,2,1,50,0,0
277901,-133.333333333333,4,2,1,20,0,0
278381,-133.333333333333,4,2,1,50,0,0
279821,533.333333333333,4,2,1,50,1,0
280887,571.428571428571,4,2,1,50,1,0
281172,600,4,2,1,50,1,0
281472,666.666666666667,4,2,1,50,1,0
281805,638.297872340426,4,2,1,50,1,0
282124,731.707317073171,4,2,1,50,1,0
282489,909.090909090909,4,2,1,50,1,0
282943,827.586206896552,4,2,1,50,1,0
283776,909.090909090909,4,2,1,50,1,0
284230,1090.90909090909,4,2,1,50,1,0
284774,1333.33333333333,4,2,1,50,1,0
285440,1578.94736842105,4,2,1,50,1,0
286233,1392.11136890951,4,2,1,50,1,0
287624,3225.8064516129,4,2,1,20,1,0
287624,-200,4,2,1,20,0,0
290841,468.75,4,2,1,60,1,0
291309,-322.58064516129,4,2,2,60,0,0
291426,-322.58064516129,4,2,4,25,0,0
301153,-100,4,2,1,5,0,0

[Colours]
Combo1 : 171,225,252
Combo2 : 255,132,193
Combo3 : 215,234,253
Combo4 : 253,198,206
SliderBorder : 234,130,179

[HitObjects]
158,91,847,5,0,0:0:0:0:
274,182,1180,1,0,0:0:0:0:
137,237,1513,1,2,0:3:0:0:
137,237,2180,5,0,0:0:0:0:
279,194,2514,1,0,0:0:0:0:
171,94,2847,1,2,0:3:0:0:
184,98,3513,6,0,P|231:92|281:86,1,90
373,148,4180,1,2,0:3:0:0:
470,201,4513,1,0,0:0:0:0:
449,312,4847,1,2,0:3:0:0:
337,326,5180,1,0,0:0:0:0:
289,223,5513,6,0,B|184:209|224:265|112:253,1,180,2|0,0:3|0:0,0:0:0:0:
28,185,6402,5,0,0:0:0:0:
34,161,6513,2,0,L|39:139,8,22.5
61,64,7180,1,0,0:0:0:0:
233,143,7513,1,2,0:3:0:0:
420,128,7958,5,0,0:0:0:0:
449,126,8069,2,0,L|473:124,2,15,0|0|2,0:0|0:0|0:3,0:0:0:0:
233,143,8513,1,0,0:0:0:0:
342,71,8735,6,0,L|340:47,2,15,0|0|2,0:0|0:0|0:3,0:0:0:0:
366,295,9180,1,0,0:0:0:0:
197,132,9513,1,2,0:3:0:0:
429,164,9847,1,0,0:0:0:0:
224,274,10180,5,2,0:3:0:0:
62,140,12461,5,2,0:1:0:0:
243,86,12701,1,2,0:1:0:0:
265,88,12821,1,2,0:1:0:0:
287,90,12941,1,2,0:1:0:0:
61,228,13421,6,0,B|145:214|110:260|211:243,1,135.000005149842,4|0,0:0|0:0,0:0:0:0:
191,245,14381,1,2,0:1:0:0:
365,298,14621,1,0,0:0:0:0:
265,145,14861,1,0,0:0:0:0:
216,359,15101,1,4,0:0:0:0:
23,205,15341,6,0,P|80:239|149:232,1,135.000005149842,4|0,0:0|0:0,0:0:0:0:
254,198,16061,1,4,0:0:0:0:
195,38,16301,2,0,P|201:71|206:105,1,67.5000025749208,2|0,0:1|0:0,0:0:0:0:
242,264,16781,2,0,P|246:231|254:198,1,67.5000025749208,4|0,0:0|0:0,0:0:0:0:
476,126,17261,6,0,P|408:130|342:139,1,135.000005149842,4|0,0:0|0:0,0:0:0:0:
388,257,17981,1,0,0:0:0:0:
388,257,18221,2,0,P|354:253|321:247,1,67.5000025749208,2|0,0:1|0:0,0:0:0:0:
155,305,18701,2,0,P|188:299|222:297,1,67.5000025749208
330,165,19181,5,4,0:0:0:0:
361,344,19421,1,2,0:1:0:0:
180,212,19661,1,2,0:1:0:0:
361,254,19901,1,2,0:1:0:0:
226,88,20141,1,2,0:1:0:0:
178,232,20381,1,2,0:1:0:0:
386,133,20621,1,2,0:1:0:0:
224,68,20861,1,2,0:1:0:0:
83,193,21101,5,2,2:1:0:0:
79,219,21221,1,2,0:1:0:0:
250,361,21461,1,2,2:1:0:0:
246,335,21581,1,2,2:1:0:0:
57,303,21821,1,2,2:1:0:0:
178,153,22061,5,2,2:1:0:0:
182,199,22181,1,2,2:1:0:0:
187,246,22301,1,2,2:1:0:0:
323,340,22541,1,2,2:1:0:0:
367,357,22661,1,2,2:1:0:0:
417,351,22781,1,2,2:1:0:0:
456,319,22901,1,2,2:1:0:0:
474,272,23021,6,0,P|479:238|481:205,1,67.5000025749208,2|0,0:0|0:0,0:0:0:0:
433,151,23381,1,2,0:0:0:0:
434,130,23501,1,8,0:0:0:0:
279,181,23741,1,2,0:0:0:0:
354,62,23981,2,0,P|360:97|361:133,1,67.5000025749208,2|0,0:0|0:0,0:0:0:0:
286,267,24461,2,0,P|280:233|278:200,1,67.5000025749208,8|0,0:0|0:0,0:0:0:0:
155,119,24941,6,0,P|121:115|84:116,1,67.5000025749208,2|0,0:0|0:0,0:0:0:0:
41,169,25301,1,2,0:0:0:0:
32,187,25421,1,8,0:0:0:0:
197,271,25661,1,2,0:0:0:0:
53,342,25901,2,0,P|45:305|46:270,1,67.5000025749208,2|0,0:0|0:0,0:0:0:0:
192,187,26381,2,0,P|199:219|199:253,1,67.5000025749208,8|0,0:0|0:0,0:0:0:0:
311,360,26861,6,0,P|345:356|387:353,1,67.5000025749208,2|0,0:0|0:0,0:0:0:0:
428,302,27221,1,2,0:0:0:0:
431,282,27341,1,8,0:0:0:0:
294,195,27581,1,2,0:0:0:0:
446,140,27821,2,0,P|449:178|444:209,1,67.5000025749208,2|0,0:0|0:0,0:0:0:0:
281,114,28301,2,0,P|276:80|279:47,1,67.5000025749208,8|0,0:0|0:0,0:0:0:0:
180,212,28781,6,0,P|146:207|112:207,1,67.5000025749208,2|0,0:0|0:0,0:0:0:0:
52,245,29141,1,2,0:0:0:0:
32,248,29261,1,8,0:0:0:0:
144,110,29501,1,2,0:0:0:0:
237,268,29741,5,2,0:0:0:0:
257,270,29861,1,2,0:0:0:0:
277,272,29981,2,0,P|303:274|328:276,1,33.7500012874604,0|2,0:0|0:0,0:0:0:0:
472,274,30221,1,8,0:0:0:0:
491,114,30461,1,8,0:0:0:0:
491,114,30701,6,0,P|499:148|502:190,1,67.5000025749208,2|0,0:0|0:0,0:0:0:0:
481,256,31061,1,2,0:0:0:0:
472,274,31181,1,8,0:0:0:0:
336,198,31421,1,2,0:0:0:0:
257,373,31661,2,0,P|260:339|270:307,1,67.5000025749208,2|0,0:0|0:0,0:0:0:0:
481,256,32141,2,0,P|450:269|415:277,1,67.5000025749208,8|0,0:0|0:0,0:0:0:0:
323,179,32621,6,0,P|332:211|336:244,1,67.5000025749208,2|0,0:0|0:0,0:0:0:0:
290,300,32981,1,2,0:0:0:0:
271,308,33101,1,8,0:0:0:0:
147,176,33341,1,2,0:0:0:0:
35,328,33581,6,0,P|18:330|1:333,1,33.7500012874604,2|2,0:0|0:0,0:0:0:0:
168,277,33821,2,0,P|184:279|201:282,1,33.7500012874604,8|2,0:0|0:0,0:0:0:0:
47,171,34061,2,0,L|41:141,4,16.8750006437302,8|0|0|0|0,0:0|0:0|0:0|0:0|0:0,0:0:0:0:
318,146,34541,5,4,0:0:0:0:
318,146,35261,1,0,0:0:0:0:
115,266,35501,5,4,0:0:0:0:
357,351,35981,1,0,0:0:0:0:
341,60,36461,5,4,0:0:0:0:
115,266,36941,1,2,0:0:0:0:
406,244,37421,1,2,0:0:0:0:
227,62,37661,1,0,0:0:0:0:
230,85,37781,1,2,0:0:0:0:
233,108,37901,1,2,0:0:0:0:
256,296,38141,1,2,0:0:0:0:
25,315,38381,6,0,B|111:301|77:347|180:331,1,135,4|0,0:0|0:0,0:0:0:0:
227,324,38861,1,8,0:0:0:0:
443,247,39101,1,0,0:0:0:0:
213,139,39341,2,0,P|218:185|223:229,1,90,2|0,0:0|0:0,0:0:0:0:
329,353,39821,2,0,P|334:308|338:263,1,90,8|0,0:0|0:0,0:0:0:0:
512,211,40301,6,0,P|468:220|423:222,1,90,2|0,0:0|0:0,0:0:0:0:
352,192,40661,1,0,0:0:0:0:
329,187,40781,1,8,0:0:0:0:
264,64,41021,1,0,0:0:0:0:
443,49,41261,2,0,P|451:93|453:138,1,90,2|0,0:0|0:0,0:0:0:0:
396,191,41621,1,0,0:0:0:0:
373,196,41741,1,8,0:0:0:0:
203,226,41981,1,0,0:0:0:0:
123,27,42221,5,2,0:0:0:0:
94,197,42461,1,0,0:0:0:0:
96,178,42581,1,0,0:0:0:0:
99,160,42701,1,8,0:0:0:0:
238,294,42941,1,0,0:0:0:0:
221,85,43181,5,2,0:0:0:0:
92,215,43421,1,0,0:0:0:0:
326,103,43661,1,8,0:0:0:0:
326,103,44141,5,2,0:0:0:0:
342,300,44381,1,0,0:0:0:0:
347,282,44501,1,0,0:0:0:0:
352,264,44621,1,8,0:0:0:0:
492,174,44861,1,0,0:0:0:0:
326,103,45101,5,2,0:0:0:0:
192,222,45341,1,0,0:0:0:0:
187,204,45461,1,2,0:0:0:0:
182,186,45581,1,8,0:0:0:0:
337,317,45821,1,2,0:0:0:0:
144,276,46061,6,0,P|101:282|32:300,1,90,4|0,0:0|0:0,0:0:0:0:
267,355,46541,2,0,P|260:310|250:266,1,90,8|0,0:0|0:0,0:0:0:0:
350,112,47021,2,0,P|342:156|330:199,1,90,2|0,0:0|0:0,0:0:0:0:
174,126,47501,2,0,P|162:83|155:39,1,90,8|0,0:0|0:0,0:0:0:0:
54,201,47981,6,0,P|46:245|42:290,1,90,2|0,0:0|0:0,0:0:0:0:
261,355,48461,2,0,P|257:310|249:265,1,90,8|0,0:0|0:0,0:0:0:0:
167,132,48941,2,0,P|159:176|156:221,1,90,2|0,0:0|0:0,0:0:0:0:
320,326,49421,1,8,0:0:0:0:
476,274,49661,1,0,0:0:0:0:
281,163,49901,5,4,0:0:0:0:
443,80,50141,1,2,0:1:0:0:
445,63,50261,1,2,0:1:0:0:
447,47,50381,1,2,0:1:0:0:
424,228,50621,1,2,0:0:0:0:
283,89,50861,5,4,0:0:0:0:
122,201,51101,1,2,0:1:0:0:
120,184,51221,1,2,0:1:0:0:
118,168,51341,1,2,0:1:0:0:
322,205,51581,1,2,0:0:0:0:
216,49,51821,5,4,0:0:0:0:
343,198,52061,1,0,0:1:0:0:
147,322,52301,1,4,0:0:0:0:
225,140,52541,5,2,0:1:0:0:
228,162,52661,1,2,0:1:0:0:
231,184,52781,1,2,0:0:0:0:
346,296,53021,5,2,0:1:0:0:
342,324,53141,1,2,0:1:0:0:
338,353,53261,1,2,0:0:0:0:
474,225,53501,5,2,0:1:0:0:
470,190,53621,1,2,0:1:0:0:
465,156,53741,1,4,0:0:0:0:
461,123,54221,5,2,0:1:0:0:
374,34,54461,1,2,0:1:0:0:
253,84,54701,1,2,0:1:0:0:
261,215,54941,5,4,0:0:0:0:
389,248,55181,1,4,0:0:0:0:
289,349,55421,1,4,0:0:0:0:
152,303,55661,5,4,0:0:0:0:
248,141,55901,1,0,0:0:0:0:
252,165,56021,1,4,0:0:0:0:
256,190,56141,1,4,0:0:0:0:
289,349,56381,1,4,0:0:0:0:
56,221,56621,6,0,P|44:309|105:332,1,161.999995056153,4|0,0:0|0:0,0:0:0:0:
188,314,57101,2,0,B|244:306|232:341|296:326,1,101.250003862381,2|0,0:1|0:0,0:0:0:0:
411,248,57581,6,0,P|441:291|441:344,1,107.999996704102,4|0,0:0|0:0,0:0:0:0:
271,252,58061,1,8,0:0:0:0:
470,169,58301,1,0,0:0:0:0:
334,63,58541,2,0,P|325:117|336:177,1,107.999996704102,2|0,0:0|0:0,0:0:0:0:
362,239,58901,1,0,0:0:0:0:
361,259,59021,2,0,P|312:253|237:249,1,107.999996704102,8|0,0:0|0:0,0:0:0:0:
101,83,59501,6,0,P|70:126|70:180,1,107.999996704102,4|0,0:0|0:0,0:0:0:0:
281,226,59981,1,8,0:0:0:0:
84,306,60221,1,0,0:0:0:0:
173,120,60461,2,0,P|168:179|166:236,1,107.999996704102,2|0,0:0|0:0,0:0:0:0:
311,375,60941,2,0,P|315:321|317:267,1,107.999996704102,8|0,0:0|0:0,0:0:0:0:
357,203,61301,1,0,0:0:0:0:
354,181,61421,5,2,0:0:0:0:
510,152,61661,1,0,0:0:0:0:
277,126,61901,1,8,0:0:0:0:
396,271,62141,1,0,0:0:0:0:
405,63,62381,6,0,P|431:109|419:174,1,107.999996704102,2|0,0:0|0:0,0:0:0:0:
315,295,62861,2,0,P|268:291|201:285,1,107.999996704102,8|0,0:0|0:0,0:0:0:0:
0,233,63341,5,2,0:0:0:0:
167,185,63581,1,0,0:0:0:0:
124,357,63821,1,8,0:0:0:0:
178,166,64061,1,0,0:0:0:0:
53,301,64301,5,2,0:0:0:0:
91,278,64421,1,2,0:0:0:0:
135,273,64541,1,2,0:0:0:0:
177,287,64661,1,2,0:0:0:0:
216,323,64781,5,8,0:0:0:0:
259,355,64901,1,0,0:0:0:0:
312,361,65021,1,0,0:0:0:0:
360,338,65141,1,0,0:0:0:0:
399,301,65261,6,0,P|406:246|388:195,1,107.999996704102,4|2,0:0|0:1,0:0:0:0:
321,177,65621,1,2,0:1:0:0:
299,172,65741,1,8,0:0:0:0:
377,31,65981,1,0,0:0:0:0:
213,123,66221,2,0,P|160:133|106:136,1,107.999996704102,2|2,0:0|0:1,0:0:0:0:
48,95,66581,1,2,0:1:0:0:
42,74,66701,1,8,0:0:0:0:
237,118,66941,1,0,0:0:0:0:
64,239,67181,6,0,P|124:243|175:254,1,107.999996704102,4|2,0:0|0:1,0:0:0:0:
221,301,67541,1,2,0:0:0:0:
226,321,67661,1,8,0:0:0:0:
442,261,67901,5,2,0:0:0:0:
436,282,68021,1,2,0:1:0:0:
431,303,68141,1,2,0:1:0:0:
281,195,68381,1,8,0:0:0:0:
488,90,68621,1,8,0:0:0:0:
448,240,68861,1,0,0:0:0:0:
325,34,69101,6,0,P|323:97|336:143,1,107.999996704102,4|0,0:0|0:0,0:0:0:0:
281,195,69461,1,0,0:0:0:0:
260,187,69581,2,0,P|206:195|162:225,1,107.999996704102,8|0,0:0|0:0,0:0:0:0:
269,350,70061,2,0,P|334:349|403:343,1,107.999996704102,2|0,0:0|0:0,0:0:0:0:
162,224,70541,1,8,0:0:0:0:
126,374,70781,1,0,0:0:0:0:
80,179,71021,5,2,0:0:0:0:
107,153,71141,1,0,0:0:0:0:
142,139,71261,1,2,0:0:0:0:
180,138,71381,1,0,0:0:0:0:
247,172,71501,5,8,0:0:0:0:
301,193,71621,1,0,0:0:0:0:
360,187,71741,1,2,0:0:0:0:
409,154,71861,1,0,0:0:0:0:
426,74,71981,6,0,P|428:49|423:19,1,53.9999983520508,2|2,0:0|0:0,0:0:0:0:
253,94,72221,2,0,P|251:120|255:147,1,53.9999983520508,2|0,0:0|0:0,0:0:0:0:
411,251,72461,6,0,P|437:250|464:254,1,53.9999983520508,8|0,0:0|0:0,0:0:0:0:
245,332,72701,2,0,P|218:333|191:329,1,53.9999983520508,8|0,0:0|0:0,0:0:0:0:
281,160,72941,6,0,P|308:209|302:263,1,107.999996704102,4|0,0:0|0:0,0:0:0:0:
77,327,73421,1,8,0:0:0:0:
182,155,73661,1,0,0:0:0:0:
285,356,73901,2,0,P|230:352|173:349,1,107.999996704102,2|0,0:0|0:0,0:0:0:0:
19,245,74381,2,0,P|7:192|24:142,1,107.999996704102,8|0,0:0|0:0,0:0:0:0:
194,227,74861,6,0,P|205:279|188:329,1,107.999996704102,2|0,0:0|0:0,0:0:0:0:
274,121,75341,1,8,0:0:0:0:
358,278,75581,1,0,0:0:0:0:
490,152,75821,5,2,0:0:0:0:
443,139,75941,1,0,0:0:0:0:
395,144,76061,1,0,0:0:0:0:
352,166,76181,1,0,0:0:0:0:
308,198,76301,5,8,0:0:0:0:
255,201,76421,1,0,0:0:0:0:
211,172,76541,1,0,0:0:0:0:
194,121,76661,1,0,0:0:0:0:
203,51,76781,5,2,0:2:0:0:
395,144,77021,1,0,0:0:0:0:
212,219,77261,1,8,0:0:0:0:
230,41,77501,1,0,0:0:0:0:
372,236,77741,6,0,P|386:290|373:347,1,107.999996704102,2|0,0:0|0:0,0:0:0:0:
303,361,78101,1,0,0:0:0:0:
276,356,78221,1,8,0:0:0:0:
187,175,78461,1,0,0:0:0:0:
70,357,78701,5,2,0:0:0:0:
269,262,78941,1,0,0:0:0:0:
27,180,79181,1,8,0:0:0:0:
191,297,79421,1,0,0:0:0:0:
153,64,79661,5,2,0:0:0:0:
99,263,79901,1,2,0:0:0:0:
280,145,80141,1,8,0:0:0:0:
280,145,80261,1,0,0:0:0:0:
280,145,80381,2,0,L|336:136,1,53.9999983520508
418,155,80621,6,0,P|437:204|435:258,1,107.999996704102,4|0,0:0|0:0,0:0:0:0:
331,365,81101,2,0,P|311:315|313:261,1,107.999996704102,8|0,0:0|0:0,0:0:0:0:
207,153,81581,2,0,P|224:203|212:255,1,107.999996704102,2|0,0:0|0:0,0:0:0:0:
43,309,82061,2,0,P|100:310|156:324,1,107.999996704102,8|0,0:0|0:0,0:0:0:0:
58,222,82541,6,0,P|28:149|45:71,1,161.999995056153,2|0,0:0|0:0,0:0:0:0:
103,33,83021,1,8,0:0:0:0:
241,235,83261,1,0,0:0:0:0:
174,43,83501,1,2,0:0:0:0:
124,201,83741,1,8,0:0:0:0:
306,90,83981,1,8,0:0:0:0:
340,76,84101,1,0,0:0:0:0:
378,75,84221,1,0,0:0:0:0:
414,87,84341,1,0,0:0:0:0:
471,128,84461,5,4,0:0:0:0:
471,128,85181,1,0,0:1:0:0:
428,248,85421,2,0,B|342:257|375:216|294:226,1,135.000005149842
298,225,86381,5,4,0:0:0:0:
87,245,86621,1,2,0:0:0:0:
86,252,86741,1,4,0:0:0:0:
85,259,86861,1,4,0:0:0:0:
260,357,87101,1,4,0:0:0:0:
154,176,87341,2,0,P|91:152|27:170,1,135.000005149842,4|2,0:0|0:1,0:0:0:0:
172,260,88301,6,0,P|229:256|298:244,1,107.999996704102,4|0,0:0|0:0,0:0:0:0:
482,168,88781,2,0,P|425:164|356:152,1,107.999996704102,8|0,0:0|0:0,0:0:0:0:
279,108,89141,1,0,0:0:0:0:
265,131,89261,2,0,P|256:189|279:242,1,107.999996704102,2|0,0:0|0:0,0:0:0:0:
386,357,89741,1,8,0:0:0:0:
404,187,89981,1,0,0:0:0:0:
491,340,90221,6,0,P|437:331|383:327,1,107.999996704102,2|0,0:0|0:0,0:0:0:0:
175,304,90701,1,8,0:0:0:0:
336,200,90941,1,0,0:0:0:0:
291,373,91181,2,0,P|284:315|277:256,1,107.999996704102,2|0,0:0|0:0,0:0:0:0:
93,224,91661,2,0,P|153:214|214:238,1,107.999996704102,8|0,0:0|0:0,0:0:0:0:
295,77,92141,6,0,P|279:130|269:195,1,107.999996704102,2|0,0:0|0:0,0:0:0:0:
303,370,92621,2,0,P|293:316|278:265,1,107.999996704102,8|0,0:0|0:0,0:0:0:0:
463,250,93101,2,0,P|407:256|344:239,1,107.999996704102,2|0,0:0|0:0,0:0:0:0:
199,137,93581,2,0,P|183:187|201:237,1,107.999996704102,8|0,0:0|0:0,0:0:0:0:
276,371,94061,6,0,B|266:311|295:329|275:255,1,107.999996704102,2|0,0:0|0:0,0:0:0:0:
426,130,94541,1,8,0:0:0:0:
480,288,94781,1,0,0:0:0:0:
285,240,95021,2,0,P|232:237|172:236,1,107.999996704102,2|0,0:0|0:0,0:0:0:0:
77,283,95381,1,0,0:0:0:0:
84,257,95501,2,0,P|79:203|61:152,1,107.999996704102,8|0,0:0|0:0,0:0:0:0:
201,57,95981,6,0,P|183:107|178:161,1,107.999996704102,4|0,0:0|0:0,0:0:0:0:
295,354,96461,2,0,P|290:300|272:249,1,107.999996704102,8|0,0:0|0:0,0:0:0:0:
192,184,96821,1,0,0:0:0:0:
218,178,96941,2,0,P|274:170|331:169,1,107.999996704102,2|0,0:0|0:0,0:0:0:0:
461,284,97421,1,8,0:0:0:0:
272,249,97661,1,0,0:0:0:0:
409,100,97901,6,0,P|431:151|418:217,1,107.999996704102,2|0,0:0|0:0,0:0:0:0:
255,271,98381,1,8,0:0:0:0:
470,309,98621,1,0,0:0:0:0:
331,160,98861,1,2,0:0:0:0:
172,348,99101,5,2,0:0:0:0:
409,268,99341,1,2,0:0:0:0:
165,141,99581,1,2,0:0:0:0:
403,46,99821,5,4,0:0:0:0:
260,296,100541,5,0,0:0:0:0:
264,323,100661,2,0,L|268:355,2,26.9999991760254
305,184,101021,1,0,0:0:0:0:
216,122,101261,1,0,0:0:0:0:
130,187,101501,1,0,0:0:0:0:
165,289,101741,6,0,L|192:286,7,26.9999991760254,2|0|0|0|0|0|0|0,0:0|0:0|0:0|0:0|0:0|0:0|0:0|0:0,0:0:0:0:
267,349,102221,2,0,L|240:352,6,26.9999991760254
356,246,102701,6,0,L|391:243,3,35.9999989013672
238,189,103061,1,2,0:0:0:0:
203,193,103181,1,2,0:0:0:0:
336,92,103421,1,2,0:0:0:0:
135,31,103661,6,0,B|76:236|214:145|142:367,1,323.999990112305,4|0,0:0|0:0,0:0:0:0:
96,351,105581,6,0,P|123:348|157:340,1,53.9999983520508
300,292,106061,2,0,P|327:295|361:303,1,53.9999983520508
186,184,106541,1,2,0:3:0:0:
186,184,107501,6,0,P|213:181|247:173,1,53.9999983520508
446,150,107981,2,0,P|419:144|393:142,1,53.9999983520508
305,20,108461,2,0,P|308:77|313:147,1,107.999996704102,2|0,0:3|0:0,0:0:0:0:
479,225,109421,6,0,P|472:252|467:278,1,53.9999983520508
336,354,109901,2,0,P|331:327|325:301,1,53.9999983520508
325,301,110381,1,2,0:3:0:0:
221,329,110621,1,0,0:0:0:0:
162,238,110861,1,0,0:0:0:0:
230,154,111101,1,0,0:0:0:0:
230,154,111341,6,0,B|309:145|290:187|373:171,1,135.000005149842,4|0,0:0|0:0,0:0:0:0:
488,127,112061,1,4,0:0:0:0:
488,127,112301,2,0,P|495:160|496:193,1,67.5000025749208,4|0,0:0|0:0,0:0:0:0:
413,308,112781,2,0,P|414:274|421:242,1,67.5000025749208
335,342,113261,6,0,P|270:323|204:328,1,135.000005149842,4|0,0:0|0:0,0:0:0:0:
364,189,113981,1,4,0:0:0:0:
364,189,114221,2,0,P|336:208|303:218,1,67.5000025749208,4|0,0:0|0:0,0:0:0:0:
204,328,114701,2,0,P|200:294|208:261,1,67.5000025749208,4|0,0:0|0:0,0:0:0:0:
213,98,115181,5,4,0:0:0:0:
213,98,115901,1,0,0:0:0:0:
488,208,116141,5,4,0:0:0:0:
286,302,116621,1,0,0:0:0:0:
298,34,117101,5,4,0:0:0:0:
298,34,117581,1,0,0:0:0:0:
295,71,117701,1,0,0:0:0:0:
292,108,117821,1,0,0:0:0:0:
289,145,117941,1,0,0:0:0:0:
279,218,118061,6,0,L|276:253,2,33.7500012874604,4|0|0,0:0|0:0|0:0,0:0:0:0:
382,93,118421,1,4,0:0:0:0:
384,72,118541,1,12,0:0:0:0:
509,209,118781,1,2,0:0:0:0:
509,209,119021,6,0,P|464:212|420:216,1,90,4|0,0:0|0:0,0:0:0:0:
363,358,119501,2,0,P|344:317|351:273,1,90,8|0,0:0|0:0,0:0:0:0:
226,144,119981,2,0,P|244:184|237:228,1,90,2|0,0:0|0:0,0:0:0:0:
78,275,120461,2,0,P|123:275|168:282,1,90,8|0,0:0|0:0,0:0:0:0:
278,333,120941,5,2,0:0:0:0:
152,162,121181,1,0,0:0:0:0:
152,179,121301,1,0,0:0:0:0:
153,197,121421,1,8,0:0:0:0:
86,343,121661,1,0,0:0:0:0:
286,227,121901,1,2,0:0:0:0:
297,359,122141,1,0,0:0:0:0:
154,214,122381,1,8,0:0:0:0:
165,354,122621,1,0,0:0:0:0:
409,342,122861,5,2,0:0:0:0:
258,252,123101,1,0,0:0:0:0:
259,269,123221,1,0,0:0:0:0:
260,286,123341,1,8,0:0:0:0:
415,214,123581,1,0,0:0:0:0:
241,90,123821,1,2,0:0:0:0:
256,234,124061,1,0,0:0:0:0:
395,78,124301,1,8,0:0:0:0:
395,78,124781,5,2,0:0:0:0:
239,166,125021,1,0,0:0:0:0:
222,164,125141,1,0,0:0:0:0:
204,162,125261,1,8,0:0:0:0:
344,267,125501,1,0,0:0:0:0:
173,162,125741,5,0,0:0:0:0:
142,188,125861,1,0,0:0:0:0:
127,225,125981,1,0,0:0:0:0:
132,265,126101,1,0,0:0:0:0:
157,332,126221,5,8,0:0:0:0:
370,361,126461,1,8,0:0:0:0:
387,361,126581,1,8,0:0:0:0:
404,359,126701,6,0,P|413:312|401:259,1,90,4|0,0:0|0:0,0:0:0:0:
255,194,127181,2,0,P|247:238|256:282,1,90,8|0,0:0|0:0,0:0:0:0:
421,130,127661,2,0,P|366:135|321:138,1,90,2|0,0:0|0:0,0:0:0:0:
209,110,128141,2,0,P|200:66|207:21,1,90,8|0,0:0|0:0,0:0:0:0:
284,206,128621,6,0,P|229:211|184:214,1,90,2|0,0:0|0:0,0:0:0:0:
286,64,129101,1,8,0:0:0:0:
374,228,129341,1,0,0:0:0:0:
124,127,129581,1,2,0:0:0:0:
92,158,129701,1,0,0:0:0:0:
78,200,129821,1,0,0:0:0:0:
86,244,129941,1,0,0:0:0:0:
104,285,130061,2,0,P|148:287|193:292,1,90,8|0,0:0|0:0,0:0:0:0:
411,216,130541,5,4,0:0:0:0:
314,355,130781,1,2,0:1:0:0:
310,319,130901,1,2,0:1:0:0:
305,283,131021,1,2,0:1:0:0:
290,121,131261,1,2,0:0:0:0:
198,245,131501,5,4,0:0:0:0:
447,153,131741,1,2,0:1:0:0:
411,149,131861,1,2,0:1:0:0:
375,144,131981,1,2,0:1:0:0:
180,129,132221,1,2,0:0:0:0:
473,69,132461,5,4,0:0:0:0:
358,254,132701,1,0,0:0:0:0:
320,44,132941,1,4,0:0:0:0:
211,220,133181,5,2,0:1:0:0:
206,177,133301,1,2,0:1:0:0:
201,134,133421,1,2,0:0:0:0:
408,176,133661,5,2,0:1:0:0:
402,228,133781,1,2,0:1:0:0:
395,280,133901,1,2,0:0:0:0:
134,339,134141,5,2,0:1:0:0:
126,276,134261,1,2,0:1:0:0:
118,214,134381,1,4,0:0:0:0:
118,214,134861,5,2,0:1:0:0:
238,273,135101,1,2,0:1:0:0:
344,189,135341,1,2,0:1:0:0:
219,5,135581,5,4,0:0:0:0:
229,139,135821,1,4,0:0:0:0:
238,273,136061,1,4,0:0:0:0:
426,350,136301,5,4,0:0:0:0:
238,273,136541,1,2,0:1:0:0:
216,278,136661,1,4,0:0:0:0:
195,283,136781,1,4,0:0:0:0:
372,92,137021,1,4,0:0:0:0:
474,232,137261,6,0,B|373:254|415:198|299:228,1,161.999995056153,4|0,0:0|0:0,0:0:0:0:
238,273,137741,2,0,P|224:322|241:377,1,101.250003862381
362,322,138221,6,0,P|415:317|482:312,1,107.999996704102,4|0,0:0|0:0,0:0:0:0:
242,183,138701,1,8,0:0:0:0:
164,339,138941,1,0,0:0:0:0:
341,242,139181,2,0,P|335:188|315:135,1,107.999996704102,2|0,0:0|0:0,0:0:0:0:
245,98,139541,1,0,0:0:0:0:
221,111,139661,2,0,P|177:86|183:29,1,107.999996704102,8|0,0:0|0:0,0:0:0:0:
420,35,140141,6,0,P|416:91|411:148,1,107.999996704102,2|0,0:0|0:0,0:0:0:0:
368,314,140621,1,8,0:0:0:0:
500,194,140861,1,0,0:0:0:0:
312,227,141101,2,0,P|258:223|204:218,1,107.999996704102,2|0,0:0|0:0,0:0:0:0:
27,179,141581,2,0,P|69:152|130:159,1,107.999996704102,8|0,0:0|0:0,0:0:0:0:
174,372,142061,5,2,0:0:0:0:
203,167,142301,1,0,0:0:0:0:
62,318,142541,1,8,0:0:0:0:
263,278,142781,1,0,0:0:0:0:
78,189,143021,2,0,P|55:139|68:82,1,107.999996704102,2|0,0:0|0:0,0:0:0:0:
143,61,143381,1,0,0:0:0:0:
164,76,143501,2,0,P|230:73|273:69,1,107.999996704102,8|0,0:0|0:0,0:0:0:0:
474,30,143981,5,2,0:0:0:0:
512,204,144221,1,0,0:0:0:0:
297,145,144461,1,8,0:0:0:0:
447,99,144701,1,0,0:0:0:0:
414,293,144941,5,2,0:0:0:0:
377,315,145061,1,2,0:0:0:0:
334,320,145181,1,2,0:0:0:0:
293,308,145301,1,2,0:0:0:0:
241,278,145421,5,8,0:0:0:0:
187,253,145541,1,0,0:0:0:0:
128,257,145661,1,0,0:0:0:0:
78,287,145781,1,0,0:0:0:0:
48,338,145901,6,0,P|39:280|20:220,1,107.999996704102,4|2,0:0|0:1,0:0:0:0:
70,154,146261,1,2,0:1:0:0:
97,137,146381,2,0,P|154:131|210:150,1,107.999996704102,8|0,0:0|0:0,0:0:0:0:
392,210,146861,1,2,0:0:0:0:
325,101,147101,1,2,0:1:0:0:
329,69,147221,1,2,0:1:0:0:
334,38,147341,1,8,0:0:0:0:
211,219,147581,1,0,0:0:0:0:
451,356,147821,6,0,P|453:300|426:251,1,107.999996704102,4|2,0:0|0:1,0:0:0:0:
356,234,148181,1,2,0:0:0:0:
323,239,148301,1,8,0:0:0:0:
115,319,148541,1,2,0:0:0:0:
147,324,148661,1,2,0:1:0:0:
180,329,148781,1,2,0:1:0:0:
378,320,149021,1,8,0:0:0:0:
212,198,149261,1,8,0:0:0:0:
261,359,149501,1,0,0:0:0:0:
367,159,149741,6,0,P|375:104|356:57,1,107.999996704102,4|0,0:0|0:0,0:0:0:0:
274,27,150101,1,0,0:0:0:0:
245,42,150221,2,0,P|193:57|128:56,1,107.999996704102,8|0,0:0|0:0,0:0:0:0:
44,224,150701,2,0,P|32:172|51:119,1,107.999996704102,2|0,0:0|0:0,0:0:0:0:
201,259,151181,1,8,0:0:0:0:
121,129,151421,1,0,0:0:0:0:
32,324,151661,5,2,0:0:0:0:
64,303,151781,1,0,0:0:0:0:
100,297,151901,1,2,0:0:0:0:
137,303,152021,1,0,0:0:0:0:
207,332,152141,5,8,0:0:0:0:
261,355,152261,1,0,0:0:0:0:
320,356,152381,1,2,0:0:0:0:
374,334,152501,1,0,0:0:0:0:
436,282,152621,6,0,P|440:257|439:224,1,53.9999983520508,2|2,0:0|0:0,0:0:0:0:
256,209,152861,2,0,P|255:235|259:262,1,53.9999983520508,2|0,0:0|0:0,0:0:0:0:
361,109,153101,6,0,P|365:82|364:55,1,53.9999983520508,8|0,0:0|0:0,0:0:0:0:
191,192,153341,2,0,P|218:196|245:195,1,53.9999983520508,8|2,0:0|0:0,0:0:0:0:
458,225,153581,6,0,P|471:173|455:122,1,107.999996704102,4|0,0:0|0:0,0:0:0:0:
256,209,154061,1,8,0:0:0:0:
364,55,154301,1,0,0:0:0:0:
461,306,154541,2,0,P|411:302|335:297,1,107.999996704102,2|0,0:0|0:0,0:0:0:0:
294,368,154901,1,0,0:0:0:0:
274,342,155021,2,0,P|263:290|285:238,1,107.999996704102,8|0,0:0|0:0,0:0:0:0:
288,30,155501,6,0,P|309:78|299:130,1,107.999996704102,2|0,0:0|0:0,0:0:0:0:
240,178,155861,1,0,0:0:0:0:
213,180,155981,1,8,0:0:0:0:
16,191,156221,1,0,0:0:0:0:
105,33,156461,5,2,0:0:0:0:
127,69,156581,1,0,0:0:0:0:
136,111,156701,1,0,0:0:0:0:
129,154,156821,1,0,0:0:0:0:
103,207,156941,5,8,0:0:0:0:
91,264,157061,1,0,0:0:0:0:
117,316,157181,1,0,0:0:0:0:
170,339,157301,1,0,0:0:0:0:
237,318,157421,5,2,0:0:0:0:
423,257,157661,1,0,0:0:0:0:
180,248,157901,1,8,0:0:0:0:
337,359,158141,1,0,0:0:0:0:
259,136,158381,2,0,P|250:194|273:244,1,107.999996704102,2|0,0:0|0:0,0:0:0:0:
339,270,158741,1,0,0:0:0:0:
381,263,158861,1,8,0:0:0:0:
505,181,159101,1,0,0:0:0:0:
379,366,159341,5,2,0:0:0:0:
303,216,159581,1,0,0:0:0:0:
510,299,159821,1,8,0:0:0:0:
389,139,160061,1,0,0:0:0:0:
275,354,160301,1,2,0:0:0:0:
468,223,160541,1,2,0:0:0:0:
260,110,160781,1,8,0:0:0:0:
260,110,160901,1,0,0:0:0:0:
260,110,161021,2,0,P|264:143|267:168,1,53.9999983520508
209,236,161261,6,0,P|156:242|97:223,1,107.999996704102,4|0,0:0|0:0,0:0:0:0:
305,249,161741,2,0,P|337:291|349:351,1,107.999996704102,8|0,0:0|0:0,0:0:0:0:
266,163,162221,2,0,P|286:114|332:72,1,107.999996704102,2|0,0:0|0:0,0:0:0:0:
504,172,162701,2,0,P|451:177|376:183,1,107.999996704102,8|0,0:0|0:0,0:0:0:0:
309,370,163181,6,0,B|282:276|340:304|306:199,1,161.999995056153,2|0,0:0|0:0,0:0:0:0:
293,143,163661,1,8,0:0:0:0:
92,203,163901,1,0,0:0:0:0:
285,280,164141,1,2,0:0:0:0:
274,75,164381,1,0,0:0:0:0:
33,111,164621,1,8,0:0:0:0:
18,145,164741,1,0,0:0:0:0:
12,182,164861,1,0,0:0:0:0:
15,220,164981,1,0,0:0:0:0:
36,287,165101,5,4,0:0:0:0:
36,287,165821,1,0,0:0:0:0:
111,338,166061,2,0,B|184:314|175:360|250:335,1,135.000005149842
379,259,167021,5,4,0:0:0:0:
386,267,167741,1,0,0:0:0:0:
386,267,167981,2,0,P|389:228|391:188,1,67.5000025749208
489,47,168461,2,0,P|505:94|499:144,1,101.250003862381
461,207,168941,5,4,0:0:0:0:
302,179,169181,1,2,0:0:0:0:
330,19,169421,1,2,0:0:0:0:
489,47,169661,1,2,0:0:0:0:
386,198,169901,5,4,0:0:0:0:
380,221,170021,2,0,L|384:277,1,33.7500012874604,2|2,0:0|0:0,0:0:0:0:
440,320,170261,2,0,L|436:376,1,33.7500012874604,2|2,0:0|0:0,0:0:0:0:
245,298,170621,1,2,0:0:0:0:
67,361,170861,6,0,L|63:327,1,33.7500012874604,4|2,0:0|0:0,0:0:0:0:
124,265,171101,1,2,0:0:0:0:
129,242,171221,2,0,L|132:208,1,33.7500012874604,2|2,0:0|0:0,0:0:0:0:
85,78,171581,1,2,0:0:0:0:
335,56,171821,6,0,L|332:89,1,33.7500012874604,4|2,0:0|0:0,0:0:0:0:
265,146,172061,2,0,L|268:180,1,33.7500012874604,4|2,0:0|0:0,0:0:0:0:
285,330,172301,5,4,0:0:0:0:
407,231,172541,1,2,0:0:0:0:
224,297,172781,6,0,L|191:295,1,33.7500012874604,4|2,0:0|0:0,0:0:0:0:
304,342,173021,1,2,0:0:0:0:
324,354,173141,2,0,L|357:351,1,33.7500012874604,2|2,0:0|0:0,0:0:0:0:
478,259,173501,1,2,0:0:0:0:
306,200,173741,6,0,L|302:233,1,33.7500012874604,4|2,0:0|0:0,0:0:0:0:
376,136,173981,1,2,0:0:0:0:
378,112,174101,2,0,L|373:63,1,33.7500012874604,2|2,0:0|0:0,0:0:0:0:
464,178,174461,1,2,0:0:0:0:
233,58,174701,6,0,L|230:105,1,33.7500012874604,4|2,0:0|0:0,0:0:0:0:
169,155,174941,2,0,L|172:189,1,33.7500012874604,2|2,0:0|0:0,0:0:0:0:
193,330,175181,5,4,0:0:0:0:
308,211,175421,1,2,0:0:0:0:
137,287,175661,6,0,L|104:284,1,33.7500012874604,4|2,0:0|0:0,0:0:0:0:
209,345,175901,2,0,L|245:342,1,33.7500012874604,2|2,0:0|0:0,0:0:0:0:
433,316,176141,5,4,0:0:0:0:
308,211,176381,1,4,0:0:0:0:
472,95,176621,6,0,P|468:139|461:194,1,80.9999975280763,4|0,0:0|0:0,0:0:0:0:
403,221,176981,1,0,0:0:0:0:
405,249,177101,1,2,0:1:0:0:
286,138,177341,1,0,0:0:0:0:
259,362,177581,6,0,P|263:318|270:263,1,80.9999975280763,4|0,0:0|0:0,0:0:0:0:
328,236,177941,1,0,0:0:0:0:
325,207,178061,1,2,0:1:0:0:
136,144,178301,1,0,0:0:0:0:
309,28,178541,6,0,P|305:72|298:127,1,80.9999975280763,4|2,0:0|0:0,0:0:0:0:
240,154,178901,1,2,0:0:0:0:
242,182,179021,1,2,0:1:0:0:
260,361,179261,1,2,0:0:0:0:
122,179,179501,6,0,L|117:241,1,40.4999987640381,4|0,0:0|0:0,0:0:0:0:
104,311,179741,1,2,0:1:0:0:
373,283,179981,1,2,0:1:0:0:
192,241,180221,1,0,0:0:0:0:
382,183,180461,6,0,P|337:178|283:169,1,80.9999975280763,4|2,0:0|0:0,0:0:0:0:
244,121,180821,1,2,0:0:0:0:
240,92,180941,1,2,0:1:0:0:
431,119,181181,1,2,0:0:0:0:
232,195,181421,6,0,L|225:234,1,40.4999987640381,4|0,0:0|0:0,0:0:0:0:
205,325,181661,1,2,0:1:0:0:
481,294,181901,1,2,0:1:0:0:
304,236,182141,1,2,0:0:0:0:
476,121,182381,6,0,P|471:166|462:220,1,80.9999975280763,4|2,0:0|0:0,0:0:0:0:
414,259,182741,1,2,0:0:0:0:
386,265,182861,1,2,0:1:0:0:
244,143,183101,1,0,0:0:0:0:
278,285,183341,6,0,L|271:325,1,40.4999987640381,4|0,0:0|0:0,0:0:0:0:
200,372,183581,1,2,0:1:0:0:
172,367,183701,1,2,0:1:0:0:
144,362,183821,1,2,0:1:0:0:
15,251,184061,1,4,0:0:0:0:
15,251,184301,6,0,B|89:230|76:271|148:250,1,135,4|0,0:0|0:0,0:0:0:0:
229,198,185261,2,0,L|243:154,2,45
231,289,185981,1,2,0:0:0:0:
231,289,186221,6,0,P|300:299|357:270,1,135,2|0,0:0|0:0,0:0:0:0:
455,300,187181,2,0,P|462:321|464:343,1,45
356,270,187661,2,0,P|358:247|365:226,1,45
503,96,188141,6,0,P|439:154|347:136,1,180,2|0,0:0|0:0,0:0:0:0:
352,140,189581,1,0,0:0:0:0:
223,72,189821,1,2,0:0:0:0:
223,72,190061,6,0,P|204:112|206:170,1,90,2|0,0:0|0:0,0:0:0:0:
255,325,191021,2,0,P|252:280|234:240,1,90
61,310,191981,6,0,P|107:307|162:303,1,90,2|0,0:0|0:0,0:0:0:0:
295,315,192941,2,0,L|300:367,2,45
236,191,193661,1,2,0:0:0:0:
236,191,193901,6,0,L|231:235,1,45,2|0,0:0|0:0,0:0:0:0:
399,337,194381,2,0,L|394:292,1,45
336,169,194861,2,0,L|331:213,1,45
491,307,195341,2,0,L|486:262,1,45
507,115,195821,6,0,B|433:140|446:93|369:122,1,135,2|0,0:0|0:0,0:0:0:0:
230,155,196781,2,0,P|214:199|209:246,1,90
297,112,197501,1,2,0:0:0:0:
297,112,197741,6,0,L|294:67,2,45,2|8|8,0:0|0:0|0:0,0:0:0:0:
412,197,198461,2,0,L|368:200,1,45,2|8,0:0|0:0,0:0:0:0:
255,293,198941,1,2,0:0:0:0:
255,293,199181,2,0,L|300:291,1,45,8|2,0:0|0:0,0:0:0:0:
152,184,199661,6,0,B|173:267|128:239|149:333,1,135,4|0,0:0|0:0,0:0:0:0:
261,203,200621,2,0,P|258:179|252:157,2,45,8|0|0,0:0|0:0|0:0,0:0:0:0:
148,160,201341,1,2,0:0:0:0:
148,160,201581,6,0,P|152:114|164:63,1,90,2|0,0:0|0:0,0:0:0:0:
300,30,202301,1,2,0:0:0:0:
300,30,202541,2,0,L|307:84,1,45,8|0,0:0|0:0,0:0:0:0:
246,190,203021,2,0,L|241:146,1,45
305,278,203501,6,0,B|383:258|366:303|451:276,1,135,2|0,0:0|0:0,0:0:0:0:
364,148,204461,2,0,P|349:170|341:198,2,45,8|0|0,0:0|0:0|0:0,0:0:0:0:
445,287,205181,1,2,0:0:0:0:
445,287,205421,6,0,P|401:297|356:298,1,90,2|0,0:0|0:0,0:0:0:0:
180,261,206141,1,0,0:0:0:0:
280,188,206381,1,8,0:0:0:0:
280,188,206621,2,0,P|276:220|272:245,1,45,2|8,0:0|0:0,0:0:0:0:
210,341,207101,1,2,0:0:0:0:
210,341,207341,6,0,P|159:330|101:322,1,90,4|0,0:0|0:0,0:0:0:0:
36,226,208301,2,0,P|41:201|47:172,2,45,8|0|0,0:0|0:0|0:0,0:0:0:0:
178,186,209021,1,2,0:0:0:0:
178,186,209261,6,0,P|170:138|165:87,1,90,2|0,0:0|0:0,0:0:0:0:
40,43,209981,1,2,0:0:0:0:
40,43,210221,2,0,P|35:65|31:87,1,45,8|0,0:0|0:0,0:0:0:0:
154,192,210701,2,0,P|149:169|145:147,1,45,0|2,0:0|0:0,0:0:0:0:
278,27,211181,6,0,B|302:105|257:89|282:174,1,135,4|0,0:0|0:0,0:0:0:0:
399,287,212141,2,0,P|404:240|392:195,1,90,8|0,0:0|0:0,0:0:0:0:
280,251,212861,1,2,0:0:0:0:
479,333,213101,5,4,0:0:0:0:
257,255,213341,1,0,0:0:0:0:
449,156,213581,1,0,0:0:0:0:
270,363,213821,1,2,0:0:0:0:
250,121,214061,1,8,0:0:0:0:
36,241,214301,1,2,0:0:0:0:
28,266,214421,1,2,0:0:0:0:
33,292,214541,2,0,B|119:278|85:324|188:308,1,135,8|0,0:0|0:0,0:0:0:0:
234,292,215021,5,4,0:0:0:0:
445,327,215261,1,0,0:0:0:0:
319,198,215501,1,8,0:0:0:0:
277,363,215741,1,0,0:0:0:0:
492,226,215981,2,0,P|449:215|398:210,1,90,2|0,0:0|0:0,0:0:0:0:
277,363,216461,2,0,P|280:318|291:274,1,90,8|0,0:0|0:0,0:0:0:0:
304,110,216941,6,0,P|315:153|319:198,1,90,2|0,0:0|0:0,0:0:0:0:
175,344,217421,1,8,0:0:0:0:
231,190,217661,1,0,0:0:0:0:
389,330,217901,2,0,P|436:327|484:322,1,90,2|0,0:0|0:0,0:0:0:0:
319,198,218381,2,0,P|274:201|229:205,1,90,8|0,0:0|0:0,0:0:0:0:
27,252,218861,5,2,0:0:0:0:
204,343,219101,1,0,0:0:0:0:
131,140,219341,1,8,0:0:0:0:
40,286,219581,1,0,0:0:0:0:
224,176,219821,2,0,P|268:170|313:168,1,90,2|0,0:0|0:0,0:0:0:0:
454,313,220301,1,8,0:0:0:0:
484,159,220541,1,0,0:0:0:0:
338,360,220781,6,0,P|331:313|320:271,1,90,2|0,0:0|0:0,0:0:0:0:
134,183,221261,1,8,0:0:0:0:
216,361,221501,1,0,0:0:0:0:
87,295,221741,2,0,L|42:300,1,45,2|0,0:0|0:0,0:0:0:0:
208,242,221981,2,0,L|252:247,1,45,0|8,0:0|0:0,0:0:0:0:
114,161,222221,2,0,P|69:164|24:169,1,90,8|0,0:0|0:0,0:0:0:0:
318,210,222701,5,2,0:0:0:0:
158,102,222941,1,0,0:0:0:0:
364,28,223181,1,8,0:0:0:0:
331,234,223421,1,0,0:0:0:0:
241,48,223661,2,0,P|235:97|229:142,1,90,2|0,0:0|0:0,0:0:0:0:
425,115,224141,2,0,P|376:109|330:103,1,90,8|0,0:0|0:0,0:0:0:0:
151,232,224621,6,0,P|195:226|240:220,1,90,2|0,0:0|0:0,0:0:0:0:
428,335,225101,1,8,0:0:0:0:
312,178,225341,1,0,0:0:0:0:
220,362,225581,1,2,0:0:0:0:
387,252,225821,1,8,0:0:0:0:
188,166,226061,2,0,P|180:215|176:259,1,90,8|0,0:0|0:0,0:0:0:0:
215,326,226421,1,0,0:0:0:0:
246,321,226541,5,4,0:0:0:0:
485,292,226781,1,2,0:0:0:0:
277,222,227021,1,8,0:0:0:0:
428,374,227261,1,2,0:0:0:0:
448,122,227501,2,0,P|459:165|468:228,1,90,4|0,0:0|0:0,0:0:0:0:
434,278,227861,1,2,0:0:0:0:
402,276,227981,1,8,0:0:0:0:
148,239,228221,1,2,0:0:0:0:
336,64,228461,5,4,0:0:0:0:
336,64,228941,5,2,0:1:0:0:
207,106,229181,1,2,0:1:0:0:
207,241,229421,1,2,0:1:0:0:
336,283,229661,1,2,0:1:0:0:
415,173,229901,1,2,0:1:0:0:
336,64,230141,1,2,0:1:0:0:
188,253,230381,5,4,0:0:0:0:
188,91,230621,1,0,0:0:0:0:
343,41,230861,1,0,0:0:0:0:
437,171,231101,1,0,0:0:0:0:
343,303,231341,1,0,0:0:0:0:
333,169,231581,5,4,0:0:0:0:
202,136,231821,1,4,0:0:0:0:
131,251,232061,1,4,0:0:0:0:
218,355,232301,1,4,0:0:0:0:
343,303,232541,1,2,0:1:0:0:
346,279,232661,1,4,0:0:0:0:
349,255,232781,1,4,0:0:0:0:
173,113,233021,1,4,0:0:0:0:
3,263,233261,6,0,B|95:248|69:298|162:281,1,161.999995056153,4|0,0:0|0:0,0:0:0:0:
248,259,233741,2,0,P|306:259|353:284,1,101.250003862381,2|0,0:1|0:0,0:0:0:0:
436,362,234221,6,0,P|444:310|450:255,1,107.999996704102,4|0,0:0|0:0,0:0:0:0:
377,80,234701,1,8,0:0:0:0:
334,264,234941,1,0,0:0:0:0:
508,161,235181,2,0,P|452:164|398:173,1,107.999996704102,2|0,0:0|0:0,0:0:0:0:
328,240,235541,1,0,0:0:0:0:
323,213,235661,2,0,P|315:163|307:106,1,107.999996704102,8|0,0:0|0:0,0:0:0:0:
74,185,236141,6,0,P|117:214|179:206,1,107.999996704102,2|0,0:0|0:0,0:0:0:0:
220,152,236501,1,0,0:0:0:0:
229,126,236621,1,8,0:0:0:0:
307,334,236861,1,0,0:0:0:0:
113,287,237101,2,0,P|59:294|6:306,1,107.999996704102,2|0,0:0|0:0,0:0:0:0:
228,367,237581,2,0,P|234:310|241:252,1,107.999996704102,8|0,0:0|0:0,0:0:0:0:
291,203,237941,1,0,0:0:0:0:
287,176,238061,5,2,0:0:0:0:
492,144,238301,1,0,0:0:0:0:
345,290,238541,1,8,0:0:0:0:
378,86,238781,1,0,0:0:0:0:
474,298,239021,2,0,P|420:301|366:304,1,107.999996704102,2|0,0:0|0:0,0:0:0:0:
194,256,239501,2,0,P|170:304|157:356,1,107.999996704102,8|0,0:0|0:0,0:0:0:0:
294,159,239981,5,2,0:0:0:0:
390,331,240221,1,0,0:0:0:0:
213,234,240461,1,8,0:0:0:0:
386,304,240701,1,0,0:0:0:0:
141,370,240941,5,2,0:0:0:0:
112,338,241061,1,2,0:0:0:0:
100,297,241181,1,2,0:0:0:0:
109,255,241301,1,2,0:0:0:0:
140,204,241421,5,8,0:0:0:0:
166,153,241541,1,0,0:0:0:0:
150,98,241661,1,0,0:0:0:0:
100,69,241781,1,0,0:0:0:0:
44,83,241901,6,0,P|26:139|24:202,1,107.999996704102,4|2,0:0|0:1,0:0:0:0:
76,242,242261,1,2,0:1:0:0:
108,238,242381,1,8,0:0:0:0:
310,209,242621,1,2,0:1:0:0:
256,379,242861,2,0,P|251:325|234:274,1,107.999996704102,2|2,0:0|0:1,0:0:0:0:
185,216,243221,1,2,0:1:0:0:
189,184,243341,1,8,0:0:0:0:
387,220,243581,1,2,0:1:0:0:
280,50,243821,6,0,P|263:101|258:154,1,107.999996704102,4|2,0:0|0:1,0:0:0:0:
310,209,244181,1,2,0:0:0:0:
342,205,244301,1,8,0:0:0:0:
490,317,244541,1,2,0:0:0:0:
458,313,244661,1,2,0:1:0:0:
426,309,244781,1,2,0:1:0:0:
243,285,245021,1,8,0:0:0:0:
381,82,245261,1,8,0:0:0:0:
431,214,245501,1,0,0:0:0:0:
281,28,245741,6,0,P|260:77|272:129,1,107.999996704102,4|0,0:0|0:0,0:0:0:0:
325,189,246101,1,0,0:0:0:0:
302,211,246221,2,0,P|249:208|173:204,1,107.999996704102,8|0,0:0|0:0,0:0:0:0:
38,244,246701,2,0,P|26:192|47:143,1,107.999996704102,2|0,0:0|0:0,0:0:0:0:
178,316,247181,1,8,0:0:0:0:
112,199,247421,1,0,0:0:0:0:
248,378,247661,5,2,0:0:0:0:
264,337,247781,1,0,0:0:0:0:
265,294,247901,1,2,0:0:0:0:
244,257,248021,1,0,0:0:0:0:
198,196,248141,5,8,0:0:0:0:
174,143,248261,1,0,0:0:0:0:
189,86,248381,1,2,0:0:0:0:
236,52,248501,1,0,0:0:0:0:
315,65,248621,6,0,P|343:64|375:61,1,53.9999983520508,2|2,0:0|0:0,0:0:0:0:
478,210,248861,2,0,P|451:210|424:213,1,53.9999983520508,2|0,0:0|0:0,0:0:0:0:
242,268,249101,6,0,P|239:241|239:214,1,53.9999983520508,8|0,0:0|0:0,0:0:0:0:
390,64,249341,2,0,P|393:91|394:118,1,53.9999983520508,8|0,0:0|0:0,0:0:0:0:
464,310,249581,6,0,P|410:304|349:300,1,107.999996704102,4|0,0:0|0:0,0:0:0:0:
139,290,250061,1,8,0:0:0:0:
274,150,250301,1,0,0:0:0:0:
40,143,250541,2,0,P|27:199|60:257,1,107.999996704102,2|0,0:0|0:0,0:0:0:0:
215,343,251021,2,0,P|234:293|221:242,1,107.999996704102,8|0,0:0|0:0,0:0:0:0:
134,82,251501,6,0,P|123:134|116:188,1,107.999996704102,2|0,0:0|0:0,0:0:0:0:
322,291,251981,1,8,0:0:0:0:
108,337,252221,1,0,0:0:0:0:
185,146,252461,5,2,0:0:0:0:
217,118,252581,1,0,0:0:0:0:
258,105,252701,1,0,0:0:0:0:
301,108,252821,1,0,0:0:0:0:
351,139,252941,5,8,0:0:0:0:
407,158,253061,1,0,0:0:0:0:
462,140,253181,1,0,0:0:0:0:
497,92,253301,1,0,0:0:0:0:
499,21,253421,5,2,0:0:0:0:
295,77,253661,1,0,0:0:0:0:
456,217,253901,1,8,0:0:0:0:
401,64,254141,1,0,0:0:0:0:
282,233,254381,2,0,P|276:289|302:334,1,107.999996704102,2|0,0:0|0:0,0:0:0:0:
360,270,254741,1,0,0:0:0:0:
364,237,254861,2,0,P|369:177|374:123,1,107.999996704102,8|0,0:0|0:0,0:0:0:0:
149,107,255341,5,0,0:0:0:0:
282,233,255581,1,0,0:0:0:0:
274,19,255821,1,8,0:0:0:0:
156,187,256061,1,0,0:0:0:0:
387,102,256301,1,2,0:0:0:0:
289,280,256541,1,2,0:0:0:0:
195,102,256781,1,8,0:0:0:0:
195,102,256901,1,0,0:0:0:0:
195,102,257021,2,0,L|177:183,1,53.9999983520508
114,234,257261,6,0,P|61:243|-3:249,1,107.999996704102,4|0,0:0|0:0,0:0:0:0:
191,308,257741,2,0,P|244:317|308:323,1,107.999996704102,8|0,0:0|0:0,0:0:0:0:
451,265,258221,2,0,P|468:315|467:369,1,107.999996704102,2|0,0:0|0:0,0:0:0:0:
295,230,258701,2,0,P|293:176|311:125,1,107.999996704102,8|0,0:0|0:0,0:0:0:0:
462,48,259181,6,0,P|446:161|389:171,1,161.999995056153
383,167,259661,1,8,0:0:0:0:
165,138,259901,1,0,0:0:0:0:
359,62,260141,1,2,0:0:0:0:
340,283,260381,1,0,0:0:0:0:
125,349,260621,1,8,0:0:0:0:
100,312,260741,1,0,0:0:0:0:
87,271,260861,1,0,0:0:0:0:
89,228,260981,1,0,0:0:0:0:
99,157,261101,5,6,0:0:0:0:
229,55,261821,1,0,0:0:0:0:
229,55,262061,2,0,B|208:129|247:109|228:187,1,135.000005149842
227,187,263021,5,4,0:0:0:0:
346,353,263741,1,0,0:0:0:0:
346,353,263981,2,0,B|365:275|326:295|346:220,1,135.000005149842
498,131,264941,6,0,P|441:133|378:154,1,107.999996704102,4|0,0:0|0:0,0:0:0:0:
328,201,265301,1,0,0:0:0:0:
311,173,265421,2,0,P|296:121|294:67,1,107.999996704102,10|0,0:0|0:0,0:0:0:0:
455,224,265901,2,0,P|469:275|471:329,1,107.999996704102,2|0,0:0|0:0,0:0:0:0:
355,359,266381,2,0,P|300:354|234:351,1,107.999996704102,8|0,0:0|0:0,0:0:0:0:
171,324,266741,1,0,0:0:0:0:
133,328,266861,5,2,0:0:0:0:
351,237,267101,1,2,0:0:0:0:
132,194,267341,1,8,0:0:0:0:
247,350,267581,2,0,B|213:224|279:263|243:121,1,215.999993408203,2|0,0:0|0:0,0:0:0:0:
129,55,268301,2,0,P|147:112|144:171,1,107.999996704102,8|0,0:0|0:0,0:0:0:0:
63,314,268781,6,0,P|43:279|35:245,1,67.5000025749208,4|0,0:0|0:0,0:0:0:0:
168,351,269261,2,0,P|232:329|311:335,1,135.000005149842,8|0,0:0|0:0,0:0:0:0:
298,331,270221,2,0,P|315:302|324:269,1,67.5000025749208,8|0,0:0|0:0,0:0:0:0:
128,85,270701,6,0,P|121:156|139:234,1,135.000005149842,2|8,0:0|0:0,0:0:0:0:
132,218,271661,2,0,P|161:235|194:245,1,67.5000025749208
434,201,272141,1,0,0:0:0:0:
403,157,272261,1,0,0:0:0:0:
352,147,272381,1,0,0:0:0:0:
308,177,272501,1,0,0:0:0:0:
266,238,272621,5,4,0:0:0:0:
188,357,273581,6,0,P|185:320|188:279,1,67.5000025749208
362,265,274061,2,0,P|364:298|363:332,1,67.5000025749208
262,210,274541,6,0,L|253:181,4,16.8750006437302,6|0|0|0|0,0:0|0:0|0:0|0:0|0:0,0:0:0:0:
502,156,275681,6,0,L|510:131,12,16.8750006437302
461,214,276461,6,0,B|352:244|381:180|248:214,1,202.500007724762
161,245,277421,2,0,P|65:190|168:125,1,270.000010299683
276,173,278621,1,0,0:0:0:0:
434,97,278861,5,0,0:0:0:0:
434,97,279341,1,0,0:0:0:0:
387,223,279581,1,0,0:0:0:0:
455,339,279821,5,0,0:0:0:0:
455,339,280354,2,0,B|359:363|383:308|272:338,1,180
167,358,281172,1,0,0:0:0:0:
110,257,281472,1,0,0:0:0:0:
189,175,281805,1,0,0:0:0:0:
292,222,282124,6,0,P|303:175|294:132,1,90
14,178,282943,6,0,B|108:141|95:210|189:174,1,180
288,55,284230,1,0,0:0:0:0:
288,55,284774,6,0,P|242:75|218:112,1,90
317,335,286233,21,0,0:0:0:0:
317,335,287624,6,0,P|284:331|239:304,1,78.75
319,214,290841,6,0,L|313:236,6,22.5
371,140,291309,6,0,B|378:126|389:98|389:98|381:72|360:42|360:42|332:60|318:79|318:79|309:104|315:137|315:137|297:106|275:91|275:91|243:85|219:100|219:100|220:131|238:152|238:152|266:167|293:177|293:177|262:185|240:197|240:197|223:222|229:253|229:253|260:267|282:257|282:257|303:240|319:209|319:209|321:246|327:269|327:269|351:295|378:298|378:298|400:273|394:238|394:238|383:217|358:199|358:199|385:200|418:201|418:201|442:191|460:164|460:164|445:136|413:128|413:128|382:132|354:157,1,1171.79995351135,4|0,2:0|2:0,2:0:0:0:
