osu file format v14

[General]
AudioFilename: audio.mp3
AudioLeadIn: 0
PreviewTime: 160358
Countdown: 0
SampleSet: None
StackLeniency: 0.5
Mode: 0
LetterboxInBreaks: 0
WidescreenStoryboard: 0

[Editor]
Bookmarks: 231213,316556
DistanceSpacing: 3.1
BeatDivisor: 4
GridSize: 16
TimelineZoom: 1.7

[Metadata]
Title:SUPER MEMORIES
TitleUnicode:SUPER MEMORIES
Artist:Kobaryo feat. HiTNEX-X
ArtistUnicode:Kobaryo feat. HiTNEX-X
Creator:Troponoop
Version:we will protect the tempo peace!
Source:
Tags:megarymen Hardcore Tano*C Tempocop
BeatmapID:1729297
BeatmapSetID:825277

[Difficulty]
HPDrainRate:0
CircleSize:4
OverallDifficulty:8
ApproachRate:9.3
SliderMultiplier:1.89
SliderTickRate:1

[Events]
//Background and Video events
0,0,"pixiv bg.png",0,0
//Break Periods
2,90058,96897
2,159058,163758
2,253355,260830
2,337156,343602
//Storyboard Layer 0 (Background)
//Storyboard Layer 1 (Fail)
//Storyboard Layer 2 (Pass)
//Storyboard Layer 3 (Foreground)
//Storyboard Sound Samples

[TimingPoints]
10280,315.789473684211,4,1,0,80,1,0
29227,-133.333333333333,4,3,1,100,0,0
39016,-58.8235294117647,4,3,1,100,0,0
39332,-133.333333333333,4,3,1,100,0,0
41543,-80,4,3,1,100,0,0
41701,-50,4,3,1,100,0,0
41858,-133.333333333333,4,3,1,100,0,0
43437,-80,4,3,1,100,0,0
43753,-133.333333333333,4,3,1,100,0,0
44385,-133.333333333333,4,3,1,100,0,0
45964,-100,4,3,1,100,0,0
46280,-80,4,3,1,100,0,0
46911,-66.6666666666667,4,3,1,100,0,0
47148,-50,4,3,1,100,0,0
47385,-66.6666666666667,4,3,1,100,0,0
48174,-66.6666666666667,4,3,1,100,0,0
49437,-100,4,3,1,100,0,0
50385,-66.6666666666667,4,3,1,100,0,0
50622,-100,4,3,1,100,0,0
53543,-66.6666666666667,4,3,1,100,0,0
53780,-100,4,3,1,100,0,0
55437,-66.6666666666667,4,3,1,100,0,0
55674,-100,4,3,1,100,0,0
60648,-50,4,3,1,100,0,0
60806,-100,4,3,1,100,0,0
61753,-50,4,3,1,100,0,0
62069,-100,4,3,1,100,0,0
63174,-50,4,3,1,100,0,0
63332,-100,4,3,1,100,0,0
65543,-80,4,3,1,100,0,0
65858,-100,4,3,1,100,0,0
67595,-66.6666666666667,4,3,1,100,0,0
67753,-100,4,3,1,100,0,0
69332,-1000,4,3,1,100,0,0
69648,-57.1428571428571,4,3,1,100,0,1
70122,-50,4,3,1,100,0,1
70358,-66.6666666666667,4,3,1,100,0,1
70753,-50,4,3,1,100,0,1
70911,-57.1428571428571,4,3,1,100,0,1
71385,-50,4,3,1,100,0,1
71622,-66.6666666666667,4,3,1,100,0,1
72016,-50,4,3,1,100,0,1
72174,-57.1428571428571,4,3,1,100,0,1
72648,-50,4,3,1,100,0,1
72885,-66.6666666666667,4,3,1,100,0,1
73280,-50,4,3,1,100,0,1
73911,-50,4,3,1,100,0,1
74148,-66.6666666666667,4,3,1,100,0,1
74543,-50,4,3,1,100,0,1
74701,-57.1428571428571,4,3,1,100,0,1
75174,-50,4,3,1,100,0,1
75411,-66.6666666666667,4,3,1,100,0,1
75806,-50,4,3,1,100,0,1
75964,-57.1428571428571,4,3,1,100,0,1
76437,-50,4,3,1,100,0,1
76674,-66.6666666666667,4,3,1,100,0,1
77069,-50,4,3,1,100,0,1
77227,-57.1428571428571,4,3,1,100,0,1
77701,-50,4,3,1,100,0,1
77937,-66.6666666666667,4,3,1,100,0,1
78332,-50,4,3,1,100,0,1
78964,-47.6190476190476,4,3,1,100,0,1
79122,-45.4545454545455,4,3,1,100,0,1
79753,-66.6666666666667,4,3,1,100,0,1
80227,-50,4,3,1,100,0,1
80385,-66.6666666666667,4,3,1,100,0,1
80858,-50,4,3,1,100,0,1
81016,-66.6666666666667,4,3,1,100,0,1
81490,-50,4,3,1,100,0,1
81648,-66.6666666666667,4,3,1,100,0,1
82122,-50,4,3,1,100,0,1
82280,-66.6666666666667,4,3,1,100,0,1
82753,-50,4,3,1,100,0,1
82911,-66.6666666666667,4,3,1,100,0,1
83385,-50,4,3,1,100,0,1
84016,-50,4,3,1,100,0,1
84174,-66.6666666666667,4,3,1,100,0,1
84806,-57.1428571428571,4,3,1,100,0,1
85280,-50,4,3,1,100,0,1
85437,-66.6666666666667,4,3,1,100,0,1
85911,-50,4,3,1,100,0,1
86069,-57.1428571428571,4,3,1,100,0,1
86543,-50,4,3,1,100,0,1
86701,-66.6666666666667,4,3,1,100,0,1
87174,-50,4,3,1,100,0,1
87332,-57.1428571428571,4,3,1,100,0,1
88437,-50,4,3,1,100,0,1
89227,-66.6666666666667,4,3,1,100,0,1
89543,-1000,4,3,1,100,0,1
89858,375,4,1,0,100,1,0
97451,-100,4,3,1,100,0,0
98858,-100,4,3,1,100,0,0
109358,-100,4,3,1,100,0,0
109733,-80,4,3,1,100,0,0
110108,-66.6666666666667,4,3,1,100,0,0
110483,-100,4,3,1,100,0,0
116108,-50,4,3,1,100,0,0
116483,-66.6666666666667,4,3,1,100,0,0
116858,-100,4,3,1,100,0,0
121733,-80,4,3,1,100,0,0
122858,-100,4,3,1,100,0,0
134858,-100,4,3,1,100,0,0
140108,-50,4,3,1,100,0,0
140483,-66.6666666666667,4,3,1,100,0,0
140764,-100,4,3,1,100,0,0
146858,-100,4,3,1,100,0,0
158858,272.727272727273,4,3,1,100,1,0
164312,-80,4,3,1,100,0,0
168676,-66.6666666666667,4,3,1,100,0,0
168948,-57.1428571428571,4,3,1,100,0,0
169221,-50,4,3,1,100,0,0
169494,-44.4444444444445,4,3,1,100,0,0
169767,-80,4,3,1,100,0,0
173039,-66.6666666666667,4,3,1,100,0,0
173312,-57.1428571428571,4,3,1,100,0,0
173585,-50,4,3,1,100,0,0
173858,-44.4444444444445,4,3,1,100,0,0
174130,434.782608695652,4,3,1,100,1,0
174130,-100,4,3,1,100,0,0
174782,-100,4,3,1,20,0,0
176412,-100,4,3,1,80,0,0
176847,-100,4,3,1,5,0,0
176956,434.782608695652,4,3,1,100,1,0
176956,-100,4,3,1,100,0,0
178260,-66.6666666666667,4,3,1,100,0,0
178695,-100,4,3,1,100,0,0
179999,-66.6666666666667,4,3,1,100,0,0
180434,-100,4,3,1,100,0,0
181738,-66.6666666666667,4,3,1,100,0,0
183912,-100,4,3,1,100,0,0
185216,-66.6666666666667,4,3,1,100,0,0
185651,-100,4,3,1,100,0,0
186956,-66.6666666666667,4,3,1,100,0,0
187390,-100,4,3,1,100,0,0
188695,-66.6666666666667,4,3,1,100,0,0
189129,-100,4,3,1,100,0,0
190651,-100,4,3,1,5,0,0
190869,422.535211267606,4,3,1,100,1,0
190869,-100,4,3,1,100,0,0
204390,352.941176470588,4,3,1,100,1,0
204390,-100,4,3,1,100,0,0
205095,-100,4,3,1,5,0,0
207213,-100,4,3,1,100,0,0
208625,-40,4,3,1,100,0,0
219566,-1000,4,3,1,100,0,0
219919,-40,4,3,1,100,0,0
231213,342.857142857143,4,3,1,100,1,0
231213,-100,4,3,1,100,0,0
231555,-57.1428571428571,4,3,1,100,0,0
231898,-76.9230769230769,4,1,1,100,0,0
232155,-57.1428571428571,4,3,1,100,0,0
232584,-80,4,3,1,100,0,0
233270,-80,4,1,1,100,0,0
233527,-80,4,3,1,100,0,0
233784,-50,4,3,1,100,0,0
233955,-80,4,3,1,100,0,0
234298,-50,4,3,1,100,0,0
234641,-76.9230769230769,4,1,1,100,0,0
234898,-57.1428571428571,4,3,1,100,0,0
236013,-50,4,1,1,100,0,0
236270,-50,4,3,1,100,0,0
236698,-76.9230769230769,4,1,1,100,0,0
236955,-76.9230769230769,4,3,1,100,0,0
237041,-57.1428571428571,4,3,1,100,0,0
237384,-71.4285714285714,4,1,1,100,0,0
237641,-71.4285714285714,4,3,1,100,0,0
237727,-57.1428571428571,4,3,1,100,0,0
238241,-71.4285714285714,4,3,1,100,0,0
238755,-71.4285714285714,4,1,1,100,0,0
239013,-71.4285714285714,4,3,1,100,0,0
239270,-50,4,3,1,100,0,0
239441,-90.9090909090909,4,3,1,100,0,0
242184,-76.9230769230769,4,3,1,100,0,0
244927,-66.6666666666667,4,3,1,100,0,0
247670,-44.4444444444445,4,3,1,100,0,0
250413,-71.4285714285714,4,3,1,100,0,0
264127,-100,4,3,1,100,0,0
264813,-100,4,3,1,100,0,0
275098,-117.647058823529,4,3,1,100,0,0
277670,-83.3333333333333,4,3,1,100,0,0
277841,-117.647058823529,4,3,1,100,0,0
279041,-80,4,3,1,100,0,0
279555,-100,4,3,1,100,0,0
283155,-100,4,3,1,100,0,0
283327,-100,4,3,1,100,0,0
284527,-80,4,3,1,100,0,0
286070,-99.9999999999999,4,3,1,100,0,0
290013,-80,4,3,1,100,0,0
290870,-90.9090909090909,4,3,1,100,0,0
291555,-100,4,3,1,100,0,0
295498,-79.9999999999999,4,3,1,100,0,0
297041,-111.111111111111,4,3,1,100,0,0
298413,-111.111111111111,4,3,1,100,0,0
299784,337.078651685393,4,3,0,100,1,0
299784,-125,4,3,1,100,0,0
301117,-142.857142857143,4,3,1,100,0,0
302450,-153.846153846154,4,3,1,100,0,0
303828,-181.818181818182,4,3,1,100,0,0
307621,-153.846153846154,4,3,1,5,0,0
307784,324.324324324324,4,3,0,100,1,0
307785,-100,4,3,1,100,0,0
310378,315.789473684211,4,3,1,100,1,0
312898,307.692307692308,4,3,1,100,1,0
312898,-100,4,3,1,100,0,0
315356,300,4,3,1,100,1,0
315356,-100,4,3,1,100,0,0
317756,-500,4,3,1,100,0,0
318356,-100,4,3,1,100,0,0
319556,-500,4,3,1,100,0,0
320756,-100,4,3,1,100,0,0
321956,-500,4,3,1,100,0,0
323156,-100,4,3,1,100,0,0
324356,-500,4,3,1,100,0,0
324956,-500,4,3,1,100,0,0
325256,-100,4,3,1,100,0,0
327356,-500,4,3,1,100,0,0
327956,-100,4,3,1,100,0,0
329156,-500,4,3,1,100,0,0
330356,-100,4,3,1,100,0,0
331556,-500,4,3,1,100,0,0
332756,-100,4,3,1,100,0,0
333956,-500,4,3,1,100,0,0
334856,-100,4,3,1,100,0,0
336956,-100,4,3,1,100,0,0
346556,-100,4,3,1,100,0,0
346856,-66.6666666666667,4,3,1,100,0,0
347156,-100,4,3,1,100,0,0
348056,-66.6666666666667,4,3,1,100,0,0
348356,-100,4,3,1,100,0,0
348806,-66.6666666666667,4,3,1,100,0,0
348956,-100,4,3,1,100,0,0
349256,-66.6666666666667,4,3,1,100,0,0
349556,-100,4,3,1,100,0,0
350006,-66.6666666666667,4,3,1,100,0,0
350456,-100,4,3,1,100,0,0
351356,-80,4,3,1,100,0,0
356156,-100,4,3,1,100,0,1
356456,-40,4,3,1,100,0,1
356756,-100,4,3,1,100,0,1
357656,-40,4,3,1,100,0,1
357956,-100,4,3,1,100,0,1
358856,-40,4,3,1,100,0,1
359156,-100,4,3,1,100,0,1
359606,-40,4,3,1,100,0,1
360056,-100,4,3,1,100,0,1
360356,-50,4,3,1,100,0,1
360956,-100,4,3,1,100,0,1
361256,-40,4,3,1,100,0,1
361556,-100,4,3,1,100,0,1
362456,-40,4,3,1,100,0,1
362756,-100,4,3,1,100,0,1
363656,-40,4,3,1,100,0,1
363956,-100,4,3,1,100,0,1
364406,-40,4,3,1,100,0,1
364856,-57.1428571428571,4,3,1,100,0,1
365756,-100,4,3,1,100,0,1
366056,-40,4,3,1,100,0,1
366356,-100,4,3,1,100,0,1
367256,-40,4,3,1,100,0,1
367556,-100,4,3,1,100,0,1
368456,-40,4,3,1,100,0,1
368756,-100,4,3,1,100,0,1
369206,-40,4,3,1,100,0,1
369656,-100,4,3,1,100,0,1
369956,-50,4,3,1,100,0,1
370556,-100,4,3,1,100,0,1
370856,-40,4,3,1,100,0,1
371156,-100,4,3,1,100,0,1
372056,-40,4,3,1,100,0,1
372356,-100,4,3,1,100,0,1
373256,-40,4,3,1,100,0,1
373556,-100,4,3,1,100,0,1
374006,-40,4,3,1,100,0,1
374456,-100,4,3,1,100,0,1
374756,-66.6666666666667,4,3,1,100,0,1
375056,-1000,4,3,1,100,0,1
375356,-57.1428571428571,4,3,1,100,0,0
375656,-66.6666666666667,4,3,1,100,0,0
379256,-100,4,3,1,100,0,0
380156,-125,4,3,1,100,0,0
381356,-166.666666666667,4,3,1,100,0,0
382556,-250,4,3,1,100,0,0
384956,-250,4,3,1,100,0,0
394556,-200,4,3,1,55,0,0
394631,-200,4,3,1,5,0,0

[Colours]
Combo1 : 128,221,125
Combo2 : 203,157,252
Combo3 : 117,157,252
Combo4 : 117,230,252

[HitObjects]
84,243,29227,6,0,P|122:239|161:242,1,70.8750027036668,10|0,0:0|0:0,0:0:0:0:
0,288,29543,1,0,0:0:0:0:
123,327,29701,1,0,0:0:0:0:
52,168,29858,1,2,0:0:0:0:
53,153,30016,1,0,0:0:0:0:
53,137,30174,1,2,0:0:0:0:
154,241,30332,1,0,0:0:0:0:
259,148,30490,6,0,P|227:132|192:136,1,70.8750027036668,10|0,0:0|0:0,0:0:0:0:
359,161,30806,2,0,P|360:126|344:96,1,70.8750027036668
390,256,31122,2,0,P|422:243|444:216,2,70.8750027036668,2|4|2,0:0|0:0|0:0,0:0:0:0:
372,355,31595,1,0,0:0:0:0:
293,235,31753,5,10,0:0:0:0:
212,248,31911,1,0,0:0:0:0:
160,115,32069,1,0,0:0:0:0:
147,196,32227,1,0,0:0:0:0:
113,296,32385,1,2,0:0:0:0:
122,286,32543,1,0,0:0:0:0:
133,275,32701,1,2,0:0:0:0:
236,161,32858,1,2,2:0:0:0:
236,161,33016,6,0,B|254:128|245:92,1,70.8750027036668,10|0,0:0|0:0,0:0:0:0:
76,110,33332,1,0,0:0:0:0:
236,161,33490,2,0,B|273:145|305:152,1,70.8750027036668,2|0,2:0|0:0,0:0:0:0:
280,265,33806,1,4,0:0:0:0:
280,252,33964,1,0,0:0:0:0:
280,236,34122,1,4,0:0:0:0:
324,340,34280,6,0,B|287:356|254:348,1,70.8750027036668,8|0,0:0|0:0,0:0:0:0:
160,264,34595,1,0,0:0:0:0:
280,221,34753,1,0,0:0:0:0:
398,263,34911,2,0,P|420:292|431:325,2,70.8750027036668,2|4|2,0:0|0:0|0:0,0:0:0:0:
388,136,35385,1,0,0:0:0:0:
280,206,35543,6,0,B|245:209|245:209|213:193,1,70.8750027036668,8|0,0:0|0:0,0:0:0:0:
122,283,35858,2,0,B|105:252|105:252|106:217,1,70.8750027036668
148,96,36175,1,2,0:0:0:0:
148,109,36333,1,0,0:0:0:0:
148,125,36491,1,2,0:0:0:0:
272,96,36648,1,0,0:0:0:0:
296,183,36806,5,8,0:0:0:0:
215,170,36964,1,0,0:0:0:0:
361,131,37122,1,0,0:0:0:0:
348,50,37280,1,0,0:0:0:0:
375,210,37438,1,2,0:0:0:0:
386,221,37596,1,0,0:0:0:0:
395,231,37754,1,2,0:0:0:0:
272,96,37911,1,0,0:0:0:0:
272,96,38069,6,0,L|238:62,1,35.4375013518334,8|0,3:0|3:0,3:0:0:0:
85,70,38227,1,4,0:0:0:0:
95,80,38306,1,4,0:0:0:0:
105,90,38385,2,0,L|141:126,1,35.4375013518334,4|0,0:0|0:0,0:0:0:0:
272,255,38543,2,0,L|246:229,1,35.4375013518334,4|0,3:0|3:0,3:0:0:0:
186,172,38701,6,0,P|175:185|168:201,1,35.4375013518334
187,277,38858,1,2,0:0:0:0:
196,288,38937,1,2,0:0:0:0:
254,339,39016,2,0,B|294:339|294:339|310:323|310:323|310:339|360:361|414:339|414:323|414:323|430:339|430:339|465:339,1,240.975004596233,12|0,2:0|0:0,0:0:0:0:
451,255,39332,6,0,P|417:245|382:250,1,70.8750027036668,10|0,0:0|0:0,0:0:0:0:
272,255,39648,2,0,P|306:245|341:250,1,70.8750027036668,10|0,0:0|0:0,0:0:0:0:
397,94,39964,2,0,P|379:90|361:92,1,35.4375013518334,4|0,0:0|0:0,0:0:0:0:
346,169,40122,2,0,P|363:171|380:169,1,35.4375013518334,4|0,0:0|0:0,0:0:0:0:
412,18,40280,2,0,P|377:13|341:17,1,70.8750027036668,2|0,0:0|0:0,0:0:0:0:
96,59,40595,5,0,2:0:0:0:
106,69,40753,1,0,0:0:0:0:
271,76,40911,1,0,2:0:0:0:
261,66,41069,1,0,0:0:0:0:
185,48,41227,2,0,L|185:84,1,35.4375013518334,2|0,0:0|0:0,0:0:0:0:
185,104,41385,2,0,L|185:139,1,35.4375013518334,2|0,0:0|0:0,0:0:0:0:
186,303,41543,1,0,0:0:0:0:
141,228,41701,2,0,B|164:227|164:227|185:215|185:215|208:227|208:227|233:226,1,94.5,4|0,3:0|0:0,0:0:0:0:
303,208,41858,6,0,P|307:173|298:140,1,70.8750027036668,10|0,0:0|0:0,0:0:0:0:
303,250,42174,2,0,P|307:285|298:319,1,70.8750027036668,10|0,0:0|0:0,0:0:0:0:
382,182,42490,2,0,P|383:165|380:147,1,35.4375013518334,4|0,0:0|0:0,0:0:0:0:
383,278,42648,2,0,P|383:295|380:314,1,35.4375013518334,4|0,0:0|0:0,0:0:0:0:
451,227,42806,1,2,0:0:0:0:
297,319,42964,1,0,0:0:0:0:
297,139,43122,5,0,2:0:0:0:
287,129,43280,1,0,0:0:0:0:
122,215,43437,2,0,B|76:263|80:331|80:331|109:321|119:291,1,177.1875,2|0,2:0|0:0,0:0:0:0:
136,198,43753,1,8,0:0:0:0:
284,30,43911,6,0,L|260:56,1,35.4375013518334,4|0,0:0|0:0,0:0:0:0:
208,115,44069,1,2,0:0:0:0:
181,144,44148,1,0,0:0:0:0:
154,173,44227,1,2,0:0:0:0:
203,173,44306,1,0,0:0:0:0:
279,172,44385,6,0,P|314:162|348:167,1,70.8750027036668,10|0,0:0|0:0,0:0:0:0:
391,166,44701,2,0,P|425:162|459:172,1,70.8750027036668,10|0,0:0|0:0,0:0:0:0:
326,276,45016,2,0,L|321:241,1,35.4375013518334,4|0,0:0|0:0,0:0:0:0:
414,274,45174,2,0,L|420:239,1,35.4375013518334,4|0,0:0|0:0,0:0:0:0:
238,306,45332,6,0,L|242:336,1,17.7187506759167,0|0,2:0|0:0,0:0:0:0:
218,301,45411,2,0,L|217:331,1,17.7187506759167
200,292,45490,2,0,L|193:322,1,17.7187506759167,0|0,2:0|0:0,0:0:0:0:
183,281,45569,2,0,L|171:309,1,17.7187506759167
168,267,45648,1,8,0:0:0:0:
245,216,45806,1,0,0:0:0:0:
175,162,45964,6,0,B|168:184|168:184|204:115|295:142,1,141.75,10|0,2:0|0:0,0:0:0:0:
312,50,46280,2,0,P|236:64|267:135,1,177.1875,8|0,2:0|0:0,0:0:0:0:
356,102,46595,2,0,P|291:61|266:134,1,177.1875,8|0,2:0|0:0,0:0:0:0:
354,243,46911,6,0,B|376:224|376:224|256:224,1,141.750005407334,4|0,0:0|0:0,0:0:0:0:
176,329,47148,2,0,B|142:302|142:302|193:284|193:284|233:308|233:308|288:308,1,189,6|0,0:0|0:0,0:0:0:0:
419,297,47385,2,0,B|464:240|464:240|442:174,1,141.750005407334,4|0,0:0|0:0,0:0:0:0:
319,136,47622,2,0,B|256:144|256:144|216:128|216:128|144:144,1,141.750005407334,4|0,0:0|0:0,0:0:0:0:
19,241,47858,2,0,B|14:205|14:205|51:251,1,70.8750027036668,0|0,1:0|0:0,0:0:0:0:
103,183,48016,2,0,B|108:147|108:147|71:193,1,70.8750027036668,0|0,1:0|0:0,0:0:0:0:
144,328,48174,5,0,2:0:0:0:
160,336,48253,1,0,0:0:0:0:
173,341,48332,1,0,0:0:0:0:
186,345,48411,1,0,0:0:0:0:
208,320,48490,1,0,2:0:0:0:
238,302,48569,1,0,0:0:0:0:
273,298,48648,1,0,0:0:0:0:
307,305,48727,1,0,0:0:0:0:
347,345,48806,5,0,2:0:0:0:
358,288,48885,1,0,0:0:0:0:
398,248,48964,1,0,2:0:0:0:
454,240,49043,1,0,0:0:0:0:
469,325,49122,2,0,P|451:325|434:324,6,35.4375013518334,2|0|0|0|0|0|0,1:0|0:0|0:0|0:0|0:0|0:0|0:0,0:0:0:0:
310,218,49437,5,4,0:0:0:0:
296,208,49516,1,0,0:0:0:0:
222,179,49595,1,0,0:0:0:0:
224,163,49674,1,0,0:0:0:0:
253,87,49753,1,4,0:0:0:0:
266,97,49832,1,0,0:0:0:0:
345,112,49911,1,0,0:0:0:0:
343,128,49990,1,0,0:0:0:0:
324,228,50069,5,4,0:0:0:0:
310,218,50148,1,0,0:0:0:0:
296,208,50227,1,0,0:0:0:0:
220,195,50306,1,0,0:0:0:0:
143,190,50385,2,0,P|74:186|29:237,1,141.750005407334,10|0,0:0|0:0,0:0:0:0:
54,312,50622,1,0,0:0:0:0:
104,255,50701,6,0,P|119:274|127:296,3,47.25,8|0|0|8,0:0|0:0|0:0|0:0,0:0:0:0:
53,161,51016,2,0,B|40:141|40:141|32:118,1,47.25
149,44,51174,1,0,0:0:0:0:
111,110,51253,1,8,0:0:0:0:
224,48,51332,2,0,B|240:68|240:96|240:96|224:118|224:144,1,94.5,0|0,2:0|0:0,0:0:0:0:
303,237,51569,1,8,0:0:0:0:
300,143,51648,2,0,L|304:240,1,94.5,0|0,2:0|0:0,0:0:0:0:
440,43,51964,5,4,0:0:0:0:
454,53,52043,1,0,0:0:0:0:
511,109,52122,1,0,0:0:0:0:
497,119,52201,1,0,0:0:0:0:
441,175,52280,1,4,0:0:0:0:
455,185,52359,1,0,0:0:0:0:
512,241,52437,1,0,0:0:0:0:
498,251,52516,1,0,0:0:0:0:
424,256,52595,5,4,0:0:0:0:
410,246,52674,1,0,0:0:0:0:
396,236,52753,1,0,0:0:0:0:
344,288,52832,1,0,0:0:0:0:
290,339,52911,2,0,P|276:319|269:297,1,47.25,10|0,0:0|0:0,0:0:0:0:
226,183,53069,2,0,P|239:202|246:224,1,47.25
159,292,53227,5,8,0:0:0:0:
162,273,53306,1,0,0:0:0:0:
165,254,53385,1,0,0:0:0:0:
168,235,53464,1,8,0:0:0:0:
226,183,53543,2,0,P|203:118|235:56,1,141.750005407334
321,188,53780,1,8,0:0:0:0:
279,122,53858,2,0,P|324:110|368:126,1,94.5,0|0,2:0|0:0,0:0:0:0:
359,252,54095,1,8,0:0:0:0:
272,247,54174,2,0,P|316:265|360:252,1,94.5,0|0,2:0|0:0,0:0:0:0:
108,178,54490,5,4,0:0:0:0:
107,194,54569,1,0,0:0:0:0:
129,270,54648,1,0,0:0:0:0:
115,279,54727,1,0,0:0:0:0:
37,301,54806,1,4,0:0:0:0:
37,284,54885,1,0,0:0:0:0:
1,212,54964,1,0,0:0:0:0:
16,205,55043,1,0,0:0:0:0:
107,159,55122,5,4,0:0:0:0:
108,178,55201,1,0,0:0:0:0:
107,194,55279,1,0,0:0:0:0:
143,263,55358,1,0,0:0:0:0:
189,324,55437,2,0,B|212:308|218:281|218:281|263:297|319:281,1,141.750005407334,10|0,0:0|0:0,0:0:0:0:
370,326,55674,1,0,0:0:0:0:
303,361,55753,6,0,P|279:362|255:363,3,47.25,8|0|0|8,0:0|0:0|0:0|0:0,0:0:0:0:
263,213,56069,2,0,P|254:190|252:167,1,47.25
387,120,56227,1,0,0:0:0:0:
331,173,56306,1,8,0:0:0:0:
395,44,56385,2,0,B|363:42|363:42|339:65|305:65,1,94.5,0|0,2:0|0:0,0:0:0:0:
139,47,56622,1,8,0:0:0:0:
228,69,56701,2,0,B|196:70|196:70|172:48|138:47,1,94.5,0|0,2:0|0:0,0:0:0:0:
72,276,57016,5,4,0:0:0:0:
82,290,57095,1,0,0:0:0:0:
138,347,57174,1,0,0:0:0:0:
148,333,57253,1,0,0:0:0:0:
204,277,57332,1,4,0:0:0:0:
214,291,57411,1,0,0:0:0:0:
270,348,57489,1,0,0:0:0:0:
280,334,57568,1,0,0:0:0:0:
288,260,57647,5,4,0:0:0:0:
278,246,57726,1,0,0:0:0:0:
268,232,57805,1,0,0:0:0:0:
324,180,57884,1,0,0:0:0:0:
377,125,57964,2,0,P|391:145|398:167,1,47.25,14|0,0:0|0:0,0:0:0:0:
440,284,58122,2,0,P|426:265|419:242,1,47.25
322,70,58280,6,0,B|339:56|339:56|364:50,1,47.25,6|0,3:0|0:0,0:0:0:0:
174,68,58437,2,0,B|157:54|157:54|132:47,1,47.25,2|0,0:0|0:0,0:0:0:0:
248,18,58595,1,0,2:0:0:0:
248,71,58674,1,0,0:0:0:0:
248,123,58753,1,0,2:0:0:0:
248,175,58832,1,0,0:0:0:0:
175,200,58911,6,0,P|171:176|173:153,1,47.25,2|0,2:0|0:0,0:0:0:0:
322,153,59069,2,0,P|324:176|320:199,1,47.25,2|0,2:0|0:0,0:0:0:0:
248,322,59227,2,0,L|248:228,1,94.5
81,206,59543,6,0,P|127:197|174:199,1,94.5,8|0,0:0|0:0,0:0:0:0:
413,206,59858,1,0,0:0:0:0:
413,206,60016,1,0,0:0:0:0:
174,199,60174,2,0,P|221:201|267:192,1,94.5,8|0,0:0|0:0,0:0:0:0:
506,199,60490,1,0,0:0:0:0:
267,191,60648,2,0,P|290:157|315:190,1,94.5,8|0,2:0|0:0,0:0:0:0:
263,266,60806,6,0,B|227:268|227:268|201:300|158:309|158:309,1,94.5,4|0,0:0|0:0,0:0:0:0:
29,151,61122,2,0,B|64:148|64:148|90:116|133:107|133:107,1,94.5,4|0,0:0|0:0,0:0:0:0:
156,228,61437,2,0,L|133:187,3,47.25,10|0|0|0,0:0|0:0|0:0|0:0,0:0:0:0:
35,228,61753,6,0,B|57:229|104:217|104:217|133:187|133:187|157:228|157:228|188:199|188:199|227:188|279:190,1,283.5,0|0,1:0|0:0,0:0:0:0:
343,180,62069,6,0,B|366:165|366:165|400:176|400:176|432:148|472:155,1,141.75,8|0,0:0|0:0,0:0:0:0:
472,155,62385,2,0,P|446:193|457:238,1,94.5,2|0,0:0|0:0,0:0:0:0:
412,76,62701,6,0,B|389:91|389:91|355:80|355:80|324:108|282:101,1,141.75,8|0,0:0|0:0,0:0:0:0:
282,101,63016,2,0,P|290:80|295:57,1,47.25,2|0,0:0|0:0,0:0:0:0:
127,62,63174,2,0,P|96:38|133:24,1,94.5,8|0,2:0|0:0,0:0:0:0:
210,59,63332,6,0,B|195:109|211:148|211:148|187:165|187:165|181:189,1,141.75,8|0,0:0|0:0,0:0:0:0:
161,278,63648,2,0,L|182:185,1,94.5,6|0,0:0|0:0,0:0:0:0:
54,287,63964,2,0,B|69:237|53:198|53:198|77:181|77:181|82:156,1,141.75,8|0,0:0|0:0,0:0:0:0:
103,68,64280,2,0,L|81:160,1,94.5,2|0,0:0|0:0,0:0:0:0:
121,349,64595,5,4,0:0:0:0:
205,356,64753,1,0,0:0:0:0:
261,362,64911,1,2,0:0:0:0:
289,364,65069,1,0,0:0:0:0:
318,289,65227,2,0,P|295:285|272:286,1,47.25,2|0,2:0|0:0,0:0:0:0:
272,252,65385,2,0,P|295:256|318:255,1,47.25,2|0,2:0|0:0,0:0:0:0:
192,266,65543,2,0,B|168:258|168:258|132:272|132:272|103:254|62:266,1,118.125,2|0,3:0|0:0,0:0:0:0:
91,186,65780,1,0,0:0:0:0:
91,186,65858,6,0,B|103:183|133:193|133:193|161:183|161:183|183:185,1,94.5,4|0,0:0|0:0,0:0:0:0:
238,171,66174,1,2,0:0:0:0:
321,153,66332,1,0,0:0:0:0:
265,97,66490,2,0,B|272:80|272:80|340:56|387:97,1,141.75,2|0,0:0|0:0,0:0:0:0:
412,150,66806,2,0,B|362:163|362:163|320:152,1,94.5,8|0,0:0|0:0,0:0:0:0:
89,78,67122,5,4,2:0:0:0:
89,96,67280,1,0,0:0:0:0:
59,168,67437,1,0,0:0:0:0:
89,199,67516,1,0,0:0:0:0:
118,168,67595,2,0,B|90:149|90:149|58:168,1,70.8750027036668,8|0,2:0|0:0,0:0:0:0:
41,258,67753,2,0,B|41:300|88:316|88:316|88:331|88:331|88:316|88:316|136:300|136:260,1,189,12|0,2:0|0:0,0:0:0:0:
256,192,68227,6,0,L|256:224,4,23.625,2|0|0|0|2,0:0|0:0|0:0|0:0|0:0,0:0:0:0:
474,259,68543,1,0,0:0:0:0:
192,144,68701,1,4,0:0:0:0:
236,116,68780,1,0,0:0:0:0:
287,121,68858,1,0,0:0:0:0:
324,156,68937,1,0,0:0:0:0:
331,208,69016,2,0,L|331:257,1,47.25,4|0,0:0|0:0,0:0:0:0:
192,144,69174,2,0,L|192:92,1,47.25,4|0,0:0|0:0,0:0:0:0:
61,66,69332,6,0,L|61:80,1,14.175,14|0,2:0|0:0,0:0:0:0:
61,156,69648,6,0,B|65:199|87:233,1,82.6875007885695
155,382,69806,2,0,B|151:339|129:305,1,82.6875007885695
61,80,69964,1,4,0:0:0:0:
344,85,70122,6,0,P|410:130|346:177,1,189,10|0,0:0|0:0,0:0:0:0:
340,69,70358,2,0,P|380:67|407:85,1,70.8750027036668,8|0,0:0|0:0,0:0:0:0:
412,172,70516,1,0,0:0:0:0:
412,172,70595,2,0,P|382:192|347:192,1,70.8750027036668,12|0,0:0|0:0,0:0:0:0:
235,312,70753,6,0,P|283:319|344:308,1,94.5,8|0,2:0|0:0,0:0:0:0:
474,294,70911,1,2,0:0:0:0:
216,308,71069,1,2,0:0:0:0:
395,347,71227,2,0,P|401:307|389:268,1,82.6875007885695,12|0,0:0|0:0,0:0:0:0:
196,304,71385,6,0,B|140:300|80:264,1,94.5,0|0,1:0|0:0,0:0:0:0:
20,168,71543,1,2,0:0:0:0:
20,168,71622,2,0,P|58:162|102:171,1,70.8750027036668,0|0,1:0|2:0,2:0:0:0:
179,193,71780,2,0,P|213:197|248:191,1,70.8750027036668,2|4,0:0|0:0,0:0:0:0:
291,109,71937,1,0,0:0:0:0:
89,166,72016,6,0,L|213:204,1,94.5,8|0,0:0|0:0,0:0:0:0:
352,212,72174,1,0,0:0:0:0:
280,78,72332,1,0,0:0:0:0:
365,292,72490,2,0,B|432:296|432:296|412:346,1,82.6875007885695,4|0,0:0|0:0,0:0:0:0:
289,338,72648,6,0,B|207:291|207:291|291:246,1,189,10|0,0:0|0:0,0:0:0:0:
350,372,72885,2,0,L|279:332,1,70.8750027036668,8|0,0:0|0:0,0:0:0:0:
352,212,73043,1,0,0:0:0:0:
352,212,73122,2,0,L|290:246,1,70.8750027036668,12|0,0:0|0:0,0:0:0:0:
207,291,73280,6,0,B|163:226|163:226|287:158,1,189,14|0,0:0|0:0,0:0:0:0:
207,291,73595,2,0,B|122:340|122:340|65:253,1,189,14|4,0:0|0:0,0:0:0:0:
342,127,73911,6,0,L|259:173,1,94.5,8|0,0:0|0:0,0:0:0:0:
163,226,74069,1,0,0:0:0:0:
178,140,74227,1,8,0:0:0:0:
359,40,74385,1,4,0:0:0:0:
342,127,74543,2,0,B|332:182|332:182|358:228,1,94.5
403,301,74701,6,0,B|362:322|322:311,1,82.6875007885695
158,328,74858,2,0,B|199:307|238:317,1,82.6875007885695
428,228,75016,1,4,0:0:0:0:
147,177,75174,6,0,P|81:132|146:85,1,189,10|0,0:0|0:0,0:0:0:0:
97,232,75411,2,0,P|130:224|151:196,1,70.8750027036668,8|0,0:0|0:0,0:0:0:0:
97,232,75569,1,0,0:0:0:0:
94,33,75648,2,0,P|127:41|147:70,1,70.8750027036668,12|0,0:0|0:0,0:0:0:0:
308,245,75806,6,0,B|294:199|294:199|309:154,1,94.5,8|0,2:0|0:0,0:0:0:0:
379,19,75964,1,2,0:0:0:0:
327,259,76122,1,2,0:0:0:0:
313,62,76280,2,0,B|345:90|345:90|385:96,1,82.6875007885695,12|0,0:0|0:0,0:0:0:0:
344,268,76437,6,0,B|355:316|355:316|343:359,1,94.5,0|0,1:0|0:0,0:0:0:0:
199,359,76595,1,2,0:0:0:0:
199,359,76674,2,0,P|189:325|194:290,1,70.8750027036668,0|0,1:0|0:0,0:0:0:0:
211,197,76832,2,0,P|220:163|215:128,1,70.8750027036668,2|4,0:0|0:0,0:0:0:0:
168,48,76990,1,0,0:0:0:0:
194,290,77069,6,0,L|218:162,1,94.5
343,69,77227,1,0,0:0:0:0:
168,23,77385,1,0,0:0:0:0:
308,249,77543,2,0,B|331:260|331:260|362:249|387:257,1,82.6875007885695,4|0,0:0|0:0,0:0:0:0:
398,138,77701,6,0,P|333:193|388:258,1,189,10|0,0:0|0:0,0:0:0:0:
460,77,77937,2,0,P|443:107|414:127,1,70.8750027036668,8|0,0:0|0:0,0:0:0:0:
451,317,78095,1,0,0:0:0:0:
451,317,78174,2,0,P|434:286|405:266,1,70.8750027036668,12|0,0:0|0:0,0:0:0:0:
211,229,78332,6,0,B|160:230|128:192|128:192|95:232|46:233,1,189,0|0,1:0|0:0,0:0:0:0:
41,309,78569,1,0,0:0:0:0:
41,309,78648,2,0,B|91:304|130:286|130:286|177:305|223:303,1,189,0|4,1:0|0:0,0:0:0:0:
330,262,78885,1,0,0:0:0:0:
330,262,78964,6,0,B|293:299|306:340|306:340|315:328,1,99.2249969718934,14|0,3:0|0:0,0:0:0:0:
411,265,79122,2,0,B|401:212|401:212|358:187,1,103.950003172302,4|0,0:0|0:0,0:0:0:0:
150,68,79280,2,0,B|160:121|160:121|203:146,1,103.950003172302,14|0,0:0|0:0,0:0:0:0:
235,57,79437,2,0,B|239:110|239:110|203:146,1,103.950003172302,4|0,0:0|0:0,0:0:0:0:
39,308,79595,2,0,B|35:254|35:254|71:219,1,103.950003172302,14|0,0:0|0:0,0:0:0:0:
322,131,79753,5,4,2:0:0:0:
349,120,79911,1,0,0:0:0:0:
349,332,80069,1,4,0:0:0:0:
202,145,80227,2,0,P|249:139|296:145,1,94.5
461,120,80385,2,0,P|445:88|441:53,1,70.8750027036668,2|0,2:0|0:0,0:0:0:0:
427,133,80543,2,0,P|423:97|407:66,1,70.8750027036668,2|0,2:0|0:0,0:0:0:0:
295,144,80701,1,4,0:0:0:0:
312,312,80858,2,0,B|263:300|263:300|208:312,1,94.5,8|0,2:0|0:0,0:0:0:0:
160,367,81016,6,0,P|78:332|144:271,1,212.625008111,10|0,0:0|0:0,0:0:0:0:
219,309,81332,1,4,0:0:0:0:
75,254,81490,2,0,B|62:210|62:210|78:146,1,94.5
7,68,81648,2,0,P|43:63|75:48,1,70.8750027036668,2|0,2:0|0:0,0:0:0:0:
20,104,81806,2,0,P|52:87|87:84,1,70.8750027036668,2|0,2:0|0:0,0:0:0:0:
215,82,81964,1,4,0:0:0:0:
303,5,82122,2,0,P|252:33|218:101,1,94.5,8|0,2:0|0:0,0:0:0:0:
227,251,82280,5,10,0:0:0:0:
216,224,82438,1,0,0:0:0:0:
354,223,82596,1,4,0:0:0:0:
203,106,82754,2,0,B|195:157|195:157|203:200,1,94.5
291,342,82911,2,0,P|256:346|225:362,1,70.8750027036668,2|0,2:0|0:0,0:0:0:0:
279,309,83069,2,0,P|247:324|212:328,1,70.8750027036668,2|0,2:0|0:0,0:0:0:0:
202,199,83227,1,4,0:0:0:0:
402,163,83385,6,0,B|372:136|369:93|369:93|332:145|280:152,1,189,10|0,2:0|0:0,0:0:0:0:
506,47,83701,2,0,B|467:61|447:99|447:99|442:22|349:5,1,189,10|4,2:0|0:0,0:0:0:0:
202,199,84016,2,0,P|237:167|281:152,1,94.5,8|0,2:0|0:0,0:0:0:0:
475,186,84174,2,0,P|456:217|427:236,1,70.8750027036668,2|0,2:0|0:0,0:0:0:0:
498,216,84332,2,0,P|468:235|450:265,1,70.8750027036668,2|0,2:0|0:0,0:0:0:0:
207,291,84490,1,4,0:0:0:0:
373,291,84648,1,0,0:0:0:0:
233,366,84806,6,0,B|319:313|289:223|289:223|258:310|341:362,1,330.750003154278,12|4,2:0|0:0,0:0:0:0:
290,128,85280,2,0,L|290:223,1,94.5,2|0,0:0|0:0,0:0:0:0:
132,264,85437,2,0,P|152:236|182:218,1,70.8750027036668,2|0,2:0|0:0,0:0:0:0:
111,236,85595,2,0,P|141:217|163:189,1,70.8750027036668,2|0,2:0|0:0,0:0:0:0:
290,223,85753,1,4,0:0:0:0:
290,33,85911,2,0,L|290:127,1,94.5,2|0,0:0|0:0,0:0:0:0:
341,362,86069,6,0,B|258:310|289:223|289:223|319:313|233:366,1,330.750003154278,12|4,2:0|0:0,0:0:0:0:
290,128,86543,2,0,L|290:223,1,94.5
444,261,86701,2,0,P|424:233|394:215,1,70.8750027036668,2|0,2:0|0:0,0:0:0:0:
465,233,86859,2,0,P|435:214|413:186,1,70.8750027036668,2|0,2:0|0:0,0:0:0:0:
290,222,87016,1,4,0:0:0:0:
290,33,87174,2,0,L|290:147,1,94.5,2|0,0:0|0:0,0:0:0:0:
341,362,87332,6,0,B|258:310|289:223|289:223|319:313|233:366,1,330.750003154278,12|4,2:0|0:0,0:0:0:0:
373,291,87806,1,0,0:0:0:0:
99,287,87964,2,0,B|182:235|151:148|151:148|121:238|207:291,1,330.750003154278,12|4,2:0|0:0,0:0:0:0:
67,216,88437,2,0,P|67:168|77:122,1,94.5
154,70,88595,1,4,2:0:0:0:
235,216,88753,1,0,0:0:0:0:
149,353,88911,5,12,2:0:0:0:
175,379,88990,1,0,0:0:0:0:
212,379,89069,1,0,0:0:0:0:
249,379,89148,1,0,0:0:0:0:
274,353,89227,2,0,P|308:361|344:353,1,70.8750027036668,6|0,2:0|0:0,0:0:0:0:
410,241,89385,2,0,P|431:213|438:177,1,70.8750027036668,6|0,2:0|0:0,0:0:0:0:
363,70,89543,6,0,P|360:64|354:56,1,14.175,2|0,1:0|0:0,0:0:0:0:
304,0,89858,1,0,3:0:0:0:
293,148,97451,6,0,P|252:125|205:127,1,94.5
182,168,97733,6,0,P|197:150|206:128,1,47.25,2|0,0:0|0:0,0:0:0:0:
120,173,97920,2,0,P|143:179|167:178,1,47.25
63,199,98108,2,0,P|80:183|103:177,1,47.25,2|0,0:0|0:0,0:0:0:0:
42,270,98295,2,0,P|40:246|47:224,1,47.25
93,335,98483,2,0,P|73:323|58:306,1,47.25,2|0,0:0|0:0,0:0:0:0:
183,339,98670,2,0,P|162:349|139:351,1,47.25
256,288,98858,5,6,0:0:0:0:
302,280,99045,2,0,L|254:288,1,47.25,0|0,2:0|0:0,0:0:0:0:
349,270,99233,1,0,0:0:0:0:
256,288,99420,1,0,2:0:0:0:
488,239,99608,1,0,0:0:0:0:
442,247,99795,2,0,L|490:239,1,47.25,0|0,2:0|0:0,0:0:0:0:
395,257,99983,1,0,0:0:0:0:
488,239,100170,1,0,0:0:0:0:
256,272,100358,5,10,0:0:0:0:
210,264,100545,2,0,L|258:272,1,47.25,0|0,2:0|0:0,0:0:0:0:
163,254,100733,1,0,0:0:0:0:
256,272,100920,1,0,0:0:0:0:
24,223,101108,1,0,0:0:0:0:
70,231,101295,2,0,L|22:223,1,47.25,0|0,2:0|0:0,0:0:0:0:
117,241,101483,1,0,0:0:0:0:
24,223,101670,1,0,0:0:0:0:
256,256,101858,5,6,0:0:0:0:
301,241,102045,2,0,L|255:257,1,47.25,0|0,2:0|0:0,0:0:0:0:
346,223,102233,1,0,0:0:0:0:
256,256,102420,1,0,2:0:0:0:
477,168,102608,1,0,0:0:0:0:
434,184,102795,2,0,L|479:167,1,47.25,0|0,2:0|0:0,0:0:0:0:
389,202,102983,1,0,0:0:0:0:
477,168,103170,1,0,0:0:0:0:
256,240,103358,5,10,0:0:0:0:
211,225,103545,2,0,L|256:241,1,47.25,0|0,2:0|0:0,0:0:0:0:
166,207,103733,1,0,0:0:0:0:
256,240,103920,1,0,0:0:0:0:
35,152,104108,1,0,0:0:0:0:
78,168,104295,2,0,L|32:151,1,47.25,0|0,2:0|0:0,0:0:0:0:
123,186,104483,1,0,0:0:0:0:
35,152,104670,1,0,0:0:0:0:
256,224,104858,5,6,0:0:0:0:
298,201,105045,2,0,L|255:224,1,47.25,0|0,2:0|0:0,0:0:0:0:
339,176,105233,1,0,0:0:0:0:
256,224,105420,1,0,2:0:0:0:
459,99,105608,1,0,0:0:0:0:
419,122,105795,2,0,L|461:98,1,47.25,0|0,2:0|0:0,0:0:0:0:
378,148,105983,1,0,0:0:0:0:
459,99,106170,1,0,0:0:0:0:
256,208,106358,5,10,0:0:0:0:
214,185,106545,2,0,L|256:208,1,47.25,0|0,2:0|0:0,0:0:0:0:
173,160,106733,1,0,0:0:0:0:
256,208,106920,1,0,0:0:0:0:
53,83,107108,1,0,0:0:0:0:
93,106,107295,2,0,L|50:82,1,47.25,0|0,2:0|0:0,0:0:0:0:
134,132,107483,1,0,0:0:0:0:
53,83,107670,1,0,0:0:0:0:
256,192,107858,5,6,0:0:0:0:
293,162,108045,2,0,L|255:192,1,47.25,0|0,2:0|0:0,0:0:0:0:
329,130,108233,1,0,0:0:0:0:
256,192,108420,1,0,2:0:0:0:
434,33,108608,1,0,0:0:0:0:
398,63,108795,2,0,L|435:32,1,47.25,0|0,2:0|0:0,0:0:0:0:
362,95,108983,1,0,0:0:0:0:
434,33,109170,1,0,0:0:0:0:
123,192,109358,6,0,B|162:166|162:166|181:121,1,94.5,2|0,2:0|2:0,0:0:0:0:
229,152,109733,2,0,B|169:192|169:192|123:192,1,118.125,2|0,2:0|2:0,0:0:0:0:
123,192,110108,2,0,B|162:217|162:217|257:215,1,141.750005407334,2|0,2:0|2:0,0:0:0:0:
438,212,110483,2,0,L|415:212,6,23.625,0|0|0|0|0|0|0,1:0|0:0|0:0|0:0|0:0|0:0|0:0,0:0:0:0:
335,216,110858,5,4,0:0:0:0:
336,235,110951,1,0,0:0:0:0:
338,255,111045,1,4,0:0:0:0:
340,275,111139,1,0,0:0:0:0:
347,362,111233,2,0,L|343:314,1,47.25,4|0,0:0|0:0,0:0:0:0:
331,196,111420,2,0,L|328:149,1,47.25
293,70,111608,6,0,P|272:81|257:99,3,47.25,8|0|0|0,2:0|0:0|0:0|0:0,0:0:0:0:
200,155,111983,1,2,0:0:0:0:
143,211,112076,1,0,2:0:0:0:
143,211,112170,1,0,2:0:0:0:
143,211,112264,1,0,2:0:0:0:
143,211,112358,2,0,P|127:228|106:239,3,47.25,2|0|0|0,2:0|0:0|0:0|0:0,0:0:0:0:
108,70,112733,6,0,P|129:81|144:99,3,47.25,8|0|0|0,2:0|0:0|0:0|0:0,0:0:0:0:
200,155,113108,1,2,0:0:0:0:
214,168,113201,1,2,0:0:0:0:
278,232,113295,1,0,2:0:0:0:
278,232,113389,1,0,2:0:0:0:
278,232,113483,2,0,P|294:249|315:260,3,47.25,2|0|0|0,2:0|0:0|0:0|0:0,0:0:0:0:
439,51,113858,6,0,B|434:76|434:76|422:94,3,47.25,8|0|0|0,2:0|0:0|0:0|0:0,0:0:0:0:
380,163,114232,1,2,0:0:0:0:
370,177,114326,1,2,0:0:0:0:
360,193,114420,1,2,0:0:0:0:
315,260,114514,1,0,2:0:0:0:
315,260,114608,2,0,B|293:274|293:274|282:292,3,47.25,2|0|0|0,2:0|0:0|0:0|0:0,0:0:0:0:
321,51,114983,6,0,B|325:76|325:76|337:94,3,47.25,8|0|0|0,2:0|0:0|0:0|0:0,0:0:0:0:
380,163,115357,1,2,0:0:0:0:
390,177,115451,1,2,0:0:0:0:
400,193,115545,1,2,0:0:0:0:
410,208,115639,1,2,0:0:0:0:
454,276,115733,2,0,B|475:290|475:290|486:308,3,47.25,2|0|0|0,2:0|0:0|0:0|0:0,0:0:0:0:
328,279,116108,6,0,B|252:305|188:296|188:296|252:281|326:309,1,283.5,2|0,1:0|0:0,0:0:0:0:
319,383,116483,2,0,B|270:367|270:367|220:374|180:368,1,141.750005407334,0|0,1:0|0:0,0:0:0:0:
188,296,116764,1,0,0:0:0:0:
149,233,116858,5,8,0:0:0:0:
127,234,116951,1,0,0:0:0:0:
108,239,117045,1,8,0:0:0:0:
88,242,117139,1,0,0:0:0:0:
2,256,117233,2,0,L|49:247,1,47.25,8|0,0:0|0:0,0:0:0:0:
167,225,117420,2,0,L|213:217,1,47.25,0|0,2:0|0:0,0:0:0:0:
284,258,117608,6,0,B|296:236|295:213,3,47.25,2|0|0|0,2:0|0:0|0:0|0:0,0:0:0:0:
305,133,117983,1,0,2:0:0:0:
311,114,118077,1,0,2:0:0:0:
320,97,118170,1,0,2:0:0:0:
331,81,118264,1,0,2:0:0:0:
400,37,118358,2,0,B|386:16|366:5,3,47.25,8|0|0|0,2:0|0:0|0:0|0:0,0:0:0:0:
201,59,118733,6,0,B|226:67|241:84,3,47.25,2|0|0|0,2:0|0:0|0:0|0:0,0:0:0:0:
305,133,119108,1,0,2:0:0:0:
322,142,119202,1,0,2:0:0:0:
341,148,119295,1,0,2:0:0:0:
422,130,119389,1,2,0:0:0:0:
422,130,119484,2,0,B|427:155|421:177,3,47.25,8|0|0|0,2:0|0:0|0:0|0:0,0:0:0:0:
237,275,119858,6,0,B|259:280|259:280|284:275,3,47.25,2|0|0|0,2:0|0:0|0:0|0:0,0:0:0:0:
362,254,120232,1,0,2:0:0:0:
377,243,120326,1,0,2:0:0:0:
421,176,120420,1,2,0:0:0:0:
421,176,120514,1,2,0:0:0:0:
421,176,120608,2,0,B|439:189|439:189|452:211,3,47.25,8|0|0|0,2:0|0:0|0:0|0:0,0:0:0:0:
459,331,120983,6,0,B|438:327|438:327|417:313,3,47.25,2|0|0|0,2:0|0:0|0:0|0:0,0:0:0:0:
362,254,121357,1,0,2:0:0:0:
337,177,121451,1,2,0:0:0:0:
337,177,121545,1,2,0:0:0:0:
337,177,121639,1,2,0:0:0:0:
337,177,121733,6,0,B|327:166|327:166|250:144|249:206|139:149,1,177.1875,2|0,1:0|0:0,0:0:0:0:
90,82,122108,2,0,B|80:117|95:153|95:153|98:120|132:88,1,118.125,0|0,1:0|0:0,0:0:0:0:
174,234,122389,2,0,B|183:198|168:162|168:162|165:195|131:227,1,118.125,0|0,1:0|0:0,0:0:0:0:
69,225,122670,2,0,B|58:237|59:253|59:253|76:252|86:240,1,59.0625,0|0,1:0|0:0,0:0:0:0:
185,86,122858,5,4,2:0:0:0:
198,73,122951,1,0,0:0:0:0:
216,73,123045,1,0,0:0:0:0:
228,60,123139,1,0,0:0:0:0:
245,60,123233,2,0,P|269:56|292:57,3,47.25,4|0|0|0,0:0|0:0|0:0|0:0,0:0:0:0:
395,117,123608,2,0,P|372:113|349:114,3,47.25,4|0|0|0,0:0|0:0|0:0|0:0,0:0:0:0:
292,170,123983,1,2,0:0:0:0:
292,188,124076,1,0,0:0:0:0:
292,206,124170,1,2,0:0:0:0:
292,224,124264,1,0,0:0:0:0:
319,299,124358,6,0,P|295:301|272:300,3,47.25,4|0|0|0,0:0|0:0|0:0|0:0,0:0:0:0:
211,238,124733,1,0,0:0:0:0:
200,253,124826,1,0,0:0:0:0:
190,268,124920,2,0,P|184:291|185:315,1,47.25,2|0,2:0|0:0,0:0:0:0:
196,164,125108,1,0,0:0:0:0:
177,160,125201,1,0,0:0:0:0:
159,157,125295,2,0,P|135:160|114:171,1,47.25,2|0,2:0|0:0,0:0:0:0:
255,118,125483,1,0,0:0:0:0:
251,99,125576,1,0,0:0:0:0:
246,82,125670,2,0,P|233:62|214:47,1,47.25,2|0,2:0|0:0,0:0:0:0:
70,186,125858,6,0,P|93:182|114:171,3,47.25,4|0|0|0,0:0|0:0|0:0|0:0,0:0:0:0:
180,361,126233,2,0,P|186:338|185:314,3,47.25,4|0|0|0,0:0|0:0|0:0|0:0,0:0:0:0:
320,214,126608,2,0,P|302:200|280:192,3,47.25,4|0|0|0,0:0|0:0|0:0|0:0,0:0:0:0:
264,270,126983,1,2,0:0:0:0:
264,288,127076,1,0,0:0:0:0:
264,306,127170,1,2,0:0:0:0:
264,324,127264,1,0,0:0:0:0:
324,376,127358,6,0,B|353:382|353:382|370:378,3,47.25,4|0|0|0,0:0|0:0|0:0|0:0,0:0:0:0:
409,307,127733,1,0,0:0:0:0:
422,319,127826,1,0,0:0:0:0:
434,332,127920,2,0,B|443:353|443:353|447:377,1,47.25,2|0,2:0|0:0,0:0:0:0:
384,188,128108,1,0,0:0:0:0:
371,200,128201,1,0,0:0:0:0:
359,213,128295,2,0,B|349:234|349:234|345:258,1,47.25,2|0,2:0|0:0,0:0:0:0:
392,56,128483,1,0,0:0:0:0:
405,68,128576,1,0,0:0:0:0:
417,81,128670,1,0,0:0:0:0:
457,152,128764,5,0,0:0:0:0:
457,152,128858,2,0,B|480:140|480:140|489:120,3,47.25,4|0|0|0,0:0|0:0|0:0|0:0,0:0:0:0:
310,238,129233,2,0,B|330:254|330:254|352:254,3,47.25,4|0|0|0,0:0|0:0|0:0|0:0,0:0:0:0:
308,46,129608,2,0,B|301:71|301:71|310:91,3,47.25,4|0|0|0,0:0|0:0|0:0|0:0,0:0:0:0:
312,173,129983,1,2,0:0:0:0:
312,191,130076,1,0,0:0:0:0:
312,209,130170,1,2,0:0:0:0:
312,227,130264,1,0,0:0:0:0:
255,283,130358,6,0,B|234:266|211:267,3,47.25,4|0|0|0,0:0|0:0|0:0|0:0,0:0:0:0:
149,318,130733,1,0,0:0:0:0:
137,303,130826,1,0,0:0:0:0:
129,284,130920,2,0,P|126:260|131:237,1,47.25,2|0,2:0|0:0,0:0:0:0:
57,89,131108,1,0,0:0:0:0:
69,103,131201,1,0,0:0:0:0:
77,122,131295,2,0,P|79:145|74:168,1,47.25,2|0,2:0|0:0,0:0:0:0:
43,324,131483,1,0,0:0:0:0:
32,309,131576,1,0,0:0:0:0:
24,291,131670,2,0,P|21:267|26:244,1,47.25,2|0,2:0|0:0,0:0:0:0:
163,156,131858,6,0,L|210:151,3,47.25,4|0|0|0,0:0|0:0|0:0|0:0,0:0:0:0:
176,276,132233,2,0,L|224:272,3,47.25,4|0|0|0,0:0|0:0|0:0|0:0,0:0:0:0:
154,33,132608,2,0,L|202:29,3,47.25,4|0|0|0,0:0|0:0|0:0|0:0,0:0:0:0:
276,64,132983,1,2,0:0:0:0:
276,82,133076,1,0,0:0:0:0:
276,100,133170,1,2,0:0:0:0:
276,118,133264,1,0,0:0:0:0:
276,198,133358,6,0,L|276:150,2,47.25,6|0|0,0:0|0:0|0:0,0:0:0:0:
332,254,133639,1,8,0:0:0:0:
388,310,133733,2,0,L|388:358,2,47.25,6|0|0,0:0|0:0|0:0,0:0:0:0:
332,254,134014,1,8,0:0:0:0:
276,198,134108,2,0,L|276:150,2,47.25,6|0|0,0:0|0:0|0:0,0:0:0:0:
332,254,134389,1,8,0:0:0:0:
388,310,134483,2,0,L|388:358,2,47.25,6|0|0,0:0|0:0|0:0,0:0:0:0:
332,254,134764,1,8,0:0:0:0:
276,198,134858,5,8,3:0:0:0:
276,198,134951,1,2,2:0:0:0:
228,198,135045,1,0,0:0:0:0:
192,228,135139,1,0,0:0:0:0:
135,284,135233,5,8,3:0:0:0:
135,284,135326,1,2,2:0:0:0:
87,284,135420,1,0,0:0:0:0:
51,254,135514,1,0,0:0:0:0:
48,177,135608,5,8,3:0:0:0:
48,177,135701,1,2,2:0:0:0:
62,131,135795,1,0,0:0:0:0:
100,105,135889,1,0,0:0:0:0:
181,86,135983,5,8,3:0:0:0:
181,86,136076,1,2,2:0:0:0:
225,102,136170,1,0,0:0:0:0:
273,106,136264,1,0,0:0:0:0:
342,62,136358,5,8,3:0:0:0:
342,62,136451,1,2,2:0:0:0:
386,46,136545,1,0,0:0:0:0:
434,42,136639,1,0,0:0:0:0:
488,108,136733,5,8,3:0:0:0:
488,108,136826,1,2,2:0:0:0:
500,156,136920,1,0,0:0:0:0:
484,200,137014,6,0,L|441:219,1,47.25,0|0,1:0|0:0,0:0:0:0:
208,324,137201,2,0,L|256:324,1,47.25,8|0,3:0|0:0,0:0:0:0:
398,239,137389,2,0,L|440:219,1,47.25,0|0,1:0|0:0,0:0:0:0:
303,324,137576,2,0,L|255:324,2,47.25,8|0|0,3:0|0:0|0:0,0:0:0:0:
316,244,137858,5,8,3:0:0:0:
284,208,137951,1,0,0:0:0:0:
284,208,138045,1,2,2:0:0:0:
284,160,138139,1,0,0:0:0:0:
320,88,138233,5,8,3:0:0:0:
276,76,138326,1,0,0:0:0:0:
276,76,138420,1,2,2:0:0:0:
232,92,138514,1,0,0:0:0:0:
172,144,138608,5,8,3:0:0:0:
128,128,138701,1,0,0:0:0:0:
128,128,138795,1,2,2:0:0:0:
100,88,138889,1,0,0:0:0:0:
64,16,138983,5,8,3:0:0:0:
28,48,139076,1,0,0:0:0:0:
28,48,139170,1,2,2:0:0:0:
20,96,139264,1,0,0:0:0:0:
53,170,139358,5,8,3:0:0:0:
36,212,139451,1,0,0:0:0:0:
36,212,139545,1,2,2:0:0:0:
16,256,139639,1,0,0:0:0:0:
64,324,139733,5,8,3:0:0:0:
108,312,139826,1,0,0:0:0:0:
108,312,139920,1,2,2:0:0:0:
152,332,140014,1,0,0:0:0:0:
244,348,140108,6,0,B|292:344|292:344|292:352|292:352|296:344|296:344|340:340|340:340|340:332|340:332|344:340|344:340|396:328|396:328|396:336|396:336|400:328|400:328|456:296|440:184,1,283.5,2|0,1:0|0:0,0:0:0:0:
455,176,140483,2,0,P|388:191|360:254,1,141.750005407334,0|0,1:0|0:0,0:0:0:0:
360,253,140764,1,0,1:0:0:0:
442,255,140858,5,8,3:0:0:0:
484,280,140951,1,0,0:0:0:0:
496,324,141045,1,0,0:0:0:0:
496,324,141139,1,2,2:0:0:0:
431,370,141233,5,8,3:0:0:0:
413,327,141326,1,0,0:0:0:0:
372,300,141420,1,0,0:0:0:0:
372,300,141514,1,2,2:0:0:0:
292,292,141608,5,8,3:0:0:0:
248,280,141701,1,0,0:0:0:0:
212,248,141795,1,0,0:0:0:0:
212,248,141889,1,2,2:0:0:0:
208,168,141983,5,8,3:0:0:0:
164,180,142076,1,0,0:0:0:0:
136,216,142170,1,0,0:0:0:0:
136,216,142264,1,2,2:0:0:0:
99,287,142358,5,8,3:0:0:0:
64,316,142451,1,0,0:0:0:0:
16,324,142545,1,0,0:0:0:0:
16,324,142639,1,2,2:0:0:0:
32,244,142733,5,8,3:0:0:0:
44,200,142826,1,0,0:0:0:0:
32,152,142920,1,0,2:0:0:0:
32,152,143014,6,0,P|76:116|88:116,1,47.25,0|0,1:0|0:0,0:0:0:0:
307,47,143201,2,0,P|263:83|251:83,1,47.25,8|0,3:0|0:0,0:0:0:0:
95,86,143389,2,0,P|51:122|39:122,1,47.25,0|0,1:0|0:0,0:0:0:0:
245,114,143576,2,0,P|258:93|277:80,1,47.25,8|0,3:0|0:0,0:0:0:0:
453,73,143764,2,0,P|466:53|485:40,1,47.25,0|0,1:0|0:0,0:0:0:0:
307,47,143951,2,0,P|294:68|275:81,2,47.25,8|0|0,3:0|0:0|0:0,0:0:0:0:
372,96,144233,5,8,3:0:0:0:
372,96,144326,1,2,2:0:0:0:
374,144,144420,1,0,0:0:0:0:
362,192,144514,1,0,0:0:0:0:
314,256,144608,5,8,3:0:0:0:
306,300,144701,1,0,0:0:0:0:
306,300,144795,1,2,2:0:0:0:
314,348,144889,1,0,0:0:0:0:
386,384,144983,5,8,3:0:0:0:
420,355,145076,1,0,0:0:0:0:
444,315,145170,1,0,0:0:0:0:
444,315,145264,1,2,2:0:0:0:
431,236,145358,5,8,3:0:0:0:
438,188,145451,1,0,0:0:0:0:
458,144,145545,1,0,0:0:0:0:
486,108,145639,1,0,0:0:0:0:
490,60,145733,1,8,3:0:0:0:
474,16,145826,1,0,0:0:0:0:
430,0,145920,1,0,0:0:0:0:
386,12,146014,1,0,0:0:0:0:
349,84,146108,6,0,P|266:80|250:52,1,94.5,2|0,1:0|0:0,0:0:0:0:
263,290,146389,2,0,P|180:294|164:322,1,94.5,0|0,1:0|0:0,0:0:0:0:
132,97,146670,2,0,P|155:93|176:82,1,47.25,0|0,1:0|0:0,0:0:0:0:
349,84,146858,5,8,0:0:0:0:
354,71,146951,1,2,2:0:0:0:
410,96,147045,1,0,0:0:0:0:
457,138,147139,1,0,0:0:0:0:
458,201,147233,5,8,0:0:0:0:
461,260,147326,1,0,0:0:0:0:
475,259,147420,1,2,2:0:0:0:
463,319,147514,1,0,0:0:0:0:
420,364,147608,5,8,0:0:0:0:
360,380,147701,1,0,0:0:0:0:
300,376,147795,1,0,0:0:0:0:
303,362,147889,1,2,2:0:0:0:
208,348,147983,5,8,0:0:0:0:
248,300,148076,1,0,0:0:0:0:
272,244,148170,1,0,0:0:0:0:
316,200,148264,1,0,0:0:0:0:
340,144,148358,1,8,0:0:0:0:
341,84,148451,1,0,0:0:0:0:
320,28,148545,1,0,0:0:0:0:
260,12,148639,1,0,0:0:0:0:
208,44,148733,1,8,0:0:0:0:
192,104,148826,1,0,0:0:0:0:
208,164,148920,1,0,0:0:0:0:
200,224,149014,6,0,P|192:256|180:276,1,47.25,0|0,1:0|0:0,0:0:0:0:
20,72,149201,2,0,P|28:104|40:124,1,47.25,8|0,0:0|0:0,0:0:0:0:
170,312,149389,2,0,P|178:280|190:260,1,47.25,0|0,1:0|0:0,0:0:0:0:
49,160,149576,2,0,P|41:128|29:108,2,47.25,8|0|0,0:0|0:0|0:0,0:0:0:0:
52,256,149858,5,8,0:0:0:0:
80,255,149951,1,2,2:0:0:0:
60,316,150045,1,0,0:0:0:0:
88,368,150139,1,0,0:0:0:0:
148,384,150233,5,8,0:0:0:0:
184,336,150326,1,0,0:0:0:0:
160,321,150420,1,2,2:0:0:0:
212,284,150514,1,0,0:0:0:0:
216,224,150608,5,8,0:0:0:0:
248,172,150701,1,0,0:0:0:0:
308,152,150795,1,0,0:0:0:0:
310,180,150889,1,2,2:0:0:0:
389,233,150983,5,8,0:0:0:0:
401,293,151076,1,0,0:0:0:0:
367,345,151170,1,0,0:0:0:0:
306,358,151264,1,0,0:0:0:0:
254,324,151358,1,8,0:0:0:0:
240,264,151451,1,0,0:0:0:0:
204,216,151545,1,0,0:0:0:0:
151,187,151639,1,0,0:0:0:0:
91,176,151733,1,8,0:0:0:0:
47,134,151826,1,0,0:0:0:0:
38,75,151920,1,0,0:0:0:0:
64,21,152014,6,0,P|93:37|120:66,1,47.25,0|0,1:0|0:0,0:0:0:0:
353,101,152201,2,0,P|324:85|296:55,1,47.25,8|0,3:0|0:0,0:0:0:0:
143,71,152389,2,0,P|114:55|86:25,1,47.25,0|0,1:0|0:0,0:0:0:0:
273,50,152576,2,0,P|302:66|329:95,2,47.25,8|0|0,0:0|0:0|0:0,0:0:0:0:
232,136,152858,5,8,0:0:0:0:
249,175,152951,1,2,2:0:0:0:
188,176,153045,1,0,0:0:0:0:
128,176,153139,1,0,0:0:0:0:
76,208,153233,5,8,0:0:0:0:
81,268,153326,1,0,0:0:0:0:
41,254,153420,1,2,2:0:0:0:
44,316,153514,1,0,0:0:0:0:
88,360,153608,5,8,0:0:0:0:
148,356,153701,1,0,0:0:0:0:
196,320,153795,1,0,0:0:0:0:
208,361,153889,1,2,2:0:0:0:
292,319,153983,5,8,0:0:0:0:
348,292,154076,1,0,0:0:0:0:
408,304,154170,1,0,0:0:0:0:
468,296,154264,1,0,0:0:0:0:
512,252,154358,1,8,0:0:0:0:
500,192,154451,1,0,0:0:0:0:
456,152,154545,1,0,0:0:0:0:
396,152,154639,1,0,0:0:0:0:
344,184,154733,1,8,0:0:0:0:
284,184,154826,1,0,0:0:0:0:
228,156,154920,1,0,0:0:0:0:
196,104,155014,6,0,P|204:48|220:32,1,47.25,0|0,1:0|0:0,0:0:0:0:
452,16,155201,2,0,P|444:72|428:88,1,47.25,8|0,0:0|0:0,0:0:0:0:
447,108,155389,2,0,P|455:52|471:36,1,47.25,0|0,1:0|0:0,0:0:0:0:
200,11,155576,2,0,P|192:67|176:83,2,47.25,8|0|0,0:0|0:0|0:0,0:0:0:0:
104,24,155858,5,8,0:0:0:0:
48,24,155951,1,2,2:0:0:0:
76,80,156045,1,0,0:0:0:0:
76,140,156139,1,0,0:0:0:0:
100,196,156233,5,8,0:0:0:0:
107,257,156326,1,0,0:0:0:0:
155,226,156420,1,2,2:0:0:0:
157,289,156514,1,0,0:0:0:0:
210,320,156608,5,8,0:0:0:0:
270,312,156701,1,0,0:0:0:0:
324,281,156795,1,0,0:0:0:0:
275,254,156889,1,2,2:0:0:0:
348,192,156983,5,8,0:0:0:0:
327,135,157076,1,0,0:0:0:0:
289,88,157170,1,0,0:0:0:0:
232,61,157264,1,0,0:0:0:0:
140,89,157358,6,0,L|92:89,2,47.25,10|0|0,0:0|0:0|0:0,0:0:0:0:
206,155,157639,1,0,0:0:0:0:
91,221,157733,2,0,L|139:221,2,47.25,10|0|0,2:0|0:0|0:0,0:0:0:0:
24,154,158014,1,0,0:0:0:0:
168,80,158108,6,0,L|120:80,2,47.25,10|0|0,0:0|0:0|0:0,0:0:0:0:
234,146,158389,1,0,0:0:0:0:
119,212,158483,2,0,L|167:212,2,47.25,10|0|0,2:0|0:0|0:0,0:0:0:0:
52,145,158764,1,0,0:0:0:0:
144,3,158858,5,2,1:0:0:0:
32,352,164312,6,0,L|112:352,1,59.0625,0|0,2:0|0:0,0:0:0:0:
150,352,164448,2,0,L|70:352,1,59.0625
90,233,164585,2,0,L|90:362,1,118.125,2|0,0:0|0:0,0:0:0:0:
90,233,164789,2,0,L|90:173,1,59.0625
121,103,164926,1,0,2:0:0:0:
147,57,164994,1,0,2:0:0:0:
173,103,165062,1,0,2:0:0:0:
203,176,165130,2,0,P|146:190|90:174,1,118.125,2|0,0:0|0:0,0:0:0:0:
12,44,165335,1,0,0:0:0:0:
12,44,165403,6,0,L|104:44,1,59.0625,4|0,0:0|0:0,0:0:0:0:
223,44,165539,2,0,L|309:44,1,59.0625,4|0,0:0|0:0,0:0:0:0:
437,162,165676,1,0,0:0:0:0:
437,44,165812,2,0,B|437:174,1,118.125,2|0,0:0|0:0,0:0:0:0:
423,237,166017,1,2,2:0:0:0:
451,237,166085,1,2,2:0:0:0:
437,259,166153,1,2,2:0:0:0:
468,336,166221,2,0,L|408:336,3,59.0625
332,364,166494,6,0,L|332:300,1,59.0625,8|0,3:0|0:0,0:0:0:0:
332,91,166630,2,0,L|332:151,1,59.0625,8|0,0:0|0:0,0:0:0:0:
214,227,166767,1,0,0:0:0:0:
333,227,166903,2,0,L|184:228,1,118.125,8|0,2:0|0:0,0:0:0:0:
136,241,167108,1,2,2:0:0:0:
136,213,167176,1,2,2:0:0:0:
114,227,167244,1,2,2:0:0:0:
37,254,167312,2,0,L|37:182,3,59.0625
10,331,167585,6,0,L|90:331,1,59.0625,4|0,0:0|0:0,0:0:0:0:
222,331,167721,2,0,L|302:331,1,59.0625,4|0,0:0|0:0,0:0:0:0:
436,212,167858,1,0,0:0:0:0:
436,331,167994,2,0,L|436:174,1,118.125,2|0,0:0|0:0,0:0:0:0:
422,136,168198,1,2,2:0:0:0:
450,136,168266,1,2,2:0:0:0:
436,114,168334,1,2,2:0:0:0:
433,37,168403,2,0,L|356:37,3,59.0625
291,37,168676,6,0,B|49:37,1,212.625008111,2|0,1:2|0:0,0:0:0:0:
58,205,168948,2,0,B|306:205,1,248.062502365708,2|0,1:2|0:0,0:0:0:0:
326,121,169221,2,0,L|18:121,1,283.5,2|0,1:2|0:0,0:0:0:0:
22,289,169494,2,0,L|340:289,1,318.937512166501,2|0,1:2|0:0,0:0:0:0:
424,341,169767,6,0,L|424:281,1,59.0625,8|0,0:0|0:0,0:0:0:0:
424,68,169903,2,0,L|424:127,1,59.0625,8|0,0:0|0:0,0:0:0:0:
305,205,170039,1,0,0:0:0:0:
424,205,170176,2,0,L|269:205,1,118.125,8|0,2:0|0:0,0:0:0:0:
228,216,170380,1,2,2:0:0:0:
228,188,170448,1,2,2:0:0:0:
206,202,170516,1,2,2:0:0:0:
128,196,170585,2,0,L|128:128,3,59.0625
69,61,170858,6,0,L|149:61,1,59.0625,4|0,0:0|0:0,0:0:0:0:
281,61,170994,2,0,L|361:61,1,59.0625,4|0,0:0|0:0,0:0:0:0:
493,179,171130,1,0,0:0:0:0:
493,61,171267,2,0,L|493:213,1,118.125,2|0,0:0|0:0,0:0:0:0:
508,257,171471,1,2,2:0:0:0:
480,257,171539,1,2,2:0:0:0:
494,279,171607,1,2,2:0:0:0:
493,356,171676,2,0,L|417:356,3,59.0625
359,356,171948,6,0,L|271:356,1,59.0625,8|0,0:0|0:0,0:0:0:0:
84,356,172085,2,0,L|143:356,1,59.0625,8|0,0:0|0:0,0:0:0:0:
221,236,172221,1,0,0:0:0:0:
221,355,172358,2,0,L|221:233,1,118.125,8|0,2:0|0:0,0:0:0:0:
188,164,172562,1,2,2:0:0:0:
166,177,172630,1,2,2:0:0:0:
166,150,172698,1,2,2:0:0:0:
84,188,172767,2,0,L|84:104,3,59.0625
0,96,173039,6,0,L|0:332,1,212.625008111,2|0,1:2|0:0,0:0:0:0:
167,324,173312,2,0,L|167:64,1,248.062502365708,2|0,1:2|0:0,0:0:0:0:
84,55,173585,2,0,L|84:338,1,283.5,2|0,1:2|0:0,0:0:0:0:
251,366,173858,2,0,L|250:47,1,318.937512166501,2|0,1:2|0:0,0:0:0:0:
351,47,174130,6,0,B|367:87|350:121|350:121|335:121|335:121|335:137|335:137|351:137|351:137|350:169|350:169|367:169|367:169|367:185|367:185|350:185|350:185|351:217|351:217|335:217|335:217|335:233|335:233|349:234|349:234,1,283.5,0|0,1:0|0:0,0:0:0:0:
64,272,176412,5,0,1:0:0:0:
5,328,176521,2,0,P|66:296|132:315,1,141.75,8|0,2:0|0:0,0:0:0:0:
200,272,176956,5,0,2:0:0:0:
200,272,177173,1,0,0:0:0:0:
312,272,177282,1,0,2:0:0:0:
312,272,177499,1,0,0:0:0:0:
312,112,177608,1,0,2:0:0:0:
312,112,177825,1,0,0:0:0:0:
103,112,177934,1,0,2:0:0:0:
103,112,178151,1,2,0:0:0:0:
104,366,178260,2,0,B|157:366|157:366|224:320,1,70.8750027036668,8|0,2:0|0:0,0:0:0:0:
243,264,178477,2,0,B|257:253|257:253|310:253,1,70.8750027036668,8|0,2:0|0:0,0:0:0:0:
384,344,178694,5,0,0:0:0:0:
422,238,178803,1,2,3:0:0:0:
422,238,179021,1,0,0:0:0:0:
285,154,179130,1,2,3:0:0:0:
285,154,179347,1,0,0:0:0:0:
479,75,179456,1,2,3:0:0:0:
479,75,179673,1,0,0:0:0:0:
225,74,179782,1,2,3:0:0:0:
479,75,179999,2,0,B|421:71|421:71|366:39,1,70.8750027036668,8|0,2:0|0:0,0:0:0:0:
293,60,180216,2,0,B|280:57|280:57|224:73,1,70.8750027036668,8|0,2:0|0:0,0:0:0:0:
113,125,180434,5,0,0:0:0:0:
213,174,180543,1,0,2:0:0:0:
213,174,180760,1,0,0:0:0:0:
67,243,180869,1,0,2:0:0:0:
67,243,181086,1,0,0:0:0:0:
227,375,181195,1,0,2:0:0:0:
227,375,181412,1,0,0:0:0:0:
260,174,181521,2,0,L|243:235,1,47.25,0|0,2:0|0:0,0:0:0:0:
386,270,181738,6,0,P|351:264|323:243,1,70.8750027036668,8|0,2:0|0:0,0:0:0:0:
323,122,181956,2,0,P|294:101|260:94,1,70.8750027036668,8|0,2:0|0:0,0:0:0:0:
260,174,182173,5,0,0:0:0:0:
241,242,182282,2,0,L|266:157,1,70.8750027036668,2|0,2:0|0:0,0:0:0:0:
260,93,182499,1,0,0:0:0:0:
280,26,182608,2,0,L|255:111,1,70.8750027036668,2|0,2:0|0:0,0:0:0:0:
260,174,182825,5,0,0:0:0:0:
190,157,182934,1,2,2:0:0:0:
121,171,183042,2,0,P|150:164|192:157,1,70.8750027036668,2|0,0:3|0:0,0:0:0:0:
313,224,183260,5,0,0:0:0:0:
382,240,183369,1,2,2:0:0:0:
452,227,183477,2,0,P|417:235|382:240,1,70.8750027036668,2|0,3:0|0:0,0:0:0:0:
503,177,183695,1,0,0:0:0:0:
424,337,183911,5,0,2:0:0:0:
383,341,184020,1,0,0:0:0:0:
343,345,184128,1,0,0:0:0:0:
265,368,184238,2,0,P|259:345|263:321,1,47.25,0|0,2:0|0:0,0:0:0:0:
282,242,184455,1,0,0:0:0:0:
292,160,184564,2,0,P|315:165|335:178,1,47.25,0|0,2:0|0:0,0:0:0:0:
411,205,184781,1,0,0:0:0:0:
432,128,184890,2,0,L|416:80,1,47.25,0|0,2:0|0:0,0:0:0:0:
338,62,185107,1,0,0:0:0:0:
259,80,185216,2,0,B|201:64|201:64|165:80,1,70.8750027036668,8|0,2:0|0:0,0:0:0:0:
191,251,185434,2,0,B|201:256|201:256|259:240,1,70.8750027036668,8|0,2:0|0:0,0:0:0:0:
292,160,185651,5,0,0:0:0:0:
212,160,185760,2,0,L|161:160,1,47.25,2|0,3:0|0:0,0:0:0:0:
117,223,185977,1,0,0:0:0:0:
129,301,186086,2,0,L|183:335,1,47.25,2|0,3:0|0:0,0:0:0:0:
249,326,186303,1,0,0:0:0:0:
329,326,186412,2,0,L|380:326,1,47.25,2|0,3:0|0:0,0:0:0:0:
424,263,186629,1,0,0:0:0:0:
410,183,186738,2,0,L|356:149,1,47.25,2|0,3:0|0:0,0:0:0:0:
293,65,186956,2,0,P|307:33|339:19,1,70.8750027036668,8|0,2:0|0:0,0:0:0:0:
458,138,187173,2,0,P|443:169|411:183,1,70.8750027036668,8|0,2:0|0:0,0:0:0:0:
348,233,187390,6,0,L|352:256,1,23.625,0|0,2:0|0:0,0:0:0:0:
319,242,187499,2,0,L|320:265,1,23.625
288,248,187608,2,0,L|287:271,1,23.625,2|0,3:0|0:0,0:0:0:0:
256,252,187716,2,0,L|253:275,1,23.625
224,256,187825,2,0,L|218:279,1,23.625,0|0,2:0|0:0,0:0:0:0:
192,260,187934,2,0,L|185:282,1,23.625
156,260,188042,2,0,L|147:281,1,23.625,2|0,3:0|0:0,0:0:0:0:
124,256,188151,2,0,L|114:277,1,23.625
96,248,188260,2,0,L|84:268,1,23.625,0|0,2:0|0:0,0:0:0:0:
76,232,188369,2,0,L|62:251,1,23.625
60,216,188477,2,0,L|44:233,1,23.625,2|0,3:0|0:0,0:0:0:0:
44,200,188586,2,0,L|27:216,1,23.625
0,138,188695,6,0,B|33:126|33:126|63:127,2,35.4375013518334,8|0|0,2:0|0:0|0:0,0:0:0:0:
160,184,188912,2,0,B|195:185|195:185|223:173,2,35.4375013518334,8|0|0,2:0|0:0|0:0,0:0:0:0:
308,104,189129,2,0,B|320:92|320:92|344:88,7,23.625,0|0|0|0|0|0|0|0,1:0|0:0|0:0|0:0|0:0|0:0|0:0|0:0,0:0:0:0:
403,81,189564,5,8,0:0:0:0:
403,95,189619,1,0,0:0:0:0:
403,109,189673,1,8,0:0:0:0:
403,123,189727,1,0,0:0:0:0:
393,133,189782,1,8,0:0:0:0:
384,142,189836,1,0,0:0:0:0:
375,151,189890,1,8,0:0:0:0:
365,161,189945,1,0,0:0:0:0:
299,216,189999,6,0,L|294:193,1,23.625,0|0,1:0|0:0,0:0:0:0:
315,230,190108,2,0,L|338:234,1,23.625,0|0,1:0|0:0,0:0:0:0:
290,225,190216,2,0,L|285:202,1,23.625,0|0,1:0|0:0,0:0:0:0:
305,240,190325,2,0,L|328:244,1,23.625,0|0,1:0|0:0,0:0:0:0:
274,251,190434,2,0,B|213:272|224:302|224:302|194:313|183:283,1,94.5,6|0,0:0|0:0,0:0:0:0:
0,192,190869,6,0,L|32:160,1,31.5,8|0,0:0|0:0,0:0:0:0:
108,76,191009,1,0,0:0:0:0:
224,24,191150,1,0,0:0:0:0:
350,24,191291,2,0,L|318:56,1,31.5,8|0,0:0|0:0,0:0:0:0:
242,140,191431,1,0,0:0:0:0:
126,192,191572,1,0,0:0:0:0:
242,140,191714,6,0,L|286:147,1,31.5,8|0,0:0|0:0,0:0:0:0:
398,162,191854,1,0,0:0:0:0:
461,270,191995,1,0,0:0:0:0:
345,322,192136,2,0,L|301:315,1,31.5,8|0,0:0|0:0,0:0:0:0:
189,300,192276,1,0,0:0:0:0:
126,192,192417,1,0,0:0:0:0:
189,300,192559,6,0,L|146:321,1,31.5,8|0,0:0|0:0,0:0:0:0:
44,361,192699,1,0,0:0:0:0:
1,242,192840,1,0,0:0:0:0:
33,120,192981,2,0,L|76:99,1,31.5,8|0,0:0|0:0,0:0:0:0:
178,59,193121,1,0,2:0:0:0:
221,178,193262,1,0,0:0:0:0:
178,59,193404,6,0,L|236:63,1,31.5,8|0,3:0|0:0,0:0:0:0:
337,67,193545,1,0,2:0:0:0:
209,61,193685,1,2,2:0:0:0:
337,67,193826,1,8,2:0:0:0:
441,136,193967,2,0,P|455:136|468:124,1,31.5,0|0,1:0|0:0,0:0:0:0:
465,250,194108,2,0,P|451:250|438:238,1,31.5,0|0,1:0|0:0,0:0:0:0:
392,357,194249,1,0,0:0:0:0:
324,250,194390,2,0,B|303:215|291:230|291:230|280:232|280:232|270:230,1,63,2|0,1:0|0:0,0:0:0:0:
148,252,194671,6,0,L|181:221,1,31.5,8|0,0:0|0:0,0:0:0:0:
259,138,194811,1,0,0:0:0:0:
377,91,194952,1,0,0:0:0:0:
259,138,195094,6,0,L|215:129,1,31.5,8|0,0:0|0:0,0:0:0:0:
105,111,195234,1,0,0:0:0:0:
45,2,195375,1,0,0:0:0:0:
105,111,195516,2,0,L|76:152,1,31.5,8|0,0:0|0:0,0:0:0:0:
8,236,195657,1,0,0:0:0:0:
76,340,195798,1,0,0:0:0:0:
202,340,195939,6,0,L|231:299,1,31.5,8|0,0:0|0:0,0:0:0:0:
299,215,196080,1,0,0:0:0:0:
231,111,196221,1,0,0:0:0:0:
356,97,196361,2,0,L|313:76,1,31.5,8|0,0:0|0:0,0:0:0:0:
211,36,196501,1,0,2:0:0:0:
167,156,196642,1,0,0:0:0:0:
211,36,196784,6,0,L|153:40,1,31.5,8|0,0:0|0:0,0:0:0:0:
52,44,196925,1,0,2:0:0:0:
179,38,197065,1,2,2:0:0:0:
52,44,197206,1,8,2:0:0:0:
60,168,197312,2,0,P|24:164|16:180,1,31.5,0|0,1:0|0:0,0:0:0:0:
124,250,197488,2,0,P|108:249|95:258,1,31.5,0|0,1:0|0:0,0:0:0:0:
221,234,197629,5,0,0:0:0:0:
347,234,197770,2,0,B|329:270|348:272|348:272|355:280|355:280|359:290,1,63,2|0,1:0|0:0,0:0:0:0:
221,202,198052,2,0,L|221:234,1,31.5,8|0,0:0|0:0,0:0:0:0:
347,202,198192,1,0,2:0:0:0:
473,202,198333,1,2,3:0:0:0:
347,186,198474,5,0,0:0:0:0:
223,207,198615,1,2,0:0:0:0:
99,229,198756,1,0,0:0:0:0:
341,154,198897,2,0,L|347:185,1,31.5,8|0,0:0|0:0,0:0:0:0:
217,176,199037,1,0,2:0:0:0:
93,198,199178,1,2,0:0:0:0:
215,183,199319,5,0,0:0:0:0:
333,140,199460,1,2,0:0:0:0:
452,97,199601,1,0,0:0:0:0:
204,153,199742,2,0,L|215:182,1,31.5,8|0,0:0|0:0,0:0:0:0:
323,110,199882,1,0,2:0:0:0:
441,67,200023,1,2,0:0:0:0:
307,99,200164,5,0,0:0:0:0:
198,162,200305,1,2,0:0:0:0:
89,225,200446,1,0,0:0:0:0:
291,72,200587,2,0,L|307:98,1,31.5,8|0,0:0|0:0,0:0:0:0:
182,135,200728,2,0,P|174:114|182:96,1,31.5,0|0,1:0|0:0,0:0:0:0:
73,198,200869,2,0,P|65:177|73:159,1,31.5,0|0,1:0|0:0,0:0:0:0:
290,92,201009,5,0,0:0:0:0:
194,173,201150,2,0,B|183:133|167:144|167:144|157:142|157:142|147:137,1,63,2|0,1:0|0:0,0:0:0:0:
311,116,201432,2,0,L|290:92,1,31.5,8|0,0:0|0:0,0:0:0:0:
215,197,201572,1,2,2:0:0:0:
118,278,201713,1,2,0:0:0:0:
216,204,201854,5,0,0:0:0:0:
297,108,201995,1,2,0:0:0:0:
378,11,202136,1,0,0:0:0:0:
241,225,202277,2,0,L|216:204,1,31.5,8|0,0:0|0:0,0:0:0:0:
322,128,202417,1,2,2:0:0:0:
403,32,202558,1,2,0:0:0:0:
310,118,202699,5,0,0:0:0:0:
247,227,202840,1,2,0:0:0:0:
184,336,202981,1,0,0:0:0:0:
337,134,203122,2,0,L|310:118,1,31.5,8|0,0:0|0:0,0:0:0:0:
274,243,203262,1,2,2:0:0:0:
211,352,203403,1,2,0:0:0:0:
283,239,203545,5,0,0:0:0:0:
326,120,203686,1,2,0:0:0:0:
369,2,203827,1,0,0:0:0:0:
313,250,203968,2,0,L|283:239,1,31.5,8|0,0:0|0:0,0:0:0:0:
356,131,204108,1,2,2:0:0:0:
399,13,204249,1,2,0:0:0:0:
344,115,204390,6,0,B|318:133|318:133|299:107|299:107|291:152|291:152|265:170|265:170|283:196|283:196|239:189|239:189|212:207|212:207|194:181|194:181|187:225|187:225|160:244|160:244|179:270|179:270,1,378,0|0,1:3|3:3,3:3:0:0:
326,321,207213,5,4,2:0:0:0:
232,316,207390,1,0,1:0:0:0:
93,307,207566,5,8,0:0:0:0:
138,321,207654,1,0,0:0:0:0:
185,324,207742,1,8,0:0:0:0:
232,315,207831,1,0,0:0:0:0:
280,309,207919,2,8,L|294:252,1,47.25,8|8,2:0|0:0,0:0:0:0:
411,130,208095,2,0,L|399:175,1,47.25,8|0,2:0|0:0,0:0:0:0:
488,288,208272,2,0,L|497:251,6,23.625,2|0|0|0|0|0|0,1:0|0:0|0:0|0:0|0:0|0:0|0:0,0:0:0:0:
398,175,208625,6,0,L|235:175,1,118.125,2|0,0:0|0:0,0:0:0:0:
142,23,208801,1,0,0:0:0:0:
24,23,208978,2,0,L|176:23,1,118.125,4|0,0:0|0:0,0:0:0:0:
279,175,209154,1,0,0:0:0:0:
398,175,209331,2,0,L|235:175,1,118.125,2|0,0:0|0:0,0:0:0:0:
145,326,209507,1,0,0:0:0:0:
26,327,209684,2,0,B|145:327|145:327|209:175|209:175|337:175,1,354.375,8|0,0:0|0:0,0:0:0:0:
511,179,210037,6,0,P|455:162|398:176,1,118.125,2|0,2:0|0:0,0:0:0:0:
511,341,210213,1,0,0:0:0:0:
398,175,210390,2,0,P|342:191|285:177,1,118.125,4|0,0:0|0:0,0:0:0:0:
398,12,210566,1,0,0:0:0:0:
285,177,210742,2,0,P|229:160|172:174,1,118.125,2|0,2:0|0:0,0:0:0:0:
285,338,210918,1,0,0:0:0:0:
170,45,211095,2,0,P|43:113|174:172,1,354.375,4|0,0:0|0:0,0:0:0:0:
123,111,211448,5,0,1:0:0:0:
314,46,211625,1,0,0:0:0:0:
472,168,211801,2,0,B|122:110,1,354.375,4|0,0:0|0:0,0:0:0:0:
122,225,212154,1,0,1:0:0:0:
314,290,212331,1,0,0:0:0:0:
472,168,212507,2,0,B|122:225,1,354.375,4|0,0:0|0:0,0:0:0:0:
62,170,212860,6,0,B|347:170|347:170|251:127,1,354.375,8|0,2:0|0:0,0:0:0:0:
505,170,213213,2,0,B|220:170|220:170|316:127,1,354.375,4|0,0:0|0:0,0:0:0:0:
62,170,213566,2,0,B|347:170|347:170|251:213,1,354.375,8|0,2:0|0:0,0:0:0:0:
504,169,213919,2,0,P|379:71|283:198,1,354.375,14|0,0:0|0:0,0:0:0:0:
402,352,214272,6,0,L|394:232,1,118.125,2|0,0:0|0:0,0:0:0:0:
194,248,214448,1,0,0:0:0:0:
207,366,214625,2,0,L|195:249,1,118.125,4|0,0:0|0:0,0:0:0:0:
381,116,214801,1,0,0:0:0:0:
394,234,214978,2,0,L|382:117,1,118.125,2|0,0:0|0:0,0:0:0:0:
186,130,215154,1,0,0:0:0:0:
194,248,215331,2,0,B|186:129|186:129|275:58|275:58|420:137,1,354.375,4|0,0:0|0:0,0:0:0:0:
298,294,215684,6,0,L|285:161,1,118.125,2|0,2:0|0:0,0:0:0:0:
86,176,215860,1,0,0:0:0:0:
275,58,216037,2,0,L|288:191,1,118.125,4|0,0:0|0:0,0:0:0:0:
487,176,216213,1,0,0:0:0:0:
298,294,216390,2,0,L|285:161,1,118.125,2|0,2:0|0:0,0:0:0:0:
86,176,216566,1,0,0:0:0:0:
275,58,216742,2,0,B|287:176|287:176|361:128|361:128|425:184|377:272,1,354.375,4|0,0:0|0:0,0:0:0:0:
298,294,217095,5,0,1:0:0:0:
131,178,217272,1,0,0:0:0:0:
200,2,217448,2,0,P|177:171|297:294,1,354.375,4|0,0:0|3:0,3:0:0:0:
345,360,217801,1,0,1:0:0:0:
512,244,217978,1,0,0:0:0:0:
443,67,218154,2,0,P|465:236|345:359,1,354.375,4|0,3:0|3:0,3:0:0:0:
145,360,218507,5,4,2:0:0:0:
289,220,218684,1,0,0:0:0:0:
144,81,218860,1,8,0:0:0:0:
160,63,218948,1,0,0:0:0:0:
170,41,219037,1,2,0:0:0:0:
185,24,219125,1,0,0:0:0:0:
244,23,219213,1,8,0:0:0:0:
285,64,219301,1,0,0:0:0:0:
285,147,219390,1,2,0:0:0:0:
210,184,219478,1,0,0:0:0:0:
193,167,219566,5,0,1:0:0:0:
285,147,219742,1,0,1:0:0:0:
232,209,219919,6,0,L|114:209,1,118.125,0|0,1:0|0:0,0:0:0:0:
488,361,220095,1,0,0:0:0:0:
369,361,220272,2,0,L|488:361,1,118.125,4|0,0:0|0:0,0:0:0:0:
114,209,220448,1,0,0:0:0:0:
232,209,220625,2,0,L|114:209,1,118.125,0|0,1:0|0:0,0:0:0:0:
366,58,220801,1,0,0:0:0:0:
485,57,220978,2,0,B|366:57|366:57|302:209|302:209|174:209,1,354.375,4|0,0:0|0:0,0:0:0:0:
113,208,221331,6,0,P|56:221|1:205,1,118.125,2|0,2:0|0:0,0:0:0:0:
114,40,221507,1,0,0:0:0:0:
226,206,221684,2,0,P|170:192|114:209,1,118.125,4|0,0:0|0:0,0:0:0:0:
227,373,221860,1,0,0:0:0:0:
339,210,222036,2,0,P|282:223|227:207,1,118.125,2|0,2:0|0:0,0:0:0:0:
340,42,222212,1,0,0:0:0:0:
342,339,222389,2,0,P|469:271|338:212,1,354.375,4|0,0:0|0:0,0:0:0:0:
390,274,222742,5,2,0:0:0:0:
198,338,222919,1,0,0:0:0:0:
390,274,223095,2,0,B|40:216,1,354.375,4|0,0:0|0:0,0:0:0:0:
390,159,223448,1,2,0:0:0:0:
198,94,223625,1,0,0:0:0:0:
390,159,223801,2,0,B|40:216,1,354.375,4|0,0:0|0:0,0:0:0:0:
228,242,224154,6,0,B|165:214|165:214|450:214,1,354.375,8|0,2:0|0:0,0:0:0:0:
228,242,224507,2,0,B|292:214|292:214|7:214,1,354.375,4|0,0:0|0:0,0:0:0:0:
228,185,224860,2,0,B|165:214|165:214|450:214,1,354.375,8|0,2:0|0:0,0:0:0:0:
228,185,225213,2,0,P|133:312|8:215,1,354.375,14|0,0:0|0:0,0:0:0:0:
117,149,225566,6,0,L|109:31,1,118.125,2|0,0:0|0:0,0:0:0:0:
304,17,225742,1,0,0:0:0:0:
317,135,225919,2,0,L|305:18,1,118.125,4|0,0:0|0:0,0:0:0:0:
117,149,226095,1,0,0:0:0:0:
130,267,226272,2,0,L|118:150,1,118.125,2|0,0:0|0:0,0:0:0:0:
325,253,226448,1,0,0:0:0:0:
317,135,226625,2,0,B|325:254|325:254|236:325|236:325|91:246,1,354.375,4|0,0:0|0:0,0:0:0:0:
225,207,226978,6,0,L|214:90,1,118.125,2|0,2:0|0:0,0:0:0:0:
426,208,227154,1,0,0:0:0:0:
225,207,227331,2,0,L|236:324,1,118.125,4|0,0:0|0:0,0:0:0:0:
25,208,227507,1,0,0:0:0:0:
225,207,227684,2,0,L|214:90,1,118.125,2|0,2:0|0:0,0:0:0:0:
426,208,227860,1,0,0:0:0:0:
237,326,228036,2,0,B|225:208|225:208|151:256|151:256|87:200|135:112,1,354.375,4|0,0:0|0:0,0:0:0:0:
214,90,228389,5,0,1:0:0:0:
381,206,228566,1,0,0:0:0:0:
214,90,228742,2,0,P|333:212|310:381,1,354.375,4|0,3:0|3:0,3:0:0:0:
167,24,229095,1,0,1:0:0:0:
0,140,229272,1,0,0:0:0:0:
167,24,229448,2,0,P|47:146|68:316,1,354.375,4|0,3:0|3:0,3:0:0:0:
367,24,229801,5,4,2:0:0:0:
223,164,229978,1,0,0:0:0:0:
368,303,230154,1,8,0:0:0:0:
352,321,230242,1,0,0:0:0:0:
342,343,230331,1,2,0:0:0:0:
327,360,230419,1,0,0:0:0:0:
268,361,230507,1,8,0:0:0:0:
227,320,230595,1,0,0:0:0:0:
227,237,230684,1,2,0:0:0:0:
167,178,230772,1,0,0:0:0:0:
152,178,230860,5,0,1:0:0:0:
65,182,231036,1,0,1:0:0:0:
67,97,231213,6,0,B|116:97|116:97|163:77|163:77|205:77,1,141.75,8|0,0:0|0:0,0:0:0:0:
284,11,231555,2,0,P|325:73|271:153,1,165.375001577139,4|0,0:0|0:0,0:0:0:0:
37,333,231898,2,0,B|48:277|37:216|37:216|52:254|93:275,1,184.27499156456,4|0,1:1|0:0,0:0:0:0:
121,193,232241,2,0,B|150:198|150:198|175:187|175:187|210:188,1,82.6875007885695,8|0,2:0|0:0,0:0:0:0:
269,265,232413,2,0,B|239:260|239:260|215:271|215:271|180:270,1,82.6875007885695,8|0,2:0|0:0,0:0:0:0:
62,131,232584,6,0,B|61:100|61:100|48:76|48:76|59:51|59:51|57:6,2,118.125,8|0|4,0:0|0:0|0:0,0:0:0:0:
60,333,233098,2,0,P|53:314|78:326,1,59.0625,2|0,1:0|0:0,0:0:0:0:
32,215,233270,2,0,B|65:200|108:216|108:216|128:204|128:204|168:228|205:208,1,177.1875,4|0,0:0|0:0,0:0:0:0:
314,199,233613,1,4,0:0:0:0:
141,384,233784,2,0,B|125:336|125:336|141:288,1,94.5,0|0,0:0|0:0,0:0:0:0:
387,332,233955,6,0,B|260:332|260:332|244:338|244:338|191:338,1,177.1875,8|0,0:0|0:0,0:0:0:0:
200,210,234298,2,0,P|263:272|183:338,1,189,4|0,0:0|0:0,0:0:0:0:
47,143,234641,2,0,B|7:127|7:127|82:147|162:126,1,184.27499156456,4|0,0:0|0:0,0:0:0:0:
247,40,234984,2,0,B|240:86|240:86|254:126,1,82.6875007885695,8|0,2:0|0:0,0:0:0:0:
205,279,235155,2,0,B|212:233|212:233|198:193,1,82.6875007885695,8|0,2:0|0:0,0:0:0:0:
80,47,235327,5,8,0:0:0:0:
348,38,235498,2,0,P|343:73|356:129,1,82.6875007885695,2|0,2:0|0:0,0:0:0:0:
342,32,235670,2,0,P|337:67|350:123,1,82.6875007885695,2|0,2:0|0:0,0:0:0:0:
336,25,235841,1,2,2:0:0:0:
431,308,236013,2,0,B|508:329|487:217|401:220|372:338|246:268,1,283.5,4|0,0:0|0:0,0:0:0:0:
150,175,236355,2,0,B|73:154|94:266|180:263|209:145|335:215,1,283.5,2|0,1:0|0:0,0:0:0:0:
431,308,236698,6,0,B|463:225|463:225|423:132,1,184.27499156456,2|0,1:0|0:0,0:0:0:0:
351,27,237041,2,0,P|432:79|423:140,1,165.375001577139,4|0,0:0|0:0,0:0:0:0:
351,340,237384,2,0,B|315:332|280:341|280:341|231:315|231:315|199:333|139:320,1,198.449993943787,4|0,0:0|0:0,0:0:0:0:
73,356,237727,2,0,B|66:310|66:310|80:270,1,82.6875007885695,8|0,2:0|0:0,0:0:0:0:
189,162,237898,2,0,B|196:208|196:208|182:248,1,82.6875007885695,8|0,2:0|0:0,0:0:0:0:
20,166,238070,5,8,0:0:0:0:
315,234,238241,2,0,P|248:245|164:238,1,132.299995962525,0|4,0:0|0:0,0:0:0:0:
393,71,238584,2,0,P|364:80|395:88,1,66.1499979812623,2|0,1:0|0:0,0:0:0:0:
503,63,238755,2,0,B|463:36|463:36|470:102|470:102|460:131|460:131|474:161|474:161|474:186,1,198.449993943787,4|0,0:0|0:0,0:0:0:0:
478,270,239098,1,0,0:0:0:0:
298,60,239270,2,0,L|402:71,1,94.5,0|0,0:0|0:0,0:0:0:0:
502,349,239441,6,0,P|450:371|388:351,1,103.950003172302,4|0,2:1|0:0,0:0:0:0:
260,212,239784,1,2,0:0:0:0:
443,292,239955,1,2,0:0:0:0:
207,381,240127,2,0,B|191:333|191:333|208:259,1,103.950003172302,4|0,1:0|0:0,0:0:0:0:
343,129,240470,1,2,0:0:0:0:
404,361,240641,1,2,0:0:0:0:
206,203,240813,6,0,P|155:216|122:273,1,103.950003172302,4|0,2:1|0:0,0:0:0:0:
310,356,241155,1,2,0:0:0:0:
361,164,241327,1,2,0:0:0:0:
125,255,241498,1,4,1:0:0:0:
305,265,241670,1,2,0:0:0:0:
56,146,241841,1,4,1:0:0:0:
236,384,242013,1,4,1:0:0:0:
271,122,242184,6,0,P|205:118|136:128,1,122.849994376374,2|0,0:0|0:0,0:0:0:0:
277,116,242527,2,0,P|211:112|142:122,1,122.849994376374,2|0,0:0|0:0,0:0:0:0:
283,110,242870,2,0,P|217:106|148:116,1,122.849994376374,2|0,0:0|0:0,0:0:0:0:
289,104,243213,2,0,P|223:100|154:110,1,122.849994376374,2|0,0:0|0:0,0:0:0:0:
295,98,243555,2,0,P|229:94|160:104,1,122.849994376374,2|0,0:0|0:0,0:0:0:0:
301,92,243898,2,0,P|235:88|166:98,1,122.849994376374,2|0,0:0|0:0,0:0:0:0:
307,86,244241,6,0,P|265:81|230:84,1,61.4249971881868,4|0,0:0|0:0,0:0:0:0:
313,80,244413,2,0,P|271:75|236:78,1,61.4249971881868,4|0,0:0|0:0,0:0:0:0:
21,234,244584,1,4,1:0:0:0:
253,304,244927,6,0,B|276:236|276:236|250:164,1,141.750005407334,2|0,3:0|0:0,0:0:0:0:
259,310,245270,2,0,B|282:242|282:242|256:170,1,141.750005407334,2|0,3:0|0:0,0:0:0:0:
265,316,245613,2,0,B|288:248|288:248|262:176,1,141.750005407334,2|0,3:0|0:0,0:0:0:0:
271,322,245955,2,0,B|294:254|294:254|268:182,1,141.750005407334,2|0,3:0|0:0,0:0:0:0:
277,328,246298,6,0,B|300:260,1,70.8750027036668,8|0,0:0|0:0,0:0:0:0:
283,334,246470,2,0,B|306:266,1,70.8750027036668,4|0,0:0|0:0,0:0:0:0:
289,340,246641,2,0,B|312:272,1,70.8750027036668,8|0,2:0|0:0,0:0:0:0:
295,346,246813,2,0,B|318:278,1,70.8750027036668,8|0,0:0|0:0,0:0:0:0:
301,352,246984,2,0,B|324:284|324:284|298:212,1,141.750005407334,4|0,0:0|0:0,0:0:0:0:
254,153,247241,1,0,0:0:0:0:
203,332,247327,1,4,1:0:0:0:
457,187,247670,6,0,B|398:208|347:214|313:189|324:111|392:130,1,212.625008111,2|0,3:0|0:0,0:0:0:0:
463,193,248013,2,0,B|404:214|353:220|319:195|330:117|398:136,1,212.625008111,2|0,3:0|0:0,0:0:0:0:
469,199,248355,2,0,B|410:220|359:226|325:201|336:123|404:142,1,212.625008111,2|0,3:0|0:0,0:0:0:0:
475,205,248698,2,0,B|416:226|365:232|331:207|342:129|410:148,1,212.625008111,2|0,3:0|0:0,0:0:0:0:
481,211,249041,2,0,B|422:232|371:238|337:213|348:135|416:154,1,212.625008111,2|0,3:0|0:0,0:0:0:0:
487,217,249384,2,0,B|428:238|377:244|343:219|354:141|422:160,1,212.625008111,2|0,3:0|0:0,0:0:0:0:
493,223,249727,2,0,P|457:235|376:232,1,106.3125040555,4|0,0:0|0:0,0:0:0:0:
499,229,249898,2,0,P|463:241|382:238,1,106.3125040555,4|0,0:0|0:0,0:0:0:0:
155,98,250070,1,4,1:0:0:0:
84,28,250413,6,0,P|68:87|88:177,1,132.299995962525,10|0,2:0|0:0,0:0:0:0:
223,361,250755,1,4,1:0:0:0:
245,109,250927,1,0,0:0:0:0:
17,217,251098,2,0,P|80:236|144:217,1,132.299995962525,8|0,0:0|0:0,0:0:0:0:
268,29,251441,1,4,1:0:0:0:
366,232,251613,1,0,0:0:0:0:
118,104,251784,6,0,P|180:90|245:109,1,132.299995962525,8|0,0:0|0:0,0:0:0:0:
389,362,252127,1,4,1:0:0:0:
180,168,252298,1,2,0:0:0:0:
459,202,252470,1,0,0:0:0:0:
213,339,252641,1,2,0:0:0:0:
334,83,252813,1,0,0:0:0:0:
389,362,252984,1,2,0:0:0:0:
295,167,253155,5,12,2:0:0:0:
256,192,261384,12,0,263955,0:0:0:0:
220,107,264127,5,0,0:0:0:0:
111,242,264298,1,0,0:0:0:0:
108,245,264384,1,0,0:0:0:0:
105,248,264470,1,0,0:0:0:0:
226,375,264641,1,0,0:0:0:0:
301,245,264813,2,0,P|296:189|278:148,1,94.5,2|0,0:0|0:0,0:0:0:0:
165,53,265155,2,0,L|58:58,1,94.5,2|0,0:0|0:0,0:0:0:0:
67,60,265413,1,0,0:0:0:0:
64,63,265498,5,0,0:0:0:0:
190,243,265670,1,0,0:0:0:0:
293,46,265841,2,0,P|339:37|391:43,1,94.5,2|0,0:0|0:0,0:0:0:0:
407,56,266098,1,0,0:0:0:0:
419,81,266184,1,0,2:0:0:0:
420,108,266270,1,0,0:0:0:0:
416,136,266355,1,0,2:0:0:0:
214,120,266527,1,0,0:0:0:0:
311,281,266698,1,0,0:0:0:0:
311,281,266784,1,0,0:0:0:0:
311,281,266870,6,0,L|405:275,1,94.5,2|0,0:0|0:0,0:0:0:0:
223,209,267213,1,0,0:0:0:0:
459,87,267384,1,2,2:0:0:0:
464,114,267470,1,0,0:0:0:0:
469,141,267555,1,0,0:0:0:0:
473,167,267641,1,0,0:0:0:0:
478,194,267727,1,2,2:0:0:0:
307,62,267898,1,2,0:0:0:0:
311,281,268070,1,0,0:0:0:0:
311,281,268155,1,0,0:0:0:0:
311,281,268241,6,0,L|199:287,1,94.5,2|0,0:0|0:0,0:0:0:0:
29,209,268584,2,0,P|17:175|29:115,1,94.5,2|0,0:0|0:0,0:0:0:0:
44,99,268841,1,0,0:0:0:0:
68,84,268927,1,0,0:0:0:0:
94,76,269013,1,0,0:0:0:0:
122,72,269098,2,0,L|194:66,1,47.25,2|0,2:0|0:0,0:0:0:0:
310,58,269270,1,0,0:0:0:0:
100,160,269441,2,0,L|160:155,1,47.25,2|0,2:0|0:0,0:0:0:0:
297,143,269613,5,0,0:0:0:0:
175,318,269784,1,0,0:0:0:0:
326,226,269955,2,0,P|391:221|423:230,1,94.5,2|0,0:0|0:0,0:0:0:0:
446,255,270213,1,0,0:0:0:0:
464,282,270298,1,0,2:0:0:0:
476,313,270384,1,0,0:0:0:0:
482,346,270470,1,0,2:0:0:0:
257,277,270641,2,0,P|241:223|252:176,1,94.5,2|0,0:0|0:0,0:0:0:0:
260,172,270898,1,0,0:0:0:0:
276,161,270984,5,0,0:0:0:0:
107,127,271155,1,0,0:0:0:0:
218,352,271327,2,0,P|262:363|313:347,1,94.5,2|0,0:0|0:0,0:0:0:0:
336,323,271584,1,0,0:0:0:0:
350,291,271670,1,0,2:0:0:0:
358,258,271755,1,0,0:0:0:0:
360,223,271841,1,0,2:0:0:0:
263,89,272013,1,0,0:0:0:0:
130,240,272184,1,0,0:0:0:0:
130,240,272270,1,0,0:0:0:0:
130,240,272355,6,0,L|120:137,1,94.5,2|0,0:0|0:0,0:0:0:0:
287,21,272698,2,0,P|335:11|383:20,1,94.5,2|0,0:0|0:0,0:0:0:0:
407,37,272955,1,0,0:0:0:0:
430,66,273041,1,0,2:0:0:0:
447,101,273127,1,0,0:0:0:0:
455,139,273213,1,0,2:0:0:0:
313,235,273384,2,0,L|214:231,1,94.5,2|0,0:0|0:0,0:0:0:0:
206,223,273641,1,0,0:0:0:0:
195,213,273727,5,0,0:0:0:0:
353,105,273898,1,0,0:0:0:0:
362,371,274070,1,0,0:0:0:0:
68,310,274241,1,0,2:0:0:0:
50,256,274327,1,0,0:0:0:0:
65,201,274413,1,0,2:0:0:0:
113,172,274498,1,0,0:0:0:0:
167,188,274584,1,0,2:0:0:0:
202,232,274670,1,0,0:0:0:0:
245,268,274755,5,2,2:0:0:0:
312,291,274841,1,0,0:0:0:0:
378,266,274927,1,2,2:0:0:0:
424,211,275013,1,0,0:0:0:0:
435,141,275098,6,0,P|392:144|350:124,1,80.3250015320778,0|0,1:0|0:0,0:0:0:0:
277,208,275441,1,0,0:0:0:0:
475,58,275613,2,0,P|432:55|390:75,1,80.3250015320778,0|0,1:0|0:0,0:0:0:0:
212,138,275955,5,0,2:0:0:0:
312,128,276127,1,0,2:0:0:0:
127,86,276298,1,0,2:0:0:0:
393,147,276470,6,0,P|402:90|389:45,1,80.3250015320778,0|0,1:0|0:0,0:0:0:0:
212,138,276813,1,0,0:0:0:0:
398,68,276984,2,0,P|402:108|393:147,1,80.3250015320778,0|0,1:0|0:0,0:0:0:0:
280,289,277327,5,0,2:0:0:0:
411,304,277498,1,0,2:0:0:0:
211,253,277670,2,0,P|203:282|211:331,1,56.6999982696534,2|0,2:0|0:0,0:0:0:0:
359,217,277841,6,0,P|359:164|347:133,1,80.3250015320778,0|0,1:0|0:0,0:0:0:0:
449,270,278184,1,0,0:0:0:0:
284,184,278355,2,0,P|245:172|205:175,1,80.3250015320778,0|0,1:0|0:0,0:0:0:0:
395,68,278698,5,0,2:0:0:0:
278,99,278870,1,0,2:0:0:0:
480,3,279041,6,0,B|477:57|477:57|480:64|480:64|476:115|476:115|467:115|467:115|476:118|476:118|472:173|472:173|468:181|468:181|465:249,1,236.25,2|0,1:0|0:0,0:0:0:0:
325,321,279555,5,8,2:0:0:0:
237,164,279727,1,0,2:0:0:0:
379,266,279898,2,0,P|326:242|273:262,1,94.5
136,291,280241,1,8,2:0:0:0:
234,332,280413,1,0,2:0:0:0:
67,331,280584,6,0,P|57:283|82:231,1,94.5,0|0,1:0|0:0,0:0:0:0:
175,114,280927,1,0,0:0:0:0:
136,289,281098,2,0,P|172:256|230:251,1,94.5,0|0,1:0|0:0,0:0:0:0:
350,171,281441,5,0,2:0:0:0:
262,101,281613,1,0,2:0:0:0:
413,264,281784,1,0,2:0:0:0:
478,123,281955,6,0,P|487:71|466:20,1,94.5,0|0,1:0|0:0,0:0:0:0:
338,91,282298,1,0,0:0:0:0:
474,32,282470,2,0,P|487:77|478:123,1,94.5,0|0,1:0|0:0,0:0:0:0:
362,257,282813,5,0,2:0:0:0:
290,148,282984,1,0,2:0:0:0:
438,256,283155,2,0,P|434:285|418:316,1,47.25,2|0,2:0|0:0,0:0:0:0:
290,148,283327,6,0,P|243:138|192:147,1,94.5,0|0,1:0|0:0,0:0:0:0:
288,279,283670,1,0,0:0:0:0:
197,144,283841,2,0,P|244:138|290:148,1,94.5,0|0,1:0|0:0,0:0:0:0:
94,249,284184,5,0,2:0:0:0:
241,215,284355,1,0,2:0:0:0:
4,308,284527,6,0,B|4:253|4:253|8:247|8:247|7:195|7:195|-1:195|-1:195|8:193|8:193|8:137|8:137|4:129|4:129|6:61,1,236.25,2|0,1:0|0:0,0:0:0:0:
158,87,285041,5,8,2:0:0:0:
133,171,285213,1,0,0:0:0:0:
227,47,285384,5,8,2:0:0:0:
83,228,285555,1,0,0:0:0:0:
310,27,285727,5,8,2:0:0:0:
3,200,285898,1,0,0:0:0:0:
295,177,286070,6,0,P|333:164|396:175,1,94.5,0|0,1:0|0:0,0:0:0:0:
227,224,286413,2,0,P|212:180|233:119,2,94.5,0|0|0,1:0|0:0|0:0,0:0:0:0:
348,299,286927,5,0,2:0:0:0:
252,337,287098,1,0,2:0:0:0:
469,272,287270,1,0,2:0:0:0:
277,72,287441,6,0,P|239:59|176:70,1,94.5,0|0,1:0|0:0,0:0:0:0:
345,119,287784,2,0,P|360:75|339:14,2,94.5,0|0|0,1:0|0:0|0:0,0:0:0:0:
188,236,288298,5,0,2:0:0:0:
266,178,288470,1,0,2:0:0:0:
90,304,288641,2,0,P|75:273|76:236,1,47.25,2|0,2:0|0:0,0:0:0:0:
263,272,288813,6,0,P|302:278|363:258,1,94.5,0|0,1:0|0:0,0:0:0:0:
188,236,289156,2,0,P|180:281|210:338,2,94.5,0|0|0,1:0|0:0|0:0,0:0:0:0:
379,97,289670,5,0,2:0:0:0:
303,203,289841,1,0,2:0:0:0:
430,27,290013,6,0,B|424:5|424:5|383:8|383:8|361:25|361:25|342:25|342:25|341:18|341:18|341:25|341:25|318:25|318:25|297:9|297:9|254:14|254:14|249:51,1,236.25,2|0,1:0|0:0,0:0:0:0:
202,237,290527,5,0,2:0:0:0:
219,163,290698,1,0,2:0:0:0:
175,337,290870,6,0,L|204:227,1,103.950003172302,0|0,1:0|0:0,0:0:0:0:
241,82,291213,5,0,2:0:0:0:
175,337,291384,1,0,2:0:0:0:
99,151,291555,6,0,P|61:138|-2:149,1,94.5,0|0,1:0|0:0,0:0:0:0:
167,198,291898,2,0,P|182:154|161:93,2,94.5,0|0|0,1:0|0:0|0:0,0:0:0:0:
310,266,292413,5,0,2:0:0:0:
189,275,292584,1,0,2:0:0:0:
400,218,292755,1,0,2:0:0:0:
112,303,292927,6,0,P|71:305|13:278,1,94.5,0|0,1:0|0:0,0:0:0:0:
189,275,293270,2,0,P|192:321|156:374,2,94.5,0|0|0,1:0|0:0|0:0,0:0:0:0:
90,104,293784,5,0,2:0:0:0:
154,183,293955,1,0,2:0:0:0:
30,33,294127,2,0,P|15:48|1:78,1,47.25,2|0,2:0|0:0,0:0:0:0:
221,133,294298,6,0,P|260:141|321:124,1,94.5,0|0,1:0|0:0,0:0:0:0:
149,93,294641,2,0,P|138:138|165:196,2,94.5,0|0|0,1:0|0:0|0:0,0:0:0:0:
348,48,295155,5,0,2:0:0:0:
240,73,295327,1,0,2:0:0:0:
453,23,295498,6,0,B|475:29|475:29|472:70|472:70|455:92|455:92|455:111|455:111|462:112|462:112|455:112|455:112|455:135|455:135|471:156|471:156|466:199|466:199|429:203,1,236.25,2|0,1:0|0:0,0:0:0:0:
238,130,296013,5,8,2:0:0:0:
327,152,296184,1,0,2:0:0:0:
161,150,296355,5,8,2:0:0:0:
400,120,296527,1,0,2:0:0:0:
101,109,296698,5,8,2:0:0:0:
473,146,296870,1,0,2:0:0:0:
212,283,297041,6,0,P|166:293|118:271,1,85.0499974044801,0|0,1:0|0:0,0:0:0:0:
280,246,297384,1,0,0:0:0:0:
280,246,297555,2,0,P|289:292|268:340,1,85.0499974044801,0|0,1:0|0:0,0:0:0:0:
172,144,297898,5,0,2:0:0:0:
277,146,298070,1,0,2:0:0:0:
166,155,298241,1,0,2:0:0:0:
302,52,298413,6,0,P|348:42|396:64,1,85.0499974044801,0|0,1:0|0:0,0:0:0:0:
234,89,298755,1,0,0:0:0:0:
234,89,298927,2,0,P|224:43|246:-5,1,85.0499974044801,0|0,1:0|0:0,0:0:0:0:
340,191,299270,5,0,2:0:0:0:
240,189,299441,1,0,0:0:0:0:
346,204,299613,1,0,2:0:0:0:
243,320,299784,6,0,P|197:330|149:308,1,75.6,0|0,1:0|0:0,0:0:0:0:
309,375,300121,1,0,0:0:0:0:
309,375,300289,2,0,P|355:385|403:363,1,75.6,0|0,1:0|0:0,0:0:0:0:
444,253,300626,5,0,2:0:0:0:
350,255,300795,1,0,0:0:0:0:
450,241,300963,1,0,2:0:0:0:
351,102,301132,6,0,P|310:97|276:106,1,66.1499979812623,0|0,1:0|0:0,0:0:0:0:
423,138,301469,1,0,0:0:0:0:
423,138,301637,2,0,P|428:97|419:63,1,66.1499979812623,0|0,1:0|0:0,0:0:0:0:
263,19,301975,5,0,2:0:0:0:
348,20,302143,1,0,0:0:0:0:
258,7,302312,1,0,2:0:0:0:
311,127,302480,6,0,P|280:136|241:129,1,61.4249971881868,0|0,1:0|0:0,0:0:0:0:
112,126,302817,1,0,0:0:0:0:
112,126,302986,2,0,P|143:135|182:128,1,61.4249971881868,0|0,1:0|0:0,0:0:0:0:
192,28,303323,5,0,2:0:0:0:
115,28,303491,1,0,0:0:0:0:
196,17,303660,1,0,2:0:0:0:
246,107,303828,6,0,P|250:141|245:171,1,51.9750015861512,0|0,1:0|0:0,0:0:0:0:
318,206,304166,1,0,0:0:0:0:
318,206,304334,2,0,P|290:226|262:237,1,51.9750015861512,0|0,1:0|0:0,0:0:0:0:
140,165,304671,5,0,2:0:0:0:
194,153,304840,1,0,0:0:0:0:
119,159,305008,1,0,2:0:0:0:
207,163,305177,5,0,0:0:0:0:
256,192,305345,12,0,307621,0:0:0:0:
85,343,307785,5,4,0:0:0:0:
123,62,308109,1,0,0:0:0:0:
248,327,308432,5,0,0:0:0:0:
222,48,308756,1,0,0:0:0:0:
86,282,309081,5,4,0:0:0:0:
366,235,309405,1,0,0:0:0:0:
104,117,309729,5,0,0:0:0:0:
307,313,310054,1,0,0:0:0:0:
325,105,310378,5,4,0:0:0:0:
178,347,310693,1,0,0:0:0:0:
480,232,311009,5,0,0:0:0:0:
201,201,311325,1,0,0:0:0:0:
470,142,311641,5,4,0:0:0:0:
192,111,311956,1,0,0:0:0:0:
461,52,312272,5,0,0:0:0:0:
182,21,312588,1,0,0:0:0:0:
383,318,312898,5,4,2:0:0:0:
425,86,313051,1,0,0:0:0:0:
231,314,313205,5,8,0:0:0:0:
325,97,313359,1,0,0:0:0:0:
106,300,313513,5,4,0:0:0:0:
324,209,313667,1,0,0:0:0:0:
37,122,313821,5,8,0:0:0:0:
244,232,313974,1,0,0:0:0:0:
225,29,314128,5,4,2:0:0:0:
116,287,314282,1,0,0:0:0:0:
300,146,314436,5,8,0:0:0:0:
63,48,314590,1,0,0:0:0:0:
228,253,314744,5,4,0:0:0:0:
159,11,314898,1,0,0:0:0:0:
37,162,315051,5,8,0:0:0:0:
279,81,315205,1,0,0:0:0:0:
247,326,315356,5,2,2:0:0:0:
210,334,315431,1,0,0:0:0:0:
172,333,315506,1,0,2:0:0:0:
137,317,315581,1,0,0:0:0:0:
110,289,315656,5,2,2:0:0:0:
100,252,315731,1,0,0:0:0:0:
101,214,315806,1,0,2:0:0:0:
118,180,315881,1,0,0:0:0:0:
146,155,315956,5,2,2:0:0:0:
181,142,316031,1,0,0:0:0:0:
218,142,316106,1,0,2:0:0:0:
251,159,316181,1,0,0:0:0:0:
281,181,316256,5,2,2:0:0:0:
317,192,316331,1,0,0:0:0:0:
354,195,316406,1,0,2:0:0:0:
391,187,316481,1,0,0:0:0:0:
421,164,316556,5,0,1:0:0:0:
337,32,316706,1,0,1:0:0:0:
322,67,316781,1,0,1:0:0:0:
335,112,316856,5,0,2:0:0:0:
335,112,317006,1,0,2:0:0:0:
335,112,317156,1,0,2:0:0:0:
337,32,317306,5,0,0:0:0:0:
335,112,317456,1,0,0:0:0:0:
317,192,317606,1,0,0:0:0:0:
184,100,317756,6,0,L|116:94,1,66.15,8|0,2:0|0:0,0:0:0:0:
221,183,318356,6,0,P|211:137|183:99,1,94.5,2|0,0:0|0:0,0:0:0:0:
221,183,318581,1,0,0:0:0:0:
183,99,318656,2,0,L|256:80,1,47.25,2|0,1:0|0:0,0:0:0:0:
384,48,318806,2,0,L|419:39,3,23.625,4|0|0|0,0:0|0:0|0:0|0:0,0:0:0:0:
447,289,319106,5,0,1:0:0:0:
309,206,319256,1,0,2:0:0:0:
427,168,319406,1,0,1:0:0:0:
339,302,319556,6,0,B|273:311,1,66.15,8|0,2:0|0:0,0:0:0:0:
84,310,320156,2,0,B|18:301,1,66.15,8|0,2:0|0:0,0:0:0:0:
84,310,320756,6,0,P|130:281|155:228,1,94.5,2|0,0:0|0:0,0:0:0:0:
84,310,320981,1,0,0:0:0:0:
150,247,321056,2,0,B|215:238,1,47.25,2|0,1:0|0:0,0:0:0:0:
352,216,321206,2,0,L|395:208,3,23.625,4|0|0|0,0:0|0:0|0:0|0:0,0:0:0:0:
93,180,321506,5,0,1:0:0:0:
261,57,321656,1,0,2:0:0:0:
230,263,321806,2,0,P|231:240|226:217,1,47.25,0|0,1:0|0:0,0:0:0:0:
108,98,321956,6,0,P|138:85|169:74,1,66.15,8|0,2:0|0:0,0:0:0:0:
361,75,322556,2,0,P|392:86|422:99,1,66.15,8|0,2:0|0:0,0:0:0:0:
361,75,323156,6,0,B|333:113|333:113|279:113,1,94.5,2|0,0:0|0:0,0:0:0:0:
361,75,323381,1,0,0:0:0:0:
285,113,323456,2,0,L|250:161,1,47.25,2|0,1:0|0:0,0:0:0:0:
160,280,323606,2,0,L|142:301,3,23.625,4|0|0|0,0:0|0:0|0:0|0:0,0:0:0:0:
467,347,323906,5,0,1:0:0:0:
428,190,324056,1,0,2:0:0:0:
386,355,324206,2,0,P|388:331|393:308,1,47.25,0|0,1:0|0:0,0:0:0:0:
445,145,324356,6,0,P|442:121|422:79,1,66.15,8|0,2:0|0:0,0:0:0:0:
246,22,324956,2,0,L|216:22,1,28.35,8|0,2:0|0:0,0:0:0:0:
57,99,325256,6,0,P|64:121|67:144,1,47.25,0|0,1:0|0:0,0:0:0:0:
46,306,325406,2,0,P|53:283|56:260,1,47.25,0|0,1:0|0:0,0:0:0:0:
57,99,325556,1,0,1:0:0:0:
176,208,325706,5,0,2:0:0:0:
358,113,325856,2,0,P|357:89|350:66,1,47.25
285,106,326006,2,0,B|256:115|237:143|237:143|192:143|192:143|161:169,1,141.75,10|0,2:0|0:0,0:0:0:0:
96,208,326306,1,0,0:0:0:0:
166,167,326456,2,0,B|181:189|181:189|176:208,1,47.25,0|0,1:0|0:0,0:0:0:0:
51,363,326605,2,0,B|46:344|46:344|61:322,1,47.25,0|0,2:0|0:0,0:0:0:0:
166,249,326756,2,0,B|181:227|181:227|176:208,1,47.25,0|0,1:0|0:0,0:0:0:0:
52,51,326906,2,0,B|46:70|46:70|61:92,1,47.25,0|0,2:0|0:0,0:0:0:0:
255,208,327056,2,0,B|303:210|326:247|326:247|325:217|349:192,1,141.75,10|0,2:0|0:0,0:0:0:0:
427,208,327356,6,0,P|448:184|419:179,1,66.15,8|0,2:0|0:0,0:0:0:0:
426,207,327956,6,0,P|452:177|414:165,1,94.5,2|0,0:0|0:0,0:0:0:0:
426,207,328181,1,0,0:0:0:0:
506,123,328256,2,0,P|489:107|469:93,1,47.25,2|0,1:0|0:0,0:0:0:0:
336,0,328406,2,0,L|304:8,3,23.625,4|0|0|0,0:0|0:0|0:0|0:0,0:0:0:0:
120,56,328706,5,0,1:0:0:0:
96,216,328856,1,0,2:0:0:0:
200,72,329006,1,0,1:0:0:0:
40,48,329156,6,0,P|29:75|53:99,1,66.15,8|0,2:0|0:0,0:0:0:0:
200,233,329756,2,0,P|211:206|187:182,1,66.15,8|0,2:0|0:0,0:0:0:0:
200,233,330356,6,0,P|201:175|140:173,1,94.5,2|0,0:0|0:0,0:0:0:0:
200,233,330581,1,0,0:0:0:0:
281,181,330656,2,0,P|282:204|279:228,1,47.25,2|0,1:0|0:0,0:0:0:0:
119,244,330806,2,0,L|127:284,4,23.625,4|0|0|0|0,0:0|0:0|0:0|0:0|0:0,0:0:0:0:
366,185,331106,5,0,1:0:0:0:
392,344,331256,1,0,2:0:0:0:
447,192,331406,2,0,P|446:168|440:145,1,47.25,0|0,1:0|0:0,0:0:0:0:
392,26,331556,6,0,B|354:17|320:32,1,66.15,8|0,2:0|0:0,0:0:0:0:
148,92,332156,2,0,B|186:101|220:86,1,66.15,8|0,2:0|0:0,0:0:0:0:
148,92,332756,6,0,B|198:117|267:59,1,94.5,2|0,0:0|0:0,0:0:0:0:
148,92,332981,1,0,0:0:0:0:
256,151,333056,2,0,B|236:161|211:167,1,47.25,2|0,1:0|0:0,0:0:0:0:
48,192,333206,2,0,L|16:192,3,23.625,4|0|0|0,0:0|0:0|0:0|0:0,0:0:0:0:
360,176,333506,5,0,1:0:0:0:
216,248,333656,1,0,2:0:0:0:
460,227,333806,2,0,P|482:234|501:250,1,47.25,0|0,1:0|0:0,0:0:0:0:
359,356,333956,6,0,P|326:354|288:359,1,66.15,8|0,2:0|0:0,0:0:0:0:
105,341,334556,2,0,P|120:342|134:341,1,28.35,8|0,2:0|0:0,0:0:0:0:
215,204,334856,6,0,P|180:200|143:188,1,47.25,0|0,1:0|0:0,0:0:0:0:
15,140,335006,2,0,P|39:139|62:141,1,47.25,0|0,1:0|0:0,0:0:0:0:
215,204,335156,1,0,1:0:0:0:
167,28,335306,1,0,2:0:0:0:
325,60,335456,1,0,0:0:0:0:
447,164,335606,2,0,B|425:169|397:163|397:163|370:184|370:184|332:177|332:177|291:198|291:198,1,141.75,10|0,2:0|0:0,0:0:0:0:
424,90,335906,1,0,0:0:0:0:
424,90,335981,1,0,0:0:0:0:
424,90,336056,6,0,L|424:42,1,47.25,0|0,1:0|0:0,0:0:0:0:
503,311,336206,2,0,L|503:358,1,47.25,0|0,2:0|0:0,0:0:0:0:
343,311,336356,1,0,1:0:0:0:
447,164,336506,1,0,2:0:0:0:
479,236,336656,1,0,1:0:0:0:
343,311,336806,1,0,2:0:0:0:
395,19,336956,5,4,2:0:0:0:
256,192,344156,12,0,346406,0:0:0:0:
416,320,346556,6,0,P|474:347|501:289,1,141.75,8|0,2:0|0:0,0:0:0:0:
416,320,346856,2,0,P|288:308|311:407,1,212.625008111,0|0,1:0|0:0,0:0:0:0:
501,291,347156,1,0,0:0:0:0:
279,361,347306,2,0,P|279:334|304:288,1,47.25,0|0,2:0|0:0,0:0:0:0:
416,320,347456,2,0,P|396:292|359:274,1,47.25,8|0,0:0|0:0,0:0:0:0:
317,244,347606,2,0,L|303:199,1,47.25,0|0,2:0|0:0,0:0:0:0:
205,124,347756,6,0,P|146:96|119:154,1,141.75,8|0,2:0|0:0,0:0:0:0:
205,124,348056,2,0,P|332:135|309:36,1,212.625008111,0|0,1:0|0:0,0:0:0:0:
120,153,348356,1,0,0:0:0:0:
341,82,348506,2,0,P|342:108|309:157,1,47.25,0|0,2:0|0:0,0:0:0:0:
205,124,348656,2,0,P|225:152|262:170,1,47.25,8|0,0:0|0:0,0:0:0:0:
296,176,348806,2,0,L|317:244,1,70.8750027036668,0|0,2:0|0:0,0:0:0:0:
218,320,348956,6,0,P|159:347|132:289,1,141.75,8|0,2:0|0:0,0:0:0:0:
218,320,349256,2,0,P|345:308|322:407,1,212.625008111,0|0,1:0|0:0,0:0:0:0:
132,289,349556,1,0,0:0:0:0:
355,361,349706,2,0,P|355:333|330:287,1,47.25,0|0,2:0|0:0,0:0:0:0:
218,320,349856,2,0,P|238:292|275:274,1,47.25,8|0,0:0|0:0,0:0:0:0:
317,244,350006,2,0,P|304:128|240:224,1,283.500010814667,2|0,1:0|0:0,0:0:0:0:
355,361,350456,6,0,L|416:336,1,47.25,8|0,0:0|0:0,0:0:0:0:
360,261,350606,2,0,L|316:243,1,47.25,0|0,2:0|0:0,0:0:0:0:
231,207,350756,2,0,B|188:225|188:225|143:208,1,94.5,0|0,1:0|0:0,0:0:0:0:
181,3,351056,2,0,B|173:52|173:52|197:115|197:115|181:163,1,141.75,0|0,1:0|0:0,0:0:0:0:
27,243,351356,5,4,2:0:0:0:
195,324,351506,1,0,2:0:0:0:
108,190,351656,1,8,0:0:0:0:
293,299,351806,1,0,2:0:0:0:
189,138,351956,1,8,0:0:0:0:
391,274,352106,1,0,2:0:0:0:
269,86,352256,1,8,0:0:0:0:
489,248,352406,1,0,2:0:0:0:
469,84,352556,5,4,2:0:0:0:
301,3,352706,1,0,2:0:0:0:
388,137,352856,1,8,0:0:0:0:
203,28,353006,1,0,2:0:0:0:
307,189,353156,1,8,0:0:0:0:
105,53,353306,1,0,2:0:0:0:
227,241,353456,1,8,0:0:0:0:
7,79,353606,1,0,2:0:0:0:
227,241,353756,5,2,2:0:0:0:
264,268,353831,1,0,0:0:0:0:
300,296,353906,1,8,0:0:0:0:
336,324,353981,1,0,0:0:0:0:
344,276,354056,1,2,2:0:0:0:
364,232,354131,1,0,0:0:0:0:
396,200,354206,1,8,0:0:0:0:
440,188,354281,1,0,0:0:0:0:
408,156,354356,1,2,2:0:0:0:
360,144,354431,1,0,0:0:0:0:
312,148,354506,1,8,0:0:0:0:
268,164,354581,1,0,0:0:0:0:
320,188,354656,5,0,2:0:0:0:
364,232,354731,1,0,0:0:0:0:
408,268,354806,1,0,2:0:0:0:
456,304,354881,1,0,0:0:0:0:
504,340,354956,5,0,1:0:0:0:
320,188,355106,1,0,1:0:0:0:
132,40,355256,5,8,2:0:0:0:
174,81,355331,1,0,0:0:0:0:
133,122,355406,1,8,2:0:0:0:
175,163,355481,1,0,0:0:0:0:
134,204,355556,6,0,L|65:204,1,59.0625,2|0,1:0|0:0,0:0:0:0:
73,40,355706,2,0,L|132:40,1,59.0625,2|0,1:0|0:0,0:0:0:0:
272,124,355856,2,0,L|242:124,6,29.53125,0|0|0|0|0|0|0,1:0|0:0|0:0|0:0|0:0|0:0|0:0,0:0:0:0:
335,166,356156,6,0,L|334:260,1,94.5,10|0,2:0|0:0,0:0:0:0:
348,261,356456,2,0,B|348:166|348:166|364:69|445:77|445:77|364:85|348:-11,1,354.375,4|0,1:0|0:0,0:0:0:0:
449,81,356756,1,0,0:0:0:0:
449,81,356906,5,0,2:0:0:0:
357,24,357056,1,0,1:0:0:0:
80,80,357206,1,0,2:0:0:0:
96,368,357356,6,0,L|1:369,1,94.5,10|0,2:0|0:0,0:0:0:0:
1,349,357656,2,0,B|96:349|96:349|209:333|184:252|184:252|161:333|273:349,1,354.375,4|0,1:0|0:0,0:0:0:0:
187,256,357956,1,0,0:0:0:0:
187,256,358106,5,0,2:0:0:0:
223,336,358256,1,0,1:0:0:0:
16,144,358406,2,0,P|29:124|47:109,1,47.25,2|0,1:0|0:0,0:0:0:0:
336,112,358556,6,0,L|336:17,1,94.5,10|0,2:0|0:0,0:0:0:0:
376,17,358856,2,0,B|376:112|376:112|360:241|278:200|278:200|360:161|376:289,1,354.375,4|0,1:0|0:0,0:0:0:0:
282,204,359156,1,0,0:0:0:0:
282,204,359306,5,0,2:0:0:0:
358,222,359456,1,0,1:0:0:0:
53,235,359606,2,2,P|172:197|316:213,2,236.25,2|2|2,1:0|0:0|0:0,0:0:0:0:
281,250,360056,2,0,L|281:202,1,47.25,10|0,0:0|0:0,0:0:0:0:
53,187,360206,2,0,L|53:234,1,47.25,10|0,0:0|0:0,0:0:0:0:
265,62,360356,2,0,B|297:27|297:27|290:95|257:137|257:137|247:195|280:249,1,283.5,8|0,2:0|0:0,0:0:0:0:
435,247,360656,2,0,B|468:192|458:134|458:134|425:92|418:24|418:24|447:62,1,283.5,8|0,2:0|0:0,0:0:0:0:
358,167,360956,6,0,L|358:261,1,94.5,10|0,2:0|0:0,0:0:0:0:
387,335,361256,2,0,B|323:335|323:335|275:271|227:271|227:271|227:303|211:287|211:271|211:255|227:255|115:239|147:351,1,354.375,4|0,1:0|0:0,0:0:0:0:
223,289,361556,1,0,0:0:0:0:
223,289,361706,5,0,2:0:0:0:
145,344,361856,1,0,1:0:0:0:
99,63,362006,1,0,2:0:0:0:
318,240,362156,6,0,L|414:240,1,94.5,10|0,2:0|0:0,0:0:0:0:
486,293,362456,2,0,B|486:229|486:229|422:181|422:133|422:133|486:133|438:117|422:117|406:117|406:133|390:21|502:53,1,354.375,4|0,1:0|0:0,0:0:0:0:
454,132,362756,1,0,0:0:0:0:
454,132,362906,5,0,2:0:0:0:
473,48,363056,1,0,1:0:0:0:
297,270,363206,2,0,P|309:218|299:191,1,47.25,2|0,1:0|0:0,0:0:0:0:
30,176,363356,2,0,L|126:176,1,94.5,10|0,2:0|0:0,0:0:0:0:
196,108,363656,2,0,B|196:172|196:172|132:220|132:268|132:268|228:268|148:284|132:284|116:284|116:268|100:380|212:348,1,354.375,4|0,1:0|0:0,0:0:0:0:
176,275,363956,1,0,0:0:0:0:
176,275,364106,5,0,2:0:0:0:
160,349,364256,1,0,1:0:0:0:
512,288,364406,6,2,B|417:288|417:288|358:288|337:215|391:149|457:187,2,236.25,0|2|2,1:0|0:0|0:0,0:0:0:0:
429,237,364856,5,0,1:0:0:0:
432,288,364931,1,0,0:0:0:0:
472,316,365006,1,2,2:0:0:0:
512,288,365081,1,0,0:0:0:0:
512,240,365156,1,0,1:0:0:0:
512,192,365231,2,0,L|400:192,1,82.6875007885695,0|2,0:0|2:0,0:0:0:0:
256,192,365381,5,0,0:0:0:0:
256,192,365456,1,0,1:0:0:0:
355,327,365531,1,0,0:0:0:0:
512,384,365606,1,0,1:0:0:0:
512,0,365756,6,0,L|384:0,1,94.5,10|0,2:0|0:0,0:0:0:0:
318,0,366056,2,0,B|318:112|318:112|334:112|334:112|350:128|350:128|334:144|334:144|318:144|318:144|318:208|318:208|350:256|350:256|382:224,1,354.375,4|0,1:0|0:0,0:0:0:0:
354,132,366356,1,0,0:0:0:0:
354,132,366506,5,0,2:0:0:0:
380,225,366656,1,0,1:0:0:0:
134,366,366806,1,0,2:0:0:0:
240,96,366956,2,0,L|240:224,1,94.5,10|0,2:0|0:0,0:0:0:0:
240,272,367256,2,0,B|160:272|160:272|160:256|160:256|144:206|144:206|128:256|128:256|128:272|128:272|64:272|64:272|30:245|30:245|46:197,1,354.375,4|0,1:0|0:0,0:0:0:0:
148,210,367556,1,0,0:0:0:0:
148,210,367706,5,0,2:0:0:0:
39,216,367856,1,0,1:0:0:0:
288,352,368006,2,0,B|300:332|300:332|313:352,1,47.25,2|0,1:0|0:0,0:0:0:0:
512,144,368156,2,0,L|384:144,1,94.5,10|0,2:0|0:0,0:0:0:0:
345,127,368456,2,0,B|345:207|345:207|361:207|361:207|441:223|441:223|361:239|361:239|345:239|345:239|345:303|345:303|372:337|372:337|420:321,1,354.375,4|0,1:0|0:0,0:0:0:0:
445,227,368756,1,0,0:0:0:0:
445,227,368906,5,0,2:0:0:0:
354,314,369056,1,0,1:0:0:0:
176,96,369206,2,2,B|224:48|224:48|400:48,2,236.25,2|2|2,1:0|0:0|0:0,0:0:0:0:
425,16,369656,2,0,P|409:24|391:50,1,47.25,10|0,0:0|0:0,0:0:0:0:
144,62,369806,2,0,P|155:82|175:95,1,47.25,10|0,0:0|0:0,0:0:0:0:
442,174,369956,6,0,B|465:127|385:127|385:127|330:174|330:174|289:127|289:127|234:174,1,283.5,8|0,2:0|0:0,0:0:0:0:
246,330,370256,2,0,B|288:365|288:365|329:319|329:319|384:365|384:365|464:365|441:319,1,283.5,8|0,2:0|0:0,0:0:0:0:
330,247,370556,6,0,L|212:247,1,94.5,10|0,2:0|0:0,0:0:0:0:
144,336,370856,2,0,B|171:292|171:292|160:240|160:240|112:192|112:192|91:132|91:132|107:148|107:148|187:132|187:132|224:112,1,354.375,4|0,1:0|0:0,0:0:0:0:
95,136,371156,1,0,0:0:0:0:
95,136,371306,5,0,2:0:0:0:
199,125,371456,1,0,1:0:0:0:
370,352,371606,1,0,1:0:0:0:
352,64,371756,2,0,L|352:160,1,94.5,10|0,2:0|0:0,0:0:0:0:
432,240,372056,2,0,B|388:213|388:213|336:224|336:224|288:272|288:272|228:309|228:309|244:277|244:277|228:197|228:197|208:160,1,354.375,4|0,1:0|0:0,0:0:0:0:
232,312,372356,1,0,0:0:0:0:
232,312,372506,5,0,2:0:0:0:
229,203,372656,1,0,1:0:0:0:
0,36,372806,1,0,2:0:0:0:
265,134,372956,2,0,L|366:133,1,94.5,10|0,2:0|0:0,0:0:0:0:
423,216,373256,2,0,B|396:172|396:172|407:120|407:120|455:72|455:72|508:12|508:12|460:28|460:28|380:12|380:12|343:-8,1,354.375,4|0,1:0|0:0,0:0:0:0:
512,16,373556,1,0,0:0:0:0:
512,16,373706,5,0,2:0:0:0:
409,17,373856,1,0,1:0:0:0:
57,154,374006,2,2,B|122:171|170:133|170:133|177:70|275:42,2,236.25,2|2|2,1:0|0:0|0:0,0:0:0:0:
270,152,374456,5,0,1:0:0:0:
315,177,374531,1,0,0:0:0:0:
365,164,374606,1,2,2:0:0:0:
344,212,374681,1,0,0:0:0:0:
293,225,374756,2,0,P|259:214|225:220,1,70.8750027036668,8|0,2:0|0:0,0:0:0:0:
468,123,374906,2,0,P|434:133|400:127,1,70.8750027036668,8|0,2:0|0:0,0:0:0:0:
250,304,375056,6,0,L|255:290,1,14.175,2|0,1:0|0:0,0:0:0:0:
225,220,375356,1,0,0:0:0:0:
225,220,375656,6,0,B|112:176|112:368|0:192|80:112,1,283.500010814667,4|0,1:0|0:0,0:0:0:0:
225,220,376106,1,0,2:0:0:0:
225,220,376256,1,0,0:0:0:0:
225,220,376406,1,0,2:0:0:0:
225,220,376556,2,0,P|213:259|240:368,1,141.750005407334,2|0,0:0|0:0,0:0:0:0:
231,355,376856,6,0,B|341:305|351:496|454:315|370:239,1,283.500010814667,4|0,1:0|0:0,0:0:0:0:
231,355,377306,1,0,2:0:0:0:
231,355,377456,1,0,0:0:0:0:
384,255,377606,2,0,L|384:181,1,70.8750027036668,2|0,1:0|0:0,0:0:0:0:
231,355,377756,6,0,P|158:372|72:345,1,141.750005407334,2|0,0:0|0:0,0:0:0:0:
94,357,378056,2,0,P|75:278|193:101,1,283.500010814667,4|0,1:0|0:0,0:0:0:0:
94,357,378506,1,0,2:0:0:0:
94,357,378656,1,0,0:0:0:0:
170,111,378806,2,2,B|218:95|218:95|266:95|266:95|314:111|314:111|346:47|346:47|287:16|287:16|191:16,1,354.375013518334
220,16,379256,5,0,0:0:0:0:
170,111,379406,1,0,2:0:0:0:
62,107,379556,2,0,P|44:186|109:209,1,141.75,0|0,1:0|0:0,0:0:0:0:
106,215,379856,2,0,P|55:171|81:110,1,141.75,0|0,1:0|0:0,0:0:0:0:
170,111,380156,5,2,0:0:0:0:
321,110,380456,2,0,L|169:110,1,151.2,6|0,0:0|0:0,0:0:0:0:
321,110,380906,1,0,2:0:0:0:
321,110,381056,1,0,0:0:0:0:
321,110,381206,1,0,2:0:0:0:
169,110,381356,5,2,0:0:0:0:
169,223,381656,2,0,L|169:95,1,113.399996539307,6|0,0:0|0:0,0:0:0:0:
169,223,382106,1,0,2:0:0:0:
169,223,382256,1,0,0:0:0:0:
169,223,382406,1,0,2:0:0:0:
169,109,382556,5,2,0:0:0:0:
93,109,382856,2,0,L|173:109,1,75.6,6|0,0:0|0:0,0:0:0:0:
93,109,383306,1,0,2:0:0:0:
93,109,383456,1,0,0:0:0:0:
256,192,383606,12,0,384881,0:0:0:0:
400,384,384956,6,0,L|400:336,1,37.8,2|0,0:0|0:0,0:0:0:0:
400,346,385256,1,0,2:0:0:0:
400,346,385406,2,0,L|400:272,1,56.7,2|0,0:0|0:0,0:0:0:0:
400,251,385706,1,2,2:0:0:0:
320,0,386156,6,0,L|320:48,1,37.8,2|0,0:0|0:0,0:0:0:0:
320,37,386456,1,0,2:0:0:0:
320,37,386606,2,0,L|320:111,1,56.7,2|0,0:0|0:0,0:0:0:0:
320,133,386906,1,2,2:0:0:0:
240,384,387356,5,0,2:0:0:0:
240,308,387506,1,0,2:0:0:0:
240,232,387656,1,0,2:0:0:0:
240,308,387806,2,0,L|240:256,1,37.8,2|0,0:0|0:0,0:0:0:0:
240,194,388106,1,2,2:0:0:0:
160,304,388256,1,0,2:0:0:0:
320,304,388406,1,0,2:0:0:0:
320,304,388706,1,0,2:0:0:0:
160,304,388856,1,0,2:0:0:0:
240,194,389006,1,2,2:0:0:0:
240,194,389306,2,0,L|240:112,1,75.6,2|0,2:0|0:0,0:0:0:0:
160,0,389756,6,0,L|160:48,1,37.8,2|0,0:0|0:0,0:0:0:0:
160,37,390056,1,0,2:0:0:0:
160,37,390206,2,0,L|160:111,1,56.7,2|0,0:0|0:0,0:0:0:0:
160,133,390506,1,2,2:0:0:0:
80,384,390956,6,0,L|80:336,1,37.8,2|0,0:0|0:0,0:0:0:0:
80,347,391256,1,0,2:0:0:0:
80,347,391406,2,0,L|80:272,1,56.7,2|0,0:0|0:0,0:0:0:0:
80,251,391706,1,2,2:0:0:0:
133,197,391856,1,0,2:0:0:0:
186,143,392006,1,0,2:0:0:0:
256,192,392156,12,0,394406,0:0:0:0:
160,156,394556,6,0,B|160:96|160:96|512:96|512:96|512:384|512:384|224:384|224:384|224:160|224:160|448:160|448:160|448:320|448:320|288:320|288:320|288:224|288:224|352:224|352:224|384:224|384:224|384:256|384:256|352:256|352:256|352:32|352:32|400:32,1,2268,4|0,2:0|0:0,0:0:0:0:
