osu file format v14

[General]
AudioFilename: northern_limit.mp3
AudioLeadIn: 0
PreviewTime: 56130
Countdown: 0
SampleSet: Normal
StackLeniency: 0.7
Mode: 1
LetterboxInBreaks: 0
WidescreenStoryboard: 0

[Editor]
DistanceSpacing: 0.1
BeatDivisor: 4
GridSize: 32
TimelineZoom: 4.099998

[Metadata]
Title:northern_limit [feat. Sennzai]
TitleUnicode:northern_limit [feat. せんざい]
Artist:Kobaryo
ArtistUnicode:Kobaryo
Creator:youtune3
Version:muzukashii
Source:
Tags:Candy Speed Pops Speedcore Psycho Filth Records PFSA-002 Comiket Comic Market 89 Vulkin fa featured artist japanese electronic osu! Aljotzi Minion24 imge aaron91937
BeatmapID:1923221
BeatmapSetID:919028

[Difficulty]
HPDrainRate:6
CircleSize:2
OverallDifficulty:5
ApproachRate:0
SliderMultiplier:1.4
SliderTickRate:1

[Events]
//Background and Video events
0,0,"ColorfulSky.jpg",0,-150
//Break Periods
//Storyboard Layer 0 (Background)
//Storyboard Layer 1 (Fail)
//Storyboard Layer 2 (Pass)
//Storyboard Layer 3 (Foreground)
//Storyboard Layer 4 (Overlay)
//Storyboard Sound Samples

[TimingPoints]
131,444.444444444444,4,1,0,60,1,0
28575,-100,4,1,0,70,0,0
57019,222.222222222222,4,1,0,80,1,1
57019,-133.333333333333,4,1,0,80,0,1
85463,444.444444444444,4,1,0,60,1,0
128129,-100,4,1,0,70,0,0
156574,222.222222222222,4,1,0,80,1,1
156574,-133.333333333333,4,1,0,80,0,1
185018,444.444444444444,4,1,0,60,1,0

[HitObjects]
256,192,131,5,0,0:0:0:0:
256,192,2797,1,8,0:0:0:0:
256,192,3242,1,8,0:0:0:0:
256,192,3686,1,0,0:0:0:0:
256,192,5464,1,8,0:0:0:0:
256,192,6353,1,8,0:0:0:0:
256,192,7242,1,0,0:0:0:0:
256,192,7464,1,0,0:0:0:0:
256,192,7686,1,8,0:0:0:0:
256,192,7908,1,0,0:0:0:0:
256,192,9908,1,8,0:0:0:0:
256,192,10353,1,0,0:0:0:0:
256,192,10797,1,8,0:0:0:0:
256,192,12575,1,8,0:0:0:0:
256,192,13464,1,0,0:0:0:0:
256,192,14353,1,0,0:0:0:0:
256,192,14575,1,8,0:0:0:0:
256,192,15242,1,0,0:0:0:0:
256,192,15464,1,8,0:0:0:0:
256,192,15686,1,8,0:0:0:0:
256,192,15908,1,0,0:0:0:0:
256,192,16130,1,8,0:0:0:0:
256,192,16575,1,0,0:0:0:0:
256,192,16797,1,8,0:0:0:0:
256,192,17019,1,8,0:0:0:0:
256,192,17242,1,8,0:0:0:0:
256,192,17464,1,0,0:0:0:0:
256,192,17908,1,0,0:0:0:0:
256,192,18130,1,8,0:0:0:0:
256,192,18575,1,8,0:0:0:0:
256,192,18797,1,8,0:0:0:0:
256,192,19019,1,8,0:0:0:0:
256,192,19464,1,0,0:0:0:0:
256,192,19686,1,8,0:0:0:0:
256,192,19908,1,8,0:0:0:0:
256,192,20353,1,0,0:0:0:0:
256,192,20575,1,0,0:0:0:0:
256,192,20797,1,8,0:0:0:0:
256,192,21242,1,8,0:0:0:0:
256,192,21464,1,8,0:0:0:0:
256,192,21686,1,0,0:0:0:0:
256,192,21908,1,8,0:0:0:0:
256,192,22130,1,8,0:0:0:0:
256,192,22353,1,0,0:0:0:0:
256,192,22575,1,8,0:0:0:0:
256,192,23019,1,8,0:0:0:0:
256,192,23242,1,8,0:0:0:0:
256,192,23686,1,8,0:0:0:0:
256,192,24130,1,0,0:0:0:0:
256,192,24353,1,8,0:0:0:0:
256,192,24575,1,8,0:0:0:0:
256,192,24797,1,0,0:0:0:0:
256,192,25019,1,8,0:0:0:0:
256,192,25686,1,0,0:0:0:0:
256,192,25908,1,8,0:0:0:0:
256,192,26130,1,8,0:0:0:0:
256,192,26575,1,0,0:0:0:0:
256,192,26797,1,8,0:0:0:0:
256,192,27464,1,8,0:0:0:0:
256,192,27686,1,8,0:0:0:0:
96,32,27797,2,0,L|320:32,1,209.999993591309
256,192,28575,1,0,0:0:0:0:
256,192,29464,1,8,0:0:0:0:
256,192,29686,1,8,0:0:0:0:
256,192,30130,1,0,0:0:0:0:
256,192,30353,1,8,0:0:0:0:
256,192,30797,1,8,0:0:0:0:
256,192,31242,1,8,0:0:0:0:
256,192,31686,1,0,0:0:0:0:
256,192,31908,1,8,0:0:0:0:
256,192,32130,1,0,0:0:0:0:
256,192,32575,1,8,0:0:0:0:
256,192,33019,1,8,0:0:0:0:
256,192,33686,1,8,0:0:0:0:
256,192,33908,1,8,0:0:0:0:
256,192,34130,1,0,0:0:0:0:
256,192,34353,1,0,0:0:0:0:
256,192,34797,1,8,0:0:0:0:
256,192,35242,1,0,0:0:0:0:
256,192,35686,1,0,0:0:0:0:
256,192,36130,1,8,0:0:0:0:
256,192,36575,1,8,0:0:0:0:
256,192,37242,1,8,0:0:0:0:
256,192,37464,1,8,0:0:0:0:
256,192,37908,1,0,0:0:0:0:
256,192,38353,1,8,0:0:0:0:
256,192,38575,1,8,0:0:0:0:
256,192,38797,1,0,0:0:0:0:
256,192,39019,1,0,0:0:0:0:
256,192,39242,1,8,0:0:0:0:
256,192,39908,1,8,0:0:0:0:
256,192,40130,1,8,0:0:0:0:
256,192,40575,1,8,0:0:0:0:
256,192,40797,1,8,0:0:0:0:
256,192,41019,1,0,0:0:0:0:
256,192,41242,1,0,0:0:0:0:
256,192,41464,1,0,0:0:0:0:
256,192,41908,1,8,0:0:0:0:
256,192,42797,1,0,0:0:0:0:
256,192,44575,1,8,0:0:0:0:
256,192,46353,1,8,0:0:0:0:
256,192,47242,1,0,0:0:0:0:
256,192,48130,1,8,0:0:0:0:
256,192,49019,1,0,0:0:0:0:
256,192,49908,1,0,0:0:0:0:
256,192,51686,1,8,0:0:0:0:
256,192,52575,1,0,0:0:0:0:
256,192,53464,1,0,0:0:0:0:
256,192,54130,12,0,56130,0:0:0:0:
256,192,57019,5,0,0:0:0:0:
256,192,57130,1,0,0:0:0:0:
256,192,57241,1,8,0:0:0:0:
256,192,57463,1,0,0:0:0:0:
256,192,57685,1,8,0:0:0:0:
256,192,57796,1,8,0:0:0:0:
256,192,57907,1,8,0:0:0:0:
256,192,58019,1,8,0:0:0:0:
256,192,58130,1,8,0:0:0:0:
256,192,58352,1,8,0:0:0:0:
256,192,58574,1,0,0:0:0:0:
256,192,58796,1,8,0:0:0:0:
256,192,58907,1,8,0:0:0:0:
256,192,59019,1,0,0:0:0:0:
256,192,59241,1,8,0:0:0:0:
256,192,59463,1,0,0:0:0:0:
256,192,59685,1,0,0:0:0:0:
256,192,59796,1,0,0:0:0:0:
256,192,59907,1,8,0:0:0:0:
256,192,60130,1,8,0:0:0:0:
256,192,60241,1,8,0:0:0:0:
256,192,60352,1,0,0:0:0:0:
256,192,60574,1,0,0:0:0:0:
256,192,60796,1,0,0:0:0:0:
256,192,60907,1,0,0:0:0:0:
256,192,61018,1,0,0:0:0:0:
256,192,61241,1,0,0:0:0:0:
256,192,61463,1,8,0:0:0:0:
256,192,61685,1,8,0:0:0:0:
256,192,61796,1,8,0:0:0:0:
256,192,61907,1,8,0:0:0:0:
256,192,62018,1,8,0:0:0:0:
256,192,62130,1,0,0:0:0:0:
256,192,62352,1,8,0:0:0:0:
256,192,62574,1,0,0:0:0:0:
256,192,62685,1,0,0:0:0:0:
256,192,62796,1,8,0:0:0:0:
256,192,63018,1,8,0:0:0:0:
256,192,63241,1,8,0:0:0:0:
256,192,63463,1,8,0:0:0:0:
256,192,63574,1,8,0:0:0:0:
256,192,63685,1,0,0:0:0:0:
256,192,63907,1,0,0:0:0:0:
256,192,64018,1,0,0:0:0:0:
256,192,64130,1,8,0:0:0:0:
256,192,64352,1,0,0:0:0:0:
256,192,64574,1,0,0:0:0:0:
256,192,64796,1,0,0:0:0:0:
256,192,64907,1,0,0:0:0:0:
256,192,65018,1,8,0:0:0:0:
256,192,65241,1,0,0:0:0:0:
256,192,65352,1,0,0:0:0:0:
256,192,65463,1,8,0:0:0:0:
256,192,65574,1,0,0:0:0:0:
256,192,65685,1,8,0:0:0:0:
256,192,65907,1,8,0:0:0:0:
256,192,66130,1,0,0:0:0:0:
256,192,66352,1,8,0:0:0:0:
256,192,66463,1,8,0:0:0:0:
256,192,66574,1,0,0:0:0:0:
256,192,66796,1,8,0:0:0:0:
256,192,67018,1,0,0:0:0:0:
256,192,67241,1,8,0:0:0:0:
256,192,67352,1,8,0:0:0:0:
256,192,67463,1,8,0:0:0:0:
256,192,67574,1,8,0:0:0:0:
256,192,67685,1,0,0:0:0:0:
256,192,67907,1,0,0:0:0:0:
256,192,68018,1,0,0:0:0:0:
256,192,68130,1,8,0:0:0:0:
256,192,68352,1,8,0:0:0:0:
256,192,68574,1,8,0:0:0:0:
256,192,68796,1,8,0:0:0:0:
256,192,68907,1,8,0:0:0:0:
256,192,69018,1,8,0:0:0:0:
256,192,69241,1,8,0:0:0:0:
256,192,69463,1,0,0:0:0:0:
256,192,69574,1,0,0:0:0:0:
256,192,69685,1,8,0:0:0:0:
256,192,69907,1,8,0:0:0:0:
256,192,70018,1,8,0:0:0:0:
256,192,70130,1,8,0:0:0:0:
256,192,70352,1,0,0:0:0:0:
256,192,70574,1,8,0:0:0:0:
256,192,70796,1,8,0:0:0:0:
256,192,70907,1,8,0:0:0:0:
256,192,71018,1,8,0:0:0:0:
256,192,71241,1,0,0:0:0:0:
256,192,71463,1,8,0:0:0:0:
256,192,71685,1,0,0:0:0:0:
256,192,71796,1,0,0:0:0:0:
256,192,71907,1,8,0:0:0:0:
256,192,72130,1,8,0:0:0:0:
256,192,72352,1,8,0:0:0:0:
256,192,72574,1,0,0:0:0:0:
256,192,72685,1,0,0:0:0:0:
256,192,72796,1,0,0:0:0:0:
256,192,73018,1,0,0:0:0:0:
256,192,73241,1,8,0:0:0:0:
256,192,73352,1,8,0:0:0:0:
256,192,73463,1,8,0:0:0:0:
256,192,73574,1,8,0:0:0:0:
256,192,73685,1,0,0:0:0:0:
256,192,73907,1,8,0:0:0:0:
256,192,74130,1,8,0:0:0:0:
256,192,74352,1,8,0:0:0:0:
256,192,74463,1,8,0:0:0:0:
256,192,74574,1,8,0:0:0:0:
256,192,74796,1,0,0:0:0:0:
256,192,74907,1,0,0:0:0:0:
256,192,75018,1,8,0:0:0:0:
256,192,75241,1,0,0:0:0:0:
256,192,75463,1,0,0:0:0:0:
256,192,75685,1,8,0:0:0:0:
256,192,75796,1,8,0:0:0:0:
256,192,75907,1,0,0:0:0:0:
256,192,76130,1,8,0:0:0:0:
256,192,76352,1,0,0:0:0:0:
256,192,76463,1,0,0:0:0:0:
256,192,76574,1,0,0:0:0:0:
256,192,76685,1,0,0:0:0:0:
256,192,76796,1,8,0:0:0:0:
256,192,77018,1,8,0:0:0:0:
256,192,77241,1,0,0:0:0:0:
256,192,77352,1,0,0:0:0:0:
256,192,77463,1,8,0:0:0:0:
256,192,77685,1,8,0:0:0:0:
256,192,77907,1,8,0:0:0:0:
256,192,78130,1,8,0:0:0:0:
256,192,78241,1,8,0:0:0:0:
256,192,78352,1,8,0:0:0:0:
256,192,78463,1,8,0:0:0:0:
256,192,78574,1,0,0:0:0:0:
256,192,78796,1,0,0:0:0:0:
256,192,79018,1,0,0:0:0:0:
256,192,79130,1,0,0:0:0:0:
256,192,79241,1,8,0:0:0:0:
256,192,79463,1,0,0:0:0:0:
256,192,79685,1,0,0:0:0:0:
256,192,79907,1,8,0:0:0:0:
256,192,80018,1,8,0:0:0:0:
256,192,80130,1,8,0:0:0:0:
256,192,80352,1,0,0:0:0:0:
256,192,80574,1,8,0:0:0:0:
256,192,80796,1,0,0:0:0:0:
256,192,80907,1,0,0:0:0:0:
256,192,81018,1,8,0:0:0:0:
256,192,81241,1,8,0:0:0:0:
256,192,81463,1,8,0:0:0:0:
256,192,81574,1,8,0:0:0:0:
256,192,81685,1,8,0:0:0:0:
256,192,81796,1,8,0:0:0:0:
256,192,81907,1,0,0:0:0:0:
256,192,82130,1,8,0:0:0:0:
256,192,82352,1,0,0:0:0:0:
256,192,82463,1,0,0:0:0:0:
256,192,82574,1,0,0:0:0:0:
256,192,82796,1,8,0:0:0:0:
256,192,83018,1,0,0:0:0:0:
256,192,83241,1,8,0:0:0:0:
256,192,83352,1,8,0:0:0:0:
256,192,83463,1,0,0:0:0:0:
256,192,83685,1,8,0:0:0:0:
256,192,83907,1,8,0:0:0:0:
256,192,84018,1,8,0:0:0:0:
256,192,84130,1,8,0:0:0:0:
256,192,84352,1,8,0:0:0:0:
256,192,84574,1,0,0:0:0:0:
256,192,84796,1,8,0:0:0:0:
256,192,84907,1,8,0:0:0:0:
256,192,85018,1,8,0:0:0:0:
256,192,85130,1,8,0:0:0:0:
256,192,85241,1,0,0:0:0:0:
256,192,85463,1,0,0:0:0:0:
256,192,88129,1,8,0:0:0:0:
256,192,88574,1,0,0:0:0:0:
256,192,89018,1,8,0:0:0:0:
256,192,90796,1,0,0:0:0:0:
256,192,91685,1,8,0:0:0:0:
256,192,92574,1,8,0:0:0:0:
256,192,92796,1,0,0:0:0:0:
256,192,93018,1,0,0:0:0:0:
256,192,93240,1,8,0:0:0:0:
256,192,95240,1,8,0:0:0:0:
256,192,95685,1,0,0:0:0:0:
256,192,96129,1,0,0:0:0:0:
256,192,97907,1,8,0:0:0:0:
256,192,98796,1,0,0:0:0:0:
256,192,99685,1,0,0:0:0:0:
256,192,100351,1,0,0:0:0:0:
256,192,100574,1,8,0:0:0:0:
256,192,100796,1,8,0:0:0:0:
256,192,101462,1,8,0:0:0:0:
256,192,102129,1,0,0:0:0:0:
256,192,102351,1,8,0:0:0:0:
256,192,102574,1,8,0:0:0:0:
256,192,102796,1,0,0:0:0:0:
256,192,103018,1,8,0:0:0:0:
256,192,103240,1,0,0:0:0:0:
256,192,103907,1,8,0:0:0:0:
256,192,104129,1,8,0:0:0:0:
256,192,104351,1,8,0:0:0:0:
256,192,105018,1,0,0:0:0:0:
256,192,105685,1,0,0:0:0:0:
256,192,105907,1,8,0:0:0:0:
256,192,106129,1,8,0:0:0:0:
256,192,106574,1,8,0:0:0:0:
256,192,106796,1,0,0:0:0:0:
256,192,107018,1,0,0:0:0:0:
256,192,107240,1,8,0:0:0:0:
256,192,107462,1,0,0:0:0:0:
256,192,107685,1,8,0:0:0:0:
256,192,107907,1,8,0:0:0:0:
256,192,108351,1,8,0:0:0:0:
256,192,108574,1,0,0:0:0:0:
256,192,108796,1,0,0:0:0:0:
256,192,109462,1,8,0:0:0:0:
256,192,109907,1,0,0:0:0:0:
256,192,110129,1,8,0:0:0:0:
256,192,110351,1,0,0:0:0:0:
256,192,110574,1,0,0:0:0:0:
256,192,111018,1,8,0:0:0:0:
256,192,111240,1,8,0:0:0:0:
256,192,111462,1,8,0:0:0:0:
256,192,112129,1,0,0:0:0:0:
256,192,112796,1,8,0:0:0:0:
256,192,113018,1,0,0:0:0:0:
256,192,113240,1,8,0:0:0:0:
256,192,113907,1,0,0:0:0:0:
256,192,114574,1,0,0:0:0:0:
256,192,114796,1,8,0:0:0:0:
256,192,115018,1,8,0:0:0:0:
256,192,115462,1,8,0:0:0:0:
256,192,115685,1,8,0:0:0:0:
256,192,116129,1,0,0:0:0:0:
256,192,116351,1,0,0:0:0:0:
256,192,116574,1,8,0:0:0:0:
256,192,116796,1,8,0:0:0:0:
256,192,117462,1,0,0:0:0:0:
256,192,118129,1,8,0:0:0:0:
256,192,118351,1,8,0:0:0:0:
256,192,118574,1,0,0:0:0:0:
256,192,119018,1,0,0:0:0:0:
256,192,119240,1,8,0:0:0:0:
256,192,119462,1,8,0:0:0:0:
256,192,119907,1,0,0:0:0:0:
256,192,120129,1,8,0:0:0:0:
256,192,120351,1,8,0:0:0:0:
256,192,120796,1,8,0:0:0:0:
256,192,121018,1,8,0:0:0:0:
256,192,121240,1,0,0:0:0:0:
256,192,121462,1,0,0:0:0:0:
256,192,121685,1,8,0:0:0:0:
256,192,121907,1,8,0:0:0:0:
256,192,122129,1,8,0:0:0:0:
256,192,122351,1,8,0:0:0:0:
256,192,122796,1,0,0:0:0:0:
256,192,123240,1,0,0:0:0:0:
256,192,123685,1,0,0:0:0:0:
256,192,123907,1,8,0:0:0:0:
256,192,124351,1,8,0:0:0:0:
256,192,124574,1,0,0:0:0:0:
256,192,124796,1,8,0:0:0:0:
256,192,125240,1,0,0:0:0:0:
256,192,125462,1,8,0:0:0:0:
256,192,125685,1,8,0:0:0:0:
256,192,126129,1,8,0:0:0:0:
256,192,126351,1,0,0:0:0:0:
256,192,126574,1,0,0:0:0:0:
256,192,127018,1,8,0:0:0:0:
256,192,127240,1,0,0:0:0:0:
256,192,127351,2,0,B|384:192|384:192|288:192,1,210
256,192,128129,1,12,0:0:0:0:
256,192,129018,1,8,0:0:0:0:
256,192,129240,1,8,0:0:0:0:
256,192,129685,1,0,0:0:0:0:
256,192,129907,1,0,0:0:0:0:
256,192,130351,1,0,0:0:0:0:
256,192,130796,1,8,0:0:0:0:
256,192,131240,1,0,0:0:0:0:
256,192,131685,1,0,0:0:0:0:
256,192,132129,1,8,0:0:0:0:
256,192,132574,1,8,0:0:0:0:
256,192,132796,1,8,0:0:0:0:
256,192,133240,1,8,0:0:0:0:
256,192,133462,1,8,0:0:0:0:
256,192,133685,1,0,0:0:0:0:
256,192,133907,1,0,0:0:0:0:
256,192,134351,1,8,0:0:0:0:
256,192,134796,1,0,0:0:0:0:
256,192,135240,1,0,0:0:0:0:
256,192,135685,1,8,0:0:0:0:
256,192,136129,1,8,0:0:0:0:
256,192,136796,1,0,0:0:0:0:
256,192,137018,1,8,0:0:0:0:
256,192,137462,1,0,0:0:0:0:
256,192,137907,1,8,0:0:0:0:
256,192,138351,1,8,0:0:0:0:
256,192,138796,1,0,0:0:0:0:
256,192,139462,1,8,0:0:0:0:
256,192,139685,1,8,0:0:0:0:
256,192,140351,1,8,0:0:0:0:
256,192,140574,1,8,0:0:0:0:
256,192,140796,1,0,0:0:0:0:
256,192,141018,1,0,0:0:0:0:
256,192,141462,1,8,0:0:0:0:
256,192,142351,1,8,0:0:0:0:
256,192,144129,1,0,0:0:0:0:
256,192,145907,1,8,0:0:0:0:
256,192,146796,1,0,0:0:0:0:
256,192,147685,1,0,0:0:0:0:
256,192,149462,1,8,0:0:0:0:
256,192,151240,1,0,0:0:0:0:
256,192,153018,1,8,0:0:0:0:
256,192,153907,12,0,155685,0:0:0:0:
256,192,156574,5,0,0:0:0:0:
256,192,156796,1,0,0:0:0:0:
256,192,156907,1,0,0:0:0:0:
256,192,157018,1,8,0:0:0:0:
256,192,157240,1,8,0:0:0:0:
256,192,157351,1,8,0:0:0:0:
256,192,157462,1,8,0:0:0:0:
256,192,157574,1,8,0:0:0:0:
256,192,157685,1,0,0:0:0:0:
256,192,157907,1,8,0:0:0:0:
256,192,158129,1,0,0:0:0:0:
256,192,158351,1,0,0:0:0:0:
256,192,158462,1,0,0:0:0:0:
256,192,158574,1,8,0:0:0:0:
256,192,158796,1,8,0:0:0:0:
256,192,158907,1,8,0:0:0:0:
256,192,159018,1,0,0:0:0:0:
256,192,159240,1,0,0:0:0:0:
256,192,159462,1,8,0:0:0:0:
256,192,159685,1,8,0:0:0:0:
256,192,159796,1,8,0:0:0:0:
256,192,159907,1,8,0:0:0:0:
256,192,160018,1,8,0:0:0:0:
256,192,160129,1,0,0:0:0:0:
256,192,160351,1,8,0:0:0:0:
256,192,160574,1,0,0:0:0:0:
256,192,160685,1,0,0:0:0:0:
256,192,160796,1,8,0:0:0:0:
256,192,161018,1,8,0:0:0:0:
256,192,161129,1,8,0:0:0:0:
256,192,161240,1,0,0:0:0:0:
256,192,161462,1,8,0:0:0:0:
256,192,161685,1,8,0:0:0:0:
256,192,161907,1,0,0:0:0:0:
256,192,162018,1,0,0:0:0:0:
256,192,162129,1,8,0:0:0:0:
256,192,162351,1,8,0:0:0:0:
256,192,162574,1,0,0:0:0:0:
256,192,162685,1,0,0:0:0:0:
256,192,162796,1,8,0:0:0:0:
256,192,163018,1,8,0:0:0:0:
256,192,163129,1,8,0:0:0:0:
256,192,163240,1,8,0:0:0:0:
256,192,163351,1,8,0:0:0:0:
256,192,163462,1,0,0:0:0:0:
256,192,163685,1,8,0:0:0:0:
256,192,163907,1,0,0:0:0:0:
256,192,164129,1,0,0:0:0:0:
256,192,164240,1,0,0:0:0:0:
256,192,164351,1,0,0:0:0:0:
256,192,164462,1,0,0:0:0:0:
256,192,164574,1,8,0:0:0:0:
256,192,164796,1,8,0:0:0:0:
256,192,165018,1,8,0:0:0:0:
256,192,165240,1,0,0:0:0:0:
256,192,165351,1,0,0:0:0:0:
256,192,165462,1,8,0:0:0:0:
256,192,165685,1,0,0:0:0:0:
256,192,165907,1,8,0:0:0:0:
256,192,166018,1,8,0:0:0:0:
256,192,166129,1,8,0:0:0:0:
256,192,166351,1,0,0:0:0:0:
256,192,166574,1,8,0:0:0:0:
256,192,166685,1,8,0:0:0:0:
256,192,166796,1,8,0:0:0:0:
256,192,166907,1,8,0:0:0:0:
256,192,167018,1,0,0:0:0:0:
256,192,167240,1,8,0:0:0:0:
256,192,167462,1,0,0:0:0:0:
256,192,167574,1,0,0:0:0:0:
256,192,167685,1,0,0:0:0:0:
256,192,167796,1,0,0:0:0:0:
256,192,167907,1,8,0:0:0:0:
256,192,168129,1,0,0:0:0:0:
256,192,168351,1,8,0:0:0:0:
256,192,168462,1,8,0:0:0:0:
256,192,168574,1,0,0:0:0:0:
256,192,168796,1,0,0:0:0:0:
256,192,168907,1,0,0:0:0:0:
256,192,169018,1,8,0:0:0:0:
256,192,169240,1,0,0:0:0:0:
256,192,169462,1,8,0:0:0:0:
256,192,169685,1,8,0:0:0:0:
256,192,169796,1,8,0:0:0:0:
256,192,169907,1,8,0:0:0:0:
256,192,170018,1,8,0:0:0:0:
256,192,170129,1,0,0:0:0:0:
256,192,170351,1,0,0:0:0:0:
256,192,170574,1,8,0:0:0:0:
256,192,170685,1,8,0:0:0:0:
256,192,170796,1,0,0:0:0:0:
256,192,171018,1,8,0:0:0:0:
256,192,171240,1,0,0:0:0:0:
256,192,171351,1,0,0:0:0:0:
256,192,171462,1,0,0:0:0:0:
256,192,171574,1,0,0:0:0:0:
256,192,171685,1,8,0:0:0:0:
256,192,171907,1,8,0:0:0:0:
256,192,172018,1,8,0:0:0:0:
256,192,172129,1,8,0:0:0:0:
256,192,172240,1,8,0:0:0:0:
256,192,172351,1,0,0:0:0:0:
256,192,172573,1,8,0:0:0:0:
256,192,172796,1,0,0:0:0:0:
256,192,172907,1,0,0:0:0:0:
256,192,173018,1,8,0:0:0:0:
256,192,173240,1,8,0:0:0:0:
256,192,173462,1,8,0:0:0:0:
256,192,173573,1,8,0:0:0:0:
256,192,173685,1,0,0:0:0:0:
256,192,173907,1,0,0:0:0:0:
256,192,174129,1,0,0:0:0:0:
256,192,174351,1,0,0:0:0:0:
256,192,174462,1,0,0:0:0:0:
256,192,174573,1,0,0:0:0:0:
256,192,174685,1,0,0:0:0:0:
256,192,174796,1,8,0:0:0:0:
256,192,175018,1,0,0:0:0:0:
256,192,175129,1,0,0:0:0:0:
256,192,175240,1,8,0:0:0:0:
256,192,175462,1,8,0:0:0:0:
256,192,175685,1,8,0:0:0:0:
256,192,175796,1,8,0:0:0:0:
256,192,175907,1,0,0:0:0:0:
256,192,176129,1,0,0:0:0:0:
256,192,176351,1,8,0:0:0:0:
256,192,176573,1,0,0:0:0:0:
256,192,176685,1,0,0:0:0:0:
256,192,176796,1,0,0:0:0:0:
256,192,176907,1,0,0:0:0:0:
256,192,177018,1,8,0:0:0:0:
256,192,177240,1,8,0:0:0:0:
256,192,177351,1,8,0:0:0:0:
256,192,177462,1,0,0:0:0:0:
256,192,177685,1,0,0:0:0:0:
256,192,177907,1,0,0:0:0:0:
256,192,178129,1,8,0:0:0:0:
256,192,178240,1,8,0:0:0:0:
256,192,178351,1,8,0:0:0:0:
256,192,178573,1,8,0:0:0:0:
256,192,178685,1,8,0:0:0:0:
256,192,178796,1,8,0:0:0:0:
256,192,178907,1,8,0:0:0:0:
256,192,179018,1,0,0:0:0:0:
256,192,179240,1,8,0:0:0:0:
256,192,179462,1,0,0:0:0:0:
256,192,179685,1,8,0:0:0:0:
256,192,179796,1,8,0:0:0:0:
256,192,179907,1,0,0:0:0:0:
256,192,180129,1,8,0:0:0:0:
256,192,180351,1,0,0:0:0:0:
256,192,180462,1,0,0:0:0:0:
256,192,180573,1,8,0:0:0:0:
256,192,180796,1,0,0:0:0:0:
256,192,181018,1,8,0:0:0:0:
256,192,181240,1,8,0:0:0:0:
256,192,181351,1,8,0:0:0:0:
256,192,181462,1,8,0:0:0:0:
256,192,181573,1,8,0:0:0:0:
256,192,181685,1,0,0:0:0:0:
256,192,181907,1,0,0:0:0:0:
256,192,182129,1,0,0:0:0:0:
256,192,182240,1,0,0:0:0:0:
256,192,182351,1,8,0:0:0:0:
256,192,182573,1,8,0:0:0:0:
256,192,182685,1,8,0:0:0:0:
256,192,182796,1,0,0:0:0:0:
256,192,183018,1,8,0:0:0:0:
256,192,183240,1,0,0:0:0:0:
256,192,183351,1,0,0:0:0:0:
256,192,183462,1,0,0:0:0:0:
256,192,183573,1,0,0:0:0:0:
256,192,183685,1,8,0:0:0:0:
256,192,183907,1,0,0:0:0:0:
256,192,184018,1,0,0:0:0:0:
256,192,184129,1,8,0:0:0:0:
256,192,184351,1,8,0:0:0:0:
256,192,184462,1,8,0:0:0:0:
256,192,184573,1,8,0:0:0:0:
256,192,184685,1,8,0:0:0:0:
256,192,184796,1,0,0:0:0:0:
256,192,185018,1,0,0:0:0:0:
256,192,187684,1,0,0:0:0:0:
256,192,188129,1,8,0:0:0:0:
256,192,188573,1,8,0:0:0:0:
256,192,190351,1,0,0:0:0:0:
256,192,191240,1,8,0:0:0:0:
256,192,192129,1,0,0:0:0:0:
256,192,192351,1,0,0:0:0:0:
256,192,192573,1,8,0:0:0:0:
256,192,192795,1,8,0:0:0:0:
256,192,194795,1,0,0:0:0:0:
256,192,195240,1,8,0:0:0:0:
256,192,195684,1,8,0:0:0:0:
256,192,197462,1,0,0:0:0:0:
256,192,198351,1,8,0:0:0:0:
256,192,199240,1,8,0:0:0:0:
