osu file format v14

[General]
AudioFilename: northern_limit.mp3
AudioLeadIn: 0
PreviewTime: 56130
Countdown: 0
SampleSet: Normal
StackLeniency: 0.7
Mode: 1
LetterboxInBreaks: 0
WidescreenStoryboard: 1

[Editor]
DistanceSpacing: 0.1
BeatDivisor: 2
GridSize: 32
TimelineZoom: 1.2

[Metadata]
Title:northern_limit [feat. Sennzai]
TitleUnicode:northern_limit [feat. せんざい]
Artist:Kobaryo
ArtistUnicode:Kobaryo
Creator:youtune3
Version:minion_futsuu
Source:
Tags:Candy Speed Pops Speedcore Psycho Filth Records PFSA-002 Comiket Comic Market 89 Vulkin fa featured artist japanese electronic osu! Aljotzi Minion24 imge aaron91937
BeatmapID:4304401
BeatmapSetID:919028

[Difficulty]
HPDrainRate:7
CircleSize:2
OverallDifficulty:4
ApproachRate:5
SliderMultiplier:1.4
SliderTickRate:1

[Events]
//Background and Video events
0,0,"ColorfulSky.jpg",0,-150
//Break Periods
//Storyboard Layer 0 (Background)
//Storyboard Layer 1 (Fail)
//Storyboard Layer 2 (Pass)
//Storyboard Layer 3 (Foreground)
//Storyboard Layer 4 (Overlay)
//Storyboard Sound Samples

[TimingPoints]
131,444.444444444444,4,1,0,60,1,0
28575,-100,4,1,0,70,0,0
57019,222.222222222222,4,1,0,80,1,1
57019,-200,4,1,0,80,0,1
85463,444.444444444444,4,1,0,60,1,0
128129,-100,4,1,0,70,0,0
156574,222.222222222222,4,1,0,80,1,1
156574,-200,4,1,0,80,0,1
185018,444.444444444444,4,1,0,60,1,0

[HitObjects]
416,323,131,5,0,0:0:0:0:
366,291,3686,1,8,0:0:0:0:
357,287,5464,1,8,0:0:0:0:
340,270,6353,1,8,0:0:0:0:
340,270,7242,1,0,0:0:0:0:
380,295,10797,1,8,0:0:0:0:
324,286,12575,1,0,0:0:0:0:
324,286,13464,1,8,0:0:0:0:
326,298,14353,1,8,0:0:0:0:
335,304,15242,1,0,0:0:0:0:
335,304,15908,1,8,0:0:0:0:
341,300,17019,1,8,0:0:0:0:
323,298,17908,1,0,0:0:0:0:
331,318,20575,1,8,0:0:0:0:
322,322,21464,1,0,0:0:0:0:
322,322,22353,1,8,0:0:0:0:
322,322,23019,1,0,0:0:0:0:
391,318,24130,1,0,0:0:0:0:
391,318,25019,1,8,0:0:0:0:
318,308,27686,1,0,0:0:0:0:
395,265,28575,1,0,0:0:0:0:
336,298,29464,1,8,0:0:0:0:
312,297,30130,1,0,0:0:0:0:
332,296,30797,1,0,0:0:0:0:
332,296,31242,1,8,0:0:0:0:
332,296,32130,1,0,0:0:0:0:
332,296,33019,1,8,0:0:0:0:
313,301,34353,1,0,0:0:0:0:
313,301,34797,1,8,0:0:0:0:
313,301,35686,1,0,0:0:0:0:
313,301,36575,1,8,0:0:0:0:
313,301,37242,1,8,0:0:0:0:
313,301,37908,1,0,0:0:0:0:
362,320,38353,1,8,0:0:0:0:
385,313,39242,1,0,0:0:0:0:
361,310,40130,1,8,0:0:0:0:
360,306,41908,1,0,0:0:0:0:
360,306,42797,1,8,0:0:0:0:
356,303,45464,1,8,0:0:0:0:
356,303,46353,1,8,0:0:0:0:
347,305,49019,1,0,0:0:0:0:
347,305,49908,1,8,0:0:0:0:
361,345,52575,1,8,0:0:0:0:
361,345,53464,1,8,0:0:0:0:
324,331,56130,1,0,0:0:0:0:
324,331,57019,1,0,0:0:0:0:
324,331,57685,1,0,0:0:0:0:
324,331,57907,1,8,0:0:0:0:
328,343,58352,1,0,0:0:0:0:
328,343,58796,1,8,0:0:0:0:
310,326,59130,1,0,0:0:0:0:
305,337,59685,1,8,0:0:0:0:
298,325,60574,1,8,0:0:0:0:
296,325,60907,1,0,0:0:0:0:
302,331,61241,1,0,0:0:0:0:
298,325,61463,1,8,0:0:0:0:
282,337,61907,1,0,0:0:0:0:
283,336,62352,1,8,0:0:0:0:
282,337,62796,1,0,0:0:0:0:
283,336,63241,1,8,0:0:0:0:
281,323,63463,1,8,0:0:0:0:
280,324,63685,1,0,0:0:0:0:
273,327,63907,1,8,0:0:0:0:
283,336,64130,1,0,0:0:0:0:
274,333,64796,1,0,0:0:0:0:
274,333,65018,1,8,0:0:0:0:
274,333,65463,1,0,0:0:0:0:
274,333,65907,1,8,0:0:0:0:
274,333,66241,1,0,0:0:0:0:
274,333,66796,1,8,0:0:0:0:
256,328,67685,1,0,0:0:0:0:
261,311,68018,1,0,0:0:0:0:
271,328,68352,1,0,0:0:0:0:
271,328,68574,1,8,0:0:0:0:
270,305,69018,1,8,0:0:0:0:
273,273,69463,1,0,0:0:0:0:
266,288,69907,1,8,0:0:0:0:
266,287,70352,1,8,0:0:0:0:
263,281,70574,1,0,0:0:0:0:
253,278,70796,1,8,0:0:0:0:
253,278,71018,1,8,0:0:0:0:
315,318,71241,1,0,0:0:0:0:
331,319,71907,1,0,0:0:0:0:
343,313,72130,1,8,0:0:0:0:
332,306,72574,1,0,0:0:0:0:
332,304,73018,1,8,0:0:0:0:
343,306,73352,1,0,0:0:0:0:
332,304,73685,1,0,0:0:0:0:
325,303,73907,1,8,0:0:0:0:
337,299,74574,1,0,0:0:0:0:
345,289,74796,1,8,0:0:0:0:
316,296,75130,1,0,0:0:0:0:
321,287,75685,1,8,0:0:0:0:
314,298,76130,1,0,0:0:0:0:
309,281,76574,1,8,0:0:0:0:
310,285,77018,1,8,0:0:0:0:
301,288,77463,1,0,0:0:0:0:
302,280,77685,1,8,0:0:0:0:
286,273,77907,1,0,0:0:0:0:
302,278,78130,1,8,0:0:0:0:
297,268,78352,1,0,0:0:0:0:
285,272,79018,1,0,0:0:0:0:
309,275,79241,1,8,0:0:0:0:
292,295,79685,1,0,0:0:0:0:
291,274,80130,1,8,0:0:0:0:
282,286,80463,1,0,0:0:0:0:
279,282,80796,1,0,0:0:0:0:
284,274,81018,1,8,0:0:0:0:
294,274,81685,1,0,0:0:0:0:
287,265,81907,1,8,0:0:0:0:
287,266,82352,1,0,0:0:0:0:
261,277,82796,1,8,0:0:0:0:
261,272,83018,1,8,0:0:0:0:
272,272,83241,1,0,0:0:0:0:
251,277,83685,1,8,0:0:0:0:
268,282,83907,1,0,0:0:0:0:
253,278,84130,1,8,0:0:0:0:
268,279,84574,1,0,0:0:0:0:
279,270,84796,1,8,0:0:0:0:
278,271,85018,1,8,0:0:0:0:
278,271,85241,1,8,0:0:0:0:
268,279,85463,1,0,0:0:0:0:
384,320,88129,1,0,0:0:0:0:
384,320,89018,1,8,0:0:0:0:
364,316,90796,1,8,0:0:0:0:
364,316,91685,1,8,0:0:0:0:
364,316,92574,1,0,0:0:0:0:
353,306,95240,1,0,0:0:0:0:
353,306,96129,1,8,0:0:0:0:
336,310,98796,1,0,0:0:0:0:
336,310,99685,1,8,0:0:0:0:
332,293,102351,1,8,0:0:0:0:
332,293,103240,1,8,0:0:0:0:
359,311,105018,1,8,0:0:0:0:
359,311,105907,1,8,0:0:0:0:
359,311,106796,1,0,0:0:0:0:
345,299,108574,1,0,0:0:0:0:
345,299,109462,1,8,0:0:0:0:
345,299,110351,1,0,0:0:0:0:
388,299,112129,1,8,0:0:0:0:
339,287,113018,1,0,0:0:0:0:
388,292,113907,1,8,0:0:0:0:
368,278,114796,1,0,0:0:0:0:
368,278,115462,1,8,0:0:0:0:
370,273,116574,1,8,0:0:0:0:
358,284,117462,1,0,0:0:0:0:
329,275,119240,1,8,0:0:0:0:
386,315,120129,1,0,0:0:0:0:
369,295,121018,1,8,0:0:0:0:
369,295,121907,1,0,0:0:0:0:
358,286,122574,1,8,0:0:0:0:
363,300,123685,1,8,0:0:0:0:
363,300,124574,1,0,0:0:0:0:
326,297,126351,1,0,0:0:0:0:
326,297,127240,1,0,0:0:0:0:
376,280,128129,1,8,0:0:0:0:
406,282,129018,1,8,0:0:0:0:
366,297,129685,1,0,0:0:0:0:
366,297,130351,1,0,0:0:0:0:
350,296,130796,1,8,0:0:0:0:
321,301,131685,1,0,0:0:0:0:
333,304,132574,1,8,0:0:0:0:
317,300,133907,1,0,0:0:0:0:
324,295,134351,1,8,0:0:0:0:
312,298,135240,1,0,0:0:0:0:
380,287,136129,1,8,0:0:0:0:
342,294,136796,1,0,0:0:0:0:
330,287,137462,1,0,0:0:0:0:
354,287,137907,1,8,0:0:0:0:
328,291,138796,1,8,0:0:0:0:
347,280,139685,1,8,0:0:0:0:
343,295,141018,1,0,0:0:0:0:
353,287,141462,1,8,0:0:0:0:
393,277,142351,1,0,0:0:0:0:
355,275,144129,1,8,0:0:0:0:
333,263,145018,1,0,0:0:0:0:
353,278,145907,1,8,0:0:0:0:
332,313,147685,1,0,0:0:0:0:
332,313,148574,1,0,0:0:0:0:
319,273,149462,1,8,0:0:0:0:
333,252,151240,1,8,0:0:0:0:
324,271,152129,1,8,0:0:0:0:
372,287,153018,1,0,0:0:0:0:
328,269,154796,1,8,0:0:0:0:
235,298,155685,1,0,0:0:0:0:
345,298,156574,1,8,0:0:0:0:
365,292,156796,1,0,0:0:0:0:
334,312,157018,1,8,0:0:0:0:
329,319,157462,1,0,0:0:0:0:
363,309,157907,1,8,0:0:0:0:
363,309,158129,1,8,0:0:0:0:
356,317,158351,1,0,0:0:0:0:
355,317,158796,1,0,0:0:0:0:
337,304,159240,1,8,0:0:0:0:
320,310,159462,1,0,0:0:0:0:
336,303,159685,1,8,0:0:0:0:
337,304,159907,1,8,0:0:0:0:
323,312,160018,1,8,0:0:0:0:
331,314,160129,1,0,0:0:0:0:
321,313,161018,1,0,0:0:0:0:
321,313,161240,1,8,0:0:0:0:
317,318,161462,1,0,0:0:0:0:
284,301,161907,1,8,0:0:0:0:
294,304,162129,1,0,0:0:0:0:
296,296,162351,1,0,0:0:0:0:
286,287,162796,1,8,0:0:0:0:
318,280,163018,1,0,0:0:0:0:
286,287,163240,1,8,0:0:0:0:
305,298,163351,1,8,0:0:0:0:
299,299,163462,1,8,0:0:0:0:
294,282,163685,1,8,0:0:0:0:
307,284,164574,1,0,0:0:0:0:
307,284,164796,1,0,0:0:0:0:
315,278,165018,1,8,0:0:0:0:
313,278,165240,1,8,0:0:0:0:
325,291,165462,1,0,0:0:0:0:
326,289,165907,1,0,0:0:0:0:
327,279,166129,1,8,0:0:0:0:
304,278,166351,1,0,0:0:0:0:
303,278,166796,1,0,0:0:0:0:
311,278,167018,1,0,0:0:0:0:
291,286,167129,1,0,0:0:0:0:
307,267,167240,1,8,0:0:0:0:
305,274,168129,1,8,0:0:0:0:
298,276,168574,1,8,0:0:0:0:
296,275,168796,1,0,0:0:0:0:
305,274,169018,1,8,0:0:0:0:
298,276,169462,1,0,0:0:0:0:
288,276,169685,1,0,0:0:0:0:
295,278,169907,1,8,0:0:0:0:
298,276,170129,1,8,0:0:0:0:
279,273,170240,1,8,0:0:0:0:
298,276,170351,1,0,0:0:0:0:
349,282,170796,1,0,0:0:0:0:
348,265,171240,1,8,0:0:0:0:
331,271,171462,1,0,0:0:0:0:
348,265,171685,1,8,0:0:0:0:
348,265,171907,1,8,0:0:0:0:
330,271,172129,1,0,0:0:0:0:
341,268,172573,1,8,0:0:0:0:
330,271,173018,1,0,0:0:0:0:
328,271,173240,1,0,0:0:0:0:
341,268,173462,1,8,0:0:0:0:
330,271,173685,1,0,0:0:0:0:
307,278,173796,1,0,0:0:0:0:
330,271,173907,1,8,0:0:0:0:
341,268,174351,1,8,0:0:0:0:
330,271,174796,1,0,0:0:0:0:
330,269,175018,1,0,0:0:0:0:
348,291,175240,1,8,0:0:0:0:
348,290,175685,1,8,0:0:0:0:
326,288,175907,1,0,0:0:0:0:
348,291,176129,1,8,0:0:0:0:
324,288,176573,1,0,0:0:0:0:
328,280,177018,1,0,0:0:0:0:
328,280,177240,1,0,0:0:0:0:
322,271,177462,1,8,0:0:0:0:
322,271,177685,1,8,0:0:0:0:
320,267,177796,1,8,0:0:0:0:
340,268,177907,1,8,0:0:0:0:
326,273,178796,1,0,0:0:0:0:
326,273,179018,1,0,0:0:0:0:
337,270,179240,1,8,0:0:0:0:
326,273,179462,1,0,0:0:0:0:
342,268,179685,1,0,0:0:0:0:
341,263,180129,1,8,0:0:0:0:
326,273,180351,1,8,0:0:0:0:
317,263,180573,1,0,0:0:0:0:
327,277,181018,1,0,0:0:0:0:
337,186,181240,1,8,0:0:0:0:
315,276,181351,1,0,0:0:0:0:
317,263,181462,1,0,0:0:0:0:
332,269,181907,1,8,0:0:0:0:
327,271,182129,1,8,0:0:0:0:
317,263,182351,1,0,0:0:0:0:
317,263,182573,1,0,0:0:0:0:
332,269,182796,1,8,0:0:0:0:
326,266,183240,1,8,0:0:0:0:
302,277,183685,1,0,0:0:0:0:
330,271,183907,1,0,0:0:0:0:
309,274,184129,1,8,0:0:0:0:
331,271,184351,1,0,0:0:0:0:
302,277,184573,1,8,0:0:0:0:
330,271,184796,1,8,0:0:0:0:
312,274,184907,1,8,0:0:0:0:
310,282,185018,1,0,0:0:0:0:
336,280,187684,1,0,0:0:0:0:
336,280,188573,1,8,0:0:0:0:
336,280,190351,1,0,0:0:0:0:
336,280,191240,1,8,0:0:0:0:
336,280,192129,1,0,0:0:0:0:
297,293,194795,1,0,0:0:0:0:
297,293,195684,1,8,0:0:0:0:
405,306,197462,1,8,0:0:0:0:
405,306,198351,1,0,0:0:0:0:
405,306,199240,1,8,0:0:0:0:
