osu file format v14

[General]
AudioFilename: northern_limit.mp3
AudioLeadIn: 0
PreviewTime: 56130
Countdown: 0
SampleSet: Normal
StackLeniency: 0.7
Mode: 1
LetterboxInBreaks: 0
WidescreenStoryboard: 0

[Editor]
DistanceSpacing: 0.4
BeatDivisor: 6
GridSize: 32
TimelineZoom: 6.199996

[Metadata]
Title:northern_limit [feat. Sennzai]
TitleUnicode:northern_limit [feat. せんざい]
Artist:Kobaryo
ArtistUnicode:Kobaryo
Creator:youtune3
Version:limit_breaker
Source:
Tags:Candy Speed Pops Speedcore Psycho Filth Records PFSA-002 Comiket Comic Market 89 Vulkin fa featured artist japanese electronic osu! Aljotzi Minion24 imge aaron91937
BeatmapID:1919009
BeatmapSetID:919028

[Difficulty]
HPDrainRate:3
CircleSize:2
OverallDifficulty:9
ApproachRate:10
SliderMultiplier:1.4
SliderTickRate:1

[Events]
//Background and Video events
0,0,"ColorfulSky.jpg",0,-150
//Break Periods
//Storyboard Layer 0 (Background)
//Storyboard Layer 1 (Fail)
//Storyboard Layer 2 (Pass)
//Storyboard Layer 3 (Foreground)
//Storyboard Layer 4 (Overlay)
//Storyboard Sound Samples

[TimingPoints]
131,444.444444444444,4,1,0,60,1,0
14353,-83.3333333333333,4,1,0,60,0,0
28575,-66.6666666666667,4,1,0,70,0,0
44575,-71.4285714285714,4,1,0,70,0,0
46353,-76.9230769230769,4,1,0,70,0,0
48130,-83.3333333333333,4,1,0,70,0,0
49908,-90.9090909090909,4,1,0,70,0,0
51686,-100,4,1,0,70,0,0
53464,-111.111111111111,4,1,0,70,0,0
57019,222.222222222222,4,1,0,80,1,1
85463,444.444444444444,4,1,0,60,1,0
85463,-50,4,1,0,60,0,0
85907,-100,4,1,0,60,0,0
88129,-100,4,1,0,60,0,0
99574,-90.9090909090909,4,1,0,60,0,0
99629,-86.9565217391304,4,1,0,60,0,0
99685,-83.3333333333333,4,1,0,60,0,0
113685,-80,4,1,0,60,0,0
113796,-76.9230769230769,4,1,0,60,0,0
113907,-74.0740740740741,4,1,0,60,0,0
128129,-66.6666666666667,4,1,0,70,0,0
144129,-71.4285714285714,4,1,0,70,0,0
145907,-76.9230769230769,4,1,0,70,0,0
147685,-83.3333333333333,4,1,0,70,0,0
149462,-90.9090909090909,4,1,0,70,0,0
151240,-100,4,1,0,70,0,0
154796,-111.111111111111,4,1,0,70,0,0
156574,222.222222222222,4,1,0,80,1,1
156574,-83.3333333333333,4,1,0,80,0,1
185018,444.444444444444,4,1,0,60,1,0
185018,-41.6666666666667,4,1,0,60,0,0
185240,-100,4,1,0,60,0,0

[HitObjects]
256,192,19,5,0,0:0:0:0:
256,192,75,1,0,0:0:0:0:
256,192,131,1,8,0:0:0:0:
256,192,2797,1,8,0:0:0:0:
256,192,3242,1,8,0:0:0:0:
256,192,3686,1,0,0:0:0:0:
256,192,5464,1,8,0:0:0:0:
256,192,6353,1,8,0:0:0:0:
256,192,6797,1,0,0:0:0:0:
256,192,7242,1,0,0:0:0:0:
256,192,7464,1,0,0:0:0:0:
256,192,7686,1,8,0:0:0:0:
256,192,7908,1,0,0:0:0:0:
256,192,9908,1,8,0:0:0:0:
256,192,10353,1,0,0:0:0:0:
256,192,10797,1,8,0:0:0:0:
256,192,12575,1,8,0:0:0:0:
256,192,13464,1,0,0:0:0:0:
256,192,14353,1,0,0:0:0:0:
256,192,14575,1,8,0:0:0:0:
256,192,15019,1,8,0:0:0:0:
256,192,15130,1,8,0:0:0:0:
256,192,15242,1,0,0:0:0:0:
256,192,15353,1,0,0:0:0:0:
256,192,15464,1,8,0:0:0:0:
256,192,15686,1,8,0:0:0:0:
256,192,15908,1,0,0:0:0:0:
256,192,16130,1,8,0:0:0:0:
256,192,16575,1,0,0:0:0:0:
256,192,16797,1,8,0:0:0:0:
256,192,16908,1,0,0:0:0:0:
256,192,17019,1,8,0:0:0:0:
256,192,17242,1,8,0:0:0:0:
256,192,17464,1,0,0:0:0:0:
256,192,17686,1,8,0:0:0:0:
256,192,17908,1,0,0:0:0:0:
256,192,18130,1,8,0:0:0:0:
256,192,18242,1,8,0:0:0:0:
256,192,18575,1,8,0:0:0:0:
256,192,18686,1,0,0:0:0:0:
256,192,18797,1,8,0:0:0:0:
256,192,19019,1,8,0:0:0:0:
256,192,19464,1,0,0:0:0:0:
256,192,19575,1,0,0:0:0:0:
256,192,19686,1,8,0:0:0:0:
256,192,19908,1,8,0:0:0:0:
256,192,20353,1,0,0:0:0:0:
256,192,20464,1,8,0:0:0:0:
256,192,20575,1,0,0:0:0:0:
256,192,20797,1,8,0:0:0:0:
256,192,21242,1,8,0:0:0:0:
256,192,21464,1,8,0:0:0:0:
256,192,21686,1,0,0:0:0:0:
256,192,21908,1,8,0:0:0:0:
256,192,22130,1,8,0:0:0:0:
256,192,22242,1,8,0:0:0:0:
256,192,22353,1,0,0:0:0:0:
256,192,22575,1,8,0:0:0:0:
256,192,22908,1,0,0:0:0:0:
256,192,23019,1,8,0:0:0:0:
256,192,23242,1,8,0:0:0:0:
256,192,23353,1,0,0:0:0:0:
256,192,23686,1,8,0:0:0:0:
256,192,23908,1,8,0:0:0:0:
256,192,24019,1,8,0:0:0:0:
256,192,24130,1,0,0:0:0:0:
256,192,24353,1,8,0:0:0:0:
256,192,24464,1,8,0:0:0:0:
256,192,24575,1,8,0:0:0:0:
256,192,24797,1,0,0:0:0:0:
256,192,25019,1,8,0:0:0:0:
256,192,25686,1,0,0:0:0:0:
256,192,25797,1,0,0:0:0:0:
256,192,25908,1,8,0:0:0:0:
256,192,26130,1,8,0:0:0:0:
256,192,26575,1,0,0:0:0:0:
256,192,26686,1,8,0:0:0:0:
256,192,26797,1,8,0:0:0:0:
256,192,27019,1,8,0:0:0:0:
256,192,27464,1,8,0:0:0:0:
256,192,27686,1,8,0:0:0:0:
96,32,27797,2,0,L|352:32,1,251.999992309571
256,192,28575,1,0,0:0:0:0:
256,192,29353,1,0,0:0:0:0:
256,192,29464,1,8,0:0:0:0:
256,192,29686,1,8,0:0:0:0:
256,192,30130,1,0,0:0:0:0:
256,192,30353,1,8,0:0:0:0:
256,192,30797,1,8,0:0:0:0:
256,192,31242,1,8,0:0:0:0:
256,192,31686,1,0,0:0:0:0:
256,192,31908,1,8,0:0:0:0:
256,192,32130,1,0,0:0:0:0:
256,192,32575,1,8,0:0:0:0:
256,192,32908,1,8,0:0:0:0:
256,192,33019,1,8,0:0:0:0:
256,192,33686,1,8,0:0:0:0:
256,192,33908,1,8,0:0:0:0:
256,192,34130,1,0,0:0:0:0:
256,192,34353,1,0,0:0:0:0:
256,192,34797,1,8,0:0:0:0:
256,192,35242,1,0,0:0:0:0:
256,192,35686,1,0,0:0:0:0:
256,192,36130,1,8,0:0:0:0:
256,192,36464,1,8,0:0:0:0:
256,192,36575,1,8,0:0:0:0:
256,192,37242,1,8,0:0:0:0:
256,192,37464,1,8,0:0:0:0:
256,192,37908,1,0,0:0:0:0:
256,192,38353,1,8,0:0:0:0:
256,192,38575,1,8,0:0:0:0:
256,192,38797,1,0,0:0:0:0:
256,192,39019,1,0,0:0:0:0:
256,192,39242,1,8,0:0:0:0:
256,192,39908,1,8,0:0:0:0:
256,192,40019,1,0,0:0:0:0:
256,192,40130,1,8,0:0:0:0:
256,192,40575,1,8,0:0:0:0:
256,192,40797,1,8,0:0:0:0:
256,192,41019,1,0,0:0:0:0:
256,192,41242,1,0,0:0:0:0:
256,192,41464,1,0,0:0:0:0:
256,192,41908,1,8,0:0:0:0:
256,192,42797,1,0,0:0:0:0:
256,192,44575,1,8,0:0:0:0:
256,192,46353,1,8,0:0:0:0:
256,192,47242,1,0,0:0:0:0:
256,192,48130,1,8,0:0:0:0:
256,192,49019,1,0,0:0:0:0:
256,192,49908,1,8,0:0:0:0:
256,192,51686,1,8,0:0:0:0:
256,192,52575,1,0,0:0:0:0:
256,192,53464,1,0,0:0:0:0:
256,192,54130,12,0,56130,0:0:0:0:
256,192,57019,5,0,0:0:0:0:
256,192,57130,1,8,0:0:0:0:
256,192,57241,1,0,0:0:0:0:
256,192,57352,1,8,0:0:0:0:
256,192,57407,1,8,0:0:0:0:
256,192,57463,1,0,0:0:0:0:
256,192,57574,1,8,0:0:0:0:
256,192,57685,1,0,0:0:0:0:
256,192,57741,1,0,0:0:0:0:
256,192,57796,1,8,0:0:0:0:
256,192,57852,1,0,0:0:0:0:
256,192,57907,1,8,0:0:0:0:
256,192,58019,1,0,0:0:0:0:
256,192,58130,1,8,0:0:0:0:
256,192,58241,1,0,0:0:0:0:
256,192,58352,1,8,0:0:0:0:
256,192,58407,1,8,0:0:0:0:
256,192,58463,1,8,0:0:0:0:
256,192,58519,1,8,0:0:0:0:
256,192,58574,1,0,0:0:0:0:
256,192,58685,1,0,0:0:0:0:
256,192,58796,1,8,0:0:0:0:
256,192,59019,1,0,0:0:0:0:
256,192,59130,1,0,0:0:0:0:
256,192,59185,1,0,0:0:0:0:
256,192,59241,1,8,0:0:0:0:
256,192,59352,1,0,0:0:0:0:
256,192,59463,1,0,0:0:0:0:
256,192,59574,1,8,0:0:0:0:
256,192,59630,1,0,0:0:0:0:
256,192,59685,1,8,0:0:0:0:
256,192,59722,1,8,0:0:0:0:
256,192,59759,1,8,0:0:0:0:
256,192,59796,1,0,0:0:0:0:
256,192,59907,1,0,0:0:0:0:
256,192,60019,1,0,0:0:0:0:
256,192,60130,1,8,0:0:0:0:
256,192,60185,1,0,0:0:0:0:
256,192,60241,1,8,0:0:0:0:
256,192,60296,1,8,0:0:0:0:
256,192,60352,1,0,0:0:0:0:
256,192,60389,1,0,0:0:0:0:
256,192,60426,1,0,0:0:0:0:
256,192,60463,1,8,0:0:0:0:
256,192,60500,1,8,0:0:0:0:
256,192,60537,1,8,0:0:0:0:
256,192,60574,1,0,0:0:0:0:
256,192,60796,1,0,0:0:0:0:
256,192,60907,1,0,0:0:0:0:
256,192,60963,1,0,0:0:0:0:
256,192,61019,1,8,0:0:0:0:
256,192,61130,1,8,0:0:0:0:
256,192,61241,1,0,0:0:0:0:
256,192,61352,1,0,0:0:0:0:
256,192,61407,1,0,0:0:0:0:
256,192,61463,1,8,0:0:0:0:
256,192,61518,1,8,0:0:0:0:
256,192,61574,1,0,0:0:0:0:
256,192,61685,1,0,0:0:0:0:
256,192,61796,1,8,0:0:0:0:
256,192,61907,1,8,0:0:0:0:
256,192,61963,1,8,0:0:0:0:
256,192,62018,1,0,0:0:0:0:
256,192,62074,1,0,0:0:0:0:
256,192,62130,1,8,0:0:0:0:
256,192,62241,1,0,0:0:0:0:
256,192,62352,1,8,0:0:0:0:
256,192,62574,1,0,0:0:0:0:
256,192,62630,1,0,0:0:0:0:
256,192,62685,1,0,0:0:0:0:
256,192,62741,1,0,0:0:0:0:
256,192,62796,1,8,0:0:0:0:
256,192,62907,1,0,0:0:0:0:
256,192,63018,1,8,0:0:0:0:
256,192,63074,1,0,0:0:0:0:
256,192,63130,1,8,0:0:0:0:
256,192,63185,1,0,0:0:0:0:
256,192,63241,1,8,0:0:0:0:
256,192,63278,1,8,0:0:0:0:
256,192,63315,1,8,0:0:0:0:
256,192,63352,1,0,0:0:0:0:
256,192,63407,1,0,0:0:0:0:
256,192,63463,1,8,0:0:0:0:
256,192,63500,1,0,0:0:0:0:
256,192,63537,1,0,0:0:0:0:
256,192,63574,1,8,0:0:0:0:
256,192,63630,1,0,0:0:0:0:
256,192,63685,1,8,0:0:0:0:
256,192,63741,1,8,0:0:0:0:
256,192,63796,1,0,0:0:0:0:
256,192,63852,1,0,0:0:0:0:
256,192,63907,1,8,0:0:0:0:
256,192,63944,1,8,0:0:0:0:
256,192,63981,1,8,0:0:0:0:
256,192,64018,1,8,0:0:0:0:
256,192,64056,1,8,0:0:0:0:
256,192,64093,1,8,0:0:0:0:
256,192,64130,1,0,0:0:0:0:
256,192,64352,1,0,0:0:0:0:
256,192,64463,1,8,0:0:0:0:
256,192,64518,1,8,0:0:0:0:
256,192,64574,1,0,0:0:0:0:
256,192,64685,1,8,0:0:0:0:
256,192,64796,1,8,0:0:0:0:
256,192,64907,1,0,0:0:0:0:
256,192,65018,1,8,0:0:0:0:
256,192,65074,1,0,0:0:0:0:
256,192,65130,1,8,0:0:0:0:
256,192,65185,1,8,0:0:0:0:
256,192,65241,1,0,0:0:0:0:
256,192,65352,1,8,0:0:0:0:
256,192,65463,1,0,0:0:0:0:
256,192,65518,1,0,0:0:0:0:
256,192,65574,1,8,0:0:0:0:
256,192,65630,1,8,0:0:0:0:
256,192,65685,1,0,0:0:0:0:
256,192,65796,1,0,0:0:0:0:
256,192,65907,1,8,0:0:0:0:
256,192,66130,1,0,0:0:0:0:
256,192,66241,1,8,0:0:0:0:
256,192,66296,1,8,0:0:0:0:
256,192,66352,1,0,0:0:0:0:
256,192,66463,1,0,0:0:0:0:
256,192,66518,1,0,0:0:0:0:
256,192,66574,1,8,0:0:0:0:
256,192,66685,1,0,0:0:0:0:
256,192,66741,1,0,0:0:0:0:
256,192,66796,1,8,0:0:0:0:
256,192,66833,1,8,0:0:0:0:
256,192,66870,1,8,0:0:0:0:
256,192,66907,1,0,0:0:0:0:
256,192,67018,1,0,0:0:0:0:
256,192,67130,1,0,0:0:0:0:
256,192,67241,1,8,0:0:0:0:
256,192,67296,1,0,0:0:0:0:
256,192,67352,1,8,0:0:0:0:
256,192,67407,1,0,0:0:0:0:
256,192,67463,1,8,0:0:0:0:
256,192,67500,1,8,0:0:0:0:
256,192,67537,1,8,0:0:0:0:
256,192,67574,1,0,0:0:0:0:
256,192,67611,1,0,0:0:0:0:
256,192,67648,1,0,0:0:0:0:
256,192,67685,1,8,0:0:0:0:
256,192,67907,1,0,0:0:0:0:
256,192,68018,1,0,0:0:0:0:
256,192,68074,1,0,0:0:0:0:
256,192,68130,1,8,0:0:0:0:
256,192,68185,1,0,0:0:0:0:
256,192,68241,1,8,0:0:0:0:
256,192,68296,1,0,0:0:0:0:
256,192,68352,1,8,0:0:0:0:
256,192,68463,1,0,0:0:0:0:
256,192,68574,1,8,0:0:0:0:
256,192,68685,1,8,0:0:0:0:
256,192,68741,1,0,0:0:0:0:
256,192,68796,1,8,0:0:0:0:
256,192,68852,1,8,0:0:0:0:
256,192,68907,1,0,0:0:0:0:
256,192,68963,1,0,0:0:0:0:
256,192,69018,1,8,0:0:0:0:
256,192,69056,1,8,0:0:0:0:
256,192,69093,1,8,0:0:0:0:
256,192,69130,1,0,0:0:0:0:
256,192,69185,1,0,0:0:0:0:
256,192,69241,1,8,0:0:0:0:
256,192,69296,1,8,0:0:0:0:
256,192,69352,1,8,0:0:0:0:
256,192,69407,1,8,0:0:0:0:
256,192,69463,1,0,0:0:0:0:
256,192,69685,1,0,0:0:0:0:
256,192,69796,1,0,0:0:0:0:
256,192,69852,1,0,0:0:0:0:
256,192,69907,1,8,0:0:0:0:
256,192,70018,1,8,0:0:0:0:
256,192,70130,1,8,0:0:0:0:
256,192,70185,1,8,0:0:0:0:
256,192,70241,1,0,0:0:0:0:
256,192,70352,1,8,0:0:0:0:
256,192,70389,1,0,0:0:0:0:
256,192,70426,1,0,0:0:0:0:
256,192,70463,1,8,0:0:0:0:
256,192,70518,1,8,0:0:0:0:
256,192,70574,1,0,0:0:0:0:
256,192,70611,1,0,0:0:0:0:
256,192,70648,1,0,0:0:0:0:
256,192,70685,1,8,0:0:0:0:
256,192,70741,1,8,0:0:0:0:
256,192,70796,1,0,0:0:0:0:
256,192,70852,1,0,0:0:0:0:
256,192,70907,1,8,0:0:0:0:
256,192,70944,1,0,0:0:0:0:
256,192,70981,1,0,0:0:0:0:
256,192,71018,1,8,0:0:0:0:
256,192,71056,1,0,0:0:0:0:
256,192,71093,1,0,0:0:0:0:
256,192,71130,1,8,0:0:0:0:
256,192,71241,1,0,0:0:0:0:
256,192,71352,1,0,0:0:0:0:
256,192,71463,1,8,0:0:0:0:
256,192,71574,1,8,0:0:0:0:
256,192,71630,1,8,0:0:0:0:
256,192,71685,1,0,0:0:0:0:
256,192,71796,1,0,0:0:0:0:
256,192,71907,1,8,0:0:0:0:
256,192,72018,1,0,0:0:0:0:
256,192,72130,1,8,0:0:0:0:
256,192,72185,1,8,0:0:0:0:
256,192,72241,1,0,0:0:0:0:
256,192,72296,1,0,0:0:0:0:
256,192,72352,1,8,0:0:0:0:
256,192,72463,1,0,0:0:0:0:
256,192,72574,1,0,0:0:0:0:
256,192,72630,1,0,0:0:0:0:
256,192,72685,1,0,0:0:0:0:
256,192,72741,1,0,0:0:0:0:
256,192,72796,1,8,0:0:0:0:
256,192,72907,1,8,0:0:0:0:
256,192,73018,1,0,0:0:0:0:
256,192,73130,1,8,0:0:0:0:
256,192,73241,1,8,0:0:0:0:
256,192,73296,1,0,0:0:0:0:
256,192,73352,1,8,0:0:0:0:
256,192,73407,1,8,0:0:0:0:
256,192,73463,1,0,0:0:0:0:
256,192,73574,1,0,0:0:0:0:
256,192,73685,1,8,0:0:0:0:
256,192,73741,1,8,0:0:0:0:
256,192,73796,1,0,0:0:0:0:
256,192,73852,1,0,0:0:0:0:
256,192,73907,1,8,0:0:0:0:
256,192,73944,1,8,0:0:0:0:
256,192,73981,1,8,0:0:0:0:
256,192,74018,1,0,0:0:0:0:
256,192,74074,1,0,0:0:0:0:
256,192,74130,1,8,0:0:0:0:
256,192,74185,1,0,0:0:0:0:
256,192,74241,1,8,0:0:0:0:
256,192,74296,1,8,0:0:0:0:
256,192,74352,1,0,0:0:0:0:
256,192,74407,1,0,0:0:0:0:
256,192,74463,1,8,0:0:0:0:
256,192,74518,1,0,0:0:0:0:
256,192,74574,1,8,0:0:0:0:
256,192,74611,1,8,0:0:0:0:
256,192,74648,1,8,0:0:0:0:
256,192,74685,1,0,0:0:0:0:
256,192,74722,1,0,0:0:0:0:
256,192,74759,1,0,0:0:0:0:
256,192,74796,1,8,0:0:0:0:
256,192,74907,1,0,0:0:0:0:
256,192,75018,1,0,0:0:0:0:
256,192,75130,1,8,0:0:0:0:
256,192,75185,1,8,0:0:0:0:
256,192,75241,1,0,0:0:0:0:
256,192,75352,1,8,0:0:0:0:
256,192,75463,1,0,0:0:0:0:
256,192,75574,1,8,0:0:0:0:
256,192,75685,1,0,0:0:0:0:
256,192,75741,1,0,0:0:0:0:
256,192,75796,1,8,0:0:0:0:
256,192,75852,1,8,0:0:0:0:
256,192,75907,1,0,0:0:0:0:
256,192,76018,1,0,0:0:0:0:
256,192,76130,1,8,0:0:0:0:
256,192,76185,1,8,0:0:0:0:
256,192,76241,1,8,0:0:0:0:
256,192,76296,1,8,0:0:0:0:
256,192,76352,1,0,0:0:0:0:
256,192,76463,1,0,0:0:0:0:
256,192,76574,1,0,0:0:0:0:
256,192,76630,1,0,0:0:0:0:
256,192,76685,1,8,0:0:0:0:
256,192,76741,1,0,0:0:0:0:
256,192,76796,1,8,0:0:0:0:
256,192,76907,1,0,0:0:0:0:
256,192,76963,1,0,0:0:0:0:
256,192,77018,1,8,0:0:0:0:
256,192,77130,1,8,0:0:0:0:
256,192,77185,1,8,0:0:0:0:
256,192,77241,1,0,0:0:0:0:
256,192,77296,1,0,0:0:0:0:
256,192,77352,1,8,0:0:0:0:
256,192,77463,1,0,0:0:0:0:
256,192,77500,1,0,0:0:0:0:
256,192,77537,1,0,0:0:0:0:
256,192,77574,1,8,0:0:0:0:
256,192,77630,1,0,0:0:0:0:
256,192,77685,1,8,0:0:0:0:
256,192,77722,1,8,0:0:0:0:
256,192,77759,1,8,0:0:0:0:
256,192,77796,1,0,0:0:0:0:
256,192,77852,1,0,0:0:0:0:
256,192,77907,1,8,0:0:0:0:
256,192,77963,1,0,0:0:0:0:
256,192,78018,1,8,0:0:0:0:
256,192,78074,1,8,0:0:0:0:
256,192,78130,1,0,0:0:0:0:
256,192,78167,1,0,0:0:0:0:
256,192,78204,1,0,0:0:0:0:
256,192,78241,1,8,0:0:0:0:
256,192,78278,1,8,0:0:0:0:
256,192,78315,1,8,0:0:0:0:
256,192,78352,1,0,0:0:0:0:
256,192,78463,1,8,0:0:0:0:
256,192,78574,1,0,0:0:0:0:
256,192,78685,1,8,0:0:0:0:
256,192,78741,1,8,0:0:0:0:
256,192,78796,1,0,0:0:0:0:
256,192,78907,1,0,0:0:0:0:
256,192,79018,1,8,0:0:0:0:
256,192,79130,1,0,0:0:0:0:
256,192,79241,1,8,0:0:0:0:
256,192,79296,1,0,0:0:0:0:
256,192,79352,1,8,0:0:0:0:
256,192,79407,1,8,0:0:0:0:
256,192,79463,1,0,0:0:0:0:
256,192,79518,1,0,0:0:0:0:
256,192,79574,1,8,0:0:0:0:
256,192,79630,1,8,0:0:0:0:
256,192,79685,1,0,0:0:0:0:
256,192,79741,1,0,0:0:0:0:
256,192,79796,1,8,0:0:0:0:
256,192,79852,1,0,0:0:0:0:
256,192,79907,1,8,0:0:0:0:
256,192,80018,1,0,0:0:0:0:
256,192,80130,1,8,0:0:0:0:
256,192,80241,1,8,0:0:0:0:
256,192,80352,1,0,0:0:0:0:
256,192,80463,1,0,0:0:0:0:
256,192,80518,1,0,0:0:0:0:
256,192,80574,1,8,0:0:0:0:
256,192,80685,1,8,0:0:0:0:
256,192,80796,1,8,0:0:0:0:
256,192,80852,1,8,0:0:0:0:
256,192,80907,1,0,0:0:0:0:
256,192,80963,1,0,0:0:0:0:
256,192,81018,1,8,0:0:0:0:
256,192,81056,1,0,0:0:0:0:
256,192,81093,1,0,0:0:0:0:
256,192,81130,1,8,0:0:0:0:
256,192,81241,1,8,0:0:0:0:
256,192,81296,1,8,0:0:0:0:
256,192,81352,1,0,0:0:0:0:
256,192,81463,1,0,0:0:0:0:
256,192,81518,1,0,0:0:0:0:
256,192,81574,1,0,0:0:0:0:
256,192,81630,1,0,0:0:0:0:
256,192,81685,1,8,0:0:0:0:
256,192,81722,1,8,0:0:0:0:
256,192,81759,1,8,0:0:0:0:
256,192,81796,1,8,0:0:0:0:
256,192,81833,1,8,0:0:0:0:
256,192,81870,1,8,0:0:0:0:
256,192,81907,1,0,0:0:0:0:
256,192,82018,1,0,0:0:0:0:
256,192,82130,1,8,0:0:0:0:
256,192,82241,1,8,0:0:0:0:
256,192,82296,1,8,0:0:0:0:
256,192,82352,1,0,0:0:0:0:
256,192,82463,1,0,0:0:0:0:
256,192,82574,1,8,0:0:0:0:
256,192,82685,1,0,0:0:0:0:
256,192,82796,1,8,0:0:0:0:
256,192,82852,1,8,0:0:0:0:
256,192,82907,1,8,0:0:0:0:
256,192,82963,1,8,0:0:0:0:
256,192,83018,1,0,0:0:0:0:
256,192,83130,1,0,0:0:0:0:
256,192,83241,1,0,0:0:0:0:
256,192,83296,1,0,0:0:0:0:
256,192,83352,1,8,0:0:0:0:
256,192,83407,1,8,0:0:0:0:
256,192,83463,1,0,0:0:0:0:
256,192,83574,1,0,0:0:0:0:
256,192,83685,1,8,0:0:0:0:
256,192,83741,1,8,0:0:0:0:
256,192,83796,1,0,0:0:0:0:
256,192,83852,1,0,0:0:0:0:
256,192,83907,1,8,0:0:0:0:
256,192,83963,1,0,0:0:0:0:
256,192,84018,1,8,0:0:0:0:
256,192,84074,1,0,0:0:0:0:
256,192,84130,1,8,0:0:0:0:
256,192,84241,1,0,0:0:0:0:
256,192,84296,1,0,0:0:0:0:
256,192,84352,1,8,0:0:0:0:
256,192,84407,1,0,0:0:0:0:
256,192,84463,1,8,0:0:0:0:
256,192,84518,1,8,0:0:0:0:
256,192,84574,1,0,0:0:0:0:
256,192,84611,1,0,0:0:0:0:
256,192,84648,1,0,0:0:0:0:
256,192,84685,1,8,0:0:0:0:
256,192,84741,1,0,0:0:0:0:
256,192,84796,1,8,0:0:0:0:
256,192,84833,1,8,0:0:0:0:
256,192,84870,1,8,0:0:0:0:
256,192,84907,1,0,0:0:0:0:
256,192,84963,1,0,0:0:0:0:
256,192,85018,1,8,0:0:0:0:
256,192,85074,1,0,0:0:0:0:
256,192,85130,1,8,0:0:0:0:
256,192,85185,1,0,0:0:0:0:
256,192,85241,1,8,0:0:0:0:
256,192,85278,1,8,0:0:0:0:
256,192,85315,1,8,0:0:0:0:
256,192,85352,1,0,0:0:0:0:
256,192,85389,1,0,0:0:0:0:
256,192,85426,1,0,0:0:0:0:
256,192,85463,1,8,0:0:0:0:
256,192,88129,1,8,0:0:0:0:
256,192,88574,1,0,0:0:0:0:
256,192,89018,1,8,0:0:0:0:
256,192,90796,1,0,0:0:0:0:
256,192,91685,1,8,0:0:0:0:
256,192,92129,1,0,0:0:0:0:
256,192,92574,1,8,0:0:0:0:
256,192,92796,1,0,0:0:0:0:
256,192,93018,1,0,0:0:0:0:
256,192,93240,1,8,0:0:0:0:
256,192,95240,1,8,0:0:0:0:
256,192,95685,1,0,0:0:0:0:
256,192,96129,1,0,0:0:0:0:
256,192,97907,1,8,0:0:0:0:
256,192,98796,1,8,0:0:0:0:
256,192,99574,1,0,0:0:0:0:
256,192,99629,1,0,0:0:0:0:
256,192,99685,1,8,0:0:0:0:
256,192,99907,1,8,0:0:0:0:
256,192,100351,1,0,0:0:0:0:
256,192,100462,1,0,0:0:0:0:
256,192,100574,1,8,0:0:0:0:
256,192,100796,1,8,0:0:0:0:
256,192,101240,1,8,0:0:0:0:
256,192,101351,1,0,0:0:0:0:
256,192,101462,1,8,0:0:0:0:
256,192,101685,1,0,0:0:0:0:
256,192,102129,1,0,0:0:0:0:
256,192,102240,1,8,0:0:0:0:
256,192,102351,1,8,0:0:0:0:
256,192,102574,1,8,0:0:0:0:
256,192,102796,1,0,0:0:0:0:
256,192,103018,1,8,0:0:0:0:
256,192,103240,1,0,0:0:0:0:
256,192,103462,1,8,0:0:0:0:
256,192,103907,1,8,0:0:0:0:
256,192,104018,1,0,0:0:0:0:
256,192,104129,1,8,0:0:0:0:
256,192,104351,1,8,0:0:0:0:
256,192,104796,1,8,0:0:0:0:
256,192,104907,1,0,0:0:0:0:
256,192,105018,1,0,0:0:0:0:
256,192,105240,1,0,0:0:0:0:
256,192,105685,1,0,0:0:0:0:
256,192,105796,1,8,0:0:0:0:
256,192,105907,1,8,0:0:0:0:
256,192,106129,1,8,0:0:0:0:
256,192,106574,1,8,0:0:0:0:
256,192,106796,1,0,0:0:0:0:
256,192,107018,1,0,0:0:0:0:
256,192,107240,1,8,0:0:0:0:
256,192,107462,1,0,0:0:0:0:
256,192,107574,1,8,0:0:0:0:
256,192,107685,1,8,0:0:0:0:
256,192,107907,1,8,0:0:0:0:
256,192,108351,1,8,0:0:0:0:
256,192,108462,1,0,0:0:0:0:
256,192,108574,1,0,0:0:0:0:
256,192,108796,1,0,0:0:0:0:
256,192,109240,1,0,0:0:0:0:
256,192,109351,1,8,0:0:0:0:
256,192,109462,1,8,0:0:0:0:
256,192,109685,1,8,0:0:0:0:
256,192,109907,1,0,0:0:0:0:
256,192,110129,1,8,0:0:0:0:
256,192,110240,1,8,0:0:0:0:
256,192,110351,1,0,0:0:0:0:
256,192,110574,1,0,0:0:0:0:
256,192,111018,1,8,0:0:0:0:
256,192,111129,1,0,0:0:0:0:
256,192,111240,1,8,0:0:0:0:
256,192,111462,1,8,0:0:0:0:
256,192,111907,1,8,0:0:0:0:
256,192,112018,1,0,0:0:0:0:
256,192,112129,1,0,0:0:0:0:
256,192,112351,1,0,0:0:0:0:
256,192,112796,1,8,0:0:0:0:
256,192,112907,1,8,0:0:0:0:
256,192,113018,1,0,0:0:0:0:
256,192,113240,1,8,0:0:0:0:
256,192,113685,1,8,0:0:0:0:
256,192,113796,1,0,0:0:0:0:
256,192,113907,1,0,0:0:0:0:
256,192,114129,1,0,0:0:0:0:
256,192,114574,1,0,0:0:0:0:
256,192,114685,1,8,0:0:0:0:
256,192,114796,1,8,0:0:0:0:
256,192,115018,1,8,0:0:0:0:
256,192,115462,1,8,0:0:0:0:
256,192,115685,1,8,0:0:0:0:
256,192,116129,1,0,0:0:0:0:
256,192,116351,1,0,0:0:0:0:
256,192,116462,1,0,0:0:0:0:
256,192,116574,1,8,0:0:0:0:
256,192,116796,1,8,0:0:0:0:
256,192,117240,1,8,0:0:0:0:
256,192,117351,1,0,0:0:0:0:
256,192,117462,1,0,0:0:0:0:
256,192,117685,1,8,0:0:0:0:
256,192,117796,1,8,0:0:0:0:
256,192,118129,1,8,0:0:0:0:
256,192,118240,1,0,0:0:0:0:
256,192,118351,1,8,0:0:0:0:
256,192,118574,1,0,0:0:0:0:
256,192,119018,1,0,0:0:0:0:
256,192,119129,1,0,0:0:0:0:
256,192,119240,1,8,0:0:0:0:
256,192,119462,1,8,0:0:0:0:
256,192,119907,1,0,0:0:0:0:
256,192,120018,1,0,0:0:0:0:
256,192,120129,1,8,0:0:0:0:
256,192,120351,1,8,0:0:0:0:
256,192,120796,1,8,0:0:0:0:
256,192,121018,1,8,0:0:0:0:
256,192,121240,1,0,0:0:0:0:
256,192,121462,1,0,0:0:0:0:
256,192,121685,1,8,0:0:0:0:
256,192,121796,1,0,0:0:0:0:
256,192,121907,1,8,0:0:0:0:
256,192,122129,1,8,0:0:0:0:
256,192,122351,1,8,0:0:0:0:
256,192,122796,1,0,0:0:0:0:
256,192,122907,1,8,0:0:0:0:
256,192,123240,1,0,0:0:0:0:
256,192,123462,1,8,0:0:0:0:
256,192,123574,1,8,0:0:0:0:
256,192,123685,1,0,0:0:0:0:
256,192,123907,1,8,0:0:0:0:
256,192,124018,1,8,0:0:0:0:
256,192,124351,1,8,0:0:0:0:
256,192,124462,1,8,0:0:0:0:
256,192,124574,1,0,0:0:0:0:
256,192,124685,1,0,0:0:0:0:
256,192,124796,1,8,0:0:0:0:
256,192,125240,1,0,0:0:0:0:
256,192,125351,1,0,0:0:0:0:
256,192,125462,1,8,0:0:0:0:
256,192,125685,1,8,0:0:0:0:
256,192,126129,1,8,0:0:0:0:
256,192,126240,1,0,0:0:0:0:
256,192,126351,1,0,0:0:0:0:
256,192,126574,1,0,0:0:0:0:
256,192,127018,1,8,0:0:0:0:
256,192,127240,1,0,0:0:0:0:
256,192,127351,2,0,B|416:192|416:192|288:192,1,283.500001081467
256,192,128129,1,12,0:0:0:0:
256,192,128907,1,0,0:0:0:0:
256,192,129018,1,8,0:0:0:0:
256,192,129240,1,8,0:0:0:0:
256,192,129685,1,0,0:0:0:0:
256,192,129907,1,0,0:0:0:0:
256,192,130351,1,0,0:0:0:0:
256,192,130796,1,8,0:0:0:0:
256,192,131240,1,0,0:0:0:0:
256,192,131685,1,0,0:0:0:0:
256,192,132129,1,8,0:0:0:0:
256,192,132462,1,0,0:0:0:0:
256,192,132574,1,8,0:0:0:0:
256,192,132796,1,8,0:0:0:0:
256,192,133240,1,8,0:0:0:0:
256,192,133462,1,8,0:0:0:0:
256,192,133685,1,0,0:0:0:0:
256,192,133907,1,0,0:0:0:0:
256,192,134351,1,8,0:0:0:0:
256,192,134796,1,0,0:0:0:0:
256,192,135240,1,0,0:0:0:0:
256,192,135685,1,8,0:0:0:0:
256,192,136018,1,0,0:0:0:0:
256,192,136129,1,8,0:0:0:0:
256,192,136796,1,0,0:0:0:0:
256,192,137018,1,8,0:0:0:0:
256,192,137462,1,0,0:0:0:0:
256,192,137907,1,8,0:0:0:0:
256,192,138351,1,8,0:0:0:0:
256,192,138796,1,0,0:0:0:0:
256,192,139462,1,8,0:0:0:0:
256,192,139574,1,0,0:0:0:0:
256,192,139685,1,8,0:0:0:0:
256,192,140351,1,8,0:0:0:0:
256,192,140574,1,8,0:0:0:0:
256,192,140796,1,0,0:0:0:0:
256,192,141018,1,0,0:0:0:0:
256,192,141462,1,8,0:0:0:0:
256,192,142351,1,8,0:0:0:0:
256,192,144129,1,0,0:0:0:0:
256,192,145907,1,8,0:0:0:0:
256,192,146796,1,0,0:0:0:0:
256,192,147685,1,0,0:0:0:0:
256,192,148574,1,8,0:0:0:0:
256,192,149462,1,8,0:0:0:0:
256,192,151240,1,8,0:0:0:0:
256,192,152129,1,8,0:0:0:0:
256,192,153018,1,0,0:0:0:0:
256,192,153907,12,0,155685,0:0:0:0:
256,192,156574,5,8,0:0:0:0:
256,192,156629,1,0,0:0:0:0:
256,192,156685,1,8,0:0:0:0:
256,192,156740,1,8,0:0:0:0:
256,192,156796,1,0,0:0:0:0:
256,192,156851,1,8,0:0:0:0:
256,192,156907,1,0,0:0:0:0:
256,192,156944,1,0,0:0:0:0:
256,192,156981,1,0,0:0:0:0:
256,192,157018,1,8,0:0:0:0:
256,192,157074,1,8,0:0:0:0:
256,192,157129,1,0,0:0:0:0:
256,192,157185,1,0,0:0:0:0:
256,192,157240,1,8,0:0:0:0:
256,192,157296,1,0,0:0:0:0:
256,192,157351,1,8,0:0:0:0:
256,192,157388,1,8,0:0:0:0:
256,192,157425,1,8,0:0:0:0:
256,192,157462,1,0,0:0:0:0:
256,192,157518,1,0,0:0:0:0:
256,192,157574,1,8,0:0:0:0:
256,192,157629,1,0,0:0:0:0:
256,192,157685,1,8,0:0:0:0:
256,192,157740,1,8,0:0:0:0:
256,192,157796,1,0,0:0:0:0:
256,192,157833,1,0,0:0:0:0:
256,192,157870,1,0,0:0:0:0:
256,192,157907,1,8,0:0:0:0:
256,192,157962,1,0,0:0:0:0:
256,192,158018,1,8,0:0:0:0:
256,192,158055,1,0,0:0:0:0:
256,192,158092,1,0,0:0:0:0:
256,192,158129,1,8,0:0:0:0:
256,192,158185,1,0,0:0:0:0:
256,192,158240,1,8,0:0:0:0:
256,192,158277,1,8,0:0:0:0:
256,192,158314,1,8,0:0:0:0:
256,192,158351,1,0,0:0:0:0:
256,192,158462,1,8,0:0:0:0:
256,192,158518,1,0,0:0:0:0:
256,192,158574,1,8,0:0:0:0:
256,192,158629,1,8,0:0:0:0:
256,192,158685,1,0,0:0:0:0:
256,192,158722,1,0,0:0:0:0:
256,192,158759,1,0,0:0:0:0:
256,192,158796,1,8,0:0:0:0:
256,192,158851,1,8,0:0:0:0:
256,192,158907,1,0,0:0:0:0:
256,192,158962,1,8,0:0:0:0:
256,192,159018,1,0,0:0:0:0:
256,192,159074,1,8,0:0:0:0:
256,192,159129,1,0,0:0:0:0:
256,192,159166,1,0,0:0:0:0:
256,192,159203,1,0,0:0:0:0:
256,192,159240,1,8,0:0:0:0:
256,192,159296,1,8,0:0:0:0:
256,192,159351,1,0,0:0:0:0:
256,192,159407,1,0,0:0:0:0:
256,192,159462,1,8,0:0:0:0:
256,192,159518,1,0,0:0:0:0:
256,192,159574,1,8,0:0:0:0:
256,192,159611,1,8,0:0:0:0:
256,192,159648,1,8,0:0:0:0:
256,192,159685,1,0,0:0:0:0:
256,192,159740,1,8,0:0:0:0:
256,192,159796,1,8,0:0:0:0:
256,192,159851,1,0,0:0:0:0:
256,192,159907,1,8,0:0:0:0:
256,192,159944,1,0,0:0:0:0:
256,192,159981,1,0,0:0:0:0:
256,192,160018,1,8,0:0:0:0:
256,192,160055,1,0,0:0:0:0:
256,192,160092,1,0,0:0:0:0:
256,192,160129,1,8,0:0:0:0:
256,192,160185,1,0,0:0:0:0:
256,192,160240,1,8,0:0:0:0:
256,192,160296,1,8,0:0:0:0:
256,192,160351,1,0,0:0:0:0:
256,192,160407,1,8,0:0:0:0:
256,192,160462,1,0,0:0:0:0:
256,192,160499,1,0,0:0:0:0:
256,192,160536,1,0,0:0:0:0:
256,192,160574,1,8,0:0:0:0:
256,192,160629,1,8,0:0:0:0:
256,192,160685,1,0,0:0:0:0:
256,192,160740,1,0,0:0:0:0:
256,192,160796,1,8,0:0:0:0:
256,192,160851,1,0,0:0:0:0:
256,192,160907,1,8,0:0:0:0:
256,192,160944,1,8,0:0:0:0:
256,192,160981,1,8,0:0:0:0:
256,192,161018,1,0,0:0:0:0:
256,192,161074,1,8,0:0:0:0:
256,192,161129,1,0,0:0:0:0:
256,192,161185,1,0,0:0:0:0:
256,192,161240,1,8,0:0:0:0:
256,192,161296,1,0,0:0:0:0:
256,192,161351,1,8,0:0:0:0:
256,192,161388,1,8,0:0:0:0:
256,192,161425,1,8,0:0:0:0:
256,192,161462,1,0,0:0:0:0:
256,192,161518,1,8,0:0:0:0:
256,192,161574,1,0,0:0:0:0:
256,192,161611,1,0,0:0:0:0:
256,192,161648,1,0,0:0:0:0:
256,192,161685,1,8,0:0:0:0:
256,192,161740,1,0,0:0:0:0:
256,192,161796,1,8,0:0:0:0:
256,192,161833,1,0,0:0:0:0:
256,192,161870,1,0,0:0:0:0:
256,192,161907,1,8,0:0:0:0:
256,192,162018,1,0,0:0:0:0:
256,192,162074,1,0,0:0:0:0:
256,192,162129,1,8,0:0:0:0:
256,192,162185,1,0,0:0:0:0:
256,192,162240,1,8,0:0:0:0:
256,192,162277,1,8,0:0:0:0:
256,192,162314,1,8,0:0:0:0:
256,192,162351,1,0,0:0:0:0:
256,192,162407,1,8,0:0:0:0:
256,192,162462,1,0,0:0:0:0:
256,192,162518,1,0,0:0:0:0:
256,192,162574,1,8,0:0:0:0:
256,192,162629,1,8,0:0:0:0:
256,192,162685,1,0,0:0:0:0:
256,192,162722,1,0,0:0:0:0:
256,192,162759,1,0,0:0:0:0:
256,192,162796,1,8,0:0:0:0:
256,192,162851,1,0,0:0:0:0:
256,192,162907,1,8,0:0:0:0:
256,192,162944,1,0,0:0:0:0:
256,192,162981,1,0,0:0:0:0:
256,192,163018,1,8,0:0:0:0:
256,192,163074,1,0,0:0:0:0:
256,192,163129,1,8,0:0:0:0:
256,192,163185,1,0,0:0:0:0:
256,192,163240,1,8,0:0:0:0:
256,192,163277,1,8,0:0:0:0:
256,192,163314,1,8,0:0:0:0:
256,192,163351,1,0,0:0:0:0:
256,192,163407,1,0,0:0:0:0:
256,192,163462,1,8,0:0:0:0:
256,192,163499,1,8,0:0:0:0:
256,192,163536,1,8,0:0:0:0:
256,192,163574,1,0,0:0:0:0:
256,192,163611,1,0,0:0:0:0:
256,192,163648,1,0,0:0:0:0:
256,192,163685,1,8,0:0:0:0:
256,192,163740,1,0,0:0:0:0:
256,192,163796,1,8,0:0:0:0:
256,192,163851,1,8,0:0:0:0:
256,192,163907,1,0,0:0:0:0:
256,192,163962,1,0,0:0:0:0:
256,192,164018,1,8,0:0:0:0:
256,192,164055,1,8,0:0:0:0:
256,192,164092,1,8,0:0:0:0:
256,192,164129,1,0,0:0:0:0:
256,192,164185,1,0,0:0:0:0:
256,192,164240,1,8,0:0:0:0:
256,192,164296,1,0,0:0:0:0:
256,192,164351,1,8,0:0:0:0:
256,192,164407,1,8,0:0:0:0:
256,192,164462,1,0,0:0:0:0:
256,192,164499,1,0,0:0:0:0:
256,192,164536,1,0,0:0:0:0:
256,192,164574,1,8,0:0:0:0:
256,192,164629,1,8,0:0:0:0:
256,192,164685,1,0,0:0:0:0:
256,192,164740,1,8,0:0:0:0:
256,192,164796,1,0,0:0:0:0:
256,192,164851,1,8,0:0:0:0:
256,192,164907,1,0,0:0:0:0:
256,192,164944,1,0,0:0:0:0:
256,192,164981,1,0,0:0:0:0:
256,192,165018,1,8,0:0:0:0:
256,192,165074,1,0,0:0:0:0:
256,192,165129,1,8,0:0:0:0:
256,192,165166,1,0,0:0:0:0:
256,192,165203,1,0,0:0:0:0:
256,192,165240,1,8,0:0:0:0:
256,192,165296,1,0,0:0:0:0:
256,192,165351,1,8,0:0:0:0:
256,192,165388,1,8,0:0:0:0:
256,192,165425,1,8,0:0:0:0:
256,192,165462,1,0,0:0:0:0:
256,192,165574,1,8,0:0:0:0:
256,192,165629,1,0,0:0:0:0:
256,192,165685,1,8,0:0:0:0:
256,192,165740,1,8,0:0:0:0:
256,192,165796,1,0,0:0:0:0:
256,192,165833,1,0,0:0:0:0:
256,192,165870,1,0,0:0:0:0:
256,192,165907,1,8,0:0:0:0:
256,192,165962,1,0,0:0:0:0:
256,192,166018,1,8,0:0:0:0:
256,192,166074,1,8,0:0:0:0:
256,192,166129,1,0,0:0:0:0:
256,192,166185,1,0,0:0:0:0:
256,192,166240,1,8,0:0:0:0:
256,192,166277,1,8,0:0:0:0:
256,192,166314,1,8,0:0:0:0:
256,192,166351,1,0,0:0:0:0:
256,192,166407,1,8,0:0:0:0:
256,192,166462,1,0,0:0:0:0:
256,192,166518,1,0,0:0:0:0:
256,192,166574,1,8,0:0:0:0:
256,192,166629,1,0,0:0:0:0:
256,192,166685,1,8,0:0:0:0:
256,192,166722,1,0,0:0:0:0:
256,192,166759,1,0,0:0:0:0:
256,192,166796,1,8,0:0:0:0:
256,192,166851,1,8,0:0:0:0:
256,192,166907,1,0,0:0:0:0:
256,192,166962,1,8,0:0:0:0:
256,192,167018,1,0,0:0:0:0:
256,192,167055,1,0,0:0:0:0:
256,192,167092,1,0,0:0:0:0:
256,192,167129,1,8,0:0:0:0:
256,192,167166,1,8,0:0:0:0:
256,192,167203,1,8,0:0:0:0:
256,192,167240,1,0,0:0:0:0:
256,192,167296,1,0,0:0:0:0:
256,192,167351,1,8,0:0:0:0:
256,192,167407,1,8,0:0:0:0:
256,192,167462,1,0,0:0:0:0:
256,192,167518,1,8,0:0:0:0:
256,192,167574,1,0,0:0:0:0:
256,192,167611,1,0,0:0:0:0:
256,192,167648,1,0,0:0:0:0:
256,192,167685,1,8,0:0:0:0:
256,192,167740,1,8,0:0:0:0:
256,192,167796,1,0,0:0:0:0:
256,192,167851,1,0,0:0:0:0:
256,192,167907,1,8,0:0:0:0:
256,192,167962,1,0,0:0:0:0:
256,192,168018,1,8,0:0:0:0:
256,192,168055,1,0,0:0:0:0:
256,192,168092,1,0,0:0:0:0:
256,192,168129,1,8,0:0:0:0:
256,192,168185,1,0,0:0:0:0:
256,192,168240,1,8,0:0:0:0:
256,192,168296,1,8,0:0:0:0:
256,192,168351,1,0,0:0:0:0:
256,192,168407,1,8,0:0:0:0:
256,192,168462,1,0,0:0:0:0:
256,192,168499,1,0,0:0:0:0:
256,192,168536,1,0,0:0:0:0:
256,192,168574,1,8,0:0:0:0:
256,192,168629,1,0,0:0:0:0:
256,192,168685,1,8,0:0:0:0:
256,192,168722,1,0,0:0:0:0:
256,192,168759,1,0,0:0:0:0:
256,192,168796,1,8,0:0:0:0:
256,192,168851,1,0,0:0:0:0:
256,192,168907,1,8,0:0:0:0:
256,192,168944,1,8,0:0:0:0:
256,192,168981,1,8,0:0:0:0:
256,192,169018,1,0,0:0:0:0:
256,192,169129,1,8,0:0:0:0:
256,192,169185,1,8,0:0:0:0:
256,192,169240,1,0,0:0:0:0:
256,192,169296,1,8,0:0:0:0:
256,192,169351,1,0,0:0:0:0:
256,192,169388,1,0,0:0:0:0:
256,192,169425,1,0,0:0:0:0:
256,192,169462,1,8,0:0:0:0:
256,192,169518,1,8,0:0:0:0:
256,192,169574,1,0,0:0:0:0:
256,192,169629,1,0,0:0:0:0:
256,192,169685,1,8,0:0:0:0:
256,192,169740,1,0,0:0:0:0:
256,192,169796,1,8,0:0:0:0:
256,192,169833,1,8,0:0:0:0:
256,192,169870,1,8,0:0:0:0:
256,192,169907,1,0,0:0:0:0:
256,192,169962,1,8,0:0:0:0:
256,192,170018,1,0,0:0:0:0:
256,192,170074,1,0,0:0:0:0:
256,192,170129,1,8,0:0:0:0:
256,192,170185,1,8,0:0:0:0:
256,192,170240,1,0,0:0:0:0:
256,192,170296,1,0,0:0:0:0:
256,192,170351,1,8,0:0:0:0:
256,192,170388,1,0,0:0:0:0:
256,192,170425,1,0,0:0:0:0:
256,192,170462,1,8,0:0:0:0:
256,192,170518,1,0,0:0:0:0:
256,192,170574,1,8,0:0:0:0:
256,192,170611,1,8,0:0:0:0:
256,192,170648,1,8,0:0:0:0:
256,192,170685,1,8,0:0:0:0:
256,192,170722,1,8,0:0:0:0:
256,192,170759,1,8,0:0:0:0:
256,192,170796,1,0,0:0:0:0:
256,192,170907,1,8,0:0:0:0:
256,192,170962,1,0,0:0:0:0:
256,192,171018,1,8,0:0:0:0:
256,192,171055,1,8,0:0:0:0:
256,192,171092,1,8,0:0:0:0:
256,192,171129,1,0,0:0:0:0:
256,192,171185,1,8,0:0:0:0:
256,192,171240,1,0,0:0:0:0:
256,192,171296,1,8,0:0:0:0:
256,192,171351,1,8,0:0:0:0:
256,192,171407,1,0,0:0:0:0:
256,192,171462,1,8,0:0:0:0:
256,192,171518,1,0,0:0:0:0:
256,192,171574,1,8,0:0:0:0:
256,192,171611,1,8,0:0:0:0:
256,192,171648,1,8,0:0:0:0:
256,192,171685,1,0,0:0:0:0:
256,192,171740,1,8,0:0:0:0:
256,192,171796,1,0,0:0:0:0:
256,192,171833,1,0,0:0:0:0:
256,192,171870,1,0,0:0:0:0:
256,192,171907,1,8,0:0:0:0:
256,192,171962,1,8,0:0:0:0:
256,192,172018,1,0,0:0:0:0:
256,192,172074,1,0,0:0:0:0:
256,192,172129,1,8,0:0:0:0:
256,192,172166,1,0,0:0:0:0:
256,192,172203,1,0,0:0:0:0:
256,192,172240,1,8,0:0:0:0:
256,192,172296,1,8,0:0:0:0:
256,192,172351,1,0,0:0:0:0:
256,192,172407,1,0,0:0:0:0:
256,192,172462,1,8,0:0:0:0:
256,192,172573,1,8,0:0:0:0:
256,192,172629,1,8,0:0:0:0:
256,192,172685,1,0,0:0:0:0:
256,192,172722,1,0,0:0:0:0:
256,192,172759,1,0,0:0:0:0:
256,192,172796,1,8,0:0:0:0:
256,192,172851,1,0,0:0:0:0:
256,192,172907,1,8,0:0:0:0:
256,192,172962,1,0,0:0:0:0:
256,192,173018,1,8,0:0:0:0:
256,192,173055,1,8,0:0:0:0:
256,192,173092,1,8,0:0:0:0:
256,192,173129,1,0,0:0:0:0:
256,192,173185,1,8,0:0:0:0:
256,192,173240,1,0,0:0:0:0:
256,192,173296,1,8,0:0:0:0:
256,192,173351,1,8,0:0:0:0:
256,192,173407,1,0,0:0:0:0:
256,192,173462,1,8,0:0:0:0:
256,192,173499,1,8,0:0:0:0:
256,192,173536,1,8,0:0:0:0:
256,192,173573,1,0,0:0:0:0:
256,192,173629,1,0,0:0:0:0:
256,192,173685,1,8,0:0:0:0:
256,192,173740,1,8,0:0:0:0:
256,192,173796,1,0,0:0:0:0:
256,192,173851,1,8,0:0:0:0:
256,192,173907,1,0,0:0:0:0:
256,192,173944,1,0,0:0:0:0:
256,192,173981,1,0,0:0:0:0:
256,192,174018,1,8,0:0:0:0:
256,192,174073,1,8,0:0:0:0:
256,192,174129,1,0,0:0:0:0:
256,192,174185,1,0,0:0:0:0:
256,192,174240,1,8,0:0:0:0:
256,192,174277,1,0,0:0:0:0:
256,192,174314,1,0,0:0:0:0:
256,192,174351,1,8,0:0:0:0:
256,192,174407,1,0,0:0:0:0:
256,192,174462,1,8,0:0:0:0:
256,192,174573,1,0,0:0:0:0:
256,192,174611,1,0,0:0:0:0:
256,192,174648,1,0,0:0:0:0:
256,192,174685,1,8,0:0:0:0:
256,192,174740,1,0,0:0:0:0:
256,192,174796,1,8,0:0:0:0:
256,192,174851,1,0,0:0:0:0:
256,192,174907,1,8,0:0:0:0:
256,192,174962,1,8,0:0:0:0:
256,192,175018,1,0,0:0:0:0:
256,192,175055,1,0,0:0:0:0:
256,192,175092,1,0,0:0:0:0:
256,192,175129,1,8,0:0:0:0:
256,192,175185,1,0,0:0:0:0:
256,192,175240,1,8,0:0:0:0:
256,192,175296,1,0,0:0:0:0:
256,192,175351,1,8,0:0:0:0:
256,192,175388,1,8,0:0:0:0:
256,192,175425,1,8,0:0:0:0:
256,192,175462,1,0,0:0:0:0:
256,192,175518,1,8,0:0:0:0:
256,192,175573,1,0,0:0:0:0:
256,192,175629,1,0,0:0:0:0:
256,192,175685,1,8,0:0:0:0:
256,192,175722,1,8,0:0:0:0:
256,192,175759,1,8,0:0:0:0:
256,192,175796,1,0,0:0:0:0:
256,192,175833,1,0,0:0:0:0:
256,192,175870,1,0,0:0:0:0:
256,192,175907,1,8,0:0:0:0:
256,192,175962,1,0,0:0:0:0:
256,192,176018,1,8,0:0:0:0:
256,192,176129,1,8,0:0:0:0:
256,192,176185,1,0,0:0:0:0:
256,192,176240,1,8,0:0:0:0:
256,192,176296,1,8,0:0:0:0:
256,192,176351,1,0,0:0:0:0:
256,192,176388,1,0,0:0:0:0:
256,192,176425,1,0,0:0:0:0:
256,192,176462,1,8,0:0:0:0:
256,192,176518,1,0,0:0:0:0:
256,192,176573,1,8,0:0:0:0:
256,192,176629,1,8,0:0:0:0:
256,192,176685,1,0,0:0:0:0:
256,192,176740,1,8,0:0:0:0:
256,192,176796,1,0,0:0:0:0:
256,192,176833,1,0,0:0:0:0:
256,192,176870,1,0,0:0:0:0:
256,192,176907,1,8,0:0:0:0:
256,192,176944,1,8,0:0:0:0:
256,192,176981,1,8,0:0:0:0:
256,192,177018,1,0,0:0:0:0:
256,192,177073,1,0,0:0:0:0:
256,192,177129,1,8,0:0:0:0:
256,192,177185,1,0,0:0:0:0:
256,192,177240,1,8,0:0:0:0:
256,192,177296,1,0,0:0:0:0:
256,192,177351,1,8,0:0:0:0:
256,192,177388,1,8,0:0:0:0:
256,192,177425,1,8,0:0:0:0:
256,192,177462,1,0,0:0:0:0:
256,192,177518,1,8,0:0:0:0:
256,192,177573,1,0,0:0:0:0:
256,192,177611,1,0,0:0:0:0:
256,192,177648,1,0,0:0:0:0:
256,192,177685,1,8,0:0:0:0:
256,192,177740,1,0,0:0:0:0:
256,192,177796,1,8,0:0:0:0:
256,192,177833,1,0,0:0:0:0:
256,192,177870,1,0,0:0:0:0:
256,192,177907,1,8,0:0:0:0:
256,192,178018,1,0,0:0:0:0:
256,192,178073,1,0,0:0:0:0:
256,192,178129,1,8,0:0:0:0:
256,192,178166,1,8,0:0:0:0:
256,192,178203,1,8,0:0:0:0:
256,192,178240,1,0,0:0:0:0:
256,192,178277,1,0,0:0:0:0:
256,192,178314,1,0,0:0:0:0:
256,192,178351,1,8,0:0:0:0:
256,192,178407,1,0,0:0:0:0:
256,192,178462,1,8,0:0:0:0:
256,192,178518,1,8,0:0:0:0:
256,192,178573,1,0,0:0:0:0:
256,192,178611,1,0,0:0:0:0:
256,192,178648,1,0,0:0:0:0:
256,192,178685,1,8,0:0:0:0:
256,192,178740,1,0,0:0:0:0:
256,192,178796,1,8,0:0:0:0:
256,192,178851,1,0,0:0:0:0:
256,192,178907,1,8,0:0:0:0:
256,192,178944,1,0,0:0:0:0:
256,192,178981,1,0,0:0:0:0:
256,192,179018,1,8,0:0:0:0:
256,192,179073,1,0,0:0:0:0:
256,192,179129,1,8,0:0:0:0:
256,192,179185,1,8,0:0:0:0:
256,192,179240,1,0,0:0:0:0:
256,192,179296,1,8,0:0:0:0:
256,192,179351,1,0,0:0:0:0:
256,192,179388,1,0,0:0:0:0:
256,192,179425,1,0,0:0:0:0:
256,192,179462,1,8,0:0:0:0:
256,192,179518,1,8,0:0:0:0:
256,192,179573,1,0,0:0:0:0:
256,192,179629,1,0,0:0:0:0:
256,192,179685,1,8,0:0:0:0:
256,192,179796,1,8,0:0:0:0:
256,192,179833,1,0,0:0:0:0:
256,192,179870,1,0,0:0:0:0:
256,192,179907,1,8,0:0:0:0:
256,192,179962,1,8,0:0:0:0:
256,192,180018,1,0,0:0:0:0:
256,192,180073,1,0,0:0:0:0:
256,192,180129,1,8,0:0:0:0:
256,192,180166,1,8,0:0:0:0:
256,192,180203,1,8,0:0:0:0:
256,192,180240,1,0,0:0:0:0:
256,192,180296,1,0,0:0:0:0:
256,192,180351,1,8,0:0:0:0:
256,192,180407,1,0,0:0:0:0:
256,192,180462,1,8,0:0:0:0:
256,192,180499,1,8,0:0:0:0:
256,192,180536,1,8,0:0:0:0:
256,192,180573,1,0,0:0:0:0:
256,192,180629,1,8,0:0:0:0:
256,192,180685,1,0,0:0:0:0:
256,192,180740,1,0,0:0:0:0:
256,192,180796,1,8,0:0:0:0:
256,192,180833,1,8,0:0:0:0:
256,192,180870,1,8,0:0:0:0:
256,192,180907,1,0,0:0:0:0:
256,192,180944,1,0,0:0:0:0:
256,192,180981,1,0,0:0:0:0:
256,192,181018,1,8,0:0:0:0:
256,192,181073,1,8,0:0:0:0:
256,192,181129,1,0,0:0:0:0:
256,192,181185,1,8,0:0:0:0:
256,192,181240,1,0,0:0:0:0:
256,192,181296,1,8,0:0:0:0:
256,192,181351,1,0,0:0:0:0:
256,192,181388,1,0,0:0:0:0:
256,192,181425,1,0,0:0:0:0:
256,192,181462,1,8,0:0:0:0:
256,192,181573,1,8,0:0:0:0:
256,192,181629,1,8,0:0:0:0:
256,192,181685,1,0,0:0:0:0:
256,192,181722,1,0,0:0:0:0:
256,192,181759,1,0,0:0:0:0:
256,192,181796,1,8,0:0:0:0:
256,192,181833,1,8,0:0:0:0:
256,192,181870,1,8,0:0:0:0:
256,192,181907,1,0,0:0:0:0:
256,192,181962,1,0,0:0:0:0:
256,192,182018,1,8,0:0:0:0:
256,192,182073,1,0,0:0:0:0:
256,192,182129,1,8,0:0:0:0:
256,192,182185,1,8,0:0:0:0:
256,192,182240,1,0,0:0:0:0:
256,192,182277,1,0,0:0:0:0:
256,192,182314,1,0,0:0:0:0:
256,192,182351,1,8,0:0:0:0:
256,192,182407,1,0,0:0:0:0:
256,192,182462,1,8,0:0:0:0:
256,192,182499,1,8,0:0:0:0:
256,192,182536,1,8,0:0:0:0:
256,192,182573,1,0,0:0:0:0:
256,192,182629,1,8,0:0:0:0:
256,192,182685,1,0,0:0:0:0:
256,192,182740,1,0,0:0:0:0:
256,192,182796,1,8,0:0:0:0:
256,192,182833,1,8,0:0:0:0:
256,192,182870,1,8,0:0:0:0:
256,192,182907,1,0,0:0:0:0:
256,192,182944,1,0,0:0:0:0:
256,192,182981,1,0,0:0:0:0:
256,192,183018,1,8,0:0:0:0:
256,192,183073,1,0,0:0:0:0:
256,192,183129,1,8,0:0:0:0:
256,192,183240,1,8,0:0:0:0:
256,192,183296,1,0,0:0:0:0:
256,192,183351,1,8,0:0:0:0:
256,192,183388,1,0,0:0:0:0:
256,192,183425,1,0,0:0:0:0:
256,192,183462,1,8,0:0:0:0:
256,192,183518,1,0,0:0:0:0:
256,192,183573,1,8,0:0:0:0:
256,192,183629,1,8,0:0:0:0:
256,192,183685,1,0,0:0:0:0:
256,192,183722,1,0,0:0:0:0:
256,192,183759,1,0,0:0:0:0:
256,192,183796,1,8,0:0:0:0:
256,192,183851,1,8,0:0:0:0:
256,192,183907,1,0,0:0:0:0:
256,192,183962,1,8,0:0:0:0:
256,192,184018,1,0,0:0:0:0:
256,192,184073,1,0,0:0:0:0:
256,192,184129,1,8,0:0:0:0:
256,192,184185,1,0,0:0:0:0:
256,192,184240,1,8,0:0:0:0:
256,192,184277,1,8,0:0:0:0:
256,192,184314,1,8,0:0:0:0:
256,192,184351,1,0,0:0:0:0:
256,192,184407,1,8,0:0:0:0:
256,192,184462,1,8,0:0:0:0:
256,192,184518,1,0,0:0:0:0:
256,192,184573,1,8,0:0:0:0:
256,192,184611,1,0,0:0:0:0:
256,192,184648,1,0,0:0:0:0:
256,192,184685,1,8,0:0:0:0:
256,192,184722,1,0,0:0:0:0:
256,192,184759,1,0,0:0:0:0:
256,192,184796,1,8,0:0:0:0:
256,192,184851,1,8,0:0:0:0:
256,192,184907,1,0,0:0:0:0:
256,192,184944,1,0,0:0:0:0:
256,192,184981,1,0,0:0:0:0:
256,192,185018,1,8,0:0:0:0:
256,192,187684,5,0,0:0:0:0:
256,192,188129,1,8,0:0:0:0:
256,192,188573,1,8,0:0:0:0:
256,192,190351,1,0,0:0:0:0:
256,192,191240,1,8,0:0:0:0:
256,192,192129,1,0,0:0:0:0:
256,192,192351,1,0,0:0:0:0:
256,192,192573,1,8,0:0:0:0:
256,192,192795,1,8,0:0:0:0:
256,192,194795,1,0,0:0:0:0:
256,192,195240,1,8,0:0:0:0:
256,192,195684,1,8,0:0:0:0:
256,192,197462,1,0,0:0:0:0:
256,192,198351,1,8,0:0:0:0:
256,192,199129,1,0,0:0:0:0:
256,192,199184,1,0,0:0:0:0:
256,192,199240,1,8,0:0:0:0:
