osu file format v14

[General]
AudioFilename: audio.mp3
AudioLeadIn: 0
PreviewTime: 56019
Countdown: 0
SampleSet: Normal
StackLeniency: 0.7
Mode: 1
LetterboxInBreaks: 0
WidescreenStoryboard: 1

[Editor]
Bookmarks: 131,14353,28575,42797,57019,85464,99685,113907,128129,142351,156575,185019,199240
DistanceSpacing: 0.2
BeatDivisor: 4
GridSize: 32
TimelineZoom: 1.6

[Metadata]
Title:northern_limit [feat. Sennzai]
TitleUnicode:northern_limit [feat. せんざい]
Artist:Kobaryo
ArtistUnicode:Kobaryo
Creator:Nepuri
Version:light_oni
Source:osu!
Tags:featured artist Candy Speed Pops Speedcore Psycho Filth Records PFSA-002 Comiket Comic Market C89 Electronic Japanese Melodic J-Core Senzai instrumental
BeatmapID:1817699
BeatmapSetID:869714

[Difficulty]
HPDrainRate:6
CircleSize:2
OverallDifficulty:5
ApproachRate:10
SliderMultiplier:1.4
SliderTickRate:1

[Events]
//Background and Video events
0,0,"Limit.jpg",0,0
//Break Periods
//Storyboard Layer 0 (Background)
//Storyboard Layer 1 (Fail)
//Storyboard Layer 2 (Pass)
//Storyboard Layer 3 (Foreground)
//Storyboard Layer 4 (Overlay)
//Storyboard Sound Samples

[TimingPoints]
187,444.444444444444,4,1,0,60,1,0
13964,-100,4,1,0,70,0,0
57075,222.222222222222,4,1,0,100,1,1
57075,-111.111111111111,4,1,0,100,0,1
85519,444.444444444444,4,1,0,100,1,0
85519,-55.5555555555556,4,1,0,100,0,0
85963,-100,4,1,0,70,0,0
156630,222.222222222222,4,1,0,100,1,1
156630,-111.111111111111,4,1,0,100,0,1
185074,444.444444444444,4,1,0,100,1,0
185074,-55.5555555555556,4,1,0,100,0,0
185296,-100,4,1,0,60,0,0

[HitObjects]
156,176,187,5,0,0:0:0:0:
96,160,2853,1,8,0:0:0:0:
128,192,3298,1,0,0:0:0:0:
198,193,3742,1,0,0:0:0:0:
192,64,5520,1,0,0:0:0:0:
128,128,6409,1,8,0:0:0:0:
141,125,7298,1,0,0:0:0:0:
96,160,9964,1,8,0:0:0:0:
192,64,10409,1,0,0:0:0:0:
205,246,10853,1,0,0:0:0:0:
192,64,12631,1,0,0:0:0:0:
192,64,13520,1,0,0:0:0:0:
205,246,14409,1,8,0:0:0:0:
256,160,15298,1,0,0:0:0:0:
192,32,15964,5,8,0:0:0:0:
96,160,16631,1,0,0:0:0:0:
160,64,17075,1,8,0:0:0:0:
128,64,17520,1,0,0:0:0:0:
196,148,17964,1,8,0:0:0:0:
283,101,19742,1,8,0:0:0:0:
160,128,20631,1,0,0:0:0:0:
281,100,21520,1,8,0:0:0:0:
128,128,22409,1,0,0:0:0:0:
256,192,23075,1,8,0:0:0:0:
224,160,23742,1,0,0:0:0:0:
224,160,24186,1,8,0:0:0:0:
224,160,24631,1,0,0:0:0:0:
221,157,25075,1,0,0:0:0:0:
221,157,26853,1,8,0:0:0:0:
256,96,27742,1,0,0:0:0:0:
166,199,28631,1,4,0:0:0:0:
190,138,29520,1,8,0:0:0:0:
192,128,30853,1,0,0:0:0:0:
189,137,31298,1,8,0:0:0:0:
160,160,31742,1,0,0:0:0:0:
189,137,32186,1,0,0:0:0:0:
189,137,33075,1,8,0:0:0:0:
160,160,34186,1,0,0:0:0:0:
192,128,34409,1,0,0:0:0:0:
156,161,34853,1,8,0:0:0:0:
156,161,35742,1,0,0:0:0:0:
156,161,36631,1,8,0:0:0:0:
192,128,37964,1,0,0:0:0:0:
189,149,38409,1,8,0:0:0:0:
160,160,38853,1,0,0:0:0:0:
189,149,39298,1,0,0:0:0:0:
189,149,40186,1,8,0:0:0:0:
224,192,41298,1,0,0:0:0:0:
192,128,41520,1,0,0:0:0:0:
189,149,41964,1,8,0:0:0:0:
189,149,42853,1,4,0:0:0:0:
174,147,44631,1,0,0:0:0:0:
192,96,45520,1,8,0:0:0:0:
217,156,46409,1,8,0:0:0:0:
221,158,48186,1,0,0:0:0:0:
192,160,49075,1,8,0:0:0:0:
171,155,49964,1,8,0:0:0:0:
175,155,51742,1,8,0:0:0:0:
160,128,52631,1,0,0:0:0:0:
78,188,53520,1,8,0:0:0:0:
179,183,55298,1,0,0:0:0:0:
192,128,56186,1,8,0:0:0:0:
159,141,57075,1,4,0:0:0:0:
322,188,57519,1,0,0:0:0:0:
192,224,57630,1,8,0:0:0:0:
322,188,57741,1,0,0:0:0:0:
322,188,57963,1,8,0:0:0:0:
128,192,58186,1,0,0:0:0:0:
322,188,58408,1,8,0:0:0:0:
192,64,58519,1,0,0:0:0:0:
224,128,58630,1,8,0:0:0:0:
322,188,58852,1,0,0:0:0:0:
448,288,59075,1,0,0:0:0:0:
448,288,59186,1,0,0:0:0:0:
224,96,59297,1,8,0:0:0:0:
224,128,59519,1,0,0:0:0:0:
322,188,59741,1,8,0:0:0:0:
224,128,59963,1,0,0:0:0:0:
192,192,60075,1,0,0:0:0:0:
322,188,60186,1,0,0:0:0:0:
322,188,60408,1,8,0:0:0:0:
192,0,60463,1,8,0:0:0:0:
224,96,60519,1,8,0:0:0:0:
322,188,60630,1,0,0:0:0:0:
192,128,61074,1,0,0:0:0:0:
448,256,61186,1,0,0:0:0:0:
192,128,61297,1,0,0:0:0:0:
322,188,61519,1,8,0:0:0:0:
448,256,61741,1,0,0:0:0:0:
322,188,61963,1,8,0:0:0:0:
448,256,62074,1,0,0:0:0:0:
322,188,62186,1,8,0:0:0:0:
322,188,62408,1,0,0:0:0:0:
288,128,62630,1,0,0:0:0:0:
288,128,62741,1,0,0:0:0:0:
160,96,62852,1,8,0:0:0:0:
192,96,63074,1,0,0:0:0:0:
322,188,63297,1,8,0:0:0:0:
192,96,63408,1,0,0:0:0:0:
322,188,63519,1,8,0:0:0:0:
322,188,63741,1,0,0:0:0:0:
322,188,63963,1,8,0:0:0:0:
256,96,64019,1,8,0:0:0:0:
256,96,64074,1,8,0:0:0:0:
322,188,64186,1,4,0:0:0:0:
322,188,64630,1,0,0:0:0:0:
192,224,64741,1,8,0:0:0:0:
322,188,64852,1,0,0:0:0:0:
322,188,65074,1,8,0:0:0:0:
128,192,65297,1,0,0:0:0:0:
322,188,65519,1,8,0:0:0:0:
192,64,65630,1,0,0:0:0:0:
224,128,65741,1,8,0:0:0:0:
322,188,65963,1,0,0:0:0:0:
448,288,66186,1,0,0:0:0:0:
224,96,66408,1,8,0:0:0:0:
96,96,66519,1,8,0:0:0:0:
224,128,66630,1,0,0:0:0:0:
322,188,66852,1,8,0:0:0:0:
224,128,67074,1,0,0:0:0:0:
192,128,67186,1,0,0:0:0:0:
322,188,67297,1,0,0:0:0:0:
322,188,67519,1,8,0:0:0:0:
192,0,67574,1,8,0:0:0:0:
224,96,67630,1,8,0:0:0:0:
322,188,67741,1,0,0:0:0:0:
192,128,68185,1,0,0:0:0:0:
448,256,68297,1,0,0:0:0:0:
192,128,68408,1,0,0:0:0:0:
322,188,68630,1,8,0:0:0:0:
448,256,68852,1,0,0:0:0:0:
322,188,69074,1,8,0:0:0:0:
317,183,69130,1,8,0:0:0:0:
448,256,69185,1,8,0:0:0:0:
322,188,69297,1,0,0:0:0:0:
322,188,69519,1,0,0:0:0:0:
288,128,69741,1,0,0:0:0:0:
288,128,69852,1,0,0:0:0:0:
160,96,69963,1,8,0:0:0:0:
192,96,70185,1,0,0:0:0:0:
322,188,70408,1,8,0:0:0:0:
192,96,70519,1,0,0:0:0:0:
322,188,70630,1,8,0:0:0:0:
322,188,70852,5,0,0:0:0:0:
322,188,71074,1,8,0:0:0:0:
256,96,71130,1,8,0:0:0:0:
256,96,71185,1,8,0:0:0:0:
186,212,71297,1,4,0:0:0:0:
160,160,71741,1,0,0:0:0:0:
288,128,71852,1,0,0:0:0:0:
160,160,71963,1,0,0:0:0:0:
288,128,72074,1,0,0:0:0:0:
332,144,72186,1,8,0:0:0:0:
160,160,72408,1,0,0:0:0:0:
332,144,72630,1,8,0:0:0:0:
160,96,72741,1,8,0:0:0:0:
332,144,72852,1,0,0:0:0:0:
332,144,73074,1,0,0:0:0:0:
160,192,73186,1,0,0:0:0:0:
192,192,73297,1,8,0:0:0:0:
192,160,73408,1,0,0:0:0:0:
332,144,73519,1,8,0:0:0:0:
160,160,73741,1,0,0:0:0:0:
332,144,73963,1,8,0:0:0:0:
160,160,74186,1,0,0:0:0:0:
128,160,74297,1,0,0:0:0:0:
332,144,74408,1,0,0:0:0:0:
332,144,74630,1,8,0:0:0:0:
160,64,74686,1,8,0:0:0:0:
160,160,74741,1,8,0:0:0:0:
332,144,74852,1,0,0:0:0:0:
160,192,75297,1,0,0:0:0:0:
160,128,75408,1,0,0:0:0:0:
160,192,75519,1,0,0:0:0:0:
224,160,75630,1,0,0:0:0:0:
327,156,75741,1,8,0:0:0:0:
160,96,75963,1,0,0:0:0:0:
327,156,76186,1,8,0:0:0:0:
96,32,76297,1,0,0:0:0:0:
327,156,76408,1,8,0:0:0:0:
327,156,76630,1,0,0:0:0:0:
160,0,76741,1,0,0:0:0:0:
192,224,76852,1,8,0:0:0:0:
128,0,76963,1,0,0:0:0:0:
224,192,77186,1,8,0:0:0:0:
128,128,77297,1,0,0:0:0:0:
327,156,77519,1,8,0:0:0:0:
128,128,77630,1,0,0:0:0:0:
327,156,77741,1,8,0:0:0:0:
327,156,77963,1,0,0:0:0:0:
327,156,78186,1,8,0:0:0:0:
192,64,78241,1,8,0:0:0:0:
224,192,78297,1,8,0:0:0:0:
327,156,78408,1,4,0:0:0:0:
160,160,78852,1,0,0:0:0:0:
288,128,78963,1,0,0:0:0:0:
160,160,79074,1,0,0:0:0:0:
288,128,79185,1,0,0:0:0:0:
332,144,79297,1,8,0:0:0:0:
160,160,79519,1,0,0:0:0:0:
332,144,79741,1,8,0:0:0:0:
160,96,79852,1,8,0:0:0:0:
332,144,79963,1,0,0:0:0:0:
332,144,80185,1,0,0:0:0:0:
160,192,80297,1,8,0:0:0:0:
192,192,80408,1,0,0:0:0:0:
192,160,80519,1,0,0:0:0:0:
332,144,80630,1,8,0:0:0:0:
160,160,80852,1,0,0:0:0:0:
332,144,81074,1,8,0:0:0:0:
160,160,81297,1,0,0:0:0:0:
128,160,81408,1,0,0:0:0:0:
332,144,81519,1,0,0:0:0:0:
332,144,81741,1,8,0:0:0:0:
160,64,81797,1,8,0:0:0:0:
160,160,81852,1,8,0:0:0:0:
332,144,81963,1,0,0:0:0:0:
128,128,82408,1,0,0:0:0:0:
128,128,82519,1,0,0:0:0:0:
160,192,82630,1,0,0:0:0:0:
224,160,82741,1,0,0:0:0:0:
327,156,82852,1,8,0:0:0:0:
160,96,83074,1,0,0:0:0:0:
327,156,83297,1,8,0:0:0:0:
96,32,83408,1,0,0:0:0:0:
327,156,83519,1,8,0:0:0:0:
327,156,83741,1,0,0:0:0:0:
160,0,83852,1,0,0:0:0:0:
192,224,83963,1,8,0:0:0:0:
128,0,84074,1,0,0:0:0:0:
224,192,84297,1,8,0:0:0:0:
128,128,84408,1,0,0:0:0:0:
327,156,84630,1,8,0:0:0:0:
128,128,84741,1,0,0:0:0:0:
327,156,84852,1,8,0:0:0:0:
327,156,85074,5,0,0:0:0:0:
327,156,85297,1,8,0:0:0:0:
192,64,85352,1,8,0:0:0:0:
224,192,85408,1,8,0:0:0:0:
327,156,85519,1,4,0:0:0:0:
192,224,88185,1,0,0:0:0:0:
192,224,88630,1,0,0:0:0:0:
192,192,89074,1,8,0:0:0:0:
64,128,89519,1,0,0:0:0:0:
160,192,89741,1,8,0:0:0:0:
192,224,90852,1,8,0:0:0:0:
192,224,91741,1,8,0:0:0:0:
128,192,92630,1,8,0:0:0:0:
128,96,93074,1,0,0:0:0:0:
128,128,93296,1,8,0:0:0:0:
160,96,95296,1,8,0:0:0:0:
160,32,95741,1,0,0:0:0:0:
224,128,96185,1,8,0:0:0:0:
224,160,96630,1,0,0:0:0:0:
128,128,96852,1,8,0:0:0:0:
224,160,97963,1,0,0:0:0:0:
224,160,98852,1,8,0:0:0:0:
224,192,99741,1,8,0:0:0:0:
256,192,100185,1,0,0:0:0:0:
192,192,100407,1,8,0:0:0:0:
224,192,101074,1,8,0:0:0:0:
288,224,102407,1,0,0:0:0:0:
256,192,102852,1,8,0:0:0:0:
160,160,103296,1,8,0:0:0:0:
288,160,103741,1,0,0:0:0:0:
160,160,103963,1,8,0:0:0:0:
160,160,104630,1,8,0:0:0:0:
160,192,105074,1,8,0:0:0:0:
160,224,105963,1,8,0:0:0:0:
160,224,106852,1,8,0:0:0:0:
224,64,107296,1,0,0:0:0:0:
160,224,107518,1,8,0:0:0:0:
128,160,108185,1,8,0:0:0:0:
256,128,108630,1,0,0:0:0:0:
192,160,109518,1,8,0:0:0:0:
256,128,109963,1,0,0:0:0:0:
192,160,110407,1,8,0:0:0:0:
192,64,110852,1,0,0:0:0:0:
192,160,111074,1,8,0:0:0:0:
96,128,111741,1,8,0:0:0:0:
96,128,112185,1,0,0:0:0:0:
224,224,113074,1,8,0:0:0:0:
224,224,113963,1,0,0:0:0:0:
288,128,114852,1,0,0:0:0:0:
160,96,115518,1,8,0:0:0:0:
160,160,116185,1,0,0:0:0:0:
160,96,116630,1,8,0:0:0:0:
192,128,117074,1,0,0:0:0:0:
192,128,117518,1,0,0:0:0:0:
160,128,119296,1,8,0:0:0:0:
96,128,120185,1,0,0:0:0:0:
160,128,121074,1,8,0:0:0:0:
192,128,121963,1,0,0:0:0:0:
224,160,122630,1,8,0:0:0:0:
192,96,123296,1,0,0:0:0:0:
160,128,123741,1,8,0:0:0:0:
192,96,124185,1,0,0:0:0:0:
288,160,124630,1,8,0:0:0:0:
96,128,126407,1,8,0:0:0:0:
128,160,127296,1,0,0:0:0:0:
256,160,128185,1,4,0:0:0:0:
288,160,129074,1,8,0:0:0:0:
192,128,130407,1,0,0:0:0:0:
288,160,130852,1,8,0:0:0:0:
96,160,131296,1,0,0:0:0:0:
288,160,131741,1,0,0:0:0:0:
288,160,132630,1,8,0:0:0:0:
128,128,133741,1,0,0:0:0:0:
192,128,133963,1,0,0:0:0:0:
288,160,134407,1,8,0:0:0:0:
288,160,135296,1,0,0:0:0:0:
288,160,136185,1,8,0:0:0:0:
192,128,137518,1,0,0:0:0:0:
288,160,137963,1,8,0:0:0:0:
128,128,138407,1,0,0:0:0:0:
288,160,138852,1,0,0:0:0:0:
288,160,139741,1,8,0:0:0:0:
128,128,140852,1,0,0:0:0:0:
192,128,141074,1,0,0:0:0:0:
288,160,141518,1,8,0:0:0:0:
288,160,142407,1,4,0:0:0:0:
256,192,144185,1,0,0:0:0:0:
160,64,145074,1,8,0:0:0:0:
160,64,145963,1,8,0:0:0:0:
192,160,147741,1,0,0:0:0:0:
96,96,148630,1,8,0:0:0:0:
192,160,149518,1,8,0:0:0:0:
128,192,151296,1,8,0:0:0:0:
128,128,152185,1,0,0:0:0:0:
160,160,153074,1,8,0:0:0:0:
160,160,154852,5,8,0:0:0:0:
160,160,155741,1,0,0:0:0:0:
332,301,156630,5,4,0:0:0:0:
64,160,156963,1,8,0:0:0:0:
64,160,157185,1,0,0:0:0:0:
128,128,157296,1,0,0:0:0:0:
207,149,157407,1,8,0:0:0:0:
192,192,157630,1,0,0:0:0:0:
192,192,157741,1,0,0:0:0:0:
207,149,157852,1,8,0:0:0:0:
207,149,158074,1,8,0:0:0:0:
288,192,158185,1,0,0:0:0:0:
192,192,158296,1,8,0:0:0:0:
160,96,158352,1,8,0:0:0:0:
160,64,158407,1,8,0:0:0:0:
256,224,158741,1,8,0:0:0:0:
288,192,158963,1,0,0:0:0:0:
207,149,159074,1,8,0:0:0:0:
288,192,159185,1,0,0:0:0:0:
128,128,159407,1,0,0:0:0:0:
128,128,159518,1,0,0:0:0:0:
160,224,159630,1,0,0:0:0:0:
160,224,159852,1,0,0:0:0:0:
160,224,160074,1,8,0:0:0:0:
128,64,160130,1,8,0:0:0:0:
160,224,160185,1,8,0:0:0:0:
160,160,160518,1,8,0:0:0:0:
160,160,160741,1,0,0:0:0:0:
160,160,160963,1,8,0:0:0:0:
128,160,161185,1,0,0:0:0:0:
128,160,161296,1,0,0:0:0:0:
128,352,161407,1,8,0:0:0:0:
207,149,161630,1,8,0:0:0:0:
64,128,161741,1,0,0:0:0:0:
144,184,161852,1,8,0:0:0:0:
64,160,161907,1,8,0:0:0:0:
64,160,161963,1,8,0:0:0:0:
128,32,162296,1,8,0:0:0:0:
128,32,162518,1,0,0:0:0:0:
128,160,162630,1,0,0:0:0:0:
160,64,162741,1,8,0:0:0:0:
224,192,162963,1,8,0:0:0:0:
224,192,163074,1,8,0:0:0:0:
96,64,163185,1,0,0:0:0:0:
128,160,163296,1,8,0:0:0:0:
144,184,163407,1,0,0:0:0:0:
144,184,163630,1,8,0:0:0:0:
192,192,163741,1,4,0:0:0:0:
64,160,164074,1,8,0:0:0:0:
64,160,164296,1,0,0:0:0:0:
128,128,164407,1,0,0:0:0:0:
207,149,164518,1,8,0:0:0:0:
192,192,164741,1,0,0:0:0:0:
192,192,164852,1,0,0:0:0:0:
207,149,164963,1,8,0:0:0:0:
207,149,165185,1,8,0:0:0:0:
288,192,165296,1,0,0:0:0:0:
192,192,165407,1,8,0:0:0:0:
160,96,165463,1,8,0:0:0:0:
160,64,165518,1,8,0:0:0:0:
256,224,165852,1,8,0:0:0:0:
288,192,166074,1,0,0:0:0:0:
207,149,166185,1,8,0:0:0:0:
288,192,166296,1,0,0:0:0:0:
128,128,166518,1,0,0:0:0:0:
128,128,166629,1,0,0:0:0:0:
160,224,166741,1,0,0:0:0:0:
160,224,166963,1,0,0:0:0:0:
160,224,167185,1,8,0:0:0:0:
128,64,167241,1,8,0:0:0:0:
160,224,167296,1,8,0:0:0:0:
160,160,167629,1,8,0:0:0:0:
160,160,167852,1,0,0:0:0:0:
160,160,168074,1,8,0:0:0:0:
128,160,168296,1,0,0:0:0:0:
128,160,168407,1,0,0:0:0:0:
128,352,168518,1,8,0:0:0:0:
207,149,168741,1,8,0:0:0:0:
64,128,168852,1,0,0:0:0:0:
144,184,168963,1,8,0:0:0:0:
64,160,169018,1,8,0:0:0:0:
64,160,169074,1,8,0:0:0:0:
128,32,169407,1,8,0:0:0:0:
128,32,169629,1,0,0:0:0:0:
128,160,169741,1,0,0:0:0:0:
160,64,169852,1,0,0:0:0:0:
224,192,170074,1,8,0:0:0:0:
224,192,170185,1,8,0:0:0:0:
256,160,170296,1,0,0:0:0:0:
128,160,170407,5,8,0:0:0:0:
144,184,170518,1,0,0:0:0:0:
144,184,170741,1,8,0:0:0:0:
192,192,170852,5,4,0:0:0:0:
160,192,171296,1,0,0:0:0:0:
192,192,171407,1,0,0:0:0:0:
160,192,171518,1,0,0:0:0:0:
229,216,171741,5,8,0:0:0:0:
160,192,171852,1,8,0:0:0:0:
192,128,171907,1,8,0:0:0:0:
160,192,171963,1,8,0:0:0:0:
229,216,172185,1,0,0:0:0:0:
416,256,172296,1,8,0:0:0:0:
229,216,172407,1,8,0:0:0:0:
416,256,172518,1,8,0:0:0:0:
229,216,172629,1,0,0:0:0:0:
229,216,173074,1,0,0:0:0:0:
229,216,173296,1,0,0:0:0:0:
416,224,173407,1,0,0:0:0:0:
229,216,173518,1,8,0:0:0:0:
229,216,173741,1,0,0:0:0:0:
416,224,173852,1,0,0:0:0:0:
229,216,173963,1,8,0:0:0:0:
160,192,174185,1,0,0:0:0:0:
160,160,174296,1,8,0:0:0:0:
160,0,174352,1,8,0:0:0:0:
229,216,174407,1,8,0:0:0:0:
160,192,174852,1,0,0:0:0:0:
224,128,174963,1,0,0:0:0:0:
160,192,175074,1,0,0:0:0:0:
224,224,175296,1,8,0:0:0:0:
192,96,175407,1,8,0:0:0:0:
224,96,175463,1,8,0:0:0:0:
160,192,175518,1,8,0:0:0:0:
288,224,175741,1,8,0:0:0:0:
224,96,175852,1,0,0:0:0:0:
288,224,175963,1,8,0:0:0:0:
128,192,176074,1,0,0:0:0:0:
288,224,176185,1,0,0:0:0:0:
160,128,176629,1,0,0:0:0:0:
160,128,176852,1,0,0:0:0:0:
160,160,176963,1,0,0:0:0:0:
160,128,177074,1,8,0:0:0:0:
160,128,177296,1,0,0:0:0:0:
192,128,177407,1,8,0:0:0:0:
160,160,177463,1,8,0:0:0:0:
160,128,177518,1,8,0:0:0:0:
160,128,177741,1,0,0:0:0:0:
128,64,177852,1,8,0:0:0:0:
160,160,177963,1,4,0:0:0:0:
160,192,178407,1,0,0:0:0:0:
192,192,178518,1,0,0:0:0:0:
160,192,178629,1,0,0:0:0:0:
229,216,178852,5,8,0:0:0:0:
160,192,178963,1,8,0:0:0:0:
192,128,179018,1,8,0:0:0:0:
160,192,179074,1,8,0:0:0:0:
229,216,179296,1,0,0:0:0:0:
416,256,179407,1,8,0:0:0:0:
229,216,179518,1,8,0:0:0:0:
416,256,179629,1,8,0:0:0:0:
229,216,179740,1,0,0:0:0:0:
229,216,180185,1,0,0:0:0:0:
229,216,180407,1,0,0:0:0:0:
416,224,180518,1,0,0:0:0:0:
229,216,180629,1,8,0:0:0:0:
229,216,180852,1,0,0:0:0:0:
416,224,180963,1,0,0:0:0:0:
229,216,181074,1,8,0:0:0:0:
160,192,181296,1,0,0:0:0:0:
160,160,181407,1,8,0:0:0:0:
160,0,181463,1,8,0:0:0:0:
229,216,181518,1,8,0:0:0:0:
160,192,181963,1,0,0:0:0:0:
224,128,182074,1,0,0:0:0:0:
160,192,182185,1,0,0:0:0:0:
224,224,182407,1,8,0:0:0:0:
192,96,182518,1,8,0:0:0:0:
224,96,182574,1,8,0:0:0:0:
160,192,182629,1,8,0:0:0:0:
288,224,182852,1,8,0:0:0:0:
224,96,182963,1,0,0:0:0:0:
288,224,183074,1,8,0:0:0:0:
128,192,183185,1,0,0:0:0:0:
288,224,183296,1,0,0:0:0:0:
160,128,183740,1,0,0:0:0:0:
160,128,183963,1,0,0:0:0:0:
160,160,184074,1,0,0:0:0:0:
160,128,184185,1,8,0:0:0:0:
160,128,184407,1,0,0:0:0:0:
192,128,184518,1,8,0:0:0:0:
160,160,184574,1,8,0:0:0:0:
160,128,184629,5,8,0:0:0:0:
160,128,184852,1,0,0:0:0:0:
128,64,184963,1,8,0:0:0:0:
160,160,185074,1,4,0:0:0:0:
160,128,187740,1,0,0:0:0:0:
160,64,188185,1,0,0:0:0:0:
192,96,188629,1,8,0:0:0:0:
288,320,191296,1,8,0:0:0:0:
128,128,191740,1,0,0:0:0:0:
224,256,192185,1,0,0:0:0:0:
128,128,194851,1,0,0:0:0:0:
256,160,195296,1,0,0:0:0:0:
96,160,195740,1,8,0:0:0:0:
256,160,197518,1,0,0:0:0:0:
192,128,198407,1,8,0:0:0:0:
192,160,199296,1,0,0:0:0:0:
