osu file format v14

[General]
AudioFilename: audio.mp3
AudioLeadIn: 0
PreviewTime: 56019
Countdown: 0
SampleSet: Normal
StackLeniency: 0.7
Mode: 1
LetterboxInBreaks: 0
WidescreenStoryboard: 1

[Editor]
Bookmarks: 131,14353,28575,42797,57019,85464,99685,113907,128129,142351,156575,185019,199240
DistanceSpacing: 0.1
BeatDivisor: 4
GridSize: 32
TimelineZoom: 3.499997

[Metadata]
Title:northern_limit [feat. Sennzai]
TitleUnicode:northern_limit [feat. せんざい]
Artist:Kobaryo
ArtistUnicode:Kobaryo
Creator:Nepuri
Version:absolute_zero
Source:osu!
Tags:featured artist Candy Speed Pops Speedcore Psycho Filth Records PFSA-002 Comiket Comic Market C89 Electronic Japanese Melodic J-Core Senzai instrumental
BeatmapID:2332172
BeatmapSetID:869714

[Difficulty]
HPDrainRate:4.5
CircleSize:2
OverallDifficulty:10
ApproachRate:10
SliderMultiplier:1.4
SliderTickRate:1

[Events]
//Background and Video events
0,0,"Limit.jpg",0,0
//Break Periods
//Storyboard Layer 0 (Background)
//Storyboard Layer 1 (Fail)
//Storyboard Layer 2 (Pass)
//Storyboard Layer 3 (Foreground)
//Storyboard Layer 4 (Overlay)
//Storyboard Sound Samples

[TimingPoints]
187,444.444444444444,4,1,0,60,1,0
13964,-100,4,1,0,70,0,0
29409,-66.6666666666667,4,1,0,70,0,0
29631,-100,4,1,0,70,0,0
31186,-58.8235294117647,4,1,0,70,0,0
31408,-100,4,1,0,70,0,0
32964,-52.6315789473684,4,1,0,70,0,0
33186,-100,4,1,0,70,0,0
34742,-47.6190476190476,4,1,0,70,0,0
34964,-100,4,1,0,70,0,0
36520,-43.4782608695652,4,1,0,70,0,0
36742,-100,4,1,0,70,0,0
38298,-40,4,1,0,70,0,0
38520,-100,4,1,0,70,0,0
40075,-37.037037037037,4,1,0,70,0,0
40297,-100,4,1,0,70,0,0
41853,-34.4827586206897,4,1,0,70,0,0
42075,-100,4,1,0,70,0,0
57075,222.222222222222,4,1,0,100,1,1
57075,-99.9999999999999,4,1,0,100,0,1
70852,-100,4,1,0,100,0,1
70908,-98.7780171498393,4,1,0,100,0,1
70963,-97.5855386038632,4,1,0,100,0,1
71000,-96.8063582416093,4,1,0,100,0,1
71037,-96.039614420156,4,1,0,100,0,1
71074,-95.2848301786114,4,1,0,100,0,1
71112,-94.5419066455397,4,1,0,100,0,1
71149,-93.8104784428211,4,1,0,100,0,1
71185,-93.090194158218,4,1,0,100,0,1
71223,-92.3809717369655,4,1,0,100,0,1
71260,-91.6823901965854,4,1,0,100,0,1
71297,-90.9090909090909,4,1,0,100,0,1
85519,444.444444444444,4,1,0,100,1,0
85519,-45.4545454545455,4,1,0,100,0,0
85963,-100,4,1,0,70,0,0
128963,-50,4,1,0,70,0,0
129185,-100,4,1,0,70,0,0
130741,-43.4782608695652,4,1,0,70,0,0
130963,-100,4,1,0,70,0,0
132518,-38.4615384615385,4,1,0,70,0,0
132740,-100,4,1,0,70,0,0
134296,-34.4827586206897,4,1,0,70,0,0
134518,-100,4,1,0,70,0,0
136074,-31.25,4,1,0,70,0,0
136296,-100,4,1,0,70,0,0
137852,-28.5714285714286,4,1,0,70,0,0
138074,-100,4,1,0,70,0,0
139630,-26.3157894736842,4,1,0,70,0,0
139852,-100,4,1,0,70,0,0
141407,-24.390243902439,4,1,0,70,0,0
141629,-100,4,1,0,70,0,0
156630,222.222222222222,4,1,0,100,1,1
156630,-95.2380952380952,4,1,0,100,0,1
170630,-95.2380952380952,4,1,0,100,0,1
170666,-94.4882187364469,4,1,0,100,0,1
170703,-93.7499707031342,4,1,0,100,0,1
170741,-93.0232558139535,4,1,0,100,0,1
170778,-92.3077207100679,4,1,0,100,0,1
170815,-91.6030254647251,4,1,0,100,0,1
170852,-90.9090909090909,4,1,0,100,0,1
185074,444.444444444444,4,1,0,100,1,0
185074,-45.4545454545455,4,1,0,100,0,0
185296,-100,4,1,0,60,0,0

[HitObjects]
156,176,187,5,0,0:0:0:0:
96,160,2853,1,8,0:0:0:0:
128,192,3298,1,0,0:0:0:0:
198,193,3742,1,0,0:0:0:0:
192,64,5520,1,0,0:0:0:0:
128,128,6409,1,8,0:0:0:0:
141,125,7298,1,0,0:0:0:0:
96,128,7964,1,8,0:0:0:0:
96,160,9964,1,8,0:0:0:0:
192,64,10409,1,0,0:0:0:0:
205,246,10853,1,0,0:0:0:0:
192,64,12631,1,0,0:0:0:0:
192,64,13520,1,0,0:0:0:0:
205,246,14409,1,8,0:0:0:0:
256,160,15298,1,8,0:0:0:0:
192,64,15742,1,0,0:0:0:0:
192,32,15964,5,8,0:0:0:0:
96,160,16631,1,0,0:0:0:0:
160,64,17075,1,8,0:0:0:0:
128,64,17520,1,0,0:0:0:0:
196,148,17964,1,8,0:0:0:0:
160,96,19631,1,0,0:0:0:0:
283,101,19742,1,8,0:0:0:0:
160,128,20631,1,0,0:0:0:0:
281,100,21520,1,8,0:0:0:0:
128,128,22409,1,8,0:0:0:0:
192,160,22853,1,0,0:0:0:0:
256,192,23075,1,8,0:0:0:0:
224,160,23742,1,0,0:0:0:0:
224,160,24186,1,8,0:0:0:0:
224,160,24631,1,8,0:0:0:0:
221,157,25075,1,0,0:0:0:0:
221,157,26853,1,8,0:0:0:0:
256,96,27742,1,0,0:0:0:0:
166,199,28631,1,4,0:0:0:0:
190,138,29520,1,12,0:0:0:0:
224,192,29964,1,0,0:0:0:0:
224,192,30186,1,0,0:0:0:0:
192,128,30853,1,0,0:0:0:0:
189,137,31298,1,12,0:0:0:0:
160,160,31742,1,0,0:0:0:0:
189,137,32186,1,0,0:0:0:0:
189,137,33075,1,12,0:0:0:0:
160,160,34186,1,0,0:0:0:0:
192,128,34409,1,0,0:0:0:0:
156,161,34853,1,12,0:0:0:0:
156,161,35742,1,0,0:0:0:0:
224,192,36186,1,0,0:0:0:0:
156,161,36631,1,12,0:0:0:0:
224,192,37075,1,0,0:0:0:0:
224,192,37298,1,0,0:0:0:0:
192,128,37964,1,0,0:0:0:0:
189,149,38409,1,12,0:0:0:0:
160,160,38853,1,0,0:0:0:0:
189,149,39298,1,0,0:0:0:0:
189,149,40186,1,12,0:0:0:0:
224,192,41298,1,0,0:0:0:0:
192,128,41520,1,0,0:0:0:0:
189,149,41964,1,12,0:0:0:0:
189,149,42853,1,4,0:0:0:0:
174,147,44631,1,0,0:0:0:0:
192,96,45520,1,8,0:0:0:0:
217,156,46409,1,8,0:0:0:0:
221,158,48186,1,0,0:0:0:0:
192,160,49075,1,8,0:0:0:0:
171,155,49964,1,8,0:0:0:0:
175,155,51742,1,8,0:0:0:0:
160,128,52631,1,0,0:0:0:0:
78,188,53520,1,8,0:0:0:0:
179,183,55298,1,0,0:0:0:0:
192,128,56186,1,8,0:0:0:0:
159,141,57075,1,4,0:0:0:0:
288,160,57297,1,0,0:0:0:0:
288,160,57408,1,0,0:0:0:0:
192,160,57463,1,0,0:0:0:0:
322,188,57519,1,8,0:0:0:0:
192,224,57630,1,0,0:0:0:0:
322,188,57741,1,8,0:0:0:0:
352,192,57797,1,8,0:0:0:0:
160,32,57852,1,0,0:0:0:0:
159,39,57908,1,0,0:0:0:0:
322,188,57963,1,8,0:0:0:0:
224,64,58075,1,0,0:0:0:0:
192,96,58130,1,0,0:0:0:0:
128,192,58186,1,8,0:0:0:0:
224,128,58297,1,0,0:0:0:0:
322,188,58408,1,8,0:0:0:0:
224,160,58463,1,0,0:0:0:0:
192,64,58519,1,8,0:0:0:0:
224,128,58575,1,0,0:0:0:0:
224,128,58630,1,8,0:0:0:0:
224,128,58741,1,8,0:0:0:0:
322,188,58852,1,0,0:0:0:0:
448,288,59075,1,0,0:0:0:0:
448,288,59186,1,0,0:0:0:0:
224,160,59241,1,0,0:0:0:0:
224,96,59297,1,8,0:0:0:0:
192,128,59408,1,0,0:0:0:0:
224,128,59519,1,8,0:0:0:0:
256,64,59630,1,0,0:0:0:0:
251,67,59686,1,0,0:0:0:0:
322,188,59741,1,8,0:0:0:0:
256,64,59778,1,8,0:0:0:0:
192,64,59815,1,8,0:0:0:0:
192,64,59852,1,0,0:0:0:0:
224,128,59963,1,0,0:0:0:0:
192,192,60075,1,0,0:0:0:0:
128,0,60186,1,8,0:0:0:0:
256,64,60241,1,8,0:0:0:0:
256,64,60297,1,0,0:0:0:0:
288,128,60352,1,0,0:0:0:0:
322,188,60408,1,8,0:0:0:0:
224,32,60445,1,8,0:0:0:0:
224,96,60482,1,8,0:0:0:0:
224,32,60519,1,0,0:0:0:0:
219,34,60556,1,0,0:0:0:0:
220,35,60593,1,0,0:0:0:0:
322,188,60630,1,8,0:0:0:0:
192,128,60852,1,0,0:0:0:0:
448,288,60963,1,0,0:0:0:0:
224,128,61019,1,0,0:0:0:0:
192,128,61074,1,8,0:0:0:0:
256,160,61186,1,0,0:0:0:0:
192,128,61241,1,0,0:0:0:0:
192,128,61297,1,8,0:0:0:0:
192,128,61352,1,8,0:0:0:0:
256,160,61408,1,0,0:0:0:0:
322,188,61519,1,8,0:0:0:0:
288,128,61630,1,0,0:0:0:0:
256,192,61686,1,0,0:0:0:0:
448,256,61741,1,8,0:0:0:0:
192,160,61852,1,8,0:0:0:0:
322,188,61963,1,8,0:0:0:0:
224,0,62019,1,8,0:0:0:0:
224,0,62074,1,0,0:0:0:0:
224,0,62130,1,0,0:0:0:0:
322,188,62186,1,8,0:0:0:0:
192,160,62297,1,8,0:0:0:0:
322,188,62408,1,0,0:0:0:0:
288,128,62630,1,0,0:0:0:0:
288,128,62741,1,0,0:0:0:0:
256,192,62797,1,0,0:0:0:0:
160,96,62852,1,8,0:0:0:0:
256,160,62963,1,0,0:0:0:0:
192,96,63074,1,8,0:0:0:0:
256,192,63186,1,0,0:0:0:0:
252,191,63241,1,0,0:0:0:0:
322,188,63297,1,8,0:0:0:0:
192,192,63334,1,8,0:0:0:0:
64,64,63371,1,8,0:0:0:0:
192,96,63408,1,0,0:0:0:0:
186,96,63463,1,0,0:0:0:0:
322,188,63519,1,8,0:0:0:0:
192,192,63556,1,8,0:0:0:0:
192,192,63593,1,8,0:0:0:0:
192,192,63630,1,0,0:0:0:0:
322,188,63741,1,0,0:0:0:0:
316,188,63797,1,0,0:0:0:0:
192,192,63852,1,8,0:0:0:0:
192,32,63908,1,0,0:0:0:0:
322,188,63963,1,8,0:0:0:0:
256,96,64000,1,0,0:0:0:0:
160,64,64037,1,0,0:0:0:0:
256,96,64074,1,8,0:0:0:0:
252,97,64112,1,8,0:0:0:0:
251,99,64149,1,8,0:0:0:0:
322,188,64186,1,0,0:0:0:0:
288,160,64408,1,0,0:0:0:0:
288,160,64519,1,0,0:0:0:0:
256,128,64574,1,0,0:0:0:0:
322,188,64630,1,8,0:0:0:0:
192,224,64741,1,0,0:0:0:0:
322,188,64852,1,8,0:0:0:0:
224,160,64908,1,8,0:0:0:0:
160,32,64963,1,0,0:0:0:0:
158,34,65019,1,0,0:0:0:0:
322,188,65074,1,8,0:0:0:0:
128,192,65297,1,8,0:0:0:0:
256,160,65352,1,0,0:0:0:0:
224,128,65408,1,0,0:0:0:0:
322,188,65519,1,8,0:0:0:0:
224,32,65574,1,0,0:0:0:0:
192,64,65630,1,8,0:0:0:0:
224,128,65686,1,0,0:0:0:0:
224,128,65741,1,8,0:0:0:0:
224,128,65852,1,8,0:0:0:0:
322,188,65963,1,0,0:0:0:0:
448,288,66186,1,0,0:0:0:0:
448,288,66297,1,0,0:0:0:0:
256,0,66352,1,0,0:0:0:0:
224,96,66408,1,8,0:0:0:0:
218,97,66463,1,8,0:0:0:0:
192,128,66519,1,0,0:0:0:0:
224,128,66630,1,8,0:0:0:0:
128,96,66741,1,0,0:0:0:0:
121,99,66797,1,0,0:0:0:0:
322,188,66852,1,8,0:0:0:0:
192,64,66889,1,8,0:0:0:0:
128,32,66926,1,8,0:0:0:0:
192,64,66963,1,0,0:0:0:0:
224,128,67074,1,0,0:0:0:0:
192,192,67186,1,0,0:0:0:0:
128,0,67297,1,8,0:0:0:0:
224,32,67352,1,8,0:0:0:0:
128,32,67408,1,0,0:0:0:0:
288,96,67463,1,0,0:0:0:0:
322,188,67519,1,8,0:0:0:0:
192,0,67556,1,8,0:0:0:0:
224,32,67593,1,8,0:0:0:0:
224,96,67630,1,0,0:0:0:0:
219,97,67667,1,0,0:0:0:0:
215,98,67704,1,0,0:0:0:0:
322,188,67741,1,8,0:0:0:0:
192,128,67963,1,0,0:0:0:0:
448,288,68074,1,0,0:0:0:0:
224,128,68130,1,0,0:0:0:0:
192,128,68185,1,8,0:0:0:0:
448,256,68297,1,0,0:0:0:0:
224,128,68352,1,0,0:0:0:0:
192,128,68408,1,8,0:0:0:0:
256,160,68519,1,0,0:0:0:0:
322,188,68630,1,8,0:0:0:0:
448,256,68852,1,0,0:0:0:0:
160,96,68908,1,0,0:0:0:0:
192,160,68963,1,0,0:0:0:0:
322,188,69074,1,8,0:0:0:0:
128,96,69112,1,8,0:0:0:0:
128,128,69149,1,8,0:0:0:0:
448,256,69185,1,0,0:0:0:0:
442,255,69241,1,0,0:0:0:0:
322,188,69297,1,8,0:0:0:0:
192,160,69408,1,8,0:0:0:0:
322,188,69519,1,0,0:0:0:0:
288,128,69741,1,0,0:0:0:0:
288,128,69852,1,0,0:0:0:0:
256,128,69908,1,0,0:0:0:0:
160,96,69963,1,8,0:0:0:0:
256,160,70074,1,0,0:0:0:0:
192,96,70185,1,8,0:0:0:0:
256,160,70297,1,0,0:0:0:0:
249,161,70352,1,0,0:0:0:0:
322,188,70408,1,8,0:0:0:0:
192,192,70445,1,8,0:0:0:0:
160,32,70482,1,8,0:0:0:0:
192,96,70519,1,0,0:0:0:0:
185,103,70574,1,0,0:0:0:0:
322,188,70630,1,8,0:0:0:0:
192,192,70667,1,8,0:0:0:0:
192,0,70704,1,8,0:0:0:0:
96,96,70741,1,0,0:0:0:0:
322,188,70852,5,0,0:0:0:0:
315,188,70908,1,0,0:0:0:0:
192,192,70963,1,8,0:0:0:0:
256,128,71000,1,0,0:0:0:0:
257,127,71037,1,0,0:0:0:0:
322,188,71074,1,8,0:0:0:0:
256,96,71112,1,8,0:0:0:0:
64,64,71149,1,8,0:0:0:0:
256,96,71185,1,0,0:0:0:0:
252,97,71223,1,0,0:0:0:0:
250,97,71260,1,0,0:0:0:0:
186,212,71297,1,8,0:0:0:0:
173,207,71408,1,0,0:0:0:0:
288,160,71519,1,8,0:0:0:0:
288,160,71630,1,0,0:0:0:0:
192,160,71685,1,0,0:0:0:0:
322,188,71741,1,8,0:0:0:0:
192,224,71852,1,0,0:0:0:0:
322,188,71963,1,8,0:0:0:0:
160,32,72074,1,0,0:0:0:0:
322,188,72185,1,8,0:0:0:0:
192,96,72241,1,8,0:0:0:0:
224,64,72297,1,0,0:0:0:0:
128,192,72408,1,8,0:0:0:0:
224,128,72519,1,0,0:0:0:0:
322,188,72630,1,8,0:0:0:0:
224,160,72685,1,0,0:0:0:0:
192,64,72741,1,8,0:0:0:0:
224,128,72797,1,0,0:0:0:0:
224,128,72852,1,8,0:0:0:0:
224,128,72963,1,8,0:0:0:0:
322,188,73074,1,0,0:0:0:0:
307,185,73186,1,0,0:0:0:0:
448,288,73297,1,8,0:0:0:0:
448,288,73408,1,0,0:0:0:0:
224,160,73463,1,0,0:0:0:0:
224,96,73519,1,8,0:0:0:0:
192,128,73630,1,0,0:0:0:0:
224,128,73741,1,8,0:0:0:0:
256,64,73852,1,0,0:0:0:0:
251,67,73908,1,0,0:0:0:0:
322,188,73963,1,8,0:0:0:0:
256,64,74000,1,8,0:0:0:0:
192,64,74037,1,8,0:0:0:0:
192,64,74074,1,0,0:0:0:0:
224,128,74185,1,0,0:0:0:0:
192,192,74297,1,0,0:0:0:0:
128,0,74408,1,8,0:0:0:0:
256,64,74463,1,8,0:0:0:0:
256,64,74519,1,0,0:0:0:0:
288,128,74574,1,0,0:0:0:0:
322,188,74630,1,8,0:0:0:0:
224,32,74667,1,8,0:0:0:0:
224,96,74704,1,8,0:0:0:0:
224,32,74741,1,0,0:0:0:0:
219,34,74778,1,0,0:0:0:0:
220,35,74815,1,0,0:0:0:0:
322,188,74852,1,8,0:0:0:0:
309,185,74963,1,0,0:0:0:0:
192,128,75074,1,8,0:0:0:0:
448,288,75185,1,0,0:0:0:0:
224,128,75241,1,0,0:0:0:0:
192,128,75296,1,8,0:0:0:0:
256,160,75408,1,0,0:0:0:0:
192,128,75463,1,0,0:0:0:0:
192,128,75519,1,8,0:0:0:0:
192,128,75574,1,8,0:0:0:0:
256,160,75630,1,0,0:0:0:0:
322,188,75741,1,8,0:0:0:0:
315,185,75797,1,8,0:0:0:0:
288,128,75852,1,0,0:0:0:0:
448,256,75963,1,0,0:0:0:0:
192,160,76074,1,8,0:0:0:0:
322,188,76185,1,8,0:0:0:0:
224,0,76241,1,8,0:0:0:0:
224,0,76296,1,0,0:0:0:0:
224,0,76352,1,0,0:0:0:0:
322,188,76408,1,8,0:0:0:0:
192,160,76519,1,8,0:0:0:0:
322,188,76630,1,8,0:0:0:0:
314,184,76686,1,8,0:0:0:0:
305,180,76741,1,0,0:0:0:0:
299,177,76797,1,0,0:0:0:0:
294,175,76852,1,8,0:0:0:0:
288,128,76963,1,8,0:0:0:0:
256,192,77019,1,8,0:0:0:0:
160,96,77074,1,0,0:0:0:0:
256,160,77185,1,0,0:0:0:0:
192,96,77296,1,8,0:0:0:0:
256,192,77408,1,0,0:0:0:0:
248,192,77463,1,0,0:0:0:0:
322,188,77519,1,8,0:0:0:0:
192,192,77556,1,8,0:0:0:0:
64,64,77593,1,8,0:0:0:0:
192,96,77630,1,0,0:0:0:0:
186,96,77685,1,0,0:0:0:0:
322,188,77741,1,8,0:0:0:0:
192,192,77778,1,8,0:0:0:0:
192,192,77815,1,8,0:0:0:0:
192,192,77852,1,8,0:0:0:0:
322,188,77963,1,0,0:0:0:0:
316,188,78019,1,0,0:0:0:0:
192,192,78074,1,8,0:0:0:0:
192,32,78130,1,0,0:0:0:0:
322,188,78185,1,8,0:0:0:0:
256,96,78222,1,0,0:0:0:0:
160,64,78259,1,0,0:0:0:0:
256,96,78296,1,8,0:0:0:0:
252,97,78334,1,8,0:0:0:0:
251,99,78371,1,8,0:0:0:0:
322,188,78408,1,0,0:0:0:0:
316,188,78519,1,0,0:0:0:0:
288,160,78630,1,8,0:0:0:0:
288,160,78741,1,0,0:0:0:0:
256,128,78796,1,0,0:0:0:0:
322,188,78852,1,8,0:0:0:0:
192,224,78963,1,0,0:0:0:0:
322,188,79074,1,8,0:0:0:0:
160,32,79185,1,0,0:0:0:0:
322,188,79296,1,8,0:0:0:0:
318,186,79352,1,8,0:0:0:0:
314,188,79408,1,0,0:0:0:0:
128,192,79519,1,8,0:0:0:0:
224,128,79630,1,0,0:0:0:0:
322,188,79741,1,8,0:0:0:0:
224,32,79796,1,0,0:0:0:0:
192,64,79852,1,8,0:0:0:0:
224,128,79908,1,0,0:0:0:0:
224,128,79963,1,8,0:0:0:0:
224,128,80074,1,0,0:0:0:0:
322,188,80185,1,8,0:0:0:0:
313,186,80297,1,8,0:0:0:0:
448,288,80408,1,0,0:0:0:0:
448,288,80519,1,0,0:0:0:0:
256,0,80574,1,0,0:0:0:0:
224,96,80630,1,8,0:0:0:0:
218,97,80685,1,8,0:0:0:0:
192,128,80741,1,0,0:0:0:0:
224,128,80852,1,8,0:0:0:0:
128,96,80963,1,0,0:0:0:0:
121,99,81019,1,0,0:0:0:0:
322,188,81074,1,8,0:0:0:0:
192,64,81111,1,8,0:0:0:0:
128,32,81148,1,8,0:0:0:0:
192,64,81185,1,0,0:0:0:0:
224,128,81296,1,0,0:0:0:0:
192,192,81408,1,0,0:0:0:0:
128,0,81519,1,8,0:0:0:0:
224,32,81574,1,8,0:0:0:0:
128,32,81630,1,0,0:0:0:0:
288,96,81685,1,0,0:0:0:0:
322,188,81741,1,8,0:0:0:0:
192,0,81778,1,8,0:0:0:0:
224,32,81815,1,8,0:0:0:0:
224,96,81852,1,0,0:0:0:0:
219,97,81889,1,0,0:0:0:0:
215,98,81926,1,0,0:0:0:0:
322,188,81963,1,8,0:0:0:0:
315,187,82074,1,0,0:0:0:0:
192,128,82185,1,8,0:0:0:0:
448,288,82296,1,0,0:0:0:0:
224,128,82352,1,0,0:0:0:0:
192,128,82407,1,8,0:0:0:0:
448,256,82519,1,0,0:0:0:0:
224,128,82574,1,0,0:0:0:0:
192,128,82630,1,8,0:0:0:0:
190,129,82686,1,0,0:0:0:0:
256,160,82741,1,0,0:0:0:0:
320,188,82852,1,8,0:0:0:0:
316,185,82908,1,8,0:0:0:0:
315,188,82963,1,0,0:0:0:0:
448,256,83074,1,8,0:0:0:0:
160,96,83186,1,0,0:0:0:0:
322,188,83296,1,8,0:0:0:0:
318,185,83352,1,8,0:0:0:0:
448,256,83407,1,0,0:0:0:0:
442,255,83463,1,0,0:0:0:0:
322,188,83519,1,8,0:0:0:0:
192,160,83630,1,8,0:0:0:0:
322,188,83741,1,8,0:0:0:0:
318,188,83797,1,8,0:0:0:0:
312,188,83852,1,0,0:0:0:0:
309,187,83908,1,0,0:0:0:0:
306,188,83963,1,8,0:0:0:0:
288,128,84074,1,8,0:0:0:0:
256,128,84130,1,8,0:0:0:0:
160,96,84185,1,0,0:0:0:0:
256,160,84296,1,0,0:0:0:0:
192,96,84407,1,8,0:0:0:0:
256,160,84519,1,0,0:0:0:0:
249,161,84574,1,0,0:0:0:0:
322,188,84630,1,8,0:0:0:0:
192,192,84667,1,8,0:0:0:0:
160,32,84704,1,8,0:0:0:0:
192,96,84741,1,0,0:0:0:0:
185,103,84796,1,0,0:0:0:0:
322,188,84852,1,8,0:0:0:0:
192,192,84889,1,8,0:0:0:0:
192,0,84926,1,8,0:0:0:0:
96,96,84963,1,8,0:0:0:0:
322,188,85074,5,0,0:0:0:0:
315,188,85130,1,0,0:0:0:0:
192,192,85185,1,8,0:0:0:0:
256,128,85241,1,0,0:0:0:0:
322,188,85296,1,8,0:0:0:0:
256,96,85334,1,0,0:0:0:0:
64,64,85371,1,0,0:0:0:0:
256,96,85407,1,8,0:0:0:0:
192,256,85519,1,4,0:0:0:0:
192,224,88185,1,0,0:0:0:0:
192,224,88630,1,0,0:0:0:0:
192,192,89074,1,8,0:0:0:0:
64,128,89519,1,0,0:0:0:0:
160,192,89741,1,8,0:0:0:0:
192,128,89963,1,0,0:0:0:0:
96,160,90407,1,8,0:0:0:0:
192,224,90852,1,8,0:0:0:0:
192,224,91741,1,8,0:0:0:0:
128,192,92630,1,8,0:0:0:0:
128,96,93074,1,0,0:0:0:0:
128,128,93296,1,8,0:0:0:0:
288,128,93518,1,0,0:0:0:0:
256,160,93963,1,8,0:0:0:0:
160,96,95296,1,8,0:0:0:0:
160,32,95741,1,0,0:0:0:0:
224,128,96185,1,8,0:0:0:0:
224,160,96630,1,0,0:0:0:0:
128,128,96852,1,8,0:0:0:0:
288,128,97074,1,0,0:0:0:0:
160,160,97518,1,8,0:0:0:0:
224,160,97963,1,0,0:0:0:0:
224,160,98852,1,8,0:0:0:0:
224,192,99741,1,8,0:0:0:0:
256,192,100185,1,0,0:0:0:0:
192,192,100407,1,8,0:0:0:0:
192,224,100630,1,0,0:0:0:0:
224,192,101074,1,8,0:0:0:0:
288,224,102407,1,0,0:0:0:0:
256,192,102852,1,8,0:0:0:0:
160,160,103296,1,8,0:0:0:0:
288,160,103741,1,0,0:0:0:0:
160,160,103963,1,8,0:0:0:0:
192,192,104185,1,0,0:0:0:0:
160,160,104630,1,8,0:0:0:0:
160,192,105074,1,8,0:0:0:0:
160,224,105963,1,8,0:0:0:0:
256,160,106407,1,0,0:0:0:0:
160,224,106852,1,8,0:0:0:0:
224,64,107296,1,0,0:0:0:0:
160,224,107518,1,8,0:0:0:0:
224,160,107741,1,0,0:0:0:0:
128,160,108185,1,8,0:0:0:0:
256,128,108630,1,0,0:0:0:0:
192,160,109518,1,8,0:0:0:0:
256,128,109963,1,0,0:0:0:0:
192,160,110407,1,8,0:0:0:0:
192,64,110852,1,0,0:0:0:0:
192,160,111074,1,8,0:0:0:0:
256,128,111296,1,0,0:0:0:0:
96,128,111741,1,8,0:0:0:0:
96,128,112185,1,0,0:0:0:0:
224,224,113074,1,8,0:0:0:0:
224,224,113963,1,0,0:0:0:0:
288,128,114852,1,8,0:0:0:0:
256,128,115296,1,0,0:0:0:0:
160,96,115518,1,8,0:0:0:0:
160,160,116185,1,0,0:0:0:0:
160,96,116630,1,8,0:0:0:0:
192,128,117074,1,0,0:0:0:0:
192,128,117518,1,8,0:0:0:0:
128,64,119185,1,0,0:0:0:0:
160,128,119296,1,8,0:0:0:0:
96,128,120185,1,0,0:0:0:0:
160,128,121074,1,8,0:0:0:0:
192,128,121963,1,8,0:0:0:0:
160,192,122407,1,0,0:0:0:0:
224,160,122630,1,8,0:0:0:0:
192,96,123296,1,8,0:0:0:0:
160,128,123741,1,8,0:0:0:0:
192,96,124185,1,0,0:0:0:0:
288,160,124630,1,8,0:0:0:0:
96,128,126407,1,8,0:0:0:0:
128,160,127296,1,0,0:0:0:0:
256,160,128185,1,4,0:0:0:0:
288,160,129074,1,12,0:0:0:0:
224,256,129518,1,0,0:0:0:0:
224,256,129741,1,0,0:0:0:0:
192,128,130407,1,0,0:0:0:0:
288,160,130852,1,12,0:0:0:0:
96,160,131296,1,0,0:0:0:0:
288,160,131741,1,0,0:0:0:0:
288,160,132630,1,12,0:0:0:0:
128,128,133741,1,0,0:0:0:0:
192,128,133963,1,0,0:0:0:0:
288,160,134407,1,12,0:0:0:0:
288,160,135296,1,0,0:0:0:0:
224,256,135741,1,0,0:0:0:0:
288,160,136185,1,12,0:0:0:0:
224,256,136630,1,0,0:0:0:0:
224,256,136852,1,0,0:0:0:0:
192,128,137518,1,0,0:0:0:0:
288,160,137963,1,12,0:0:0:0:
128,128,138407,1,0,0:0:0:0:
288,160,138852,1,0,0:0:0:0:
288,160,139741,1,12,0:0:0:0:
128,128,140852,1,0,0:0:0:0:
192,128,141074,1,0,0:0:0:0:
288,160,141518,1,12,0:0:0:0:
288,160,142407,1,4,0:0:0:0:
256,192,144185,1,0,0:0:0:0:
160,64,145074,1,8,0:0:0:0:
160,64,145963,1,8,0:0:0:0:
192,160,147741,1,0,0:0:0:0:
96,96,148630,1,8,0:0:0:0:
192,160,149518,1,8,0:0:0:0:
128,192,151296,1,8,0:0:0:0:
128,128,152185,1,0,0:0:0:0:
160,160,153074,1,8,0:0:0:0:
160,160,154852,5,8,0:0:0:0:
160,160,155741,1,0,0:0:0:0:
332,301,156630,5,4,0:0:0:0:
325,297,156741,1,0,0:0:0:0:
320,294,156796,1,0,0:0:0:0:
320,294,156852,1,8,0:0:0:0:
384,96,156907,1,0,0:0:0:0:
64,160,156963,1,8,0:0:0:0:
224,160,157000,1,0,0:0:0:0:
223,159,157037,1,0,0:0:0:0:
192,96,157074,1,8,0:0:0:0:
189,99,157130,1,0,0:0:0:0:
64,160,157185,1,0,0:0:0:0:
160,32,157241,1,8,0:0:0:0:
128,128,157296,1,0,0:0:0:0:
192,96,157352,1,0,0:0:0:0:
207,149,157407,1,8,0:0:0:0:
206,152,157444,1,8,0:0:0:0:
204,152,157481,1,8,0:0:0:0:
192,96,157518,1,0,0:0:0:0:
191,98,157574,1,0,0:0:0:0:
128,160,157630,1,8,0:0:0:0:
128,161,157685,1,8,0:0:0:0:
192,192,157741,1,0,0:0:0:0:
384,96,157796,1,0,0:0:0:0:
207,149,157852,1,8,0:0:0:0:
204,148,157889,1,8,0:0:0:0:
158,191,157926,1,8,0:0:0:0:
256,128,157963,1,0,0:0:0:0:
254,130,158018,1,0,0:0:0:0:
207,149,158074,1,8,0:0:0:0:
204,147,158111,1,8,0:0:0:0:
382,95,158148,1,0,0:0:0:0:
288,192,158185,1,0,0:0:0:0:
285,193,158241,1,0,0:0:0:0:
192,192,158296,1,8,0:0:0:0:
160,32,158333,1,8,0:0:0:0:
160,96,158370,1,8,0:0:0:0:
160,64,158407,1,8,0:0:0:0:
128,128,158518,1,0,0:0:0:0:
126,130,158574,1,0,0:0:0:0:
129,133,158630,1,8,0:0:0:0:
127,134,158685,1,0,0:0:0:0:
130,138,158741,1,8,0:0:0:0:
128,137,158778,1,0,0:0:0:0:
319,64,158815,1,0,0:0:0:0:
224,128,158852,1,8,0:0:0:0:
221,129,158907,1,0,0:0:0:0:
288,192,158963,1,8,0:0:0:0:
224,128,159018,1,8,0:0:0:0:
205,148,159074,1,0,0:0:0:0:
320,128,159130,1,0,0:0:0:0:
288,192,159185,1,8,0:0:0:0:
286,191,159222,1,8,0:0:0:0:
190,33,159259,1,8,0:0:0:0:
160,96,159296,1,0,0:0:0:0:
158,98,159352,1,0,0:0:0:0:
320,64,159407,1,8,0:0:0:0:
316,65,159463,1,8,0:0:0:0:
128,128,159518,1,0,0:0:0:0:
125,130,159574,1,0,0:0:0:0:
224,160,159630,1,8,0:0:0:0:
221,160,159667,1,0,0:0:0:0:
219,158,159704,1,0,0:0:0:0:
192,192,159741,1,0,0:0:0:0:
160,224,159852,1,8,0:0:0:0:
192,0,159889,1,8,0:0:0:0:
256,96,159926,1,0,0:0:0:0:
128,160,159963,1,0,0:0:0:0:
160,224,160074,1,8,0:0:0:0:
128,64,160111,1,8,0:0:0:0:
160,160,160148,1,8,0:0:0:0:
160,224,160185,1,0,0:0:0:0:
156,223,160241,1,0,0:0:0:0:
151,222,160296,1,8,0:0:0:0:
146,221,160352,1,8,0:0:0:0:
160,0,160407,1,0,0:0:0:0:
157,2,160463,1,0,0:0:0:0:
160,160,160518,1,8,0:0:0:0:
157,159,160555,1,8,0:0:0:0:
128,128,160592,1,8,0:0:0:0:
160,0,160630,1,0,0:0:0:0:
157,2,160685,1,0,0:0:0:0:
160,160,160741,1,0,0:0:0:0:
192,64,160796,1,8,0:0:0:0:
190,64,160852,1,0,0:0:0:0:
157,2,160907,1,0,0:0:0:0:
160,160,160963,1,8,0:0:0:0:
158,159,161000,1,8,0:0:0:0:
192,128,161037,1,8,0:0:0:0:
192,160,161074,1,0,0:0:0:0:
188,160,161130,1,0,0:0:0:0:
192,160,161185,1,8,0:0:0:0:
188,160,161241,1,8,0:0:0:0:
128,160,161296,1,0,0:0:0:0:
124,160,161352,1,0,0:0:0:0:
128,352,161407,1,8,0:0:0:0:
128,192,161444,1,8,0:0:0:0:
127,191,161481,1,8,0:0:0:0:
352,288,161518,1,0,0:0:0:0:
348,286,161574,1,0,0:0:0:0:
207,149,161630,1,8,0:0:0:0:
204,149,161667,1,8,0:0:0:0:
64,160,161704,1,0,0:0:0:0:
64,128,161741,1,0,0:0:0:0:
62,130,161796,1,0,0:0:0:0:
144,184,161852,1,8,0:0:0:0:
64,160,161889,1,8,0:0:0:0:
96,64,161926,1,8,0:0:0:0:
64,160,161963,1,8,0:0:0:0:
320,64,162074,1,0,0:0:0:0:
317,65,162130,1,0,0:0:0:0:
480,288,162185,1,8,0:0:0:0:
476,287,162241,1,0,0:0:0:0:
128,32,162296,1,8,0:0:0:0:
126,33,162333,1,0,0:0:0:0:
255,127,162370,1,0,0:0:0:0:
480,288,162407,1,8,0:0:0:0:
476,287,162463,1,0,0:0:0:0:
128,32,162518,1,0,0:0:0:0:
160,64,162574,1,8,0:0:0:0:
157,64,162630,1,0,0:0:0:0:
192,192,162685,1,0,0:0:0:0:
160,64,162741,1,8,0:0:0:0:
159,66,162778,1,8,0:0:0:0:
157,65,162815,1,8,0:0:0:0:
480,288,162852,1,0,0:0:0:0:
476,287,162907,1,0,0:0:0:0:
224,192,162963,1,8,0:0:0:0:
222,190,163018,1,0,0:0:0:0:
224,192,163074,1,8,0:0:0:0:
160,96,163130,1,8,0:0:0:0:
224,192,163185,1,0,0:0:0:0:
222,191,163222,1,0,0:0:0:0:
220,192,163259,1,0,0:0:0:0:
128,160,163296,1,8,0:0:0:0:
256,128,163333,1,8,0:0:0:0:
160,32,163370,1,8,0:0:0:0:
144,184,163407,1,0,0:0:0:0:
140,184,163463,1,0,0:0:0:0:
160,160,163518,1,8,0:0:0:0:
160,160,163555,1,0,0:0:0:0:
64,128,163592,1,0,0:0:0:0:
144,184,163630,1,8,0:0:0:0:
140,184,163667,1,8,0:0:0:0:
139,182,163704,1,8,0:0:0:0:
192,192,163741,1,0,0:0:0:0:
325,297,163852,1,0,0:0:0:0:
320,294,163907,1,0,0:0:0:0:
320,294,163963,1,8,0:0:0:0:
384,96,164018,1,0,0:0:0:0:
64,160,164074,1,8,0:0:0:0:
224,160,164111,1,0,0:0:0:0:
223,159,164148,1,0,0:0:0:0:
192,96,164185,1,8,0:0:0:0:
189,99,164241,1,0,0:0:0:0:
64,160,164296,1,0,0:0:0:0:
160,32,164352,1,8,0:0:0:0:
128,128,164407,1,0,0:0:0:0:
192,96,164463,1,0,0:0:0:0:
207,149,164518,1,8,0:0:0:0:
206,152,164555,1,8,0:0:0:0:
204,152,164592,1,8,0:0:0:0:
192,96,164629,1,0,0:0:0:0:
191,98,164685,1,0,0:0:0:0:
128,160,164741,1,8,0:0:0:0:
128,161,164796,1,8,0:0:0:0:
192,192,164852,1,0,0:0:0:0:
384,96,164907,1,0,0:0:0:0:
207,149,164963,1,8,0:0:0:0:
204,148,165000,1,8,0:0:0:0:
158,191,165037,1,8,0:0:0:0:
256,128,165074,1,0,0:0:0:0:
254,130,165129,1,0,0:0:0:0:
207,149,165185,1,8,0:0:0:0:
204,147,165222,1,8,0:0:0:0:
382,95,165259,1,0,0:0:0:0:
288,192,165296,1,0,0:0:0:0:
285,193,165352,1,0,0:0:0:0:
192,192,165407,1,8,0:0:0:0:
160,32,165444,1,8,0:0:0:0:
160,96,165481,1,8,0:0:0:0:
160,64,165518,1,8,0:0:0:0:
128,128,165629,1,0,0:0:0:0:
126,130,165685,1,0,0:0:0:0:
129,133,165741,1,8,0:0:0:0:
127,134,165796,1,0,0:0:0:0:
130,138,165852,1,8,0:0:0:0:
128,137,165889,1,0,0:0:0:0:
319,64,165926,1,0,0:0:0:0:
224,128,165963,1,8,0:0:0:0:
221,129,166018,1,0,0:0:0:0:
288,192,166074,1,0,0:0:0:0:
224,128,166130,1,8,0:0:0:0:
221,127,166185,1,0,0:0:0:0:
320,128,166241,1,0,0:0:0:0:
288,192,166296,1,8,0:0:0:0:
286,191,166333,1,8,0:0:0:0:
190,33,166370,1,8,0:0:0:0:
160,96,166407,1,0,0:0:0:0:
158,98,166463,1,0,0:0:0:0:
320,64,166518,1,8,0:0:0:0:
316,65,166574,1,8,0:0:0:0:
128,128,166629,1,0,0:0:0:0:
125,130,166685,1,0,0:0:0:0:
224,160,166741,1,8,0:0:0:0:
221,160,166778,1,0,0:0:0:0:
219,158,166815,1,0,0:0:0:0:
192,192,166852,1,0,0:0:0:0:
160,224,166963,1,8,0:0:0:0:
192,0,167000,1,8,0:0:0:0:
256,96,167037,1,0,0:0:0:0:
128,160,167074,1,0,0:0:0:0:
160,224,167185,1,8,0:0:0:0:
128,64,167222,1,8,0:0:0:0:
160,160,167259,1,8,0:0:0:0:
160,224,167296,1,0,0:0:0:0:
156,223,167352,1,0,0:0:0:0:
151,222,167407,1,8,0:0:0:0:
146,221,167463,1,8,0:0:0:0:
160,0,167518,1,0,0:0:0:0:
157,2,167574,1,0,0:0:0:0:
160,160,167629,1,8,0:0:0:0:
157,159,167666,1,8,0:0:0:0:
128,128,167703,1,8,0:0:0:0:
160,0,167741,1,0,0:0:0:0:
157,2,167796,1,0,0:0:0:0:
160,160,167852,1,0,0:0:0:0:
192,64,167907,1,8,0:0:0:0:
190,64,167963,1,0,0:0:0:0:
96,32,168018,1,0,0:0:0:0:
160,160,168074,1,8,0:0:0:0:
158,159,168111,1,8,0:0:0:0:
192,128,168148,1,8,0:0:0:0:
192,160,168185,1,0,0:0:0:0:
188,160,168241,1,0,0:0:0:0:
192,160,168296,1,8,0:0:0:0:
188,160,168352,1,8,0:0:0:0:
128,160,168407,1,0,0:0:0:0:
124,160,168463,1,0,0:0:0:0:
128,352,168518,1,8,0:0:0:0:
128,192,168555,1,8,0:0:0:0:
127,191,168592,1,8,0:0:0:0:
352,288,168629,1,0,0:0:0:0:
348,286,168685,1,0,0:0:0:0:
207,149,168741,1,8,0:0:0:0:
204,149,168778,1,8,0:0:0:0:
64,160,168815,1,0,0:0:0:0:
64,128,168852,1,0,0:0:0:0:
62,130,168907,1,0,0:0:0:0:
144,184,168963,1,8,0:0:0:0:
64,160,169000,1,8,0:0:0:0:
96,64,169037,1,8,0:0:0:0:
64,160,169074,1,8,0:0:0:0:
320,64,169185,1,0,0:0:0:0:
317,65,169241,1,0,0:0:0:0:
480,288,169296,1,8,0:0:0:0:
476,287,169352,1,0,0:0:0:0:
128,32,169407,1,8,0:0:0:0:
126,33,169444,1,0,0:0:0:0:
255,127,169481,1,0,0:0:0:0:
480,288,169518,1,8,0:0:0:0:
476,287,169574,1,0,0:0:0:0:
128,32,169629,1,0,0:0:0:0:
160,64,169685,1,8,0:0:0:0:
157,64,169741,1,0,0:0:0:0:
192,192,169796,1,0,0:0:0:0:
160,64,169852,1,8,0:0:0:0:
159,66,169889,1,8,0:0:0:0:
157,65,169926,1,8,0:0:0:0:
480,288,169963,1,0,0:0:0:0:
476,287,170018,1,0,0:0:0:0:
224,192,170074,1,8,0:0:0:0:
222,190,170129,1,0,0:0:0:0:
224,192,170185,1,8,0:0:0:0:
160,96,170241,1,8,0:0:0:0:
224,192,170296,1,0,0:0:0:0:
220,192,170333,1,0,0:0:0:0:
219,191,170370,1,0,0:0:0:0:
128,160,170407,5,8,0:0:0:0:
256,128,170444,1,8,0:0:0:0:
160,32,170481,1,8,0:0:0:0:
144,184,170518,1,0,0:0:0:0:
140,184,170574,1,0,0:0:0:0:
160,160,170630,1,8,0:0:0:0:
160,160,170666,1,0,0:0:0:0:
64,128,170703,1,0,0:0:0:0:
144,184,170741,1,8,0:0:0:0:
145,181,170778,1,8,0:0:0:0:
146,180,170815,1,8,0:0:0:0:
192,192,170852,5,0,0:0:0:0:
196,196,170963,1,8,0:0:0:0:
197,198,171018,1,8,0:0:0:0:
197,198,171074,1,8,0:0:0:0:
197,198,171130,1,8,0:0:0:0:
197,198,171185,1,0,0:0:0:0:
197,198,171241,1,0,0:0:0:0:
197,198,171296,1,8,0:0:0:0:
197,198,171352,1,8,0:0:0:0:
197,198,171407,1,8,0:0:0:0:
197,198,171463,1,0,0:0:0:0:
197,198,171518,1,8,0:0:0:0:
197,198,171574,1,8,0:0:0:0:
197,198,171630,1,0,0:0:0:0:
197,198,171685,1,8,0:0:0:0:
197,198,171741,1,0,0:0:0:0:
197,198,171796,1,0,0:0:0:0:
197,198,171852,1,8,0:0:0:0:
196,196,171889,1,8,0:0:0:0:
197,198,171926,1,0,0:0:0:0:
197,198,171963,1,8,0:0:0:0:
195,196,172000,1,0,0:0:0:0:
197,198,172037,1,0,0:0:0:0:
197,198,172074,1,8,0:0:0:0:
197,198,172130,1,0,0:0:0:0:
197,198,172185,1,8,0:0:0:0:
197,198,172241,1,8,0:0:0:0:
197,198,172296,1,0,0:0:0:0:
197,198,172352,1,8,0:0:0:0:
197,198,172407,1,0,0:0:0:0:
197,198,172463,1,0,0:0:0:0:
197,198,172518,1,8,0:0:0:0:
197,198,172574,1,0,0:0:0:0:
197,198,172629,1,8,0:0:0:0:
193,196,172685,1,8,0:0:0:0:
189,194,172741,1,0,0:0:0:0:
185,192,172796,1,8,0:0:0:0:
181,190,172852,1,8,0:0:0:0:
176,188,172907,1,8,0:0:0:0:
171,186,172963,1,0,0:0:0:0:
166,184,173018,1,0,0:0:0:0:
161,182,173074,1,8,0:0:0:0:
156,180,173129,1,8,0:0:0:0:
151,178,173185,1,8,0:0:0:0:
146,176,173241,1,0,0:0:0:0:
141,174,173296,1,8,0:0:0:0:
135,172,173352,1,8,0:0:0:0:
129,170,173407,1,0,0:0:0:0:
124,168,173463,1,8,0:0:0:0:
119,166,173518,1,0,0:0:0:0:
114,164,173574,1,0,0:0:0:0:
110,163,173629,1,8,0:0:0:0:
106,161,173685,1,0,0:0:0:0:
101,159,173741,1,8,0:0:0:0:
96,157,173796,1,8,0:0:0:0:
91,156,173852,1,0,0:0:0:0:
86,155,173907,1,0,0:0:0:0:
86,155,173963,1,8,0:0:0:0:
86,155,174018,1,8,0:0:0:0:
86,155,174074,1,0,0:0:0:0:
86,155,174129,1,0,0:0:0:0:
86,155,174185,1,8,0:0:0:0:
86,155,174241,1,0,0:0:0:0:
86,155,174296,1,8,0:0:0:0:
86,155,174333,1,0,0:0:0:0:
86,152,174370,1,0,0:0:0:0:
86,155,174407,1,8,0:0:0:0:
86,155,174463,1,8,0:0:0:0:
86,155,174518,1,0,0:0:0:0:
86,155,174574,1,8,0:0:0:0:
86,155,174629,1,0,0:0:0:0:
86,155,174685,1,0,0:0:0:0:
86,155,174741,1,8,0:0:0:0:
86,155,174796,1,8,0:0:0:0:
86,155,174852,1,0,0:0:0:0:
86,155,174907,1,0,0:0:0:0:
86,155,174963,1,8,0:0:0:0:
86,155,175018,1,0,0:0:0:0:
86,155,175074,1,8,0:0:0:0:
86,155,175129,1,8,0:0:0:0:
86,155,175185,1,0,0:0:0:0:
86,155,175241,1,8,0:0:0:0:
86,155,175296,1,8,0:0:0:0:
86,155,175352,1,0,0:0:0:0:
86,155,175407,1,8,0:0:0:0:
86,155,175463,1,0,0:0:0:0:
86,155,175518,1,8,0:0:0:0:
86,155,175555,1,8,0:0:0:0:
86,154,175592,1,8,0:0:0:0:
86,155,175629,1,0,0:0:0:0:
86,155,175685,1,0,0:0:0:0:
86,155,175741,1,8,0:0:0:0:
86,155,175796,1,8,0:0:0:0:
86,155,175852,1,0,0:0:0:0:
86,155,175907,1,8,0:0:0:0:
86,155,175963,1,0,0:0:0:0:
86,155,176018,1,0,0:0:0:0:
86,155,176074,1,8,0:0:0:0:
86,155,176129,1,0,0:0:0:0:
86,155,176185,1,8,0:0:0:0:
86,155,176241,1,8,0:0:0:0:
86,155,176296,1,0,0:0:0:0:
86,155,176352,1,8,0:0:0:0:
86,155,176407,1,0,0:0:0:0:
86,155,176463,1,8,0:0:0:0:
86,155,176518,1,0,0:0:0:0:
86,155,176574,1,0,0:0:0:0:
86,155,176629,1,8,0:0:0:0:
86,155,176685,1,8,0:0:0:0:
86,155,176741,1,8,0:0:0:0:
86,155,176796,1,0,0:0:0:0:
86,155,176852,1,8,0:0:0:0:
86,155,176907,1,8,0:0:0:0:
86,155,176963,1,0,0:0:0:0:
86,155,177000,1,8,0:0:0:0:
205,25,177037,1,8,0:0:0:0:
86,155,177074,1,0,0:0:0:0:
86,155,177129,1,0,0:0:0:0:
86,155,177185,1,8,0:0:0:0:
86,155,177241,1,8,0:0:0:0:
86,155,177296,1,0,0:0:0:0:
86,155,177352,1,0,0:0:0:0:
86,155,177407,1,8,0:0:0:0:
87,153,177444,1,0,0:0:0:0:
86,155,177481,1,0,0:0:0:0:
86,155,177518,1,8,0:0:0:0:
86,155,177574,1,8,0:0:0:0:
86,155,177629,1,0,0:0:0:0:
87,152,177667,1,8,0:0:0:0:
86,155,177704,1,8,0:0:0:0:
86,155,177741,1,0,0:0:0:0:
86,155,177796,1,0,0:0:0:0:
86,155,177852,1,8,0:0:0:0:
86,155,177889,1,8,0:0:0:0:
86,153,177926,1,8,0:0:0:0:
86,155,177963,1,0,0:0:0:0:
196,196,178074,1,8,0:0:0:0:
197,198,178129,1,8,0:0:0:0:
197,198,178185,1,8,0:0:0:0:
197,198,178241,1,8,0:0:0:0:
197,198,178296,1,0,0:0:0:0:
197,198,178333,1,0,0:0:0:0:
93,30,178370,1,0,0:0:0:0:
197,198,178407,1,8,0:0:0:0:
197,198,178463,1,8,0:0:0:0:
197,198,178518,1,8,0:0:0:0:
197,198,178574,1,0,0:0:0:0:
197,198,178629,1,8,0:0:0:0:
197,198,178685,1,8,0:0:0:0:
197,198,178741,1,0,0:0:0:0:
197,198,178796,1,8,0:0:0:0:
197,198,178852,1,0,0:0:0:0:
197,198,178907,1,0,0:0:0:0:
197,198,178963,1,8,0:0:0:0:
196,196,179000,1,8,0:0:0:0:
197,198,179037,1,0,0:0:0:0:
197,198,179074,1,8,0:0:0:0:
195,196,179111,1,0,0:0:0:0:
197,198,179148,1,0,0:0:0:0:
197,198,179185,1,8,0:0:0:0:
197,198,179241,1,0,0:0:0:0:
197,198,179296,1,8,0:0:0:0:
197,198,179352,1,8,0:0:0:0:
197,198,179407,1,0,0:0:0:0:
197,198,179463,1,8,0:0:0:0:
197,198,179518,1,0,0:0:0:0:
197,198,179574,1,0,0:0:0:0:
197,198,179629,1,8,0:0:0:0:
197,198,179685,1,0,0:0:0:0:
197,198,179740,1,8,0:0:0:0:
193,196,179796,1,8,0:0:0:0:
189,194,179852,1,0,0:0:0:0:
185,192,179907,1,8,0:0:0:0:
181,190,179963,1,8,0:0:0:0:
176,188,180018,1,8,0:0:0:0:
171,186,180074,1,0,0:0:0:0:
166,184,180129,1,0,0:0:0:0:
161,182,180185,1,8,0:0:0:0:
156,180,180240,1,8,0:0:0:0:
151,178,180296,1,8,0:0:0:0:
146,176,180352,1,0,0:0:0:0:
141,174,180407,1,8,0:0:0:0:
135,172,180463,1,8,0:0:0:0:
129,170,180518,1,0,0:0:0:0:
124,168,180574,1,8,0:0:0:0:
119,166,180629,1,0,0:0:0:0:
114,164,180685,1,0,0:0:0:0:
110,163,180740,1,8,0:0:0:0:
106,161,180796,1,0,0:0:0:0:
101,159,180852,1,8,0:0:0:0:
96,157,180907,1,8,0:0:0:0:
91,156,180963,1,0,0:0:0:0:
86,155,181018,1,0,0:0:0:0:
86,155,181074,1,8,0:0:0:0:
86,155,181129,1,8,0:0:0:0:
86,155,181185,1,0,0:0:0:0:
86,155,181240,1,0,0:0:0:0:
86,155,181296,1,8,0:0:0:0:
86,155,181352,1,0,0:0:0:0:
86,155,181407,1,8,0:0:0:0:
86,155,181444,1,0,0:0:0:0:
86,152,181481,1,0,0:0:0:0:
86,155,181518,1,8,0:0:0:0:
86,155,181574,1,8,0:0:0:0:
86,155,181629,1,0,0:0:0:0:
86,155,181685,1,8,0:0:0:0:
86,155,181740,1,0,0:0:0:0:
86,155,181796,1,0,0:0:0:0:
86,155,181852,1,8,0:0:0:0:
86,155,181907,1,8,0:0:0:0:
86,155,181963,1,0,0:0:0:0:
86,155,182018,1,0,0:0:0:0:
86,155,182074,1,8,0:0:0:0:
86,155,182129,1,0,0:0:0:0:
86,155,182185,1,8,0:0:0:0:
86,155,182240,1,8,0:0:0:0:
86,155,182296,1,0,0:0:0:0:
86,155,182352,1,8,0:0:0:0:
86,155,182407,1,8,0:0:0:0:
86,155,182463,1,0,0:0:0:0:
86,155,182518,1,8,0:0:0:0:
86,155,182574,1,0,0:0:0:0:
86,155,182629,1,8,0:0:0:0:
86,155,182666,1,8,0:0:0:0:
86,154,182703,1,8,0:0:0:0:
86,155,182740,1,0,0:0:0:0:
86,155,182796,1,0,0:0:0:0:
86,155,182852,1,8,0:0:0:0:
86,155,182907,1,8,0:0:0:0:
86,155,182963,1,0,0:0:0:0:
86,155,183018,1,8,0:0:0:0:
86,155,183074,1,0,0:0:0:0:
86,155,183129,1,0,0:0:0:0:
86,155,183185,1,8,0:0:0:0:
86,155,183240,1,0,0:0:0:0:
86,155,183296,1,8,0:0:0:0:
86,155,183352,1,8,0:0:0:0:
86,155,183407,1,0,0:0:0:0:
86,155,183463,1,8,0:0:0:0:
86,155,183518,1,0,0:0:0:0:
86,155,183574,1,8,0:0:0:0:
86,155,183629,1,0,0:0:0:0:
86,155,183685,1,0,0:0:0:0:
86,155,183740,1,8,0:0:0:0:
86,155,183796,1,8,0:0:0:0:
86,155,183852,1,8,0:0:0:0:
86,155,183907,1,0,0:0:0:0:
86,155,183963,1,8,0:0:0:0:
86,155,184018,1,8,0:0:0:0:
86,155,184074,1,0,0:0:0:0:
175,9,184129,1,8,0:0:0:0:
86,155,184185,1,0,0:0:0:0:
86,155,184240,1,0,0:0:0:0:
86,155,184296,1,8,0:0:0:0:
86,155,184352,1,8,0:0:0:0:
86,155,184407,1,0,0:0:0:0:
86,155,184463,1,0,0:0:0:0:
86,155,184518,1,8,0:0:0:0:
87,153,184555,1,0,0:0:0:0:
86,155,184592,1,0,0:0:0:0:
86,155,184629,5,8,0:0:0:0:
86,155,184685,1,8,0:0:0:0:
86,155,184740,1,0,0:0:0:0:
87,152,184778,1,8,0:0:0:0:
86,155,184815,1,8,0:0:0:0:
86,155,184852,1,0,0:0:0:0:
86,155,184907,1,0,0:0:0:0:
86,155,184963,1,8,0:0:0:0:
83,152,185018,1,8,0:0:0:0:
160,96,185074,5,4,0:0:0:0:
160,128,187740,1,0,0:0:0:0:
160,64,188185,1,0,0:0:0:0:
192,96,188629,1,8,0:0:0:0:
288,320,191296,1,8,0:0:0:0:
128,128,191740,1,0,0:0:0:0:
224,256,192185,1,0,0:0:0:0:
128,128,194851,1,0,0:0:0:0:
256,160,195296,1,0,0:0:0:0:
96,160,195740,1,8,0:0:0:0:
256,160,197518,1,0,0:0:0:0:
192,128,198407,1,8,0:0:0:0:
192,160,199296,1,0,0:0:0:0:
