osu file format v14

[General]
AudioFilename: audio.mp3
AudioLeadIn: 0
PreviewTime: 56209
Countdown: 0
SampleSet: None
StackLeniency: 0.7
Mode: 1
LetterboxInBreaks: 0
WidescreenStoryboard: 1

[Editor]
DistanceSpacing: 0.1
BeatDivisor: 4
GridSize: 32
TimelineZoom: 2.5

[Metadata]
Title:northern_limit [feat. Sennzai]
TitleUnicode:northern_limit [feat. せんざい]
Artist:Kobaryo
ArtistUnicode:Kobaryo
Creator:ARGENTINE DREAM
Version:Futsuu
Source:
Tags:Candy Speed Pops Speedcore Psycho Filth Records PFSA-002 Comiket Comic Market 89
BeatmapID:1883867
BeatmapSetID:899967

[Difficulty]
HPDrainRate:6
CircleSize:5
OverallDifficulty:4.5
ApproachRate:10
SliderMultiplier:1.4
SliderTickRate:1

[Events]
//Background and Video events
0,0,"northernbg.jpg",0,-110
//Break Periods
//Storyboard Layer 0 (Background)
//Storyboard Layer 1 (Fail)
//Storyboard Layer 2 (Pass)
//Storyboard Layer 3 (Foreground)
//Storyboard Sound Samples

[TimingPoints]
210,444.444444444444,4,1,0,60,1,0
14432,-125,4,1,0,60,0,0
28654,-111.111111111111,4,1,0,70,0,0
44654,-117.647058823529,4,1,0,70,0,0
46432,-125,4,1,0,70,0,0
48209,-133.333333333333,4,1,0,70,0,0
49987,-142.857142857143,4,1,0,70,0,0
51765,-153.846153846154,4,1,0,70,0,0
53543,-166.666666666667,4,1,0,70,0,0
55321,-25,4,1,0,70,0,0
57098,-111.111111111111,4,1,0,100,0,1
85543,-111.111111111111,4,1,0,100,0,0
87321,-125,4,1,0,60,0,0

[HitObjects]
224,224,210,5,0,0:0:0:0:
224,224,2876,5,0,0:0:0:0:
224,160,3321,5,8,0:0:0:0:
224,160,3765,5,8,0:0:0:0:
224,160,5543,5,8,0:0:0:0:
224,160,6432,5,8,0:0:0:0:
224,160,6876,5,8,0:0:0:0:
224,224,7321,1,0,0:0:0:0:
224,160,7765,5,8,0:0:0:0:
224,160,7988,5,8,0:0:0:0:
224,224,9098,5,0,0:0:0:0:
224,160,9988,5,8,0:0:0:0:
224,224,10432,5,0,0:0:0:0:
224,160,10876,1,8,0:0:0:0:
224,224,12654,5,0,0:0:0:0:
224,160,13543,1,8,0:0:0:0:
224,160,14432,5,8,0:0:0:0:
224,160,15321,1,8,0:0:0:0:
224,224,15543,1,0,0:0:0:0:
224,224,15987,1,0,0:0:0:0:
224,160,16209,1,8,0:0:0:0:
224,160,17098,1,8,0:0:0:0:
224,160,17321,1,8,0:0:0:0:
224,160,17765,1,8,0:0:0:0:
224,224,17987,5,0,0:0:0:0:
224,160,18209,1,8,0:0:0:0:
224,160,18876,1,8,0:0:0:0:
224,160,19098,1,8,0:0:0:0:
224,160,19543,1,8,0:0:0:0:
224,160,19765,1,8,0:0:0:0:
224,160,20654,1,8,0:0:0:0:
224,224,20876,5,0,0:0:0:0:
224,160,21321,1,8,0:0:0:0:
224,224,21543,5,0,0:0:0:0:
224,160,22432,1,8,0:0:0:0:
224,160,22654,1,8,0:0:0:0:
224,160,23098,5,8,0:0:0:0:
224,160,23321,5,8,0:0:0:0:
224,224,24209,1,0,0:0:0:0:
224,160,24432,1,8,0:0:0:0:
224,160,24876,1,8,0:0:0:0:
224,224,25098,5,0,0:0:0:0:
224,160,25987,1,8,0:0:0:0:
224,224,26209,5,0,0:0:0:0:
224,160,26654,1,8,0:0:0:0:
224,224,26876,5,0,0:0:0:0:
224,160,27543,1,8,0:0:0:0:
256,192,27765,12,0,28432,0:0:0:0:
224,224,28654,5,0,0:0:0:0:
288,160,29543,1,12,0:0:0:0:
224,160,30209,1,8,0:0:0:0:
224,160,30432,1,8,0:0:0:0:
224,224,30876,5,0,0:0:0:0:
288,160,31321,1,12,0:0:0:0:
224,160,31987,1,8,0:0:0:0:
224,224,32209,5,0,0:0:0:0:
224,160,32654,1,8,0:0:0:0:
224,160,32876,1,8,0:0:0:0:
288,160,33098,1,12,0:0:0:0:
224,160,33987,1,8,0:0:0:0:
224,224,34209,5,0,0:0:0:0:
224,224,34432,5,0,0:0:0:0:
288,160,34876,1,12,0:0:0:0:
224,160,35543,1,8,0:0:0:0:
224,224,35765,5,0,0:0:0:0:
224,160,36209,1,8,0:0:0:0:
288,160,36654,1,12,0:0:0:0:
224,160,37321,1,8,0:0:0:0:
224,160,37543,1,8,0:0:0:0:
224,224,37987,5,0,0:0:0:0:
288,160,38432,1,12,0:0:0:0:
224,224,38876,1,0,0:0:0:0:
224,160,39098,1,8,0:0:0:0:
224,224,39321,5,0,0:0:0:0:
224,160,39987,1,8,0:0:0:0:
288,160,40209,1,12,0:0:0:0:
224,160,41098,1,8,0:0:0:0:
224,224,41321,5,0,0:0:0:0:
224,224,41543,5,0,0:0:0:0:
288,160,41987,1,12,0:0:0:0:
256,192,42209,12,12,42654,0:0:0:0:
288,224,42876,5,4,0:0:0:0:
224,160,44654,1,8,0:0:0:0:
224,224,46432,1,0,0:0:0:0:
224,160,48209,1,8,0:0:0:0:
224,224,49987,1,0,0:0:0:0:
224,160,51765,5,8,0:0:0:0:
256,192,53543,12,0,56209,0:0:0:0:
224,224,57098,5,0,0:0:0:0:
224,224,57321,1,0,0:0:0:0:
224,224,57543,1,0,0:0:0:0:
224,224,57765,1,0,0:0:0:0:
224,160,57987,1,8,0:0:0:0:
224,224,58432,1,0,0:0:0:0:
224,160,58654,1,8,0:0:0:0:
224,224,58876,5,0,0:0:0:0:
224,224,59321,1,0,0:0:0:0:
224,160,59543,1,8,0:0:0:0:
224,160,59765,1,8,0:0:0:0:
224,224,60209,1,0,0:0:0:0:
224,224,60654,5,0,0:0:0:0:
224,224,60877,1,0,0:0:0:0:
224,224,61099,1,0,0:0:0:0:
224,224,61321,1,0,0:0:0:0:
224,160,61543,1,8,0:0:0:0:
224,224,61987,1,0,0:0:0:0:
224,224,62210,1,0,0:0:0:0:
224,160,62432,5,8,0:0:0:0:
224,224,62876,1,0,0:0:0:0:
224,224,63098,1,0,0:0:0:0:
224,160,63321,1,8,0:0:0:0:
224,160,63543,1,8,0:0:0:0:
224,224,64209,5,0,0:0:0:0:
224,224,64432,1,0,0:0:0:0:
224,224,64654,1,0,0:0:0:0:
224,224,64876,1,0,0:0:0:0:
224,160,65098,1,8,0:0:0:0:
224,224,65543,1,0,0:0:0:0:
224,160,65765,1,8,0:0:0:0:
224,224,65987,5,0,0:0:0:0:
224,224,66432,1,0,0:0:0:0:
224,160,66654,1,8,0:0:0:0:
224,160,66876,1,8,0:0:0:0:
224,224,67320,1,0,0:0:0:0:
224,224,67765,5,0,0:0:0:0:
224,224,67988,1,0,0:0:0:0:
224,224,68210,1,0,0:0:0:0:
224,224,68432,1,0,0:0:0:0:
224,160,68654,1,8,0:0:0:0:
224,224,69098,1,0,0:0:0:0:
224,224,69321,1,0,0:0:0:0:
224,160,69543,5,8,0:0:0:0:
224,224,69765,1,0,0:0:0:0:
224,224,69987,5,0,0:0:0:0:
224,160,70209,1,8,0:0:0:0:
224,160,70432,1,8,0:0:0:0:
224,160,71321,1,8,0:0:0:0:
224,160,71543,1,8,0:0:0:0:
224,224,71765,1,0,0:0:0:0:
224,224,71987,1,0,0:0:0:0:
224,160,72209,1,8,0:0:0:0:
224,224,72654,1,0,0:0:0:0:
224,224,72876,1,0,0:0:0:0:
224,160,73098,1,8,0:0:0:0:
224,224,73543,1,0,0:0:0:0:
224,224,73765,1,0,0:0:0:0:
224,160,73987,1,8,0:0:0:0:
224,224,74654,1,0,0:0:0:0:
224,256,74876,1,0,0:0:0:0:
224,160,75321,1,8,0:0:0:0:
224,160,75617,1,8,0:0:0:0:
224,160,75765,1,8,0:0:0:0:
224,224,76432,1,0,0:0:0:0:
224,224,76654,1,0,0:0:0:0:
224,160,77098,1,8,0:0:0:0:
224,224,77321,1,0,0:0:0:0:
224,160,77543,1,8,0:0:0:0:
224,160,77765,1,8,0:0:0:0:
224,160,78432,1,8,0:0:0:0:
224,160,78654,1,8,0:0:0:0:
224,224,78876,1,0,0:0:0:0:
224,224,79098,1,0,0:0:0:0:
224,160,79320,1,8,0:0:0:0:
224,224,79765,1,0,0:0:0:0:
224,224,79987,1,0,0:0:0:0:
224,160,80209,1,8,0:0:0:0:
224,224,80654,1,0,0:0:0:0:
224,224,80876,1,0,0:0:0:0:
224,160,81098,1,8,0:0:0:0:
224,224,81765,1,0,0:0:0:0:
224,256,81987,1,0,0:0:0:0:
224,160,82432,1,8,0:0:0:0:
224,160,82728,1,8,0:0:0:0:
224,160,82876,1,8,0:0:0:0:
224,224,83543,1,0,0:0:0:0:
224,224,83765,1,0,0:0:0:0:
224,160,84209,1,8,0:0:0:0:
224,224,84432,1,0,0:0:0:0:
224,160,84654,1,8,0:0:0:0:
224,160,84876,1,8,0:0:0:0:
224,224,85098,1,0,0:0:0:0:
224,160,85320,1,8,0:0:0:0:
224,160,85542,1,8,0:0:0:0:
256,192,85765,12,0,87765,0:0:0:0:
224,224,88209,5,0,0:0:0:0:
224,160,88654,5,8,0:0:0:0:
224,160,89098,5,8,0:0:0:0:
224,160,90876,5,8,0:0:0:0:
224,160,91765,5,8,0:0:0:0:
224,160,92209,5,8,0:0:0:0:
224,224,92654,1,0,0:0:0:0:
224,160,93098,5,8,0:0:0:0:
224,160,93321,5,8,0:0:0:0:
224,224,95321,5,0,0:0:0:0:
224,160,95765,5,8,0:0:0:0:
224,160,96209,1,8,0:0:0:0:
224,224,97987,5,0,0:0:0:0:
224,160,98876,1,8,0:0:0:0:
224,224,99765,1,0,0:0:0:0:
256,192,99987,12,0,105987,0:0:0:0:
