osu file format v14

[General]
AudioFilename: audio_1.1.mp3
AudioLeadIn: 0
PreviewTime: 129257
Countdown: 0
SampleSet: Soft
StackLeniency: 0.7
Mode: 3
LetterboxInBreaks: 0
SpecialStyle: 0
WidescreenStoryboard: 1

[Editor]
DistanceSpacing: 0.7
BeatDivisor: 4
GridSize: 8
TimelineZoom: 2.6

[Metadata]
Title:fun TIME
TitleUnicode:fun TIME
Artist:Kobaryo
ArtistUnicode:Kobaryo
Creator:hA2Z1-_-
Version:Happy, fun, laughter x1.1
Source:
Tags:
BeatmapID:-1
BeatmapSetID:-1

[Difficulty]
HPDrainRate:7.5
CircleSize:4
OverallDifficulty:8
ApproachRate:5
SliderMultiplier:1.4
SliderTickRate:1

[Events]
//Background and Video events
0,0,"3432.png",0,0
//Break Periods
//Storyboard Layer 0 (Background)
//Storyboard Layer 1 (Fail)
//Storyboard Layer 2 (Pass)
//Storyboard Layer 3 (Foreground)
//Storyboard Layer 4 (Overlay)
//Storyboard Sound Samples

[TimingPoints]
126,262.23818692294,4,2,1,20,1,0

[HitObjects]
320,192,126,5,0,0:0:0:0::
192,192,257,1,0,0:0:0:0::
448,192,389,1,0,0:0:0:0::
448,192,520,1,0,0:0:0:0::
64,192,650,1,0,0:0:0:0::
448,192,781,1,0,0:0:0:0::
64,192,912,1,0,0:0:0:0::
448,192,1044,1,0,0:0:0:0::
64,192,1175,1,0,0:0:0:0::
320,192,1306,1,0,0:0:0:0::
448,192,1437,1,0,0:0:0:0::
64,192,1569,1,0,0:0:0:0::
448,192,1699,1,0,0:0:0:0::
64,192,1830,1,0,0:0:0:0::
448,192,1961,1,0,0:0:0:0::
192,192,2093,1,0,0:0:0:0::
320,192,2224,1,0,0:0:0:0::
64,192,2355,1,0,0:0:0:0::
320,192,2486,1,0,0:0:0:0::
64,192,2617,1,0,0:0:0:0::
320,192,2749,1,0,0:0:0:0::
64,192,2879,1,0,0:0:0:0::
64,192,3010,1,0,0:0:0:0::
320,192,3141,1,0,0:0:0:0::
64,192,3273,1,0,0:0:0:0::
192,192,3404,1,0,0:0:0:0::
64,192,3535,1,0,0:0:0:0::
64,192,3666,1,0,0:0:0:0::
320,192,3798,1,0,0:0:0:0::
192,192,3929,1,0,0:0:0:0::
64,192,4059,1,0,0:0:0:0::
192,192,4190,1,0,0:0:0:0::
320,192,4321,1,0,0:0:0:0::
448,192,4321,1,0,0:0:0:0::
192,192,4453,1,0,0:0:0:0::
64,192,4584,1,0,0:0:0:0::
448,192,4715,1,0,0:0:0:0::
320,192,4846,1,0,0:0:0:0::
192,192,4978,1,0,0:0:0:0::
448,192,5109,1,0,0:0:0:0::
192,192,5240,1,0,0:0:0:0::
64,192,5370,1,0,0:0:0:0::
320,192,5370,1,0,0:0:0:0::
192,192,5502,1,0,0:0:0:0::
320,192,5633,1,0,0:0:0:0::
448,192,5764,1,0,0:0:0:0::
192,192,5895,1,0,0:0:0:0::
320,192,6026,1,0,0:0:0:0::
192,192,6158,1,0,0:0:0:0::
64,192,6289,1,0,0:0:0:0::
320,192,6419,1,0,0:0:0:0::
448,192,6419,1,0,0:0:0:0::
192,192,6550,1,0,0:0:0:0::
64,192,6682,1,0,0:0:0:0::
192,192,6813,1,0,0:0:0:0::
448,192,6944,1,0,0:0:0:0::
320,192,7075,1,0,0:0:0:0::
192,192,7207,1,0,0:0:0:0::
448,192,7338,1,0,0:0:0:0::
192,192,7469,1,0,0:0:0:0::
192,192,7599,1,0,0:0:0:0::
448,192,7730,1,0,0:0:0:0::
320,192,7862,1,0,0:0:0:0::
192,192,7993,1,0,0:0:0:0::
64,192,8255,1,0,0:0:0:0::
64,192,8518,1,0,0:0:0:0::
448,192,8518,1,0,0:0:0:0::
320,192,8518,1,0,0:0:0:0::
320,192,8649,1,0,0:0:0:0::
64,192,8649,1,0,0:0:0:0::
192,192,8714,1,0,0:0:0:0::
320,192,8780,1,0,0:0:0:0::
448,192,8780,1,0,0:0:0:0::
64,192,8845,1,0,0:0:0:0::
320,192,8911,1,0,0:0:0:0::
448,192,8911,1,0,0:0:0:0::
192,192,8977,1,0,0:0:0:0::
320,192,9042,1,0,0:0:0:0::
448,192,9042,1,0,0:0:0:0::
64,192,9108,1,0,0:0:0:0::
448,192,9173,1,0,0:0:0:0::
192,192,9173,1,0,0:0:0:0::
64,192,9239,1,0,0:0:0:0::
320,192,9304,1,0,0:0:0:0::
448,192,9304,1,0,0:0:0:0::
192,192,9370,1,0,0:0:0:0::
64,192,9435,1,0,0:0:0:0::
320,192,9501,1,0,0:0:0:0::
192,192,9501,1,0,0:0:0:0::
64,192,9567,1,0,0:0:0:0::
448,192,9567,1,0,0:0:0:0::
192,192,9632,1,0,0:0:0:0::
320,192,9698,1,0,0:0:0:0::
448,192,9698,1,0,0:0:0:0::
192,192,9763,1,0,0:0:0:0::
64,192,9829,1,0,0:0:0:0::
448,192,9829,1,0,0:0:0:0::
320,192,9894,1,0,0:0:0:0::
64,192,9960,1,0,0:0:0:0::
448,192,9960,1,0,0:0:0:0::
192,192,10026,1,0,0:0:0:0::
64,192,10091,1,0,0:0:0:0::
320,192,10091,1,0,0:0:0:0::
448,192,10091,1,0,0:0:0:0::
192,192,10157,1,0,0:0:0:0::
64,192,10222,1,0,0:0:0:0::
448,192,10222,1,0,0:0:0:0::
320,192,10288,1,0,0:0:0:0::
64,192,10353,1,0,0:0:0:0::
192,192,10353,1,0,0:0:0:0::
448,192,10353,1,0,0:0:0:0::
320,192,10484,1,0,0:0:0:0::
192,192,10484,1,0,0:0:0:0::
448,192,10616,1,0,0:0:0:0::
64,192,10616,1,0,0:0:0:0::
320,192,10616,1,0,0:0:0:0::
64,192,10747,1,0,0:0:0:0::
192,192,10747,1,0,0:0:0:0::
448,192,10812,1,0,0:0:0:0::
64,192,10878,1,0,0:0:0:0::
320,192,10878,1,0,0:0:0:0::
192,192,10943,1,0,0:0:0:0::
64,192,11009,1,0,0:0:0:0::
320,192,11009,1,0,0:0:0:0::
448,192,11009,1,0,0:0:0:0::
192,192,11074,1,0,0:0:0:0::
64,192,11140,1,0,0:0:0:0::
448,192,11206,1,0,0:0:0:0::
320,192,11271,1,0,0:0:0:0::
64,192,11271,1,0,0:0:0:0::
192,192,11337,1,0,0:0:0:0::
448,192,11402,1,0,0:0:0:0::
64,192,11402,1,0,0:0:0:0::
320,192,11402,1,0,0:0:0:0::
192,192,11468,1,0,0:0:0:0::
64,192,11533,1,0,0:0:0:0::
448,192,11533,1,0,0:0:0:0::
320,192,11599,1,0,0:0:0:0::
64,192,11664,1,0,0:0:0:0::
448,192,11664,1,0,0:0:0:0::
192,192,11730,1,0,0:0:0:0::
320,192,11796,1,0,0:0:0:0::
448,192,11796,1,0,0:0:0:0::
192,192,11861,1,0,0:0:0:0::
448,192,11927,1,0,0:0:0:0::
64,192,11927,1,0,0:0:0:0::
320,192,11992,1,0,0:0:0:0::
192,192,12058,1,0,0:0:0:0::
448,192,12058,1,0,0:0:0:0::
64,192,12058,1,0,0:0:0:0::
320,192,12123,1,0,0:0:0:0::
64,192,12189,1,0,0:0:0:0::
192,192,12189,1,0,0:0:0:0::
320,192,12254,1,0,0:0:0:0::
448,192,12254,1,0,0:0:0:0::
64,192,12320,1,0,0:0:0:0::
192,192,12320,1,0,0:0:0:0::
320,192,12386,1,0,0:0:0:0::
64,192,12451,1,0,0:0:0:0::
192,192,12451,1,0,0:0:0:0::
448,192,12451,1,0,0:0:0:0::
320,192,12582,1,0,0:0:0:0::
448,192,12582,1,0,0:0:0:0::
192,192,12648,1,0,0:0:0:0::
64,192,12648,1,0,0:0:0:0::
320,192,12713,1,0,0:0:0:0::
448,192,12713,1,0,0:0:0:0::
64,192,12844,1,0,0:0:0:0::
448,192,12844,1,0,0:0:0:0::
192,192,12976,1,0,0:0:0:0::
448,192,12976,1,0,0:0:0:0::
320,192,13041,1,0,0:0:0:0::
64,192,13107,1,0,0:0:0:0::
448,192,13107,1,0,0:0:0:0::
320,192,13238,1,0,0:0:0:0::
448,192,13238,1,0,0:0:0:0::
192,192,13303,1,0,0:0:0:0::
64,192,13369,1,0,0:0:0:0::
320,192,13435,1,0,0:0:0:0::
448,192,13435,1,0,0:0:0:0::
64,192,13500,1,0,0:0:0:0::
192,192,13500,1,0,0:0:0:0::
448,192,13566,1,0,0:0:0:0::
64,192,13631,1,0,0:0:0:0::
320,192,13631,1,0,0:0:0:0::
192,192,13697,1,0,0:0:0:0::
320,192,13762,1,0,0:0:0:0::
448,192,13762,1,0,0:0:0:0::
192,192,13828,1,0,0:0:0:0::
64,192,13893,1,0,0:0:0:0::
448,192,13893,1,0,0:0:0:0::
320,192,13959,1,0,0:0:0:0::
64,192,14025,1,0,0:0:0:0::
192,192,14025,1,0,0:0:0:0::
320,192,14090,1,0,0:0:0:0::
64,192,14156,1,0,0:0:0:0::
192,192,14156,1,0,0:0:0:0::
448,192,14156,1,0,0:0:0:0::
320,192,14221,1,0,0:0:0:0::
448,192,14287,1,0,0:0:0:0::
64,192,14287,1,0,0:0:0:0::
192,192,14352,1,0,0:0:0:0::
320,192,14352,1,0,0:0:0:0::
64,192,14418,1,0,0:0:0:0::
448,192,14418,1,0,0:0:0:0::
64,192,14549,1,0,0:0:0:0::
192,192,14549,1,0,0:0:0:0::
320,192,14549,1,0,0:0:0:0::
448,192,14549,1,0,0:0:0:0::
64,192,14680,1,0,0:0:0:0::
192,192,14680,1,0,0:0:0:0::
320,192,14680,1,0,0:0:0:0::
320,192,14811,1,0,0:0:0:0::
448,192,14811,1,0,0:0:0:0::
192,192,14877,1,0,0:0:0:0::
448,192,14942,1,0,0:0:0:0::
64,192,14942,1,0,0:0:0:0::
192,192,15008,1,0,0:0:0:0::
64,192,15073,1,0,0:0:0:0::
320,192,15073,1,0,0:0:0:0::
448,192,15139,1,0,0:0:0:0::
64,192,15205,1,0,0:0:0:0::
192,192,15205,1,0,0:0:0:0::
320,192,15205,1,0,0:0:0:0::
448,192,15270,1,0,0:0:0:0::
192,192,15336,1,0,0:0:0:0::
320,192,15336,1,0,0:0:0:0::
64,192,15401,1,0,0:0:0:0::
448,192,15467,1,0,0:0:0:0::
192,192,15467,1,0,0:0:0:0::
320,192,15532,1,0,0:0:0:0::
64,192,15598,1,0,0:0:0:0::
192,192,15598,1,0,0:0:0:0::
448,192,15598,1,0,0:0:0:0::
320,192,15729,1,0,0:0:0:0::
448,192,15729,1,0,0:0:0:0::
192,192,15795,1,0,0:0:0:0::
64,192,15860,1,0,0:0:0:0::
320,192,15926,1,0,0:0:0:0::
448,192,15926,1,0,0:0:0:0::
64,192,15991,1,0,0:0:0:0::
192,192,15991,1,0,0:0:0:0::
320,192,16057,1,0,0:0:0:0::
448,192,16057,1,0,0:0:0:0::
64,192,16122,1,0,0:0:0:0::
192,192,16122,1,0,0:0:0:0::
320,192,16188,1,0,0:0:0:0::
64,192,16253,1,0,0:0:0:0::
192,192,16253,1,0,0:0:0:0::
448,192,16253,1,0,0:0:0:0::
192,192,16385,1,0,0:0:0:0::
64,192,16385,1,0,0:0:0:0::
448,192,16450,1,0,0:0:0:0::
320,192,16450,1,0,0:0:0:0::
64,192,16516,1,0,0:0:0:0::
192,192,16516,1,0,0:0:0:0::
448,192,16647,128,0,16844:0:0:0:0:
320,192,16647,128,0,16844:0:0:0:0:
192,192,16647,128,0,16844:0:0:0:0:
64,192,16647,1,0,0:0:0:0::
320,192,16910,128,0,17106:0:0:0:0:
448,192,16910,128,0,17106:0:0:0:0:
192,192,17171,128,0,17368:0:0:0:0:
64,192,17171,128,0,17368:0:0:0:0:
448,192,17171,1,0,0:0:0:0::
192,192,17434,128,0,17630:0:0:0:0:
64,192,17434,128,0,17630:0:0:0:0:
448,192,17434,1,0,0:0:0:0::
320,192,17434,1,0,0:0:0:0::
64,192,17696,128,0,17892:0:0:0:0:
320,192,17696,1,0,0:0:0:0::
192,192,17696,128,0,17892:0:0:0:0:
448,192,17959,1,0,0:0:0:0::
64,192,17959,128,0,18155:0:0:0:0:
192,192,17959,128,0,18155:0:0:0:0:
320,192,17959,1,0,0:0:0:0::
64,192,18220,128,0,18417:0:0:0:0:
192,192,18220,128,0,18417:0:0:0:0:
320,192,18220,1,0,0:0:0:0::
64,192,18482,128,0,18680:0:0:0:0:
192,192,18482,128,0,18680:0:0:0:0:
320,192,18482,1,0,0:0:0:0::
192,192,18745,128,0,18876:0:0:0:0:
320,192,18745,1,0,0:0:0:0::
448,192,18745,128,0,18876:0:0:0:0:
64,192,18876,1,0,0:0:0:0::
320,192,18876,128,0,19204:0:0:0:0:
192,192,19007,1,0,0:0:0:0::
448,192,19007,128,0,19204:0:0:0:0:
320,192,19270,128,0,19433:0:0:0:0:
64,192,19270,1,0,0:0:0:0::
448,192,19270,128,0,19433:0:0:0:0:
64,192,19531,1,0,0:0:0:0::
448,192,19531,128,0,19663:0:0:0:0:
320,192,19531,128,0,19663:0:0:0:0:
64,192,19794,128,0,19990:0:0:0:0:
320,192,19794,128,0,19990:0:0:0:0:
192,192,19794,1,0,0:0:0:0::
192,192,20056,128,0,20253:0:0:0:0:
448,192,20056,128,0,20253:0:0:0:0:
320,192,20056,1,0,0:0:0:0::
192,192,20319,128,0,20515:0:0:0:0:
320,192,20319,128,0,20515:0:0:0:0:
192,192,20580,128,0,20777:0:0:0:0:
320,192,20580,128,0,20777:0:0:0:0:
192,192,20843,1,0,0:0:0:0::
320,192,20843,128,0,20974:0:0:0:0:
64,192,20843,128,0,20909:0:0:0:0:
64,192,20974,128,0,21040:0:0:0:0:
192,192,20974,128,0,21236:0:0:0:0:
64,192,21105,128,0,21236:0:0:0:0:
320,192,21105,128,0,21301:0:0:0:0:
448,192,21105,1,0,0:0:0:0::
64,192,21368,1,0,0:0:0:0::
320,192,21368,128,0,21564:0:0:0:0:
192,192,21368,128,0,21564:0:0:0:0:
448,192,21630,1,0,0:0:0:0::
64,192,21630,128,0,21826:0:0:0:0:
192,192,21630,128,0,21826:0:0:0:0:
64,192,21891,128,0,22023:0:0:0:0:
448,192,21891,1,0,0:0:0:0::
320,192,21891,128,0,22023:0:0:0:0:
64,192,22154,128,0,22285:0:0:0:0:
192,192,22154,128,0,22285:0:0:0:0:
448,192,22154,128,0,22285:0:0:0:0:
192,192,22416,1,0,0:0:0:0::
320,192,22416,128,0,22613:0:0:0:0:
448,192,22416,128,0,22613:0:0:0:0:
192,192,22679,128,0,22875:0:0:0:0:
320,192,22679,1,0,0:0:0:0::
448,192,22679,1,0,0:0:0:0::
64,192,22679,128,0,22809:0:0:0:0:
64,192,22940,1,0,0:0:0:0::
320,192,22940,128,0,23072:0:0:0:0:
448,192,22940,128,0,23138:0:0:0:0:
64,192,23203,128,0,24186:0:0:0:0:
192,192,23203,1,0,0:0:0:0::
448,192,23203,128,0,23399:0:0:0:0:
320,192,23269,1,0,0:0:0:0::
192,192,23399,1,0,0:0:0:0::
320,192,23465,128,0,23662:0:0:0:0:
192,192,23530,128,0,24186:0:0:0:0:
320,192,23728,128,0,23924:0:0:0:0:
320,192,23989,128,0,24186:0:0:0:0:
448,192,23989,128,0,24186:0:0:0:0:
320,192,24252,1,0,0:0:0:0::
192,192,24252,128,0,24449:0:0:0:0:
64,192,24252,128,0,24710:0:0:0:0:
448,192,24383,128,0,24449:0:0:0:0:
320,192,24514,1,0,0:0:0:0::
448,192,24514,128,0,24645:0:0:0:0:
192,192,24645,128,0,24710:0:0:0:0:
448,192,24710,128,0,24777:0:0:0:0:
320,192,24710,128,0,24777:0:0:0:0:
64,192,24777,1,0,0:0:0:0::
192,192,24777,1,0,0:0:0:0::
320,192,24842,1,0,0:0:0:0::
448,192,24842,1,0,0:0:0:0::
64,192,24908,1,0,0:0:0:0::
192,192,24973,1,0,0:0:0:0::
64,192,25039,128,0,25235:0:0:0:0:
320,192,25039,128,0,25235:0:0:0:0:
448,192,25039,128,0,25235:0:0:0:0:
64,192,25300,1,0,0:0:0:0::
192,192,25300,1,0,0:0:0:0::
448,192,25300,1,0,0:0:0:0::
64,192,25432,1,0,0:0:0:0::
320,192,25432,1,0,0:0:0:0::
192,192,25498,1,0,0:0:0:0::
320,192,25563,1,0,0:0:0:0::
448,192,25563,1,0,0:0:0:0::
64,192,25629,1,0,0:0:0:0::
448,192,25694,1,0,0:0:0:0::
192,192,25694,1,0,0:0:0:0::
320,192,25759,1,0,0:0:0:0::
64,192,25825,1,0,0:0:0:0::
448,192,25825,1,0,0:0:0:0::
192,192,25890,1,0,0:0:0:0::
320,192,25957,1,0,0:0:0:0::
448,192,26000,1,0,0:0:0:0::
192,192,26044,1,0,0:0:0:0::
64,192,26088,1,0,0:0:0:0::
320,192,26131,1,0,0:0:0:0::
448,192,26131,1,0,0:0:0:0::
320,192,26219,1,0,0:0:0:0::
448,192,26219,1,0,0:0:0:0::
192,192,26262,1,0,0:0:0:0::
64,192,26262,1,0,0:0:0:0::
448,192,26306,1,0,0:0:0:0::
64,192,26349,1,0,0:0:0:0::
320,192,26349,1,0,0:0:0:0::
192,192,26415,1,0,0:0:0:0::
64,192,26481,1,0,0:0:0:0::
192,192,26612,1,0,0:0:0:0::
64,192,26612,1,0,0:0:0:0::
448,192,26612,1,0,0:0:0:0::
320,192,26678,1,0,0:0:0:0::
448,192,26743,1,0,0:0:0:0::
192,192,26787,1,0,0:0:0:0::
320,192,26825,1,0,0:0:0:0::
448,192,26874,1,0,0:0:0:0::
64,192,26874,1,0,0:0:0:0::
192,192,26939,1,0,0:0:0:0::
320,192,27005,1,0,0:0:0:0::
448,192,27005,1,0,0:0:0:0::
192,192,27071,1,0,0:0:0:0::
64,192,27137,1,0,0:0:0:0::
448,192,27137,1,0,0:0:0:0::
320,192,27202,1,0,0:0:0:0::
192,192,27202,1,0,0:0:0:0::
64,192,27268,1,0,0:0:0:0::
448,192,27268,1,0,0:0:0:0::
320,192,27333,1,0,0:0:0:0::
64,192,27399,1,0,0:0:0:0::
192,192,27399,1,0,0:0:0:0::
448,192,27399,1,0,0:0:0:0::
448,192,27529,1,0,0:0:0:0::
192,192,27529,1,0,0:0:0:0::
320,192,27595,1,0,0:0:0:0::
64,192,27661,1,0,0:0:0:0::
448,192,27661,1,0,0:0:0:0::
192,192,27727,1,0,0:0:0:0::
448,192,27792,1,0,0:0:0:0::
320,192,27792,1,0,0:0:0:0::
192,192,27836,1,0,0:0:0:0::
64,192,27879,1,0,0:0:0:0::
448,192,27923,1,0,0:0:0:0::
192,192,27923,1,0,0:0:0:0::
320,192,27989,1,0,0:0:0:0::
448,192,28054,1,0,0:0:0:0::
320,192,28119,1,0,0:0:0:0::
192,192,28152,1,0,0:0:0:0::
64,192,28186,1,0,0:0:0:0::
448,192,28186,1,0,0:0:0:0::
320,192,28229,1,0,0:0:0:0::
64,192,28300,1,0,0:0:0:0::
448,192,28317,1,0,0:0:0:0::
320,192,28360,1,0,0:0:0:0::
192,192,28404,1,0,0:0:0:0::
64,192,28448,1,0,0:0:0:0::
320,192,28448,1,0,0:0:0:0::
448,192,28448,1,0,0:0:0:0::
192,192,28579,1,0,0:0:0:0::
320,192,28644,1,0,0:0:0:0::
64,192,28709,1,0,0:0:0:0::
192,192,28709,1,0,0:0:0:0::
448,192,28709,1,0,0:0:0:0::
320,192,28776,1,0,0:0:0:0::
64,192,28841,1,0,0:0:0:0::
448,192,28841,1,0,0:0:0:0::
192,192,28907,1,0,0:0:0:0::
448,192,28972,1,0,0:0:0:0::
320,192,28972,1,0,0:0:0:0::
64,192,29038,1,0,0:0:0:0::
192,192,29103,1,0,0:0:0:0::
448,192,29103,1,0,0:0:0:0::
320,192,29169,1,0,0:0:0:0::
64,192,29234,1,0,0:0:0:0::
448,192,29234,1,0,0:0:0:0::
192,192,29283,1,0,0:0:0:0::
320,192,29333,1,0,0:0:0:0::
448,192,29409,1,0,0:0:0:0::
192,192,29453,1,0,0:0:0:0::
320,192,29497,1,0,0:0:0:0::
64,192,29497,1,0,0:0:0:0::
448,192,29497,1,0,0:0:0:0::
64,192,29628,1,0,0:0:0:0::
192,192,29628,1,0,0:0:0:0::
320,192,29759,1,0,0:0:0:0::
448,192,29759,1,0,0:0:0:0::
64,192,29759,1,0,0:0:0:0::
192,192,29824,1,0,0:0:0:0::
448,192,29890,1,0,0:0:0:0::
64,192,29890,1,0,0:0:0:0::
320,192,29934,1,0,0:0:0:0::
448,192,29978,1,0,0:0:0:0::
64,192,30021,1,0,0:0:0:0::
192,192,30021,1,0,0:0:0:0::
320,192,30087,1,0,0:0:0:0::
64,192,30133,1,0,0:0:0:0::
192,192,30171,1,0,0:0:0:0::
320,192,30209,1,0,0:0:0:0::
448,192,30246,1,0,0:0:0:0::
64,192,30283,1,0,0:0:0:0::
192,192,30320,1,0,0:0:0:0::
320,192,30359,1,0,0:0:0:0::
448,192,30396,1,0,0:0:0:0::
64,192,30433,1,0,0:0:0:0::
192,192,30470,1,0,0:0:0:0::
320,192,30508,1,0,0:0:0:0::
448,192,30546,1,0,0:0:0:0::
64,192,30546,1,0,0:0:0:0::
192,192,30546,1,0,0:0:0:0::
64,192,30709,1,0,0:0:0:0::
192,192,30764,1,0,0:0:0:0::
448,192,30808,1,0,0:0:0:0::
320,192,30808,1,0,0:0:0:0::
192,192,30895,1,0,0:0:0:0::
64,192,30939,1,0,0:0:0:0::
448,192,30982,1,0,0:0:0:0::
192,192,31027,1,0,0:0:0:0::
64,192,31027,1,0,0:0:0:0::
320,192,31070,1,0,0:0:0:0::
448,192,31070,1,0,0:0:0:0::
192,192,31136,1,0,0:0:0:0::
64,192,31201,1,0,0:0:0:0::
320,192,31201,1,0,0:0:0:0::
448,192,31267,1,0,0:0:0:0::
192,192,31332,1,0,0:0:0:0::
64,192,31332,1,0,0:0:0:0::
320,192,31376,1,0,0:0:0:0::
192,192,31419,1,0,0:0:0:0::
64,192,31463,1,0,0:0:0:0::
448,192,31463,1,0,0:0:0:0::
192,192,31507,1,0,0:0:0:0::
320,192,31550,1,0,0:0:0:0::
448,192,31595,1,0,0:0:0:0::
64,192,31595,1,0,0:0:0:0::
320,192,31677,1,0,0:0:0:0::
192,192,31726,1,0,0:0:0:0::
64,192,31769,1,0,0:0:0:0::
448,192,31813,1,0,0:0:0:0::
320,192,31857,1,0,0:0:0:0::
192,192,31857,1,0,0:0:0:0::
64,192,31857,1,0,0:0:0:0::
448,192,31922,1,0,0:0:0:0::
64,192,31988,1,0,0:0:0:0::
320,192,32053,1,0,0:0:0:0::
448,192,32119,1,0,0:0:0:0::
192,192,32119,1,0,0:0:0:0::
64,192,32185,1,0,0:0:0:0::
192,192,32250,1,0,0:0:0:0::
320,192,32316,1,0,0:0:0:0::
64,192,32381,1,0,0:0:0:0::
448,192,32381,1,0,0:0:0:0::
192,192,32447,1,0,0:0:0:0::
64,192,32512,1,0,0:0:0:0::
320,192,32512,1,0,0:0:0:0::
192,192,32643,1,0,0:0:0:0::
320,192,32643,1,0,0:0:0:0::
448,192,32643,1,0,0:0:0:0::
192,192,32906,1,0,0:0:0:0::
64,192,32906,1,0,0:0:0:0::
448,192,32906,1,0,0:0:0:0::
320,192,33037,1,0,0:0:0:0::
64,192,33168,1,0,0:0:0:0::
448,192,33168,1,0,0:0:0:0::
192,192,33233,1,0,0:0:0:0::
320,192,33233,1,0,0:0:0:0::
64,192,33300,1,0,0:0:0:0::
448,192,33300,1,0,0:0:0:0::
64,192,33430,1,0,0:0:0:0::
320,192,33430,128,0,33627:0:0:0:0:
448,192,33430,1,0,0:0:0:0::
192,192,33430,128,0,33627:0:0:0:0:
64,192,33692,1,0,0:0:0:0::
320,192,33692,1,0,0:0:0:0::
448,192,33692,1,0,0:0:0:0::
192,192,33758,1,0,0:0:0:0::
320,192,33823,1,0,0:0:0:0::
192,192,33890,1,0,0:0:0:0::
64,192,33955,128,0,34151:0:0:0:0:
320,192,33955,1,0,0:0:0:0::
448,192,33955,128,0,34020:0:0:0:0:
192,192,34020,1,0,0:0:0:0::
448,192,34086,128,0,34151:0:0:0:0:
320,192,34151,1,0,0:0:0:0::
448,192,34217,1,0,0:0:0:0::
192,192,34217,1,0,0:0:0:0::
64,192,34217,1,0,0:0:0:0::
320,192,34282,1,0,0:0:0:0::
64,192,34348,1,0,0:0:0:0::
448,192,34348,1,0,0:0:0:0::
64,192,34480,1,0,0:0:0:0::
320,192,34480,1,0,0:0:0:0::
448,192,34545,128,0,34654:0:0:0:0:
192,192,34610,1,0,0:0:0:0::
64,192,34610,128,0,34741:0:0:0:0:
320,192,34676,1,0,0:0:0:0::
192,192,34741,1,0,0:0:0:0::
448,192,34741,1,0,0:0:0:0::
64,192,34872,1,0,0:0:0:0::
320,192,34872,1,0,0:0:0:0::
320,192,35004,1,0,0:0:0:0::
448,192,35004,128,0,35135:0:0:0:0:
192,192,35135,1,0,0:0:0:0::
64,192,35200,128,0,35266:0:0:0:0:
320,192,35266,128,0,35331:0:0:0:0:
448,192,35266,1,0,0:0:0:0::
192,192,35331,1,0,0:0:0:0::
64,192,35397,1,0,0:0:0:0::
448,192,35397,128,0,35462:0:0:0:0:
192,192,35462,1,0,0:0:0:0::
64,192,35528,1,0,0:0:0:0::
320,192,35528,128,0,35594:0:0:0:0:
448,192,35594,128,0,35725:0:0:0:0:
64,192,35660,1,0,0:0:0:0::
320,192,35660,128,0,35725:0:0:0:0:
192,192,35725,128,0,35790:0:0:0:0:
448,192,35790,1,0,0:0:0:0::
320,192,35790,1,0,0:0:0:0::
192,192,35856,1,0,0:0:0:0::
64,192,35921,1,0,0:0:0:0::
448,192,35921,1,0,0:0:0:0::
192,192,35987,1,0,0:0:0:0::
64,192,36052,128,0,36184:0:0:0:0:
448,192,36052,1,0,0:0:0:0::
320,192,36118,128,0,36184:0:0:0:0:
192,192,36184,128,0,36250:0:0:0:0:
448,192,36250,1,0,0:0:0:0::
64,192,36315,1,0,0:0:0:0::
320,192,36315,1,0,0:0:0:0::
192,192,36380,1,0,0:0:0:0::
448,192,36446,1,0,0:0:0:0::
64,192,36511,1,0,0:0:0:0::
320,192,36577,128,0,36709:0:0:0:0:
448,192,36577,1,0,0:0:0:0::
192,192,36642,1,0,0:0:0:0::
64,192,36642,1,0,0:0:0:0::
448,192,36709,128,0,36840:0:0:0:0:
192,192,36774,1,0,0:0:0:0::
64,192,36840,1,0,0:0:0:0::
320,192,36840,1,0,0:0:0:0::
448,192,36905,1,0,0:0:0:0::
64,192,36970,1,0,0:0:0:0::
192,192,36970,1,0,0:0:0:0::
320,192,37036,1,0,0:0:0:0::
64,192,37101,128,0,37299:0:0:0:0:
448,192,37101,1,0,0:0:0:0::
192,192,37167,128,0,37232:0:0:0:0:
320,192,37232,1,0,0:0:0:0::
448,192,37299,1,0,0:0:0:0::
192,192,37364,1,0,0:0:0:0::
320,192,37364,1,0,0:0:0:0::
64,192,37430,1,0,0:0:0:0::
320,192,37495,1,0,0:0:0:0::
448,192,37495,1,0,0:0:0:0::
192,192,37560,1,0,0:0:0:0::
320,192,37626,1,0,0:0:0:0::
64,192,37626,128,0,37757:0:0:0:0:
448,192,37626,128,0,37773:0:0:0:0:
192,192,37670,1,0,0:0:0:0::
320,192,37713,1,0,0:0:0:0::
192,192,37757,128,0,37800:0:0:0:0:
320,192,37800,1,0,0:0:0:0::
192,192,37889,1,0,0:0:0:0::
448,192,37889,1,0,0:0:0:0::
64,192,37889,1,0,0:0:0:0::
448,192,38020,1,0,0:0:0:0::
320,192,38085,1,0,0:0:0:0::
192,192,38150,1,0,0:0:0:0::
64,192,38150,128,0,38281:0:0:0:0:
448,192,38150,1,0,0:0:0:0::
320,192,38216,1,0,0:0:0:0::
192,192,38281,1,0,0:0:0:0::
448,192,38347,1,0,0:0:0:0::
64,192,38413,1,0,0:0:0:0::
192,192,38413,1,0,0:0:0:0::
320,192,38413,1,0,0:0:0:0::
448,192,38479,1,0,0:0:0:0::
64,192,38544,128,0,38610:0:0:0:0:
320,192,38610,1,0,0:0:0:0::
192,192,38675,128,0,38740:0:0:0:0:
448,192,38675,128,0,38806:0:0:0:0:
320,192,38740,1,0,0:0:0:0::
192,192,38806,1,0,0:0:0:0::
320,192,38871,128,0,38937:0:0:0:0:
64,192,38937,1,0,0:0:0:0::
192,192,38937,1,0,0:0:0:0::
448,192,39003,1,0,0:0:0:0::
320,192,39069,1,0,0:0:0:0::
192,192,39069,1,0,0:0:0:0::
64,192,39200,1,0,0:0:0:0::
448,192,39200,128,0,39330:0:0:0:0:
192,192,39200,128,0,39232:0:0:0:0:
320,192,39265,1,0,0:0:0:0::
64,192,39330,128,0,39461:0:0:0:0:
192,192,39396,128,0,39461:0:0:0:0:
320,192,39461,1,0,0:0:0:0::
448,192,39461,1,0,0:0:0:0::
192,192,39528,1,0,0:0:0:0::
64,192,39593,1,0,0:0:0:0::
448,192,39593,1,0,0:0:0:0::
320,192,39593,1,0,0:0:0:0::
192,192,39659,1,0,0:0:0:0::
320,192,39724,128,0,39790:0:0:0:0:
448,192,39724,128,0,39790:0:0:0:0:
64,192,39790,128,0,39986:0:0:0:0:
448,192,39855,1,0,0:0:0:0::
320,192,39855,1,0,0:0:0:0::
192,192,39920,1,0,0:0:0:0::
448,192,39986,1,0,0:0:0:0::
320,192,40051,1,0,0:0:0:0::
192,192,40118,1,0,0:0:0:0::
64,192,40118,1,0,0:0:0:0::
320,192,40183,1,0,0:0:0:0::
448,192,40249,128,0,40380:0:0:0:0:
192,192,40249,1,0,0:0:0:0::
64,192,40314,1,0,0:0:0:0::
192,192,40380,1,0,0:0:0:0::
320,192,40380,1,0,0:0:0:0::
192,192,40510,1,0,0:0:0:0::
64,192,40510,1,0,0:0:0:0::
448,192,40510,1,0,0:0:0:0::
320,192,40576,1,0,0:0:0:0::
192,192,40641,1,0,0:0:0:0::
320,192,40708,128,0,40773:0:0:0:0:
448,192,40708,128,0,40904:0:0:0:0:
192,192,40773,128,0,40839:0:0:0:0:
64,192,40773,1,0,0:0:0:0::
320,192,40839,128,0,40904:0:0:0:0:
192,192,40904,128,0,40970:0:0:0:0:
64,192,40970,128,0,41035:0:0:0:0:
320,192,41035,1,0,0:0:0:0::
448,192,41035,1,0,0:0:0:0::
192,192,41100,1,0,0:0:0:0::
320,192,41166,1,0,0:0:0:0::
448,192,41166,1,0,0:0:0:0::
64,192,41298,1,0,0:0:0:0::
192,192,41298,1,0,0:0:0:0::
320,192,41363,1,0,0:0:0:0::
448,192,41429,1,0,0:0:0:0::
64,192,41429,1,0,0:0:0:0::
192,192,41494,1,0,0:0:0:0::
320,192,41494,1,0,0:0:0:0::
64,192,41560,1,0,0:0:0:0::
448,192,41560,1,0,0:0:0:0::
192,192,41625,128,0,41690:0:0:0:0:
64,192,41690,128,0,41756:0:0:0:0:
320,192,41756,128,0,41822:0:0:0:0:
448,192,41756,1,0,0:0:0:0::
192,192,41822,1,0,0:0:0:0::
64,192,41822,128,0,41888:0:0:0:0:
448,192,41888,128,0,41986:0:0:0:0:
320,192,41953,128,0,42019:0:0:0:0:
64,192,42084,1,0,0:0:0:0::
192,192,42084,1,0,0:0:0:0::
448,192,42084,1,0,0:0:0:0::
192,192,42346,1,0,0:0:0:0::
320,192,42609,1,0,0:0:0:0::
64,192,42870,1,0,0:0:0:0::
320,192,43133,1,0,0:0:0:0::
448,192,43133,1,0,0:0:0:0::
192,192,43395,1,0,0:0:0:0::
320,192,43527,1,0,0:0:0:0::
192,192,43658,1,0,0:0:0:0::
448,192,43789,1,0,0:0:0:0::
64,192,43920,1,0,0:0:0:0::
192,192,44050,1,0,0:0:0:0::
320,192,44182,1,0,0:0:0:0::
448,192,44182,1,0,0:0:0:0::
192,192,44444,1,0,0:0:0:0::
320,192,44707,1,0,0:0:0:0::
320,192,44969,1,0,0:0:0:0::
320,192,45231,1,0,0:0:0:0::
192,192,45297,1,0,0:0:0:0::
320,192,45362,1,0,0:0:0:0::
192,192,45428,1,0,0:0:0:0::
448,192,45493,1,0,0:0:0:0::
192,192,45559,1,0,0:0:0:0::
64,192,45624,1,0,0:0:0:0::
320,192,45689,1,0,0:0:0:0::
448,192,45755,1,0,0:0:0:0::
64,192,45821,1,0,0:0:0:0::
320,192,45887,1,0,0:0:0:0::
192,192,45952,1,0,0:0:0:0::
320,192,46018,1,0,0:0:0:0::
448,192,46018,1,0,0:0:0:0::
64,192,46083,1,0,0:0:0:0::
320,192,46149,1,0,0:0:0:0::
192,192,46214,1,0,0:0:0:0::
320,192,46279,1,0,0:0:0:0::
448,192,46279,1,0,0:0:0:0::
448,192,46411,1,0,0:0:0:0::
64,192,46542,1,0,0:0:0:0::
448,192,46542,1,0,0:0:0:0::
192,192,46542,1,0,0:0:0:0::
64,192,46673,1,0,0:0:0:0::
320,192,46673,1,0,0:0:0:0::
64,192,46804,1,0,0:0:0:0::
192,192,46804,1,0,0:0:0:0::
320,192,46804,1,0,0:0:0:0::
192,192,46936,1,0,0:0:0:0::
192,192,47067,1,0,0:0:0:0::
320,192,47067,1,0,0:0:0:0::
448,192,47067,1,0,0:0:0:0::
320,192,47198,1,0,0:0:0:0::
64,192,47329,1,0,0:0:0:0::
448,192,47329,1,0,0:0:0:0::
64,192,47459,1,0,0:0:0:0::
64,192,47591,1,0,0:0:0:0::
192,192,47591,1,0,0:0:0:0::
192,192,47722,1,0,0:0:0:0::
192,192,47853,1,0,0:0:0:0::
448,192,47853,1,0,0:0:0:0::
192,192,47984,1,0,0:0:0:0::
320,192,47984,1,0,0:0:0:0::
192,192,48116,1,0,0:0:0:0::
448,192,48116,1,0,0:0:0:0::
448,192,48247,1,0,0:0:0:0::
64,192,48378,1,0,0:0:0:0::
192,192,48378,1,0,0:0:0:0::
448,192,48378,1,0,0:0:0:0::
320,192,48443,1,0,0:0:0:0::
192,192,48509,1,0,0:0:0:0::
320,192,48574,1,0,0:0:0:0::
64,192,48640,1,0,0:0:0:0::
192,192,48640,1,0,0:0:0:0::
320,192,48706,1,0,0:0:0:0::
448,192,48771,1,0,0:0:0:0::
192,192,48837,1,0,0:0:0:0::
64,192,48902,1,0,0:0:0:0::
320,192,48902,1,0,0:0:0:0::
448,192,48968,1,0,0:0:0:0::
192,192,49033,1,0,0:0:0:0::
448,192,49099,1,0,0:0:0:0::
320,192,49099,1,0,0:0:0:0::
64,192,49164,1,0,0:0:0:0::
192,192,49230,1,0,0:0:0:0::
320,192,49296,1,0,0:0:0:0::
192,192,49361,1,0,0:0:0:0::
320,192,49427,1,0,0:0:0:0::
448,192,49427,1,0,0:0:0:0::
192,192,49492,1,0,0:0:0:0::
64,192,49558,1,0,0:0:0:0::
192,192,49623,1,0,0:0:0:0::
320,192,49689,1,0,0:0:0:0::
448,192,49689,1,0,0:0:0:0::
64,192,49755,1,0,0:0:0:0::
320,192,49820,1,0,0:0:0:0::
448,192,49820,1,0,0:0:0:0::
192,192,49886,1,0,0:0:0:0::
64,192,49951,1,0,0:0:0:0::
448,192,49951,1,0,0:0:0:0::
320,192,50017,1,0,0:0:0:0::
64,192,50082,1,0,0:0:0:0::
448,192,50082,1,0,0:0:0:0::
192,192,50213,1,0,0:0:0:0::
320,192,50213,1,0,0:0:0:0::
64,192,50213,1,0,0:0:0:0::
320,192,50476,1,0,0:0:0:0::
64,192,50476,1,0,0:0:0:0::
192,192,50541,1,0,0:0:0:0::
448,192,50541,128,0,50639:0:0:0:0:
64,192,50607,1,0,0:0:0:0::
320,192,50607,128,0,50738:0:0:0:0:
192,192,50738,1,0,0:0:0:0::
64,192,50738,1,0,0:0:0:0::
448,192,50738,1,0,0:0:0:0::
320,192,50803,1,0,0:0:0:0::
448,192,50869,128,0,51000:0:0:0:0:
64,192,50869,1,0,0:0:0:0::
192,192,50935,1,0,0:0:0:0::
64,192,51000,1,0,0:0:0:0::
320,192,51000,1,0,0:0:0:0::
192,192,51066,1,0,0:0:0:0::
320,192,51131,1,0,0:0:0:0::
448,192,51131,1,0,0:0:0:0::
64,192,51197,128,0,51262:0:0:0:0:
192,192,51197,1,0,0:0:0:0::
448,192,51262,1,0,0:0:0:0::
320,192,51262,128,0,51328:0:0:0:0:
64,192,51328,128,0,51393:0:0:0:0:
192,192,51393,1,0,0:0:0:0::
320,192,51393,1,0,0:0:0:0::
448,192,51459,1,0,0:0:0:0::
192,192,51525,128,0,51607:0:0:0:0:
64,192,51525,1,0,0:0:0:0::
448,192,51656,1,0,0:0:0:0::
320,192,51656,1,0,0:0:0:0::
64,192,51787,1,0,0:0:0:0::
192,192,51787,1,0,0:0:0:0::
448,192,51787,1,0,0:0:0:0::
320,192,51852,1,0,0:0:0:0::
64,192,51918,1,0,0:0:0:0::
448,192,51918,1,0,0:0:0:0::
192,192,51983,1,0,0:0:0:0::
320,192,52049,1,0,0:0:0:0::
448,192,52049,1,0,0:0:0:0::
64,192,52115,1,0,0:0:0:0::
448,192,52180,1,0,0:0:0:0::
64,192,52246,128,0,52311:0:0:0:0:
192,192,52311,128,0,52377:0:0:0:0:
448,192,52311,1,0,0:0:0:0::
320,192,52377,128,0,52508:0:0:0:0:
64,192,52442,128,0,52573:0:0:0:0:
192,192,52508,1,0,0:0:0:0::
320,192,52573,1,0,0:0:0:0::
448,192,52573,1,0,0:0:0:0::
64,192,52639,1,0,0:0:0:0::
320,192,52705,1,0,0:0:0:0::
448,192,52705,128,0,52836:0:0:0:0:
64,192,52836,1,0,0:0:0:0::
192,192,52836,1,0,0:0:0:0::
448,192,52901,128,0,52967:0:0:0:0:
320,192,52967,1,0,0:0:0:0::
64,192,53032,1,0,0:0:0:0::
192,192,53032,1,0,0:0:0:0::
320,192,53098,1,0,0:0:0:0::
448,192,53098,1,0,0:0:0:0::
192,192,53164,1,0,0:0:0:0::
320,192,53229,1,0,0:0:0:0::
448,192,53229,1,0,0:0:0:0::
64,192,53229,1,0,0:0:0:0::
448,192,53360,1,0,0:0:0:0::
64,192,53360,1,0,0:0:0:0::
320,192,53426,128,0,53491:0:0:0:0:
64,192,53491,1,0,0:0:0:0::
192,192,53491,128,0,53557:0:0:0:0:
448,192,53557,1,0,0:0:0:0::
320,192,53622,128,0,53688:0:0:0:0:
64,192,53622,1,0,0:0:0:0::
192,192,53688,1,0,0:0:0:0::
448,192,53754,128,0,53819:0:0:0:0:
320,192,53754,128,0,53819:0:0:0:0:
64,192,53819,128,0,53885:0:0:0:0:
448,192,53885,1,0,0:0:0:0::
192,192,53950,1,0,0:0:0:0::
320,192,54016,1,0,0:0:0:0::
448,192,54016,1,0,0:0:0:0::
320,192,54147,1,0,0:0:0:0::
448,192,54147,128,0,54212:0:0:0:0:
64,192,54212,1,0,0:0:0:0::
192,192,54212,128,0,54278:0:0:0:0:
320,192,54278,128,0,54344:0:0:0:0:
448,192,54278,128,0,54344:0:0:0:0:
192,192,54344,128,0,54409:0:0:0:0:
64,192,54409,1,0,0:0:0:0::
320,192,54409,1,0,0:0:0:0::
448,192,54409,128,0,54475:0:0:0:0:
192,192,54475,1,0,0:0:0:0::
320,192,54540,128,0,54606:0:0:0:0:
448,192,54540,128,0,54671:0:0:0:0:
64,192,54606,1,0,0:0:0:0::
192,192,54671,128,0,54737:0:0:0:0:
320,192,54671,1,0,0:0:0:0::
64,192,54802,1,0,0:0:0:0::
192,192,54802,1,0,0:0:0:0::
320,192,54934,128,0,54999:0:0:0:0:
448,192,54934,128,0,54999:0:0:0:0:
192,192,54999,1,0,0:0:0:0::
64,192,55065,1,0,0:0:0:0::
448,192,55065,1,0,0:0:0:0::
192,192,55130,1,0,0:0:0:0::
320,192,55196,1,0,0:0:0:0::
448,192,55196,1,0,0:0:0:0::
64,192,55196,128,0,55327:0:0:0:0:
192,192,55261,1,0,0:0:0:0::
320,192,55327,1,0,0:0:0:0::
448,192,55327,1,0,0:0:0:0::
192,192,55459,128,0,55589:0:0:0:0:
448,192,55459,1,0,0:0:0:0::
64,192,55459,1,0,0:0:0:0::
320,192,55524,1,0,0:0:0:0::
64,192,55589,128,0,55655:0:0:0:0:
448,192,55589,1,0,0:0:0:0::
192,192,55655,128,0,55720:0:0:0:0:
320,192,55720,128,0,55851:0:0:0:0:
448,192,55720,1,0,0:0:0:0::
192,192,55786,1,0,0:0:0:0::
64,192,55851,1,0,0:0:0:0::
448,192,55851,128,0,55917:0:0:0:0:
192,192,55917,1,0,0:0:0:0::
448,192,55982,1,0,0:0:0:0::
64,192,55982,1,0,0:0:0:0::
320,192,56049,128,0,56114:0:0:0:0:
64,192,56114,1,0,0:0:0:0::
192,192,56114,1,0,0:0:0:0::
64,192,56245,1,0,0:0:0:0::
320,192,56245,1,0,0:0:0:0::
448,192,56245,1,0,0:0:0:0::
192,192,56310,1,0,0:0:0:0::
448,192,56376,1,0,0:0:0:0::
320,192,56376,1,0,0:0:0:0::
64,192,56441,1,0,0:0:0:0::
192,192,56507,1,0,0:0:0:0::
448,192,56507,1,0,0:0:0:0::
320,192,56573,1,0,0:0:0:0::
64,192,56639,1,0,0:0:0:0::
192,192,56639,1,0,0:0:0:0::
448,192,56704,1,0,0:0:0:0::
320,192,56769,1,0,0:0:0:0::
64,192,56769,128,0,56835:0:0:0:0:
192,192,56835,1,0,0:0:0:0::
320,192,56900,1,0,0:0:0:0::
64,192,56900,128,0,57229:0:0:0:0:
448,192,56966,128,0,57031:0:0:0:0:
320,192,57031,128,0,57097:0:0:0:0:
192,192,57031,1,0,0:0:0:0::
448,192,57097,1,0,0:0:0:0::
192,192,57163,128,0,57229:0:0:0:0:
320,192,57229,1,0,0:0:0:0::
448,192,57294,1,0,0:0:0:0::
192,192,57294,1,0,0:0:0:0::
320,192,57359,1,0,0:0:0:0::
64,192,57425,1,0,0:0:0:0::
448,192,57425,1,0,0:0:0:0::
192,192,57490,1,0,0:0:0:0::
320,192,57556,1,0,0:0:0:0::
448,192,57556,1,0,0:0:0:0::
64,192,57621,1,0,0:0:0:0::
320,192,57687,1,0,0:0:0:0::
448,192,57687,1,0,0:0:0:0::
64,192,57753,1,0,0:0:0:0::
448,192,57819,1,0,0:0:0:0::
192,192,57819,1,0,0:0:0:0::
320,192,57884,1,0,0:0:0:0::
64,192,57949,1,0,0:0:0:0::
448,192,57949,1,0,0:0:0:0::
192,192,58015,1,0,0:0:0:0::
64,192,58080,128,0,58244:0:0:0:0:
320,192,58080,1,0,0:0:0:0::
448,192,58146,1,0,0:0:0:0::
320,192,58211,1,0,0:0:0:0::
192,192,58278,1,0,0:0:0:0::
64,192,58343,1,0,0:0:0:0::
448,192,58343,1,0,0:0:0:0::
320,192,58409,1,0,0:0:0:0::
192,192,58474,1,0,0:0:0:0::
320,192,58539,1,0,0:0:0:0::
448,192,58539,1,0,0:0:0:0::
192,192,58605,1,0,0:0:0:0::
64,192,58605,128,0,58670:0:0:0:0:
448,192,58736,1,0,0:0:0:0::
320,192,58736,1,0,0:0:0:0::
64,192,58769,1,0,0:0:0:0::
192,192,58801,1,0,0:0:0:0::
320,192,58835,1,0,0:0:0:0::
448,192,58868,1,0,0:0:0:0::
64,192,58868,1,0,0:0:0:0::
192,192,58868,128,0,59129:0:0:0:0:
64,192,59129,1,0,0:0:0:0::
448,192,59129,1,0,0:0:0:0::
192,192,59195,1,0,0:0:0:0::
64,192,59260,1,0,0:0:0:0::
448,192,59260,1,0,0:0:0:0::
320,192,59326,1,0,0:0:0:0::
192,192,59391,1,0,0:0:0:0::
64,192,59391,1,0,0:0:0:0::
320,192,59458,1,0,0:0:0:0::
448,192,59458,1,0,0:0:0:0::
64,192,59523,1,0,0:0:0:0::
320,192,59589,1,0,0:0:0:0::
192,192,59589,1,0,0:0:0:0::
448,192,59654,1,0,0:0:0:0::
64,192,59654,1,0,0:0:0:0::
192,192,59719,1,0,0:0:0:0::
64,192,59785,1,0,0:0:0:0::
320,192,59850,1,0,0:0:0:0::
448,192,59916,1,0,0:0:0:0::
192,192,59916,1,0,0:0:0:0::
64,192,59982,1,0,0:0:0:0::
192,192,60048,1,0,0:0:0:0::
320,192,60048,1,0,0:0:0:0::
448,192,60113,1,0,0:0:0:0::
64,192,60179,1,0,0:0:0:0::
192,192,60179,1,0,0:0:0:0::
320,192,60244,1,0,0:0:0:0::
192,192,60309,1,0,0:0:0:0::
448,192,60309,1,0,0:0:0:0::
64,192,60375,1,0,0:0:0:0::
448,192,60440,1,0,0:0:0:0::
320,192,60440,1,0,0:0:0:0::
64,192,60506,1,0,0:0:0:0::
192,192,60572,1,0,0:0:0:0::
448,192,60572,1,0,0:0:0:0::
64,192,60638,1,0,0:0:0:0::
192,192,60703,1,0,0:0:0:0::
320,192,60703,1,0,0:0:0:0::
448,192,60703,1,0,0:0:0:0::
64,192,60769,1,0,0:0:0:0::
192,192,60834,1,0,0:0:0:0::
320,192,60834,1,0,0:0:0:0::
64,192,60899,1,0,0:0:0:0::
192,192,60965,1,0,0:0:0:0::
448,192,60965,1,0,0:0:0:0::
320,192,61030,1,0,0:0:0:0::
64,192,61097,1,0,0:0:0:0::
448,192,61097,1,0,0:0:0:0::
192,192,61162,1,0,0:0:0:0::
320,192,61228,128,0,61293:0:0:0:0:
448,192,61228,1,0,0:0:0:0::
64,192,61228,1,0,0:0:0:0::
192,192,61293,1,0,0:0:0:0::
448,192,61359,128,0,61424:0:0:0:0:
64,192,61424,1,0,0:0:0:0::
192,192,61489,1,0,0:0:0:0::
320,192,61489,1,0,0:0:0:0::
448,192,61555,1,0,0:0:0:0::
192,192,61620,1,0,0:0:0:0::
448,192,61687,1,0,0:0:0:0::
320,192,61687,1,0,0:0:0:0::
192,192,61752,1,0,0:0:0:0::
64,192,61752,1,0,0:0:0:0::
320,192,61818,1,0,0:0:0:0::
64,192,61883,1,0,0:0:0:0::
448,192,61949,1,0,0:0:0:0::
320,192,61949,1,0,0:0:0:0::
192,192,62014,1,0,0:0:0:0::
64,192,62014,1,0,0:0:0:0::
320,192,62079,1,0,0:0:0:0::
64,192,62145,1,0,0:0:0:0::
192,192,62145,1,0,0:0:0:0::
448,192,62210,1,0,0:0:0:0::
64,192,62277,1,0,0:0:0:0::
320,192,62277,1,0,0:0:0:0::
192,192,62342,1,0,0:0:0:0::
448,192,62408,1,0,0:0:0:0::
320,192,62408,1,0,0:0:0:0::
64,192,62473,1,0,0:0:0:0::
320,192,62539,1,0,0:0:0:0::
448,192,62539,1,0,0:0:0:0::
192,192,62604,1,0,0:0:0:0::
64,192,62604,1,0,0:0:0:0::
320,192,62669,1,0,0:0:0:0::
448,192,62669,1,0,0:0:0:0::
192,192,62735,1,0,0:0:0:0::
64,192,62801,1,0,0:0:0:0::
320,192,62801,1,0,0:0:0:0::
448,192,62867,1,0,0:0:0:0::
192,192,62932,1,0,0:0:0:0::
320,192,62932,1,0,0:0:0:0::
64,192,62998,1,0,0:0:0:0::
448,192,63063,1,0,0:0:0:0::
192,192,63063,1,0,0:0:0:0::
320,192,63063,1,0,0:0:0:0::
64,192,63129,1,0,0:0:0:0::
192,192,63194,1,0,0:0:0:0::
448,192,63194,1,0,0:0:0:0::
320,192,63259,1,0,0:0:0:0::
64,192,63325,128,0,63457:0:0:0:0:
192,192,63325,1,0,0:0:0:0::
448,192,63325,1,0,0:0:0:0::
320,192,63391,1,0,0:0:0:0::
192,192,63522,1,0,0:0:0:0::
64,192,63588,1,0,0:0:0:0::
320,192,63588,128,0,63784:0:0:0:0:
448,192,63588,128,0,63784:0:0:0:0:
192,192,63719,1,0,0:0:0:0::
64,192,63784,1,0,0:0:0:0::
192,192,63849,1,0,0:0:0:0::
448,192,63849,1,0,0:0:0:0::
320,192,63849,1,0,0:0:0:0::
320,192,63981,1,0,0:0:0:0::
64,192,63981,1,0,0:0:0:0::
448,192,63981,1,0,0:0:0:0::
192,192,64047,1,0,0:0:0:0::
64,192,64112,1,0,0:0:0:0::
320,192,64112,1,0,0:0:0:0::
448,192,64112,1,0,0:0:0:0::
64,192,64243,1,0,0:0:0:0::
448,192,64243,1,0,0:0:0:0::
192,192,64374,128,0,64571:0:0:0:0:
320,192,64374,128,0,64571:0:0:0:0:
448,192,64506,1,0,0:0:0:0::
64,192,64637,1,0,0:0:0:0::
192,192,64637,1,0,0:0:0:0::
448,192,64637,1,0,0:0:0:0::
320,192,64702,1,0,0:0:0:0::
64,192,64768,1,0,0:0:0:0::
192,192,64768,1,0,0:0:0:0::
448,192,64833,1,0,0:0:0:0::
320,192,64833,1,0,0:0:0:0::
64,192,64899,1,0,0:0:0:0::
192,192,64942,1,0,0:0:0:0::
448,192,64986,1,0,0:0:0:0::
64,192,64997,1,0,0:0:0:0::
320,192,65029,1,0,0:0:0:0::
192,192,65074,1,0,0:0:0:0::
64,192,65118,128,0,65538:0:0:0:0:
320,192,65161,1,0,0:0:0:0::
192,192,65161,1,0,0:0:0:0::
448,192,65161,128,0,67259:0:0:0:0:
64,192,65948,1,0,0:0:0:0::
320,192,66210,128,0,68308:0:0:0:0:
64,192,67259,128,0,67740:0:0:0:0:
64,192,68308,128,0,69357:0:0:0:0:
192,192,69357,1,0,0:0:0:0::
320,192,69357,128,0,70012:0:0:0:0:
448,192,69357,128,0,69750:0:0:0:0:
64,192,69488,1,0,0:0:0:0::
192,192,69620,1,0,0:0:0:0::
64,192,69750,1,0,0:0:0:0::
64,192,69881,1,0,0:0:0:0::
448,192,69881,128,0,70012:0:0:0:0:
192,192,70012,1,0,0:0:0:0::
320,192,70143,128,0,70275:0:0:0:0:
448,192,70143,128,0,70275:0:0:0:0:
64,192,70275,1,0,0:0:0:0::
320,192,70406,128,0,70800:0:0:0:0:
448,192,70406,128,0,70537:0:0:0:0:
64,192,70537,1,0,0:0:0:0::
448,192,70668,128,0,71324:0:0:0:0:
64,192,70930,1,0,0:0:0:0::
320,192,70930,128,0,73160:0:0:0:0:
192,192,71061,1,0,0:0:0:0::
64,192,71192,1,0,0:0:0:0::
64,192,71455,1,0,0:0:0:0::
448,192,71455,128,0,71848:0:0:0:0:
192,192,71586,1,0,0:0:0:0::
64,192,71717,1,0,0:0:0:0::
192,192,71848,1,0,0:0:0:0::
64,192,71980,1,0,0:0:0:0::
448,192,71980,128,0,72372:0:0:0:0:
192,192,72110,1,0,0:0:0:0::
64,192,72241,1,0,0:0:0:0::
192,192,72372,1,0,0:0:0:0::
448,192,72504,128,0,72635:0:0:0:0:
64,192,72504,1,0,0:0:0:0::
448,192,72766,128,0,73029:0:0:0:0:
192,192,72897,1,0,0:0:0:0::
64,192,73029,128,0,73160:0:0:0:0:
448,192,73160,128,0,73421:0:0:0:0:
192,192,73290,128,0,73421:0:0:0:0:
64,192,73552,128,0,73684:0:0:0:0:
448,192,73552,128,0,73684:0:0:0:0:
192,192,73552,128,0,73684:0:0:0:0:
448,192,73815,1,0,0:0:0:0::
64,192,73815,128,0,73880:0:0:0:0:
320,192,73815,128,0,73946:0:0:0:0:
448,192,74077,128,0,74209:0:0:0:0:
64,192,74077,128,0,74142:0:0:0:0:
192,192,74077,128,0,74209:0:0:0:0:
320,192,74209,128,0,74274:0:0:0:0:
64,192,74340,1,0,0:0:0:0::
320,192,74340,128,0,74405:0:0:0:0:
448,192,74340,128,0,74405:0:0:0:0:
192,192,74340,128,0,74470:0:0:0:0:
64,192,74470,128,0,74536:0:0:0:0:
192,192,74601,1,0,0:0:0:0::
320,192,74601,128,0,74667:0:0:0:0:
448,192,74601,128,0,74689:0:0:0:0:
192,192,74733,128,0,74799:0:0:0:0:
192,192,74864,128,0,74995:0:0:0:0:
320,192,74864,128,0,74930:0:0:0:0:
448,192,74864,128,0,74951:0:0:0:0:
64,192,74864,128,0,74930:0:0:0:0:
320,192,74995,1,0,0:0:0:0::
192,192,75126,128,0,75191:0:0:0:0:
64,192,75126,128,0,75191:0:0:0:0:
320,192,75126,128,0,75191:0:0:0:0:
192,192,75257,128,0,75323:0:0:0:0:
64,192,75389,128,0,75454:0:0:0:0:
192,192,75389,128,0,75454:0:0:0:0:
448,192,75389,128,0,75454:0:0:0:0:
320,192,75520,128,0,75552:0:0:0:0:
448,192,75520,128,0,75563:0:0:0:0:
320,192,75650,128,0,75716:0:0:0:0:
448,192,75650,128,0,75781:0:0:0:0:
64,192,75650,1,0,0:0:0:0::
192,192,75650,128,0,75716:0:0:0:0:
320,192,75781,128,0,75847:0:0:0:0:
64,192,75781,128,0,75847:0:0:0:0:
320,192,75913,128,0,75979:0:0:0:0:
448,192,75913,128,0,75979:0:0:0:0:
192,192,75913,128,0,75979:0:0:0:0:
192,192,76044,1,0,0:0:0:0::
320,192,76044,128,0,76110:0:0:0:0:
192,192,76175,1,0,0:0:0:0::
64,192,76175,128,0,76240:0:0:0:0:
320,192,76175,128,0,76240:0:0:0:0:
448,192,76175,128,0,76273:0:0:0:0:
192,192,76306,128,0,76350:0:0:0:0:
448,192,76438,128,0,76470:0:0:0:0:
320,192,76438,128,0,76503:0:0:0:0:
64,192,76438,128,0,76503:0:0:0:0:
192,192,76569,1,0,0:0:0:0::
64,192,76569,128,0,76634:0:0:0:0:
448,192,76700,128,0,76765:0:0:0:0:
64,192,76700,128,0,76732:0:0:0:0:
192,192,76700,128,0,76830:0:0:0:0:
320,192,76700,128,0,76765:0:0:0:0:
448,192,76830,128,0,76896:0:0:0:0:
320,192,76961,128,0,77093:0:0:0:0:
448,192,76961,128,0,77028:0:0:0:0:
64,192,76961,128,0,77028:0:0:0:0:
448,192,77224,1,0,0:0:0:0::
64,192,77224,128,0,77290:0:0:0:0:
192,192,77224,128,0,77355:0:0:0:0:
320,192,77355,1,0,0:0:0:0::
448,192,77486,128,0,77551:0:0:0:0:
320,192,77486,128,0,77551:0:0:0:0:
64,192,77486,128,0,77551:0:0:0:0:
64,192,77618,128,0,77880:0:0:0:0:
192,192,77618,1,0,0:0:0:0::
192,192,77749,128,0,77945:0:0:0:0:
320,192,77749,128,0,77880:0:0:0:0:
448,192,77749,1,0,0:0:0:0::
192,192,78010,128,0,78142:0:0:0:0:
320,192,78010,128,0,78076:0:0:0:0:
448,192,78010,128,0,78076:0:0:0:0:
320,192,78142,128,0,78208:0:0:0:0:
64,192,78273,1,0,0:0:0:0::
192,192,78273,128,0,78339:0:0:0:0:
448,192,78273,128,0,78404:0:0:0:0:
320,192,78404,128,0,78535:0:0:0:0:
64,192,78535,128,0,78600:0:0:0:0:
192,192,78535,128,0,78666:0:0:0:0:
448,192,78535,1,0,0:0:0:0::
320,192,78666,128,0,78732:0:0:0:0:
192,192,78798,128,0,78929:0:0:0:0:
320,192,78798,128,0,78863:0:0:0:0:
448,192,78798,128,0,78863:0:0:0:0:
64,192,78798,128,0,78863:0:0:0:0:
320,192,78929,128,0,78972:0:0:0:0:
192,192,79060,128,0,79125:0:0:0:0:
320,192,79060,128,0,79125:0:0:0:0:
448,192,79060,128,0,79125:0:0:0:0:
64,192,79060,1,0,0:0:0:0::
192,192,79190,1,0,0:0:0:0::
192,192,79322,128,0,79388:0:0:0:0:
320,192,79322,128,0,79388:0:0:0:0:
448,192,79322,1,0,0:0:0:0::
64,192,79322,128,0,79388:0:0:0:0:
448,192,79453,128,0,79519:0:0:0:0:
64,192,79584,128,0,79650:0:0:0:0:
192,192,79584,128,0,79682:0:0:0:0:
448,192,79584,128,0,79650:0:0:0:0:
320,192,79715,128,0,79780:0:0:0:0:
192,192,79847,128,0,80240:0:0:0:0:
64,192,80240,128,0,80370:0:0:0:0:
448,192,80370,128,0,80633:0:0:0:0:
192,192,80502,1,0,0:0:0:0::
320,192,80633,128,0,80764:0:0:0:0:
192,192,80764,128,0,81420:0:0:0:0:
64,192,80895,1,0,0:0:0:0::
320,192,81158,1,0,0:0:0:0::
64,192,81420,128,0,81944:0:0:0:0:
448,192,81420,128,0,81944:0:0:0:0:
192,192,81944,1,0,0:0:0:0::
320,192,81944,1,0,0:0:0:0::
320,192,82075,1,0,0:0:0:0::
64,192,82075,1,0,0:0:0:0::
192,192,82141,1,0,0:0:0:0::
64,192,82207,1,0,0:0:0:0::
448,192,82207,1,0,0:0:0:0::
320,192,82272,1,0,0:0:0:0::
64,192,82338,1,0,0:0:0:0::
192,192,82338,1,0,0:0:0:0::
448,192,82338,1,0,0:0:0:0::
192,192,82469,128,0,82600:0:0:0:0:
320,192,82469,128,0,82600:0:0:0:0:
64,192,82731,1,0,0:0:0:0::
192,192,82731,1,0,0:0:0:0::
320,192,82797,1,0,0:0:0:0::
448,192,82797,1,0,0:0:0:0::
64,192,82862,1,0,0:0:0:0::
192,192,82862,1,0,0:0:0:0::
448,192,82993,1,0,0:0:0:0::
192,192,82993,128,0,83124:0:0:0:0:
320,192,82993,128,0,83124:0:0:0:0:
192,192,83256,1,0,0:0:0:0::
64,192,83256,1,0,0:0:0:0::
320,192,83321,1,0,0:0:0:0::
448,192,83321,1,0,0:0:0:0::
64,192,83387,1,0,0:0:0:0::
192,192,83387,1,0,0:0:0:0::
320,192,83518,1,0,0:0:0:0::
448,192,83518,1,0,0:0:0:0::
192,192,83583,1,0,0:0:0:0::
64,192,83649,1,0,0:0:0:0::
448,192,83649,1,0,0:0:0:0::
64,192,83780,1,0,0:0:0:0::
448,192,83780,1,0,0:0:0:0::
192,192,83846,1,0,0:0:0:0::
64,192,83911,1,0,0:0:0:0::
448,192,83911,1,0,0:0:0:0::
320,192,84042,128,0,84173:0:0:0:0:
192,192,84042,128,0,84173:0:0:0:0:
320,192,84304,1,0,0:0:0:0::
448,192,84304,1,0,0:0:0:0::
64,192,84370,1,0,0:0:0:0::
192,192,84370,1,0,0:0:0:0::
320,192,84436,1,0,0:0:0:0::
448,192,84436,1,0,0:0:0:0::
64,192,84567,1,0,0:0:0:0::
448,192,84567,1,0,0:0:0:0::
320,192,84567,1,0,0:0:0:0::
192,192,84632,1,0,0:0:0:0::
64,192,84698,1,0,0:0:0:0::
448,192,84698,1,0,0:0:0:0::
192,192,84829,128,0,85026:0:0:0:0:
320,192,84829,128,0,85026:0:0:0:0:
192,192,85091,1,0,0:0:0:0::
320,192,85091,1,0,0:0:0:0::
448,192,85091,1,0,0:0:0:0::
64,192,85157,1,0,0:0:0:0::
320,192,85222,1,0,0:0:0:0::
192,192,85222,1,0,0:0:0:0::
64,192,85353,128,0,85484:0:0:0:0:
448,192,85353,128,0,85484:0:0:0:0:
192,192,85616,1,0,0:0:0:0::
320,192,85616,1,0,0:0:0:0::
448,192,85681,1,0,0:0:0:0::
192,192,85747,1,0,0:0:0:0::
320,192,85747,1,0,0:0:0:0::
64,192,85878,1,0,0:0:0:0::
448,192,85878,1,0,0:0:0:0::
320,192,85943,1,0,0:0:0:0::
192,192,85943,1,0,0:0:0:0::
64,192,86009,1,0,0:0:0:0::
448,192,86009,1,0,0:0:0:0::
192,192,86140,128,0,86402:0:0:0:0:
320,192,86140,128,0,86402:0:0:0:0:
448,192,86402,1,0,0:0:0:0::
64,192,86402,1,0,0:0:0:0::
192,192,86468,1,0,0:0:0:0::
320,192,86468,1,0,0:0:0:0::
64,192,86533,1,0,0:0:0:0::
448,192,86533,1,0,0:0:0:0::
320,192,86665,1,0,0:0:0:0::
448,192,86665,1,0,0:0:0:0::
192,192,86730,1,0,0:0:0:0::
64,192,86730,1,0,0:0:0:0::
192,192,86796,1,0,0:0:0:0::
320,192,86796,1,0,0:0:0:0::
320,192,87189,1,0,0:0:0:0::
448,192,87189,1,0,0:0:0:0::
64,192,87255,1,0,0:0:0:0::
192,192,87255,1,0,0:0:0:0::
320,192,87320,1,0,0:0:0:0::
448,192,87320,1,0,0:0:0:0::
320,192,87451,128,0,87582:0:0:0:0:
192,192,87451,128,0,87582:0:0:0:0:
448,192,87713,1,0,0:0:0:0::
64,192,87713,1,0,0:0:0:0::
320,192,87780,1,0,0:0:0:0::
64,192,87845,1,0,0:0:0:0::
192,192,87845,1,0,0:0:0:0::
320,192,87976,1,0,0:0:0:0::
448,192,87976,1,0,0:0:0:0::
192,192,88041,1,0,0:0:0:0::
64,192,88041,1,0,0:0:0:0::
320,192,88107,1,0,0:0:0:0::
448,192,88107,1,0,0:0:0:0::
64,192,88238,1,0,0:0:0:0::
448,192,88238,1,0,0:0:0:0::
320,192,88238,1,0,0:0:0:0::
64,192,88631,1,0,0:0:0:0::
192,192,88631,1,0,0:0:0:0::
64,192,88762,1,0,0:0:0:0::
320,192,88762,1,0,0:0:0:0::
448,192,88762,1,0,0:0:0:0::
448,192,88893,1,0,0:0:0:0::
320,192,88893,1,0,0:0:0:0::
64,192,89156,1,0,0:0:0:0::
192,192,89156,1,0,0:0:0:0::
64,192,89418,1,0,0:0:0:0::
320,192,89418,1,0,0:0:0:0::
448,192,89418,1,0,0:0:0:0::
64,192,89550,1,0,0:0:0:0::
192,192,89550,1,0,0:0:0:0::
64,192,89680,1,0,0:0:0:0::
448,192,89680,1,0,0:0:0:0::
320,192,89746,1,0,0:0:0:0::
64,192,89811,1,0,0:0:0:0::
192,192,89811,1,0,0:0:0:0::
448,192,89811,1,0,0:0:0:0::
64,192,89942,1,0,0:0:0:0::
448,192,89942,1,0,0:0:0:0::
192,192,90074,1,0,0:0:0:0::
320,192,90074,1,0,0:0:0:0::
64,192,90205,1,0,0:0:0:0::
448,192,90205,1,0,0:0:0:0::
320,192,90205,1,0,0:0:0:0::
64,192,90336,1,0,0:0:0:0::
192,192,90336,1,0,0:0:0:0::
320,192,90401,1,0,0:0:0:0::
448,192,90467,1,0,0:0:0:0::
64,192,90467,1,0,0:0:0:0::
320,192,90532,1,0,0:0:0:0::
192,192,90598,1,0,0:0:0:0::
448,192,90598,1,0,0:0:0:0::
320,192,90664,1,0,0:0:0:0::
192,192,90729,128,0,90991:0:0:0:0:
448,192,90729,1,0,0:0:0:0::
64,192,91122,1,0,0:0:0:0::
448,192,91122,1,0,0:0:0:0::
192,192,91189,1,0,0:0:0:0::
320,192,91254,1,0,0:0:0:0::
448,192,91254,1,0,0:0:0:0::
64,192,91385,1,0,0:0:0:0::
192,192,91385,128,0,91516:0:0:0:0:
448,192,91385,128,0,91516:0:0:0:0:
64,192,91647,1,0,0:0:0:0::
448,192,91647,1,0,0:0:0:0::
192,192,91712,1,0,0:0:0:0::
320,192,91712,1,0,0:0:0:0::
64,192,91779,1,0,0:0:0:0::
448,192,91779,1,0,0:0:0:0::
320,192,91909,1,0,0:0:0:0::
448,192,91909,1,0,0:0:0:0::
192,192,91975,1,0,0:0:0:0::
64,192,92040,1,0,0:0:0:0::
320,192,92040,1,0,0:0:0:0::
320,192,92171,1,0,0:0:0:0::
448,192,92171,1,0,0:0:0:0::
64,192,92237,1,0,0:0:0:0::
192,192,92302,1,0,0:0:0:0::
320,192,92302,1,0,0:0:0:0::
64,192,92696,1,0,0:0:0:0::
448,192,92696,1,0,0:0:0:0::
320,192,92761,1,0,0:0:0:0::
192,192,92761,1,0,0:0:0:0::
64,192,92827,1,0,0:0:0:0::
448,192,92827,1,0,0:0:0:0::
320,192,92893,1,0,0:0:0:0::
64,192,92959,1,0,0:0:0:0::
192,192,92959,1,0,0:0:0:0::
320,192,93024,1,0,0:0:0:0::
448,192,93024,1,0,0:0:0:0::
64,192,93089,1,0,0:0:0:0::
192,192,93089,1,0,0:0:0:0::
448,192,93220,128,0,93351:0:0:0:0:
320,192,93220,128,0,93351:0:0:0:0:
64,192,93483,1,0,0:0:0:0::
192,192,93483,1,0,0:0:0:0::
320,192,93549,1,0,0:0:0:0::
448,192,93549,1,0,0:0:0:0::
64,192,93614,1,0,0:0:0:0::
192,192,93614,128,0,93876:0:0:0:0:
64,192,94007,1,0,0:0:0:0::
192,192,94007,1,0,0:0:0:0::
448,192,94073,1,0,0:0:0:0::
320,192,94073,1,0,0:0:0:0::
192,192,94139,1,0,0:0:0:0::
64,192,94139,1,0,0:0:0:0::
320,192,94269,1,0,0:0:0:0::
448,192,94269,1,0,0:0:0:0::
64,192,94335,1,0,0:0:0:0::
192,192,94335,1,0,0:0:0:0::
320,192,94400,1,0,0:0:0:0::
448,192,94400,1,0,0:0:0:0::
448,192,94794,1,0,0:0:0:0::
320,192,94794,1,0,0:0:0:0::
64,192,94859,1,0,0:0:0:0::
192,192,94859,1,0,0:0:0:0::
320,192,94925,1,0,0:0:0:0::
448,192,94925,1,0,0:0:0:0::
64,192,95056,1,0,0:0:0:0::
448,192,95056,1,0,0:0:0:0::
192,192,95121,1,0,0:0:0:0::
320,192,95121,1,0,0:0:0:0::
64,192,95188,1,0,0:0:0:0::
448,192,95188,1,0,0:0:0:0::
320,192,95319,128,0,95449:0:0:0:0:
448,192,95319,128,0,95449:0:0:0:0:
448,192,95580,1,0,0:0:0:0::
320,192,95580,1,0,0:0:0:0::
64,192,95646,1,0,0:0:0:0::
192,192,95646,1,0,0:0:0:0::
320,192,95711,1,0,0:0:0:0::
448,192,95711,1,0,0:0:0:0::
64,192,95974,1,0,0:0:0:0::
192,192,95974,1,0,0:0:0:0::
448,192,96105,1,0,0:0:0:0::
320,192,96105,1,0,0:0:0:0::
192,192,96170,1,0,0:0:0:0::
64,192,96170,1,0,0:0:0:0::
320,192,96236,1,0,0:0:0:0::
448,192,96236,1,0,0:0:0:0::
64,192,96368,1,0,0:0:0:0::
448,192,96368,1,0,0:0:0:0::
192,192,96433,1,0,0:0:0:0::
320,192,96433,1,0,0:0:0:0::
64,192,96499,1,0,0:0:0:0::
448,192,96499,1,0,0:0:0:0::
192,192,96564,1,0,0:0:0:0::
320,192,96564,1,0,0:0:0:0::
64,192,96629,128,0,96892:0:0:0:0:
448,192,96629,128,0,96892:0:0:0:0:
320,192,97023,128,0,97285:0:0:0:0:
192,192,97154,128,0,97285:0:0:0:0:
64,192,97416,128,0,97679:0:0:0:0:
192,192,97679,128,0,98072:0:0:0:0:
320,192,97679,128,0,98007:0:0:0:0:
320,192,98072,1,0,0:0:0:0::
448,192,98072,1,0,0:0:0:0::
192,192,98138,1,0,0:0:0:0::
64,192,98203,1,0,0:0:0:0::
320,192,98203,1,0,0:0:0:0::
448,192,98203,1,0,0:0:0:0::
64,192,98334,1,0,0:0:0:0::
192,192,98334,1,0,0:0:0:0::
192,192,98465,1,0,0:0:0:0::
320,192,98465,1,0,0:0:0:0::
64,192,98465,1,0,0:0:0:0::
64,192,98597,1,0,0:0:0:0::
320,192,98597,1,0,0:0:0:0::
448,192,98597,1,0,0:0:0:0::
448,192,98728,1,0,0:0:0:0::
64,192,98728,1,0,0:0:0:0::
192,192,98728,1,0,0:0:0:0::
320,192,98989,1,0,0:0:0:0::
192,192,99252,1,0,0:0:0:0::
320,192,99514,1,0,0:0:0:0::
192,192,99777,1,0,0:0:0:0::
64,192,99908,1,0,0:0:0:0::
192,192,100039,1,0,0:0:0:0::
448,192,100169,1,0,0:0:0:0::
320,192,100301,1,0,0:0:0:0::
64,192,100563,1,0,0:0:0:0::
448,192,100825,1,0,0:0:0:0::
320,192,100825,1,0,0:0:0:0::
320,192,101088,1,0,0:0:0:0::
192,192,101349,1,0,0:0:0:0::
320,192,101481,1,0,0:0:0:0::
64,192,101612,1,0,0:0:0:0::
320,192,101743,1,0,0:0:0:0::
64,192,101874,1,0,0:0:0:0::
448,192,101874,1,0,0:0:0:0::
192,192,102006,1,0,0:0:0:0::
320,192,102006,1,0,0:0:0:0::
448,192,102137,1,0,0:0:0:0::
320,192,102268,1,0,0:0:0:0::
192,192,102399,1,0,0:0:0:0::
320,192,102661,1,0,0:0:0:0::
64,192,102792,1,0,0:0:0:0::
192,192,102792,1,0,0:0:0:0::
320,192,102923,1,0,0:0:0:0::
448,192,102923,1,0,0:0:0:0::
192,192,103186,1,0,0:0:0:0::
320,192,103448,1,0,0:0:0:0::
192,192,103579,1,0,0:0:0:0::
320,192,103710,1,0,0:0:0:0::
192,192,103841,1,0,0:0:0:0::
448,192,103972,1,0,0:0:0:0::
64,192,103972,1,0,0:0:0:0::
64,192,104235,1,0,0:0:0:0::
320,192,104366,1,0,0:0:0:0::
192,192,104497,1,0,0:0:0:0::
320,192,104628,1,0,0:0:0:0::
64,192,104759,1,0,0:0:0:0::
192,192,104890,1,0,0:0:0:0::
320,192,105021,1,0,0:0:0:0::
448,192,105021,1,0,0:0:0:0::
320,192,105283,1,0,0:0:0:0::
192,192,105546,1,0,0:0:0:0::
64,192,105677,1,0,0:0:0:0::
320,192,105808,1,0,0:0:0:0::
320,192,105939,1,0,0:0:0:0::
448,192,106005,1,0,0:0:0:0::
64,192,106070,1,0,0:0:0:0::
192,192,106070,1,0,0:0:0:0::
320,192,106201,1,0,0:0:0:0::
192,192,106332,1,0,0:0:0:0::
320,192,106463,1,0,0:0:0:0::
64,192,106595,1,0,0:0:0:0::
192,192,106726,1,0,0:0:0:0::
448,192,106857,1,0,0:0:0:0::
192,192,106988,1,0,0:0:0:0::
320,192,107119,1,0,0:0:0:0::
64,192,107119,1,0,0:0:0:0::
448,192,107119,1,0,0:0:0:0::
192,192,107381,1,0,0:0:0:0::
320,192,107644,1,0,0:0:0:0::
192,192,107775,1,0,0:0:0:0::
192,192,107906,1,0,0:0:0:0::
64,192,108168,1,0,0:0:0:0::
320,192,108168,1,0,0:0:0:0::
448,192,108168,1,0,0:0:0:0::
192,192,108299,1,0,0:0:0:0::
192,192,108430,1,0,0:0:0:0::
320,192,108561,1,0,0:0:0:0::
448,192,108561,1,0,0:0:0:0::
192,192,108692,1,0,0:0:0:0::
320,192,108824,1,0,0:0:0:0::
448,192,108955,1,0,0:0:0:0::
192,192,109086,1,0,0:0:0:0::
64,192,109217,1,0,0:0:0:0::
320,192,109217,1,0,0:0:0:0::
448,192,109217,1,0,0:0:0:0::
192,192,109610,1,0,0:0:0:0::
192,192,109872,1,0,0:0:0:0::
192,192,110004,1,0,0:0:0:0::
64,192,110266,1,0,0:0:0:0::
320,192,110266,1,0,0:0:0:0::
448,192,110266,1,0,0:0:0:0::
192,192,110397,1,0,0:0:0:0::
320,192,110529,1,0,0:0:0:0::
448,192,110659,1,0,0:0:0:0::
320,192,110790,1,0,0:0:0:0::
320,192,110921,1,0,0:0:0:0::
448,192,111053,1,0,0:0:0:0::
192,192,111184,1,0,0:0:0:0::
64,192,111315,1,0,0:0:0:0::
320,192,111315,1,0,0:0:0:0::
448,192,111315,1,0,0:0:0:0::
192,192,111577,1,0,0:0:0:0::
320,192,111839,1,0,0:0:0:0::
192,192,111970,1,0,0:0:0:0::
448,192,112364,1,0,0:0:0:0::
64,192,112364,1,0,0:0:0:0::
448,192,112758,1,0,0:0:0:0::
320,192,112758,1,0,0:0:0:0::
192,192,113150,1,0,0:0:0:0::
320,192,113281,1,0,0:0:0:0::
448,192,113281,1,0,0:0:0:0::
448,192,113413,1,0,0:0:0:0::
64,192,113413,1,0,0:0:0:0::
192,192,113413,1,0,0:0:0:0::
192,192,113675,1,0,0:0:0:0::
320,192,113675,1,0,0:0:0:0::
64,192,114069,1,0,0:0:0:0::
448,192,114069,1,0,0:0:0:0::
64,192,114462,128,0,114528:0:0:0:0:
320,192,114462,128,0,114528:0:0:0:0:
448,192,114462,128,0,114528:0:0:0:0:
64,192,114593,128,0,114659:0:0:0:0:
192,192,114593,128,0,114659:0:0:0:0:
448,192,114593,128,0,114659:0:0:0:0:
448,192,114724,128,0,114789:0:0:0:0:
64,192,114724,128,0,114789:0:0:0:0:
320,192,114724,1,0,0:0:0:0::
64,192,114855,128,0,114920:0:0:0:0:
192,192,114855,128,0,114986:0:0:0:0:
448,192,114855,128,0,114888:0:0:0:0:
320,192,114986,128,0,115052:0:0:0:0:
448,192,114986,1,0,0:0:0:0::
64,192,114986,128,0,115052:0:0:0:0:
192,192,115118,1,0,0:0:0:0::
448,192,115118,128,0,115183:0:0:0:0:
64,192,115118,1,0,0:0:0:0::
320,192,115118,128,0,115183:0:0:0:0:
64,192,115249,128,0,115379:0:0:0:0:
448,192,115249,128,0,115314:0:0:0:0:
192,192,115249,1,0,0:0:0:0::
192,192,115379,1,0,0:0:0:0::
320,192,115379,1,0,0:0:0:0::
64,192,115510,1,0,0:0:0:0::
192,192,115510,1,0,0:0:0:0::
448,192,115510,1,0,0:0:0:0::
448,192,115642,128,0,115969:0:0:0:0:
64,192,115642,128,0,115969:0:0:0:0:
320,192,115642,128,0,115969:0:0:0:0:
64,192,116035,1,0,0:0:0:0::
192,192,116035,128,0,116494:0:0:0:0:
320,192,116035,1,0,0:0:0:0::
448,192,116035,1,0,0:0:0:0::
320,192,116559,1,0,0:0:0:0::
192,192,116559,128,0,117019:0:0:0:0:
448,192,116559,128,0,116757:0:0:0:0:
64,192,116559,128,0,117019:0:0:0:0:
320,192,116822,128,0,117084:0:0:0:0:
448,192,116822,128,0,117019:0:0:0:0:
64,192,117084,1,0,0:0:0:0::
192,192,117084,1,0,0:0:0:0::
448,192,117084,1,0,0:0:0:0::
192,192,117215,1,0,0:0:0:0::
320,192,117215,128,0,117347:0:0:0:0:
64,192,117347,128,0,117543:0:0:0:0:
192,192,117347,128,0,117543:0:0:0:0:
448,192,117347,1,0,0:0:0:0::
320,192,117609,1,0,0:0:0:0::
448,192,117609,1,0,0:0:0:0::
64,192,117609,1,0,0:0:0:0::
64,192,117805,128,0,118068:0:0:0:0:
320,192,117805,128,0,118068:0:0:0:0:
448,192,117805,128,0,118068:0:0:0:0:
64,192,118133,1,0,0:0:0:0::
448,192,118133,1,0,0:0:0:0::
192,192,118133,1,0,0:0:0:0::
320,192,118133,1,0,0:0:0:0::
320,192,118395,128,0,118592:0:0:0:0:
64,192,118395,128,0,118592:0:0:0:0:
192,192,118395,128,0,118592:0:0:0:0:
192,192,118658,128,0,118854:0:0:0:0:
64,192,118658,1,0,0:0:0:0::
320,192,118658,128,0,119117:0:0:0:0:
448,192,118658,128,0,118854:0:0:0:0:
64,192,118919,128,0,119117:0:0:0:0:
448,192,118919,128,0,119117:0:0:0:0:
192,192,118919,1,0,0:0:0:0::
64,192,119182,1,0,0:0:0:0::
192,192,119182,1,0,0:0:0:0::
320,192,119182,1,0,0:0:0:0::
448,192,119182,1,0,0:0:0:0::
192,192,119313,1,0,0:0:0:0::
320,192,119313,1,0,0:0:0:0::
64,192,119444,128,0,119641:0:0:0:0:
320,192,119444,128,0,119641:0:0:0:0:
64,192,119707,1,0,0:0:0:0::
320,192,119707,128,0,119838:0:0:0:0:
448,192,119707,128,0,119838:0:0:0:0:
192,192,119903,128,0,120166:0:0:0:0:
320,192,119903,128,0,120166:0:0:0:0:
448,192,119903,128,0,120166:0:0:0:0:
64,192,120231,1,0,0:0:0:0::
320,192,120231,1,0,0:0:0:0::
192,192,120231,1,0,0:0:0:0::
448,192,120231,1,0,0:0:0:0::
192,192,120362,1,0,0:0:0:0::
320,192,120362,128,0,120689:0:0:0:0:
64,192,120362,128,0,120689:0:0:0:0:
64,192,120756,1,0,0:0:0:0::
448,192,120756,1,0,0:0:0:0::
192,192,120756,1,0,0:0:0:0::
192,192,120887,128,0,121214:0:0:0:0:
448,192,120887,128,0,121214:0:0:0:0:
64,192,121280,1,0,0:0:0:0::
320,192,121280,1,0,0:0:0:0::
448,192,121280,1,0,0:0:0:0::
192,192,121542,1,0,0:0:0:0::
64,192,121542,128,0,121739:0:0:0:0:
320,192,121542,128,0,121739:0:0:0:0:
64,192,121804,1,0,0:0:0:0::
192,192,121804,1,0,0:0:0:0::
320,192,121804,1,0,0:0:0:0::
448,192,121804,1,0,0:0:0:0::
64,192,121936,128,0,122067:0:0:0:0:
320,192,121936,128,0,122263:0:0:0:0:
192,192,122067,128,0,122263:0:0:0:0:
448,192,122067,128,0,122329:0:0:0:0:
320,192,122329,1,0,0:0:0:0::
64,192,122329,1,0,0:0:0:0::
192,192,122329,1,0,0:0:0:0::
64,192,122460,128,0,122788:0:0:0:0:
192,192,122460,128,0,122788:0:0:0:0:
448,192,122460,1,0,0:0:0:0::
192,192,122853,128,0,123050:0:0:0:0:
320,192,122853,128,0,123312:0:0:0:0:
448,192,122853,128,0,123312:0:0:0:0:
192,192,123116,128,0,123312:0:0:0:0:
64,192,123116,128,0,123312:0:0:0:0:
64,192,123378,1,0,0:0:0:0::
192,192,123378,1,0,0:0:0:0::
320,192,123378,1,0,0:0:0:0::
448,192,123378,1,0,0:0:0:0::
192,192,123509,1,0,0:0:0:0::
320,192,123509,1,0,0:0:0:0::
64,192,123640,128,0,123837:0:0:0:0:
320,192,123640,1,0,0:0:0:0::
192,192,123640,128,0,123837:0:0:0:0:
448,192,123902,1,0,0:0:0:0::
64,192,123902,1,0,0:0:0:0::
320,192,123902,1,0,0:0:0:0::
192,192,123968,1,0,0:0:0:0::
320,192,124033,1,0,0:0:0:0::
448,192,124099,1,0,0:0:0:0::
192,192,124165,1,0,0:0:0:0::
64,192,124165,1,0,0:0:0:0::
320,192,124165,1,0,0:0:0:0::
448,192,124230,1,0,0:0:0:0::
64,192,124296,1,0,0:0:0:0::
192,192,124361,1,0,0:0:0:0::
320,192,124427,1,0,0:0:0:0::
64,192,124427,1,0,0:0:0:0::
448,192,124427,1,0,0:0:0:0::
192,192,124492,1,0,0:0:0:0::
448,192,124558,1,0,0:0:0:0::
64,192,124623,1,0,0:0:0:0::
192,192,124689,1,0,0:0:0:0::
448,192,124689,1,0,0:0:0:0::
320,192,124755,1,0,0:0:0:0::
192,192,124820,1,0,0:0:0:0::
64,192,124886,1,0,0:0:0:0::
448,192,124951,1,0,0:0:0:0::
320,192,124951,1,0,0:0:0:0::
192,192,125017,1,0,0:0:0:0::
448,192,125082,1,0,0:0:0:0::
192,192,125148,1,0,0:0:0:0::
64,192,125213,1,0,0:0:0:0::
320,192,125213,1,0,0:0:0:0::
448,192,125213,1,0,0:0:0:0::
192,192,125279,1,0,0:0:0:0::
448,192,125345,1,0,0:0:0:0::
192,192,125410,1,0,0:0:0:0::
448,192,125476,1,0,0:0:0:0::
64,192,125476,1,0,0:0:0:0::
320,192,125476,1,0,0:0:0:0::
192,192,125541,1,0,0:0:0:0::
64,192,125607,1,0,0:0:0:0::
320,192,125672,1,0,0:0:0:0::
64,192,125738,1,0,0:0:0:0::
192,192,125738,1,0,0:0:0:0::
448,192,125738,1,0,0:0:0:0::
320,192,125804,1,0,0:0:0:0::
64,192,125869,1,0,0:0:0:0::
192,192,125935,1,0,0:0:0:0::
64,192,126000,1,0,0:0:0:0::
320,192,126000,1,0,0:0:0:0::
448,192,126000,1,0,0:0:0:0::
192,192,126066,1,0,0:0:0:0::
448,192,126131,1,0,0:0:0:0::
64,192,126197,1,0,0:0:0:0::
320,192,126197,1,0,0:0:0:0::
448,192,126262,1,0,0:0:0:0::
192,192,126262,1,0,0:0:0:0::
320,192,126328,1,0,0:0:0:0::
64,192,126394,1,0,0:0:0:0::
192,192,126459,1,0,0:0:0:0::
64,192,126525,1,0,0:0:0:0::
320,192,126525,1,0,0:0:0:0::
448,192,126590,1,0,0:0:0:0::
320,192,126656,1,0,0:0:0:0::
192,192,126721,1,0,0:0:0:0::
64,192,126787,1,0,0:0:0:0::
448,192,126787,1,0,0:0:0:0::
192,192,126852,1,0,0:0:0:0::
320,192,126918,1,0,0:0:0:0::
448,192,126984,1,0,0:0:0:0::
64,192,127049,1,0,0:0:0:0::
192,192,127049,1,0,0:0:0:0::
320,192,127049,1,0,0:0:0:0::
448,192,127115,1,0,0:0:0:0::
192,192,127180,1,0,0:0:0:0::
64,192,127246,1,0,0:0:0:0::
448,192,127311,1,0,0:0:0:0::
320,192,127311,1,0,0:0:0:0::
192,192,127311,1,0,0:0:0:0::
64,192,127377,1,0,0:0:0:0::
448,192,127442,1,0,0:0:0:0::
64,192,127509,1,0,0:0:0:0::
192,192,127574,1,0,0:0:0:0::
320,192,127574,1,0,0:0:0:0::
448,192,127574,1,0,0:0:0:0::
64,192,127639,1,0,0:0:0:0::
192,192,127705,1,0,0:0:0:0::
320,192,127770,1,0,0:0:0:0::
448,192,127770,1,0,0:0:0:0::
192,192,127836,1,0,0:0:0:0::
64,192,127836,1,0,0:0:0:0::
448,192,127901,1,0,0:0:0:0::
64,192,127967,1,0,0:0:0:0::
192,192,128032,1,0,0:0:0:0::
64,192,128099,1,0,0:0:0:0::
320,192,128099,1,0,0:0:0:0::
448,192,128099,1,0,0:0:0:0::
320,192,128229,1,0,0:0:0:0::
448,192,128229,1,0,0:0:0:0::
192,192,128229,1,0,0:0:0:0::
448,192,128360,1,0,0:0:0:0::
320,192,128360,1,0,0:0:0:0::
192,192,128426,1,0,0:0:0:0::
64,192,128426,1,0,0:0:0:0::
320,192,128491,1,0,0:0:0:0::
448,192,128491,1,0,0:0:0:0::
64,192,128557,1,0,0:0:0:0::
192,192,128622,1,0,0:0:0:0::
320,192,128622,1,0,0:0:0:0::
448,192,128622,1,0,0:0:0:0::
64,192,128754,1,0,0:0:0:0::
192,192,128754,1,0,0:0:0:0::
448,192,128819,1,0,0:0:0:0::
64,192,128885,1,0,0:0:0:0::
192,192,128885,1,0,0:0:0:0::
320,192,128950,1,0,0:0:0:0::
448,192,128950,1,0,0:0:0:0::
64,192,129016,1,0,0:0:0:0::
192,192,129016,1,0,0:0:0:0::
320,192,129081,1,0,0:0:0:0::
448,192,129081,1,0,0:0:0:0::
64,192,129147,1,0,0:0:0:0::
192,192,129147,1,0,0:0:0:0::
320,192,129279,1,0,0:0:0:0::
448,192,129279,1,0,0:0:0:0::
64,192,129344,1,0,0:0:0:0::
192,192,129344,1,0,0:0:0:0::
448,192,129409,1,0,0:0:0:0::
320,192,129409,1,0,0:0:0:0::
64,192,129475,1,0,0:0:0:0::
192,192,129475,1,0,0:0:0:0::
320,192,129540,1,0,0:0:0:0::
448,192,129540,1,0,0:0:0:0::
64,192,129606,1,0,0:0:0:0::
192,192,129606,1,0,0:0:0:0::
320,192,129671,1,0,0:0:0:0::
448,192,129671,1,0,0:0:0:0::
64,192,129737,1,0,0:0:0:0::
192,192,129737,1,0,0:0:0:0::
320,192,129803,1,0,0:0:0:0::
448,192,129803,1,0,0:0:0:0::
64,192,129869,1,0,0:0:0:0::
192,192,129934,1,0,0:0:0:0::
320,192,129999,1,0,0:0:0:0::
448,192,130065,1,0,0:0:0:0::
64,192,130065,1,0,0:0:0:0::
320,192,130130,1,0,0:0:0:0::
64,192,130196,128,0,130918:0:0:0:0:
448,192,130196,128,0,130393:0:0:0:0:
192,192,130196,128,0,130655:0:0:0:0:
448,192,130459,128,0,130950:0:0:0:0:
320,192,130589,128,0,130786:0:0:0:0:
192,192,130720,128,0,130851:0:0:0:0:
320,192,130851,128,0,131114:0:0:0:0:
64,192,130983,128,0,131114:0:0:0:0:
192,192,130983,128,0,131180:0:0:0:0:
320,192,131245,1,0,0:0:0:0::
64,192,131245,1,0,0:0:0:0::
448,192,131245,1,0,0:0:0:0::
64,192,131376,1,0,0:0:0:0::
320,192,131376,1,0,0:0:0:0::
192,192,131441,1,0,0:0:0:0::
320,192,131508,1,0,0:0:0:0::
448,192,131508,1,0,0:0:0:0::
64,192,131508,1,0,0:0:0:0::
192,192,131639,1,0,0:0:0:0::
64,192,131639,1,0,0:0:0:0::
320,192,131639,1,0,0:0:0:0::
448,192,131704,1,0,0:0:0:0::
64,192,131770,1,0,0:0:0:0::
192,192,131770,1,0,0:0:0:0::
320,192,131770,1,0,0:0:0:0::
448,192,131835,1,0,0:0:0:0::
64,192,131900,1,0,0:0:0:0::
192,192,131900,1,0,0:0:0:0::
320,192,131900,1,0,0:0:0:0::
448,192,131966,1,0,0:0:0:0::
64,192,132031,1,0,0:0:0:0::
192,192,132031,1,0,0:0:0:0::
192,192,132294,1,0,0:0:0:0::
448,192,132294,1,0,0:0:0:0::
320,192,132294,1,0,0:0:0:0::
64,192,132360,1,0,0:0:0:0::
448,192,132425,1,0,0:0:0:0::
192,192,132425,1,0,0:0:0:0::
320,192,132490,1,0,0:0:0:0::
64,192,132556,1,0,0:0:0:0::
192,192,132556,1,0,0:0:0:0::
448,192,132556,1,0,0:0:0:0::
320,192,132622,1,0,0:0:0:0::
64,192,132688,1,0,0:0:0:0::
192,192,132688,1,0,0:0:0:0::
448,192,132753,1,0,0:0:0:0::
192,192,132819,1,0,0:0:0:0::
64,192,132819,1,0,0:0:0:0::
320,192,132819,1,0,0:0:0:0::
448,192,132884,1,0,0:0:0:0::
320,192,132950,1,0,0:0:0:0::
64,192,132950,1,0,0:0:0:0::
192,192,133015,1,0,0:0:0:0::
64,192,133080,1,0,0:0:0:0::
448,192,133080,1,0,0:0:0:0::
320,192,133080,1,0,0:0:0:0::
192,192,133146,1,0,0:0:0:0::
448,192,133212,1,0,0:0:0:0::
64,192,133212,1,0,0:0:0:0::
320,192,133278,1,0,0:0:0:0::
192,192,133343,1,0,0:0:0:0::
448,192,133343,1,0,0:0:0:0::
320,192,133409,1,0,0:0:0:0::
64,192,133474,1,0,0:0:0:0::
448,192,133474,1,0,0:0:0:0::
192,192,133540,1,0,0:0:0:0::
448,192,133605,1,0,0:0:0:0::
320,192,133605,1,0,0:0:0:0::
64,192,133670,1,0,0:0:0:0::
320,192,133736,1,0,0:0:0:0::
192,192,133736,1,0,0:0:0:0::
448,192,133802,1,0,0:0:0:0::
192,192,133868,1,0,0:0:0:0::
64,192,133868,1,0,0:0:0:0::
320,192,133933,1,0,0:0:0:0::
192,192,133999,1,0,0:0:0:0::
448,192,133999,1,0,0:0:0:0::
64,192,134064,1,0,0:0:0:0::
448,192,134130,1,0,0:0:0:0::
320,192,134130,1,0,0:0:0:0::
192,192,134195,1,0,0:0:0:0::
64,192,134260,1,0,0:0:0:0::
320,192,134260,1,0,0:0:0:0::
192,192,134327,1,0,0:0:0:0::
448,192,134392,1,0,0:0:0:0::
320,192,134392,1,0,0:0:0:0::
192,192,134458,1,0,0:0:0:0::
64,192,134523,1,0,0:0:0:0::
192,192,134589,1,0,0:0:0:0::
320,192,134654,1,0,0:0:0:0::
64,192,134654,1,0,0:0:0:0::
448,192,134720,1,0,0:0:0:0::
64,192,134785,1,0,0:0:0:0::
192,192,134785,1,0,0:0:0:0::
320,192,134785,1,0,0:0:0:0::
448,192,134850,1,0,0:0:0:0::
64,192,134917,1,0,0:0:0:0::
192,192,134917,1,0,0:0:0:0::
320,192,134982,1,0,0:0:0:0::
448,192,135048,1,0,0:0:0:0::
192,192,135048,1,0,0:0:0:0::
320,192,135113,1,0,0:0:0:0::
64,192,135179,1,0,0:0:0:0::
192,192,135179,1,0,0:0:0:0::
448,192,135244,1,0,0:0:0:0::
192,192,135310,1,0,0:0:0:0::
320,192,135310,1,0,0:0:0:0::
64,192,135375,1,0,0:0:0:0::
448,192,135440,1,0,0:0:0:0::
192,192,135440,1,0,0:0:0:0::
320,192,135507,1,0,0:0:0:0::
64,192,135572,1,0,0:0:0:0::
448,192,135572,1,0,0:0:0:0::
320,192,135638,1,0,0:0:0:0::
64,192,135703,1,0,0:0:0:0::
192,192,135703,1,0,0:0:0:0::
448,192,135703,1,0,0:0:0:0::
320,192,135769,1,0,0:0:0:0::
192,192,135834,1,0,0:0:0:0::
448,192,135834,1,0,0:0:0:0::
64,192,135900,1,0,0:0:0:0::
320,192,135965,1,0,0:0:0:0::
448,192,135965,1,0,0:0:0:0::
192,192,135965,1,0,0:0:0:0::
64,192,136031,1,0,0:0:0:0::
192,192,136097,1,0,0:0:0:0::
448,192,136097,1,0,0:0:0:0::
320,192,136162,1,0,0:0:0:0::
448,192,136228,1,0,0:0:0:0::
64,192,136228,1,0,0:0:0:0::
192,192,136228,1,0,0:0:0:0::
320,192,136293,1,0,0:0:0:0::
64,192,136359,1,0,0:0:0:0::
448,192,136359,1,0,0:0:0:0::
192,192,136424,1,0,0:0:0:0::
64,192,136490,1,0,0:0:0:0::
320,192,136490,1,0,0:0:0:0::
448,192,136555,1,0,0:0:0:0::
192,192,136621,1,0,0:0:0:0::
64,192,136621,1,0,0:0:0:0::
320,192,136687,1,0,0:0:0:0::
64,192,136752,1,0,0:0:0:0::
192,192,136752,1,0,0:0:0:0::
448,192,136752,1,0,0:0:0:0::
320,192,136818,1,0,0:0:0:0::
64,192,136883,1,0,0:0:0:0::
192,192,136883,1,0,0:0:0:0::
448,192,136949,1,0,0:0:0:0::
320,192,137014,1,0,0:0:0:0::
64,192,137014,1,0,0:0:0:0::
192,192,137080,1,0,0:0:0:0::
320,192,137145,1,0,0:0:0:0::
448,192,137145,1,0,0:0:0:0::
64,192,137211,1,0,0:0:0:0::
448,192,137277,1,0,0:0:0:0::
192,192,137277,1,0,0:0:0:0::
320,192,137277,1,0,0:0:0:0::
64,192,137342,1,0,0:0:0:0::
192,192,137408,1,0,0:0:0:0::
448,192,137408,1,0,0:0:0:0::
64,192,137473,1,0,0:0:0:0::
192,192,137539,1,0,0:0:0:0::
448,192,137539,1,0,0:0:0:0::
64,192,137604,1,0,0:0:0:0::
320,192,137604,1,0,0:0:0:0::
448,192,137670,1,0,0:0:0:0::
192,192,137670,1,0,0:0:0:0::
320,192,137736,1,0,0:0:0:0::
192,192,137801,1,0,0:0:0:0::
448,192,137801,1,0,0:0:0:0::
64,192,137867,1,0,0:0:0:0::
320,192,137932,1,0,0:0:0:0::
448,192,137998,1,0,0:0:0:0::
192,192,138063,1,0,0:0:0:0::
320,192,138063,1,0,0:0:0:0::
64,192,138129,1,0,0:0:0:0::
320,192,138194,1,0,0:0:0:0::
448,192,138194,1,0,0:0:0:0::
192,192,138260,1,0,0:0:0:0::
64,192,138326,1,0,0:0:0:0::
448,192,138326,1,0,0:0:0:0::
192,192,138391,1,0,0:0:0:0::
320,192,138391,1,0,0:0:0:0::
64,192,138457,1,0,0:0:0:0::
448,192,138457,1,0,0:0:0:0::
320,192,138522,1,0,0:0:0:0::
64,192,138588,1,0,0:0:0:0::
448,192,138588,1,0,0:0:0:0::
192,192,138588,1,0,0:0:0:0::
320,192,138653,1,0,0:0:0:0::
448,192,138719,1,0,0:0:0:0::
64,192,138719,1,0,0:0:0:0::
192,192,138784,1,0,0:0:0:0::
448,192,138850,1,0,0:0:0:0::
320,192,138850,1,0,0:0:0:0::
64,192,138916,1,0,0:0:0:0::
192,192,138981,1,0,0:0:0:0::
320,192,138981,1,0,0:0:0:0::
448,192,139047,1,0,0:0:0:0::
64,192,139112,1,0,0:0:0:0::
320,192,139112,1,0,0:0:0:0::
448,192,139178,1,0,0:0:0:0::
192,192,139178,1,0,0:0:0:0::
320,192,139243,1,0,0:0:0:0::
64,192,139309,1,0,0:0:0:0::
192,192,139374,1,0,0:0:0:0::
448,192,139374,1,0,0:0:0:0::
320,192,139440,1,0,0:0:0:0::
64,192,139506,1,0,0:0:0:0::
448,192,139506,1,0,0:0:0:0::
192,192,139571,1,0,0:0:0:0::
320,192,139637,1,0,0:0:0:0::
64,192,139637,1,0,0:0:0:0::
448,192,139702,1,0,0:0:0:0::
64,192,139768,1,0,0:0:0:0::
320,192,139768,1,0,0:0:0:0::
192,192,139768,1,0,0:0:0:0::
448,192,139833,1,0,0:0:0:0::
64,192,139899,1,0,0:0:0:0::
192,192,139899,1,0,0:0:0:0::
320,192,139899,1,0,0:0:0:0::
448,192,139964,1,0,0:0:0:0::
64,192,140030,1,0,0:0:0:0::
192,192,140030,1,0,0:0:0:0::
320,192,140096,1,0,0:0:0:0::
448,192,140096,1,0,0:0:0:0::
64,192,140161,1,0,0:0:0:0::
192,192,140161,1,0,0:0:0:0::
320,192,140292,1,0,0:0:0:0::
448,192,140292,1,0,0:0:0:0::
64,192,140358,1,0,0:0:0:0::
192,192,140358,1,0,0:0:0:0::
320,192,140423,1,0,0:0:0:0::
448,192,140423,1,0,0:0:0:0::
192,192,140571,1,0,0:0:0:0::
64,192,140620,1,0,0:0:0:0::
320,192,140642,1,0,0:0:0:0::
448,192,140653,1,0,0:0:0:0::
192,192,140948,1,0,0:0:0:0::
448,192,140948,1,0,0:0:0:0::
64,192,140948,1,0,0:0:0:0::
320,192,141013,1,0,0:0:0:0::
448,192,141079,1,0,0:0:0:0::
64,192,141079,1,0,0:0:0:0::
192,192,141145,1,0,0:0:0:0::
320,192,141210,1,0,0:0:0:0::
448,192,141210,1,0,0:0:0:0::
64,192,141210,1,0,0:0:0:0::
192,192,141276,1,0,0:0:0:0::
64,192,141341,1,0,0:0:0:0::
448,192,141341,1,0,0:0:0:0::
320,192,141407,1,0,0:0:0:0::
192,192,141472,1,0,0:0:0:0::
64,192,141472,1,0,0:0:0:0::
320,192,141538,1,0,0:0:0:0::
192,192,141603,1,0,0:0:0:0::
448,192,141603,1,0,0:0:0:0::
64,192,141669,1,0,0:0:0:0::
192,192,141735,1,0,0:0:0:0::
448,192,141735,1,0,0:0:0:0::
320,192,141800,1,0,0:0:0:0::
192,192,141866,1,0,0:0:0:0::
64,192,141866,1,0,0:0:0:0::
448,192,141866,1,0,0:0:0:0::
320,192,141931,1,0,0:0:0:0::
192,192,141997,1,0,0:0:0:0::
64,192,141997,1,0,0:0:0:0::
448,192,142062,1,0,0:0:0:0::
320,192,142128,1,0,0:0:0:0::
64,192,142193,1,0,0:0:0:0::
192,192,142193,1,0,0:0:0:0::
320,192,142259,1,0,0:0:0:0::
448,192,142259,1,0,0:0:0:0::
64,192,142325,1,0,0:0:0:0::
320,192,142390,1,0,0:0:0:0::
192,192,142390,1,0,0:0:0:0::
448,192,142456,1,0,0:0:0:0::
64,192,142521,1,0,0:0:0:0::
192,192,142521,1,0,0:0:0:0::
320,192,142521,1,0,0:0:0:0::
320,192,142652,1,0,0:0:0:0::
192,192,142652,1,0,0:0:0:0::
448,192,142718,1,0,0:0:0:0::
64,192,142783,1,0,0:0:0:0::
192,192,142783,1,0,0:0:0:0::
320,192,142850,1,0,0:0:0:0::
64,192,142915,1,0,0:0:0:0::
192,192,142915,1,0,0:0:0:0::
320,192,142980,1,0,0:0:0:0::
192,192,143046,1,0,0:0:0:0::
64,192,143046,1,0,0:0:0:0::
448,192,143046,1,0,0:0:0:0::
320,192,143111,1,0,0:0:0:0::
64,192,143177,1,0,0:0:0:0::
192,192,143177,1,0,0:0:0:0::
448,192,143242,1,0,0:0:0:0::
192,192,143308,1,0,0:0:0:0::
64,192,143308,1,0,0:0:0:0::
320,192,143373,1,0,0:0:0:0::
64,192,143440,1,0,0:0:0:0::
448,192,143440,1,0,0:0:0:0::
192,192,143505,1,0,0:0:0:0::
448,192,143570,1,0,0:0:0:0::
64,192,143570,1,0,0:0:0:0::
320,192,143636,1,0,0:0:0:0::
448,192,143701,1,0,0:0:0:0::
192,192,143701,1,0,0:0:0:0::
320,192,143767,1,0,0:0:0:0::
448,192,143832,1,0,0:0:0:0::
64,192,143832,1,0,0:0:0:0::
192,192,143898,1,0,0:0:0:0::
64,192,143963,1,0,0:0:0:0::
448,192,143963,1,0,0:0:0:0::
320,192,144030,1,0,0:0:0:0::
64,192,144095,1,0,0:0:0:0::
448,192,144095,1,0,0:0:0:0::
192,192,144160,1,0,0:0:0:0::
320,192,144226,1,0,0:0:0:0::
64,192,144226,1,0,0:0:0:0::
448,192,144226,1,0,0:0:0:0::
192,192,144291,1,0,0:0:0:0::
64,192,144357,1,0,0:0:0:0::
448,192,144357,1,0,0:0:0:0::
192,192,144422,1,0,0:0:0:0::
64,192,144488,1,0,0:0:0:0::
448,192,144488,1,0,0:0:0:0::
320,192,144554,1,0,0:0:0:0::
64,192,144620,1,0,0:0:0:0::
192,192,144620,1,0,0:0:0:0::
448,192,144620,1,0,0:0:0:0::
320,192,144685,1,0,0:0:0:0::
64,192,144750,1,0,0:0:0:0::
192,192,144750,1,0,0:0:0:0::
320,192,144816,1,0,0:0:0:0::
192,192,144881,1,0,0:0:0:0::
448,192,144881,1,0,0:0:0:0::
64,192,144947,1,0,0:0:0:0::
192,192,145012,1,0,0:0:0:0::
320,192,145012,1,0,0:0:0:0::
448,192,145078,1,0,0:0:0:0::
64,192,145078,1,0,0:0:0:0::
192,192,145144,1,0,0:0:0:0::
320,192,145144,1,0,0:0:0:0::
64,192,145210,1,0,0:0:0:0::
448,192,145275,1,0,0:0:0:0::
64,192,145340,1,0,0:0:0:0::
192,192,145406,1,0,0:0:0:0::
320,192,145406,1,0,0:0:0:0::
448,192,145406,1,0,0:0:0:0::
64,192,145471,1,0,0:0:0:0::
192,192,145537,1,0,0:0:0:0::
448,192,145537,1,0,0:0:0:0::
320,192,145602,1,0,0:0:0:0::
64,192,145668,1,0,0:0:0:0::
448,192,145668,1,0,0:0:0:0::
192,192,145668,1,0,0:0:0:0::
64,192,145800,1,0,0:0:0:0::
192,192,145800,1,0,0:0:0:0::
320,192,145865,1,0,0:0:0:0::
448,192,145865,1,0,0:0:0:0::
64,192,145930,1,0,0:0:0:0::
192,192,145930,1,0,0:0:0:0::
64,192,146061,1,0,0:0:0:0::
192,192,146061,1,0,0:0:0:0::
320,192,146192,1,0,0:0:0:0::
448,192,146192,1,0,0:0:0:0::
192,192,146192,1,0,0:0:0:0::
320,192,146324,1,0,0:0:0:0::
448,192,146324,1,0,0:0:0:0::
64,192,146455,1,0,0:0:0:0::
320,192,146455,1,0,0:0:0:0::
448,192,146455,1,0,0:0:0:0::
320,192,146586,1,0,0:0:0:0::
192,192,146586,1,0,0:0:0:0::
64,192,146651,1,0,0:0:0:0::
448,192,146651,1,0,0:0:0:0::
192,192,146733,1,0,0:0:0:0::
448,192,146760,1,0,0:0:0:0::
320,192,146805,1,0,0:0:0:0::
192,192,146849,1,0,0:0:0:0::
64,192,146892,1,0,0:0:0:0::
448,192,146892,1,0,0:0:0:0::
320,192,146892,1,0,0:0:0:0::
192,192,146980,1,0,0:0:0:0::
64,192,146980,1,0,0:0:0:0::
448,192,147241,1,0,0:0:0:0::
320,192,147241,1,0,0:0:0:0::
192,192,147373,1,0,0:0:0:0::
192,192,147504,1,0,0:0:0:0::
320,192,147635,1,0,0:0:0:0::
64,192,147766,1,0,0:0:0:0::
448,192,147897,1,0,0:0:0:0::
192,192,148029,1,0,0:0:0:0::
320,192,148160,1,0,0:0:0:0::
64,192,148290,1,0,0:0:0:0::
320,192,148421,1,0,0:0:0:0::
192,192,148553,1,0,0:0:0:0::
320,192,148684,1,0,0:0:0:0::
192,192,148815,1,0,0:0:0:0::
320,192,148946,1,0,0:0:0:0::
64,192,149078,1,0,0:0:0:0::
192,192,149209,1,0,0:0:0:0::
448,192,149340,1,0,0:0:0:0::
192,192,149470,1,0,0:0:0:0::
64,192,149601,1,0,0:0:0:0::
320,192,149733,1,0,0:0:0:0::
192,192,149864,1,0,0:0:0:0::
64,192,149995,1,0,0:0:0:0::
320,192,150126,1,0,0:0:0:0::
448,192,150258,1,0,0:0:0:0::
192,192,150389,1,0,0:0:0:0::
320,192,150520,1,0,0:0:0:0::
192,192,150650,1,0,0:0:0:0::
192,192,150913,1,0,0:0:0:0::
320,192,151175,1,0,0:0:0:0::
448,192,151175,1,0,0:0:0:0::
64,192,151175,1,0,0:0:0:0::
192,192,151240,1,0,0:0:0:0::
64,192,151306,1,0,0:0:0:0::
448,192,151306,1,0,0:0:0:0::
192,192,151372,1,0,0:0:0:0::
64,192,151438,1,0,0:0:0:0::
448,192,151438,1,0,0:0:0:0::
320,192,151503,1,0,0:0:0:0::
64,192,151569,1,0,0:0:0:0::
192,192,151569,1,0,0:0:0:0::
448,192,151569,1,0,0:0:0:0::
320,192,151634,1,0,0:0:0:0::
64,192,151700,1,0,0:0:0:0::
192,192,151765,1,0,0:0:0:0::
448,192,151830,1,0,0:0:0:0::
64,192,151830,1,0,0:0:0:0::
320,192,151896,1,0,0:0:0:0::
192,192,151962,1,0,0:0:0:0::
448,192,151962,1,0,0:0:0:0::
64,192,152028,1,0,0:0:0:0::
448,192,152093,1,0,0:0:0:0::
320,192,152093,1,0,0:0:0:0::
192,192,152159,1,0,0:0:0:0::
64,192,152224,1,0,0:0:0:0::
448,192,152224,1,0,0:0:0:0::
320,192,152290,1,0,0:0:0:0::
64,192,152355,1,0,0:0:0:0::
192,192,152355,1,0,0:0:0:0::
320,192,152420,1,0,0:0:0:0::
192,192,152487,1,0,0:0:0:0::
64,192,152487,1,0,0:0:0:0::
448,192,152487,1,0,0:0:0:0::
320,192,152552,1,0,0:0:0:0::
192,192,152618,1,0,0:0:0:0::
64,192,152618,1,0,0:0:0:0::
448,192,152618,1,0,0:0:0:0::
320,192,152683,1,0,0:0:0:0::
64,192,152749,1,0,0:0:0:0::
448,192,152749,1,0,0:0:0:0::
320,192,152814,1,0,0:0:0:0::
192,192,152880,1,0,0:0:0:0::
64,192,152880,1,0,0:0:0:0::
64,192,153010,1,0,0:0:0:0::
192,192,153010,1,0,0:0:0:0::
448,192,153010,1,0,0:0:0:0::
192,192,153142,1,0,0:0:0:0::
320,192,153142,1,0,0:0:0:0::
64,192,153142,1,0,0:0:0:0::
320,192,153273,1,0,0:0:0:0::
448,192,153273,1,0,0:0:0:0::
64,192,153404,1,0,0:0:0:0::
320,192,153404,1,0,0:0:0:0::
448,192,153404,1,0,0:0:0:0::
192,192,153470,1,0,0:0:0:0::
64,192,153535,1,0,0:0:0:0::
320,192,153600,1,0,0:0:0:0::
64,192,153667,1,0,0:0:0:0::
192,192,153667,1,0,0:0:0:0::
448,192,153667,1,0,0:0:0:0::
320,192,153732,1,0,0:0:0:0::
448,192,153798,1,0,0:0:0:0::
192,192,153863,1,0,0:0:0:0::
320,192,153929,1,0,0:0:0:0::
448,192,153929,1,0,0:0:0:0::
64,192,153929,1,0,0:0:0:0::
192,192,153994,1,0,0:0:0:0::
320,192,154060,1,0,0:0:0:0::
64,192,154060,1,0,0:0:0:0::
448,192,154060,1,0,0:0:0:0::
192,192,154125,1,0,0:0:0:0::
320,192,154191,1,0,0:0:0:0::
448,192,154191,1,0,0:0:0:0::
192,192,154257,1,0,0:0:0:0::
64,192,154322,1,0,0:0:0:0::
448,192,154322,1,0,0:0:0:0::
192,192,154388,1,0,0:0:0:0::
448,192,154453,1,0,0:0:0:0::
320,192,154453,1,0,0:0:0:0::
64,192,154519,1,0,0:0:0:0::
192,192,154519,1,0,0:0:0:0::
320,192,154584,1,0,0:0:0:0::
448,192,154650,1,0,0:0:0:0::
64,192,154715,1,0,0:0:0:0::
320,192,154715,1,0,0:0:0:0::
192,192,154781,1,0,0:0:0:0::
320,192,154847,1,0,0:0:0:0::
448,192,154847,1,0,0:0:0:0::
64,192,154912,1,0,0:0:0:0::
192,192,154912,1,0,0:0:0:0::
448,192,154978,1,0,0:0:0:0::
320,192,154978,1,0,0:0:0:0::
192,192,155043,1,0,0:0:0:0::
64,192,155109,128,0,155305:0:0:0:0:
320,192,155109,128,0,155305:0:0:0:0:
448,192,155109,128,0,155371:0:0:0:0:
64,192,155371,128,0,155568:0:0:0:0:
192,192,155371,128,0,155502:0:0:0:0:
320,192,155502,128,0,155568:0:0:0:0:
64,192,155633,128,0,155764:0:0:0:0:
192,192,155633,1,0,0:0:0:0::
448,192,155633,128,0,155764:0:0:0:0:
192,192,155764,128,0,155808:0:0:0:0:
320,192,155896,1,0,0:0:0:0::
192,192,155896,128,0,156092:0:0:0:0:
448,192,155896,128,0,156092:0:0:0:0:
64,192,156158,128,0,156289:0:0:0:0:
448,192,156158,128,0,156289:0:0:0:0:
192,192,156158,1,0,0:0:0:0::
192,192,156289,128,0,156354:0:0:0:0:
320,192,156289,128,0,156354:0:0:0:0:
192,192,156420,128,0,156617:0:0:0:0:
448,192,156420,1,0,0:0:0:0::
64,192,156420,128,0,156617:0:0:0:0:
320,192,156551,128,0,156617:0:0:0:0:
64,192,156682,128,0,156813:0:0:0:0:
192,192,156682,1,0,0:0:0:0::
448,192,156682,128,0,156879:0:0:0:0:
320,192,156944,1,0,0:0:0:0::
64,192,156944,128,0,157076:0:0:0:0:
192,192,156944,128,0,157141:0:0:0:0:
448,192,156944,128,0,157207:0:0:0:0:
320,192,157076,128,0,157141:0:0:0:0:
192,192,157207,128,0,157272:0:0:0:0:
64,192,157207,128,0,157272:0:0:0:0:
320,192,157207,128,0,157403:0:0:0:0:
64,192,157338,128,0,157403:0:0:0:0:
192,192,157338,128,0,157600:0:0:0:0:
320,192,157469,128,0,157600:0:0:0:0:
448,192,157469,128,0,157556:0:0:0:0:
192,192,157731,128,0,157862:0:0:0:0:
64,192,157731,128,0,157862:0:0:0:0:
448,192,157731,128,0,157819:0:0:0:0:
320,192,157862,1,0,0:0:0:0::
64,192,157993,128,0,158124:0:0:0:0:
192,192,157993,128,0,158124:0:0:0:0:
448,192,157993,128,0,158124:0:0:0:0:
320,192,158190,1,0,0:0:0:0::
192,192,158256,128,0,158321:0:0:0:0:
64,192,158256,128,0,158321:0:0:0:0:
448,192,158256,128,0,158321:0:0:0:0:
192,192,158387,128,0,158452:0:0:0:0:
448,192,158452,128,0,158518:0:0:0:0:
192,192,158518,128,0,158583:0:0:0:0:
64,192,158518,1,0,0:0:0:0::
320,192,158518,128,0,158649:0:0:0:0:
64,192,158649,128,0,158681:0:0:0:0:
192,192,158714,128,0,158780:0:0:0:0:
320,192,158780,128,0,158813:0:0:0:0:
448,192,158780,128,0,158911:0:0:0:0:
64,192,158780,128,0,158813:0:0:0:0:
64,192,158911,128,0,158977:0:0:0:0:
320,192,159042,128,0,159305:0:0:0:0:
64,192,159042,128,0,159305:0:0:0:0:
448,192,159042,128,0,159305:0:0:0:0:
