osu file format v14

[General]
AudioFilename: audio_0.9.mp3
AudioLeadIn: 0
PreviewTime: 157981
Countdown: 0
SampleSet: Soft
StackLeniency: 0.7
Mode: 3
LetterboxInBreaks: 0
SpecialStyle: 0
WidescreenStoryboard: 1

[Editor]
DistanceSpacing: 0.7
BeatDivisor: 4
GridSize: 8
TimelineZoom: 2.6

[Metadata]
Title:fun TIME
TitleUnicode:fun TIME
Artist:Kobaryo
ArtistUnicode:Kobaryo
Creator:hA2Z1-_-
Version:Happy, fun, laughter x0.9
Source:
Tags:
BeatmapID:-1
BeatmapSetID:-1

[Difficulty]
HPDrainRate:7.5
CircleSize:4
OverallDifficulty:8
ApproachRate:5
SliderMultiplier:1.4
SliderTickRate:1

[Events]
//Background and Video events
0,0,"3432.png",0,0
//Break Periods
//Storyboard Layer 0 (Background)
//Storyboard Layer 1 (Fail)
//Storyboard Layer 2 (Pass)
//Storyboard Layer 3 (Foreground)
//Storyboard Layer 4 (Overlay)
//Storyboard Sound Samples

[TimingPoints]
155,320.513339572482,4,2,1,20,1,0

[HitObjects]
320,192,154,5,0,0:0:0:0::
192,192,314,1,0,0:0:0:0::
448,192,475,1,0,0:0:0:0::
448,192,635,1,0,0:0:0:0::
64,192,795,1,0,0:0:0:0::
448,192,955,1,0,0:0:0:0::
64,192,1115,1,0,0:0:0:0::
448,192,1276,1,0,0:0:0:0::
64,192,1436,1,0,0:0:0:0::
320,192,1596,1,0,0:0:0:0::
448,192,1756,1,0,0:0:0:0::
64,192,1917,1,0,0:0:0:0::
448,192,2077,1,0,0:0:0:0::
64,192,2237,1,0,0:0:0:0::
448,192,2397,1,0,0:0:0:0::
192,192,2558,1,0,0:0:0:0::
320,192,2718,1,0,0:0:0:0::
64,192,2878,1,0,0:0:0:0::
320,192,3038,1,0,0:0:0:0::
64,192,3198,1,0,0:0:0:0::
320,192,3360,1,0,0:0:0:0::
64,192,3520,1,0,0:0:0:0::
64,192,3680,1,0,0:0:0:0::
320,192,3840,1,0,0:0:0:0::
64,192,4001,1,0,0:0:0:0::
192,192,4161,1,0,0:0:0:0::
64,192,4321,1,0,0:0:0:0::
64,192,4481,1,0,0:0:0:0::
320,192,4642,1,0,0:0:0:0::
192,192,4802,1,0,0:0:0:0::
64,192,4962,1,0,0:0:0:0::
192,192,5122,1,0,0:0:0:0::
320,192,5282,1,0,0:0:0:0::
448,192,5282,1,0,0:0:0:0::
192,192,5443,1,0,0:0:0:0::
64,192,5603,1,0,0:0:0:0::
448,192,5763,1,0,0:0:0:0::
320,192,5923,1,0,0:0:0:0::
192,192,6084,1,0,0:0:0:0::
448,192,6244,1,0,0:0:0:0::
192,192,6404,1,0,0:0:0:0::
64,192,6564,1,0,0:0:0:0::
320,192,6564,1,0,0:0:0:0::
192,192,6725,1,0,0:0:0:0::
320,192,6885,1,0,0:0:0:0::
448,192,7045,1,0,0:0:0:0::
192,192,7205,1,0,0:0:0:0::
320,192,7365,1,0,0:0:0:0::
192,192,7526,1,0,0:0:0:0::
64,192,7686,1,0,0:0:0:0::
320,192,7846,1,0,0:0:0:0::
448,192,7846,1,0,0:0:0:0::
192,192,8006,1,0,0:0:0:0::
64,192,8167,1,0,0:0:0:0::
192,192,8327,1,0,0:0:0:0::
448,192,8487,1,0,0:0:0:0::
320,192,8647,1,0,0:0:0:0::
192,192,8808,1,0,0:0:0:0::
448,192,8968,1,0,0:0:0:0::
192,192,9128,1,0,0:0:0:0::
192,192,9288,1,0,0:0:0:0::
448,192,9448,1,0,0:0:0:0::
320,192,9610,1,0,0:0:0:0::
192,192,9770,1,0,0:0:0:0::
64,192,10090,1,0,0:0:0:0::
64,192,10411,1,0,0:0:0:0::
448,192,10411,1,0,0:0:0:0::
320,192,10411,1,0,0:0:0:0::
320,192,10571,1,0,0:0:0:0::
64,192,10571,1,0,0:0:0:0::
192,192,10651,1,0,0:0:0:0::
320,192,10731,1,0,0:0:0:0::
448,192,10731,1,0,0:0:0:0::
64,192,10811,1,0,0:0:0:0::
320,192,10892,1,0,0:0:0:0::
448,192,10892,1,0,0:0:0:0::
192,192,10972,1,0,0:0:0:0::
320,192,11052,1,0,0:0:0:0::
448,192,11052,1,0,0:0:0:0::
64,192,11132,1,0,0:0:0:0::
448,192,11212,1,0,0:0:0:0::
192,192,11212,1,0,0:0:0:0::
64,192,11292,1,0,0:0:0:0::
320,192,11372,1,0,0:0:0:0::
448,192,11372,1,0,0:0:0:0::
192,192,11452,1,0,0:0:0:0::
64,192,11532,1,0,0:0:0:0::
320,192,11613,1,0,0:0:0:0::
192,192,11613,1,0,0:0:0:0::
64,192,11693,1,0,0:0:0:0::
448,192,11693,1,0,0:0:0:0::
192,192,11773,1,0,0:0:0:0::
320,192,11853,1,0,0:0:0:0::
448,192,11853,1,0,0:0:0:0::
192,192,11933,1,0,0:0:0:0::
64,192,12013,1,0,0:0:0:0::
448,192,12013,1,0,0:0:0:0::
320,192,12093,1,0,0:0:0:0::
64,192,12173,1,0,0:0:0:0::
448,192,12173,1,0,0:0:0:0::
192,192,12254,1,0,0:0:0:0::
64,192,12334,1,0,0:0:0:0::
320,192,12334,1,0,0:0:0:0::
448,192,12334,1,0,0:0:0:0::
192,192,12414,1,0,0:0:0:0::
64,192,12494,1,0,0:0:0:0::
448,192,12494,1,0,0:0:0:0::
320,192,12574,1,0,0:0:0:0::
64,192,12654,1,0,0:0:0:0::
192,192,12654,1,0,0:0:0:0::
448,192,12654,1,0,0:0:0:0::
320,192,12814,1,0,0:0:0:0::
192,192,12814,1,0,0:0:0:0::
448,192,12975,1,0,0:0:0:0::
64,192,12975,1,0,0:0:0:0::
320,192,12975,1,0,0:0:0:0::
64,192,13135,1,0,0:0:0:0::
192,192,13135,1,0,0:0:0:0::
448,192,13215,1,0,0:0:0:0::
64,192,13295,1,0,0:0:0:0::
320,192,13295,1,0,0:0:0:0::
192,192,13375,1,0,0:0:0:0::
64,192,13455,1,0,0:0:0:0::
320,192,13455,1,0,0:0:0:0::
448,192,13455,1,0,0:0:0:0::
192,192,13535,1,0,0:0:0:0::
64,192,13615,1,0,0:0:0:0::
448,192,13696,1,0,0:0:0:0::
320,192,13776,1,0,0:0:0:0::
64,192,13776,1,0,0:0:0:0::
192,192,13856,1,0,0:0:0:0::
448,192,13936,1,0,0:0:0:0::
64,192,13936,1,0,0:0:0:0::
320,192,13936,1,0,0:0:0:0::
192,192,14016,1,0,0:0:0:0::
64,192,14096,1,0,0:0:0:0::
448,192,14096,1,0,0:0:0:0::
320,192,14176,1,0,0:0:0:0::
64,192,14256,1,0,0:0:0:0::
448,192,14256,1,0,0:0:0:0::
192,192,14337,1,0,0:0:0:0::
320,192,14417,1,0,0:0:0:0::
448,192,14417,1,0,0:0:0:0::
192,192,14497,1,0,0:0:0:0::
448,192,14577,1,0,0:0:0:0::
64,192,14577,1,0,0:0:0:0::
320,192,14657,1,0,0:0:0:0::
192,192,14737,1,0,0:0:0:0::
448,192,14737,1,0,0:0:0:0::
64,192,14737,1,0,0:0:0:0::
320,192,14817,1,0,0:0:0:0::
64,192,14897,1,0,0:0:0:0::
192,192,14897,1,0,0:0:0:0::
320,192,14977,1,0,0:0:0:0::
448,192,14977,1,0,0:0:0:0::
64,192,15058,1,0,0:0:0:0::
192,192,15058,1,0,0:0:0:0::
320,192,15138,1,0,0:0:0:0::
64,192,15218,1,0,0:0:0:0::
192,192,15218,1,0,0:0:0:0::
448,192,15218,1,0,0:0:0:0::
320,192,15378,1,0,0:0:0:0::
448,192,15378,1,0,0:0:0:0::
192,192,15458,1,0,0:0:0:0::
64,192,15458,1,0,0:0:0:0::
320,192,15538,1,0,0:0:0:0::
448,192,15538,1,0,0:0:0:0::
64,192,15698,1,0,0:0:0:0::
448,192,15698,1,0,0:0:0:0::
192,192,15860,1,0,0:0:0:0::
448,192,15860,1,0,0:0:0:0::
320,192,15940,1,0,0:0:0:0::
64,192,16020,1,0,0:0:0:0::
448,192,16020,1,0,0:0:0:0::
320,192,16180,1,0,0:0:0:0::
448,192,16180,1,0,0:0:0:0::
192,192,16260,1,0,0:0:0:0::
64,192,16340,1,0,0:0:0:0::
320,192,16421,1,0,0:0:0:0::
448,192,16421,1,0,0:0:0:0::
64,192,16501,1,0,0:0:0:0::
192,192,16501,1,0,0:0:0:0::
448,192,16581,1,0,0:0:0:0::
64,192,16661,1,0,0:0:0:0::
320,192,16661,1,0,0:0:0:0::
192,192,16741,1,0,0:0:0:0::
320,192,16821,1,0,0:0:0:0::
448,192,16821,1,0,0:0:0:0::
192,192,16901,1,0,0:0:0:0::
64,192,16981,1,0,0:0:0:0::
448,192,16981,1,0,0:0:0:0::
320,192,17061,1,0,0:0:0:0::
64,192,17142,1,0,0:0:0:0::
192,192,17142,1,0,0:0:0:0::
320,192,17222,1,0,0:0:0:0::
64,192,17302,1,0,0:0:0:0::
192,192,17302,1,0,0:0:0:0::
448,192,17302,1,0,0:0:0:0::
320,192,17382,1,0,0:0:0:0::
448,192,17462,1,0,0:0:0:0::
64,192,17462,1,0,0:0:0:0::
192,192,17542,1,0,0:0:0:0::
320,192,17542,1,0,0:0:0:0::
64,192,17622,1,0,0:0:0:0::
448,192,17622,1,0,0:0:0:0::
64,192,17782,1,0,0:0:0:0::
192,192,17782,1,0,0:0:0:0::
320,192,17782,1,0,0:0:0:0::
448,192,17782,1,0,0:0:0:0::
64,192,17943,1,0,0:0:0:0::
192,192,17943,1,0,0:0:0:0::
320,192,17943,1,0,0:0:0:0::
320,192,18103,1,0,0:0:0:0::
448,192,18103,1,0,0:0:0:0::
192,192,18183,1,0,0:0:0:0::
448,192,18263,1,0,0:0:0:0::
64,192,18263,1,0,0:0:0:0::
192,192,18343,1,0,0:0:0:0::
64,192,18423,1,0,0:0:0:0::
320,192,18423,1,0,0:0:0:0::
448,192,18504,1,0,0:0:0:0::
64,192,18584,1,0,0:0:0:0::
192,192,18584,1,0,0:0:0:0::
320,192,18584,1,0,0:0:0:0::
448,192,18664,1,0,0:0:0:0::
192,192,18744,1,0,0:0:0:0::
320,192,18744,1,0,0:0:0:0::
64,192,18824,1,0,0:0:0:0::
448,192,18904,1,0,0:0:0:0::
192,192,18904,1,0,0:0:0:0::
320,192,18984,1,0,0:0:0:0::
64,192,19064,1,0,0:0:0:0::
192,192,19064,1,0,0:0:0:0::
448,192,19064,1,0,0:0:0:0::
320,192,19225,1,0,0:0:0:0::
448,192,19225,1,0,0:0:0:0::
192,192,19305,1,0,0:0:0:0::
64,192,19385,1,0,0:0:0:0::
320,192,19465,1,0,0:0:0:0::
448,192,19465,1,0,0:0:0:0::
64,192,19545,1,0,0:0:0:0::
192,192,19545,1,0,0:0:0:0::
320,192,19625,1,0,0:0:0:0::
448,192,19625,1,0,0:0:0:0::
64,192,19705,1,0,0:0:0:0::
192,192,19705,1,0,0:0:0:0::
320,192,19785,1,0,0:0:0:0::
64,192,19865,1,0,0:0:0:0::
192,192,19865,1,0,0:0:0:0::
448,192,19865,1,0,0:0:0:0::
192,192,20026,1,0,0:0:0:0::
64,192,20026,1,0,0:0:0:0::
448,192,20106,1,0,0:0:0:0::
320,192,20106,1,0,0:0:0:0::
64,192,20186,1,0,0:0:0:0::
192,192,20186,1,0,0:0:0:0::
448,192,20346,128,0,20587:0:0:0:0:
320,192,20346,128,0,20587:0:0:0:0:
192,192,20346,128,0,20587:0:0:0:0:
64,192,20346,1,0,0:0:0:0::
320,192,20667,128,0,20907:0:0:0:0:
448,192,20667,128,0,20907:0:0:0:0:
192,192,20987,128,0,21227:0:0:0:0:
64,192,20987,128,0,21227:0:0:0:0:
448,192,20987,1,0,0:0:0:0::
192,192,21308,128,0,21548:0:0:0:0:
64,192,21308,128,0,21548:0:0:0:0:
448,192,21308,1,0,0:0:0:0::
320,192,21308,1,0,0:0:0:0::
64,192,21628,128,0,21868:0:0:0:0:
320,192,21628,1,0,0:0:0:0::
192,192,21628,128,0,21868:0:0:0:0:
448,192,21950,1,0,0:0:0:0::
64,192,21950,128,0,22190:0:0:0:0:
192,192,21950,128,0,22190:0:0:0:0:
320,192,21950,1,0,0:0:0:0::
64,192,22270,128,0,22510:0:0:0:0:
192,192,22270,128,0,22510:0:0:0:0:
320,192,22270,1,0,0:0:0:0::
64,192,22590,128,0,22831:0:0:0:0:
192,192,22590,128,0,22831:0:0:0:0:
320,192,22590,1,0,0:0:0:0::
192,192,22911,128,0,23071:0:0:0:0:
320,192,22911,1,0,0:0:0:0::
448,192,22911,128,0,23071:0:0:0:0:
64,192,23071,1,0,0:0:0:0::
320,192,23071,128,0,23472:0:0:0:0:
192,192,23231,1,0,0:0:0:0::
448,192,23231,128,0,23472:0:0:0:0:
320,192,23552,128,0,23752:0:0:0:0:
64,192,23552,1,0,0:0:0:0::
448,192,23552,128,0,23752:0:0:0:0:
64,192,23872,1,0,0:0:0:0::
448,192,23872,128,0,24033:0:0:0:0:
320,192,23872,128,0,24033:0:0:0:0:
64,192,24193,128,0,24433:0:0:0:0:
320,192,24193,128,0,24433:0:0:0:0:
192,192,24193,1,0,0:0:0:0::
192,192,24513,128,0,24754:0:0:0:0:
448,192,24513,128,0,24754:0:0:0:0:
320,192,24513,1,0,0:0:0:0::
192,192,24834,128,0,25074:0:0:0:0:
320,192,24834,128,0,25074:0:0:0:0:
192,192,25154,128,0,25394:0:0:0:0:
320,192,25154,128,0,25394:0:0:0:0:
192,192,25475,1,0,0:0:0:0::
320,192,25475,128,0,25635:0:0:0:0:
64,192,25475,128,0,25555:0:0:0:0:
64,192,25635,128,0,25715:0:0:0:0:
192,192,25635,128,0,25955:0:0:0:0:
64,192,25795,128,0,25955:0:0:0:0:
320,192,25795,128,0,26035:0:0:0:0:
448,192,25795,1,0,0:0:0:0::
64,192,26116,1,0,0:0:0:0::
320,192,26116,128,0,26356:0:0:0:0:
192,192,26116,128,0,26356:0:0:0:0:
448,192,26436,1,0,0:0:0:0::
64,192,26436,128,0,26676:0:0:0:0:
192,192,26436,128,0,26676:0:0:0:0:
64,192,26756,128,0,26917:0:0:0:0:
448,192,26756,1,0,0:0:0:0::
320,192,26756,128,0,26917:0:0:0:0:
64,192,27077,128,0,27237:0:0:0:0:
192,192,27077,128,0,27237:0:0:0:0:
448,192,27077,128,0,27237:0:0:0:0:
192,192,27397,1,0,0:0:0:0::
320,192,27397,128,0,27638:0:0:0:0:
448,192,27397,128,0,27638:0:0:0:0:
192,192,27718,128,0,27958:0:0:0:0:
320,192,27718,1,0,0:0:0:0::
448,192,27718,1,0,0:0:0:0::
64,192,27718,128,0,27878:0:0:0:0:
64,192,28038,1,0,0:0:0:0::
320,192,28038,128,0,28200:0:0:0:0:
448,192,28038,128,0,28280:0:0:0:0:
64,192,28360,128,0,29561:0:0:0:0:
192,192,28360,1,0,0:0:0:0::
448,192,28360,128,0,28600:0:0:0:0:
320,192,28440,1,0,0:0:0:0::
192,192,28600,1,0,0:0:0:0::
320,192,28680,128,0,28921:0:0:0:0:
192,192,28760,128,0,29561:0:0:0:0:
320,192,29001,128,0,29241:0:0:0:0:
320,192,29321,128,0,29561:0:0:0:0:
448,192,29321,128,0,29561:0:0:0:0:
320,192,29642,1,0,0:0:0:0::
192,192,29642,128,0,29882:0:0:0:0:
64,192,29642,128,0,30202:0:0:0:0:
448,192,29802,128,0,29882:0:0:0:0:
320,192,29962,1,0,0:0:0:0::
448,192,29962,128,0,30122:0:0:0:0:
192,192,30122,128,0,30202:0:0:0:0:
448,192,30202,128,0,30283:0:0:0:0:
320,192,30202,128,0,30283:0:0:0:0:
64,192,30283,1,0,0:0:0:0::
192,192,30283,1,0,0:0:0:0::
320,192,30363,1,0,0:0:0:0::
448,192,30363,1,0,0:0:0:0::
64,192,30443,1,0,0:0:0:0::
192,192,30523,1,0,0:0:0:0::
64,192,30603,128,0,30843:0:0:0:0:
320,192,30603,128,0,30843:0:0:0:0:
448,192,30603,128,0,30843:0:0:0:0:
64,192,30923,1,0,0:0:0:0::
192,192,30923,1,0,0:0:0:0::
448,192,30923,1,0,0:0:0:0::
64,192,31084,1,0,0:0:0:0::
320,192,31084,1,0,0:0:0:0::
192,192,31164,1,0,0:0:0:0::
320,192,31244,1,0,0:0:0:0::
448,192,31244,1,0,0:0:0:0::
64,192,31324,1,0,0:0:0:0::
448,192,31404,1,0,0:0:0:0::
192,192,31404,1,0,0:0:0:0::
320,192,31484,1,0,0:0:0:0::
64,192,31564,1,0,0:0:0:0::
448,192,31564,1,0,0:0:0:0::
192,192,31644,1,0,0:0:0:0::
320,192,31725,1,0,0:0:0:0::
448,192,31778,1,0,0:0:0:0::
192,192,31832,1,0,0:0:0:0::
64,192,31885,1,0,0:0:0:0::
320,192,31938,1,0,0:0:0:0::
448,192,31938,1,0,0:0:0:0::
320,192,32045,1,0,0:0:0:0::
448,192,32045,1,0,0:0:0:0::
192,192,32098,1,0,0:0:0:0::
64,192,32098,1,0,0:0:0:0::
448,192,32152,1,0,0:0:0:0::
64,192,32205,1,0,0:0:0:0::
320,192,32205,1,0,0:0:0:0::
192,192,32285,1,0,0:0:0:0::
64,192,32366,1,0,0:0:0:0::
192,192,32526,1,0,0:0:0:0::
64,192,32526,1,0,0:0:0:0::
448,192,32526,1,0,0:0:0:0::
320,192,32606,1,0,0:0:0:0::
448,192,32686,1,0,0:0:0:0::
192,192,32740,1,0,0:0:0:0::
320,192,32786,1,0,0:0:0:0::
448,192,32846,1,0,0:0:0:0::
64,192,32846,1,0,0:0:0:0::
192,192,32926,1,0,0:0:0:0::
320,192,33006,1,0,0:0:0:0::
448,192,33006,1,0,0:0:0:0::
192,192,33087,1,0,0:0:0:0::
64,192,33167,1,0,0:0:0:0::
448,192,33167,1,0,0:0:0:0::
320,192,33247,1,0,0:0:0:0::
192,192,33247,1,0,0:0:0:0::
64,192,33327,1,0,0:0:0:0::
448,192,33327,1,0,0:0:0:0::
320,192,33407,1,0,0:0:0:0::
64,192,33487,1,0,0:0:0:0::
192,192,33487,1,0,0:0:0:0::
448,192,33487,1,0,0:0:0:0::
448,192,33647,1,0,0:0:0:0::
192,192,33647,1,0,0:0:0:0::
320,192,33727,1,0,0:0:0:0::
64,192,33808,1,0,0:0:0:0::
448,192,33808,1,0,0:0:0:0::
192,192,33888,1,0,0:0:0:0::
448,192,33968,1,0,0:0:0:0::
320,192,33968,1,0,0:0:0:0::
192,192,34022,1,0,0:0:0:0::
64,192,34075,1,0,0:0:0:0::
448,192,34128,1,0,0:0:0:0::
192,192,34128,1,0,0:0:0:0::
320,192,34208,1,0,0:0:0:0::
448,192,34288,1,0,0:0:0:0::
320,192,34368,1,0,0:0:0:0::
192,192,34408,1,0,0:0:0:0::
64,192,34450,1,0,0:0:0:0::
448,192,34450,1,0,0:0:0:0::
320,192,34503,1,0,0:0:0:0::
64,192,34590,1,0,0:0:0:0::
448,192,34610,1,0,0:0:0:0::
320,192,34663,1,0,0:0:0:0::
192,192,34716,1,0,0:0:0:0::
64,192,34770,1,0,0:0:0:0::
320,192,34770,1,0,0:0:0:0::
448,192,34770,1,0,0:0:0:0::
192,192,34930,1,0,0:0:0:0::
320,192,35010,1,0,0:0:0:0::
64,192,35090,1,0,0:0:0:0::
192,192,35090,1,0,0:0:0:0::
448,192,35090,1,0,0:0:0:0::
320,192,35171,1,0,0:0:0:0::
64,192,35251,1,0,0:0:0:0::
448,192,35251,1,0,0:0:0:0::
192,192,35331,1,0,0:0:0:0::
448,192,35411,1,0,0:0:0:0::
320,192,35411,1,0,0:0:0:0::
64,192,35491,1,0,0:0:0:0::
192,192,35571,1,0,0:0:0:0::
448,192,35571,1,0,0:0:0:0::
320,192,35651,1,0,0:0:0:0::
64,192,35731,1,0,0:0:0:0::
448,192,35731,1,0,0:0:0:0::
192,192,35791,1,0,0:0:0:0::
320,192,35852,1,0,0:0:0:0::
448,192,35945,1,0,0:0:0:0::
192,192,35998,1,0,0:0:0:0::
320,192,36052,1,0,0:0:0:0::
64,192,36052,1,0,0:0:0:0::
448,192,36052,1,0,0:0:0:0::
64,192,36212,1,0,0:0:0:0::
192,192,36212,1,0,0:0:0:0::
320,192,36372,1,0,0:0:0:0::
448,192,36372,1,0,0:0:0:0::
64,192,36372,1,0,0:0:0:0::
192,192,36452,1,0,0:0:0:0::
448,192,36533,1,0,0:0:0:0::
64,192,36533,1,0,0:0:0:0::
320,192,36586,1,0,0:0:0:0::
448,192,36640,1,0,0:0:0:0::
64,192,36693,1,0,0:0:0:0::
192,192,36693,1,0,0:0:0:0::
320,192,36773,1,0,0:0:0:0::
64,192,36830,1,0,0:0:0:0::
192,192,36876,1,0,0:0:0:0::
320,192,36922,1,0,0:0:0:0::
448,192,36967,1,0,0:0:0:0::
64,192,37013,1,0,0:0:0:0::
192,192,37058,1,0,0:0:0:0::
320,192,37105,1,0,0:0:0:0::
448,192,37151,1,0,0:0:0:0::
64,192,37196,1,0,0:0:0:0::
192,192,37242,1,0,0:0:0:0::
320,192,37287,1,0,0:0:0:0::
448,192,37334,1,0,0:0:0:0::
64,192,37334,1,0,0:0:0:0::
192,192,37334,1,0,0:0:0:0::
64,192,37534,1,0,0:0:0:0::
192,192,37601,1,0,0:0:0:0::
448,192,37654,1,0,0:0:0:0::
320,192,37654,1,0,0:0:0:0::
192,192,37761,1,0,0:0:0:0::
64,192,37814,1,0,0:0:0:0::
448,192,37867,1,0,0:0:0:0::
192,192,37922,1,0,0:0:0:0::
64,192,37922,1,0,0:0:0:0::
320,192,37975,1,0,0:0:0:0::
448,192,37975,1,0,0:0:0:0::
192,192,38055,1,0,0:0:0:0::
64,192,38135,1,0,0:0:0:0::
320,192,38135,1,0,0:0:0:0::
448,192,38215,1,0,0:0:0:0::
192,192,38295,1,0,0:0:0:0::
64,192,38295,1,0,0:0:0:0::
320,192,38348,1,0,0:0:0:0::
192,192,38402,1,0,0:0:0:0::
64,192,38455,1,0,0:0:0:0::
448,192,38455,1,0,0:0:0:0::
192,192,38508,1,0,0:0:0:0::
320,192,38562,1,0,0:0:0:0::
448,192,38616,1,0,0:0:0:0::
64,192,38616,1,0,0:0:0:0::
320,192,38716,1,0,0:0:0:0::
192,192,38776,1,0,0:0:0:0::
64,192,38830,1,0,0:0:0:0::
448,192,38883,1,0,0:0:0:0::
320,192,38936,1,0,0:0:0:0::
192,192,38936,1,0,0:0:0:0::
64,192,38936,1,0,0:0:0:0::
448,192,39016,1,0,0:0:0:0::
64,192,39096,1,0,0:0:0:0::
320,192,39176,1,0,0:0:0:0::
448,192,39256,1,0,0:0:0:0::
192,192,39256,1,0,0:0:0:0::
64,192,39337,1,0,0:0:0:0::
192,192,39417,1,0,0:0:0:0::
320,192,39497,1,0,0:0:0:0::
64,192,39577,1,0,0:0:0:0::
448,192,39577,1,0,0:0:0:0::
192,192,39657,1,0,0:0:0:0::
64,192,39737,1,0,0:0:0:0::
320,192,39737,1,0,0:0:0:0::
192,192,39897,1,0,0:0:0:0::
320,192,39897,1,0,0:0:0:0::
448,192,39897,1,0,0:0:0:0::
192,192,40218,1,0,0:0:0:0::
64,192,40218,1,0,0:0:0:0::
448,192,40218,1,0,0:0:0:0::
320,192,40378,1,0,0:0:0:0::
64,192,40538,1,0,0:0:0:0::
448,192,40538,1,0,0:0:0:0::
192,192,40618,1,0,0:0:0:0::
320,192,40618,1,0,0:0:0:0::
64,192,40700,1,0,0:0:0:0::
448,192,40700,1,0,0:0:0:0::
64,192,40860,1,0,0:0:0:0::
320,192,40860,128,0,41100:0:0:0:0:
448,192,40860,1,0,0:0:0:0::
192,192,40860,128,0,41100:0:0:0:0:
64,192,41180,1,0,0:0:0:0::
320,192,41180,1,0,0:0:0:0::
448,192,41180,1,0,0:0:0:0::
192,192,41260,1,0,0:0:0:0::
320,192,41340,1,0,0:0:0:0::
192,192,41421,1,0,0:0:0:0::
64,192,41501,128,0,41741:0:0:0:0:
320,192,41501,1,0,0:0:0:0::
448,192,41501,128,0,41581:0:0:0:0:
192,192,41581,1,0,0:0:0:0::
448,192,41661,128,0,41741:0:0:0:0:
320,192,41741,1,0,0:0:0:0::
448,192,41821,1,0,0:0:0:0::
192,192,41821,1,0,0:0:0:0::
64,192,41821,1,0,0:0:0:0::
320,192,41901,1,0,0:0:0:0::
64,192,41981,1,0,0:0:0:0::
448,192,41981,1,0,0:0:0:0::
64,192,42142,1,0,0:0:0:0::
320,192,42142,1,0,0:0:0:0::
448,192,42222,128,0,42355:0:0:0:0:
192,192,42302,1,0,0:0:0:0::
64,192,42302,128,0,42462:0:0:0:0:
320,192,42382,1,0,0:0:0:0::
192,192,42462,1,0,0:0:0:0::
448,192,42462,1,0,0:0:0:0::
64,192,42622,1,0,0:0:0:0::
320,192,42622,1,0,0:0:0:0::
320,192,42783,1,0,0:0:0:0::
448,192,42783,128,0,42943:0:0:0:0:
192,192,42943,1,0,0:0:0:0::
64,192,43023,128,0,43103:0:0:0:0:
320,192,43103,128,0,43183:0:0:0:0:
448,192,43103,1,0,0:0:0:0::
192,192,43183,1,0,0:0:0:0::
64,192,43263,1,0,0:0:0:0::
448,192,43263,128,0,43343:0:0:0:0:
192,192,43343,1,0,0:0:0:0::
64,192,43423,1,0,0:0:0:0::
320,192,43423,128,0,43504:0:0:0:0:
448,192,43504,128,0,43664:0:0:0:0:
64,192,43584,1,0,0:0:0:0::
320,192,43584,128,0,43664:0:0:0:0:
192,192,43664,128,0,43744:0:0:0:0:
448,192,43744,1,0,0:0:0:0::
320,192,43744,1,0,0:0:0:0::
192,192,43824,1,0,0:0:0:0::
64,192,43904,1,0,0:0:0:0::
448,192,43904,1,0,0:0:0:0::
192,192,43984,1,0,0:0:0:0::
64,192,44064,128,0,44225:0:0:0:0:
448,192,44064,1,0,0:0:0:0::
320,192,44144,128,0,44225:0:0:0:0:
192,192,44225,128,0,44305:0:0:0:0:
448,192,44305,1,0,0:0:0:0::
64,192,44385,1,0,0:0:0:0::
320,192,44385,1,0,0:0:0:0::
192,192,44465,1,0,0:0:0:0::
448,192,44545,1,0,0:0:0:0::
64,192,44625,1,0,0:0:0:0::
320,192,44705,128,0,44866:0:0:0:0:
448,192,44705,1,0,0:0:0:0::
192,192,44785,1,0,0:0:0:0::
64,192,44785,1,0,0:0:0:0::
448,192,44866,128,0,45026:0:0:0:0:
192,192,44946,1,0,0:0:0:0::
64,192,45026,1,0,0:0:0:0::
320,192,45026,1,0,0:0:0:0::
448,192,45106,1,0,0:0:0:0::
64,192,45186,1,0,0:0:0:0::
192,192,45186,1,0,0:0:0:0::
320,192,45266,1,0,0:0:0:0::
64,192,45346,128,0,45587:0:0:0:0:
448,192,45346,1,0,0:0:0:0::
192,192,45426,128,0,45506:0:0:0:0:
320,192,45506,1,0,0:0:0:0::
448,192,45587,1,0,0:0:0:0::
192,192,45667,1,0,0:0:0:0::
320,192,45667,1,0,0:0:0:0::
64,192,45747,1,0,0:0:0:0::
320,192,45827,1,0,0:0:0:0::
448,192,45827,1,0,0:0:0:0::
192,192,45907,1,0,0:0:0:0::
320,192,45987,1,0,0:0:0:0::
64,192,45987,128,0,46147:0:0:0:0:
448,192,45987,128,0,46167:0:0:0:0:
192,192,46041,1,0,0:0:0:0::
320,192,46094,1,0,0:0:0:0::
192,192,46147,128,0,46201:0:0:0:0:
320,192,46201,1,0,0:0:0:0::
192,192,46308,1,0,0:0:0:0::
448,192,46308,1,0,0:0:0:0::
64,192,46308,1,0,0:0:0:0::
448,192,46468,1,0,0:0:0:0::
320,192,46548,1,0,0:0:0:0::
192,192,46628,1,0,0:0:0:0::
64,192,46628,128,0,46788:0:0:0:0:
448,192,46628,1,0,0:0:0:0::
320,192,46708,1,0,0:0:0:0::
192,192,46788,1,0,0:0:0:0::
448,192,46868,1,0,0:0:0:0::
64,192,46950,1,0,0:0:0:0::
192,192,46950,1,0,0:0:0:0::
320,192,46950,1,0,0:0:0:0::
448,192,47030,1,0,0:0:0:0::
64,192,47110,128,0,47190:0:0:0:0:
320,192,47190,1,0,0:0:0:0::
192,192,47270,128,0,47350:0:0:0:0:
448,192,47270,128,0,47430:0:0:0:0:
320,192,47350,1,0,0:0:0:0::
192,192,47430,1,0,0:0:0:0::
320,192,47510,128,0,47590:0:0:0:0:
64,192,47590,1,0,0:0:0:0::
192,192,47590,1,0,0:0:0:0::
448,192,47671,1,0,0:0:0:0::
320,192,47751,1,0,0:0:0:0::
192,192,47751,1,0,0:0:0:0::
64,192,47911,1,0,0:0:0:0::
448,192,47911,128,0,48071:0:0:0:0:
192,192,47911,128,0,47951:0:0:0:0:
320,192,47991,1,0,0:0:0:0::
64,192,48071,128,0,48231:0:0:0:0:
192,192,48151,128,0,48231:0:0:0:0:
320,192,48231,1,0,0:0:0:0::
448,192,48231,1,0,0:0:0:0::
192,192,48312,1,0,0:0:0:0::
64,192,48392,1,0,0:0:0:0::
448,192,48392,1,0,0:0:0:0::
320,192,48392,1,0,0:0:0:0::
192,192,48472,1,0,0:0:0:0::
320,192,48552,128,0,48632:0:0:0:0:
448,192,48552,128,0,48632:0:0:0:0:
64,192,48632,128,0,48872:0:0:0:0:
448,192,48712,1,0,0:0:0:0::
320,192,48712,1,0,0:0:0:0::
192,192,48792,1,0,0:0:0:0::
448,192,48872,1,0,0:0:0:0::
320,192,48952,1,0,0:0:0:0::
192,192,49033,1,0,0:0:0:0::
64,192,49033,1,0,0:0:0:0::
320,192,49113,1,0,0:0:0:0::
448,192,49193,128,0,49353:0:0:0:0:
192,192,49193,1,0,0:0:0:0::
64,192,49273,1,0,0:0:0:0::
192,192,49353,1,0,0:0:0:0::
320,192,49353,1,0,0:0:0:0::
192,192,49513,1,0,0:0:0:0::
64,192,49513,1,0,0:0:0:0::
448,192,49513,1,0,0:0:0:0::
320,192,49593,1,0,0:0:0:0::
192,192,49673,1,0,0:0:0:0::
320,192,49754,128,0,49834:0:0:0:0:
448,192,49754,128,0,49994:0:0:0:0:
192,192,49834,128,0,49914:0:0:0:0:
64,192,49834,1,0,0:0:0:0::
320,192,49914,128,0,49994:0:0:0:0:
192,192,49994,128,0,50074:0:0:0:0:
64,192,50074,128,0,50154:0:0:0:0:
320,192,50154,1,0,0:0:0:0::
448,192,50154,1,0,0:0:0:0::
192,192,50234,1,0,0:0:0:0::
320,192,50314,1,0,0:0:0:0::
448,192,50314,1,0,0:0:0:0::
64,192,50475,1,0,0:0:0:0::
192,192,50475,1,0,0:0:0:0::
320,192,50555,1,0,0:0:0:0::
448,192,50635,1,0,0:0:0:0::
64,192,50635,1,0,0:0:0:0::
192,192,50715,1,0,0:0:0:0::
320,192,50715,1,0,0:0:0:0::
64,192,50795,1,0,0:0:0:0::
448,192,50795,1,0,0:0:0:0::
192,192,50875,128,0,50955:0:0:0:0:
64,192,50955,128,0,51035:0:0:0:0:
320,192,51035,128,0,51116:0:0:0:0:
448,192,51035,1,0,0:0:0:0::
192,192,51116,1,0,0:0:0:0::
64,192,51116,128,0,51196:0:0:0:0:
448,192,51196,128,0,51316:0:0:0:0:
320,192,51276,128,0,51356:0:0:0:0:
64,192,51436,1,0,0:0:0:0::
192,192,51436,1,0,0:0:0:0::
448,192,51436,1,0,0:0:0:0::
192,192,51756,1,0,0:0:0:0::
320,192,52077,1,0,0:0:0:0::
64,192,52397,1,0,0:0:0:0::
320,192,52718,1,0,0:0:0:0::
448,192,52718,1,0,0:0:0:0::
192,192,53038,1,0,0:0:0:0::
320,192,53200,1,0,0:0:0:0::
192,192,53360,1,0,0:0:0:0::
448,192,53520,1,0,0:0:0:0::
64,192,53680,1,0,0:0:0:0::
192,192,53840,1,0,0:0:0:0::
320,192,54001,1,0,0:0:0:0::
448,192,54001,1,0,0:0:0:0::
192,192,54321,1,0,0:0:0:0::
320,192,54642,1,0,0:0:0:0::
320,192,54962,1,0,0:0:0:0::
320,192,55283,1,0,0:0:0:0::
192,192,55363,1,0,0:0:0:0::
320,192,55443,1,0,0:0:0:0::
192,192,55523,1,0,0:0:0:0::
448,192,55603,1,0,0:0:0:0::
192,192,55683,1,0,0:0:0:0::
64,192,55763,1,0,0:0:0:0::
320,192,55843,1,0,0:0:0:0::
448,192,55923,1,0,0:0:0:0::
64,192,56004,1,0,0:0:0:0::
320,192,56084,1,0,0:0:0:0::
192,192,56164,1,0,0:0:0:0::
320,192,56244,1,0,0:0:0:0::
448,192,56244,1,0,0:0:0:0::
64,192,56324,1,0,0:0:0:0::
320,192,56404,1,0,0:0:0:0::
192,192,56484,1,0,0:0:0:0::
320,192,56564,1,0,0:0:0:0::
448,192,56564,1,0,0:0:0:0::
448,192,56725,1,0,0:0:0:0::
64,192,56885,1,0,0:0:0:0::
448,192,56885,1,0,0:0:0:0::
192,192,56885,1,0,0:0:0:0::
64,192,57045,1,0,0:0:0:0::
320,192,57045,1,0,0:0:0:0::
64,192,57205,1,0,0:0:0:0::
192,192,57205,1,0,0:0:0:0::
320,192,57205,1,0,0:0:0:0::
192,192,57366,1,0,0:0:0:0::
192,192,57526,1,0,0:0:0:0::
320,192,57526,1,0,0:0:0:0::
448,192,57526,1,0,0:0:0:0::
320,192,57686,1,0,0:0:0:0::
64,192,57846,1,0,0:0:0:0::
448,192,57846,1,0,0:0:0:0::
64,192,58006,1,0,0:0:0:0::
64,192,58167,1,0,0:0:0:0::
192,192,58167,1,0,0:0:0:0::
192,192,58327,1,0,0:0:0:0::
192,192,58487,1,0,0:0:0:0::
448,192,58487,1,0,0:0:0:0::
192,192,58647,1,0,0:0:0:0::
320,192,58647,1,0,0:0:0:0::
192,192,58808,1,0,0:0:0:0::
448,192,58808,1,0,0:0:0:0::
448,192,58968,1,0,0:0:0:0::
64,192,59128,1,0,0:0:0:0::
192,192,59128,1,0,0:0:0:0::
448,192,59128,1,0,0:0:0:0::
320,192,59208,1,0,0:0:0:0::
192,192,59288,1,0,0:0:0:0::
320,192,59368,1,0,0:0:0:0::
64,192,59450,1,0,0:0:0:0::
192,192,59450,1,0,0:0:0:0::
320,192,59530,1,0,0:0:0:0::
448,192,59610,1,0,0:0:0:0::
192,192,59690,1,0,0:0:0:0::
64,192,59770,1,0,0:0:0:0::
320,192,59770,1,0,0:0:0:0::
448,192,59850,1,0,0:0:0:0::
192,192,59930,1,0,0:0:0:0::
448,192,60010,1,0,0:0:0:0::
320,192,60010,1,0,0:0:0:0::
64,192,60090,1,0,0:0:0:0::
192,192,60171,1,0,0:0:0:0::
320,192,60251,1,0,0:0:0:0::
192,192,60331,1,0,0:0:0:0::
320,192,60411,1,0,0:0:0:0::
448,192,60411,1,0,0:0:0:0::
192,192,60491,1,0,0:0:0:0::
64,192,60571,1,0,0:0:0:0::
192,192,60651,1,0,0:0:0:0::
320,192,60731,1,0,0:0:0:0::
448,192,60731,1,0,0:0:0:0::
64,192,60812,1,0,0:0:0:0::
320,192,60892,1,0,0:0:0:0::
448,192,60892,1,0,0:0:0:0::
192,192,60972,1,0,0:0:0:0::
64,192,61052,1,0,0:0:0:0::
448,192,61052,1,0,0:0:0:0::
320,192,61132,1,0,0:0:0:0::
64,192,61212,1,0,0:0:0:0::
448,192,61212,1,0,0:0:0:0::
192,192,61372,1,0,0:0:0:0::
320,192,61372,1,0,0:0:0:0::
64,192,61372,1,0,0:0:0:0::
320,192,61693,1,0,0:0:0:0::
64,192,61693,1,0,0:0:0:0::
192,192,61773,1,0,0:0:0:0::
448,192,61773,128,0,61893:0:0:0:0:
64,192,61853,1,0,0:0:0:0::
320,192,61853,128,0,62013:0:0:0:0:
192,192,62013,1,0,0:0:0:0::
64,192,62013,1,0,0:0:0:0::
448,192,62013,1,0,0:0:0:0::
320,192,62093,1,0,0:0:0:0::
448,192,62173,128,0,62334:0:0:0:0:
64,192,62173,1,0,0:0:0:0::
192,192,62254,1,0,0:0:0:0::
64,192,62334,1,0,0:0:0:0::
320,192,62334,1,0,0:0:0:0::
192,192,62414,1,0,0:0:0:0::
320,192,62494,1,0,0:0:0:0::
448,192,62494,1,0,0:0:0:0::
64,192,62574,128,0,62654:0:0:0:0:
192,192,62574,1,0,0:0:0:0::
448,192,62654,1,0,0:0:0:0::
320,192,62654,128,0,62734:0:0:0:0:
64,192,62734,128,0,62814:0:0:0:0:
192,192,62814,1,0,0:0:0:0::
320,192,62814,1,0,0:0:0:0::
448,192,62895,1,0,0:0:0:0::
192,192,62975,128,0,63075:0:0:0:0:
64,192,62975,1,0,0:0:0:0::
448,192,63135,1,0,0:0:0:0::
320,192,63135,1,0,0:0:0:0::
64,192,63295,1,0,0:0:0:0::
192,192,63295,1,0,0:0:0:0::
448,192,63295,1,0,0:0:0:0::
320,192,63375,1,0,0:0:0:0::
64,192,63455,1,0,0:0:0:0::
448,192,63455,1,0,0:0:0:0::
192,192,63535,1,0,0:0:0:0::
320,192,63616,1,0,0:0:0:0::
448,192,63616,1,0,0:0:0:0::
64,192,63696,1,0,0:0:0:0::
448,192,63776,1,0,0:0:0:0::
64,192,63856,128,0,63936:0:0:0:0:
192,192,63936,128,0,64016:0:0:0:0:
448,192,63936,1,0,0:0:0:0::
320,192,64016,128,0,64176:0:0:0:0:
64,192,64096,128,0,64256:0:0:0:0:
192,192,64176,1,0,0:0:0:0::
320,192,64256,1,0,0:0:0:0::
448,192,64256,1,0,0:0:0:0::
64,192,64337,1,0,0:0:0:0::
320,192,64417,1,0,0:0:0:0::
448,192,64417,128,0,64577:0:0:0:0:
64,192,64577,1,0,0:0:0:0::
192,192,64577,1,0,0:0:0:0::
448,192,64657,128,0,64737:0:0:0:0:
320,192,64737,1,0,0:0:0:0::
64,192,64817,1,0,0:0:0:0::
192,192,64817,1,0,0:0:0:0::
320,192,64897,1,0,0:0:0:0::
448,192,64897,1,0,0:0:0:0::
192,192,64978,1,0,0:0:0:0::
320,192,65058,1,0,0:0:0:0::
448,192,65058,1,0,0:0:0:0::
64,192,65058,1,0,0:0:0:0::
448,192,65218,1,0,0:0:0:0::
64,192,65218,1,0,0:0:0:0::
320,192,65298,128,0,65378:0:0:0:0:
64,192,65378,1,0,0:0:0:0::
192,192,65378,128,0,65458:0:0:0:0:
448,192,65458,1,0,0:0:0:0::
320,192,65538,128,0,65618:0:0:0:0:
64,192,65538,1,0,0:0:0:0::
192,192,65618,1,0,0:0:0:0::
448,192,65700,128,0,65780:0:0:0:0:
320,192,65700,128,0,65780:0:0:0:0:
64,192,65780,128,0,65860:0:0:0:0:
448,192,65860,1,0,0:0:0:0::
192,192,65940,1,0,0:0:0:0::
320,192,66020,1,0,0:0:0:0::
448,192,66020,1,0,0:0:0:0::
320,192,66180,1,0,0:0:0:0::
448,192,66180,128,0,66260:0:0:0:0:
64,192,66260,1,0,0:0:0:0::
192,192,66260,128,0,66340:0:0:0:0:
320,192,66340,128,0,66421:0:0:0:0:
448,192,66340,128,0,66421:0:0:0:0:
192,192,66421,128,0,66501:0:0:0:0:
64,192,66501,1,0,0:0:0:0::
320,192,66501,1,0,0:0:0:0::
448,192,66501,128,0,66581:0:0:0:0:
192,192,66581,1,0,0:0:0:0::
320,192,66661,128,0,66741:0:0:0:0:
448,192,66661,128,0,66821:0:0:0:0:
64,192,66741,1,0,0:0:0:0::
192,192,66821,128,0,66901:0:0:0:0:
320,192,66821,1,0,0:0:0:0::
64,192,66981,1,0,0:0:0:0::
192,192,66981,1,0,0:0:0:0::
320,192,67142,128,0,67222:0:0:0:0:
448,192,67142,128,0,67222:0:0:0:0:
192,192,67222,1,0,0:0:0:0::
64,192,67302,1,0,0:0:0:0::
448,192,67302,1,0,0:0:0:0::
192,192,67382,1,0,0:0:0:0::
320,192,67462,1,0,0:0:0:0::
448,192,67462,1,0,0:0:0:0::
64,192,67462,128,0,67622:0:0:0:0:
192,192,67542,1,0,0:0:0:0::
320,192,67622,1,0,0:0:0:0::
448,192,67622,1,0,0:0:0:0::
192,192,67783,128,0,67943:0:0:0:0:
448,192,67783,1,0,0:0:0:0::
64,192,67783,1,0,0:0:0:0::
320,192,67863,1,0,0:0:0:0::
64,192,67943,128,0,68023:0:0:0:0:
448,192,67943,1,0,0:0:0:0::
192,192,68023,128,0,68103:0:0:0:0:
320,192,68103,128,0,68263:0:0:0:0:
448,192,68103,1,0,0:0:0:0::
192,192,68183,1,0,0:0:0:0::
64,192,68263,1,0,0:0:0:0::
448,192,68263,128,0,68343:0:0:0:0:
192,192,68343,1,0,0:0:0:0::
448,192,68423,1,0,0:0:0:0::
64,192,68423,1,0,0:0:0:0::
320,192,68504,128,0,68584:0:0:0:0:
64,192,68584,1,0,0:0:0:0::
192,192,68584,1,0,0:0:0:0::
64,192,68744,1,0,0:0:0:0::
320,192,68744,1,0,0:0:0:0::
448,192,68744,1,0,0:0:0:0::
192,192,68824,1,0,0:0:0:0::
448,192,68904,1,0,0:0:0:0::
320,192,68904,1,0,0:0:0:0::
64,192,68984,1,0,0:0:0:0::
192,192,69064,1,0,0:0:0:0::
448,192,69064,1,0,0:0:0:0::
320,192,69145,1,0,0:0:0:0::
64,192,69225,1,0,0:0:0:0::
192,192,69225,1,0,0:0:0:0::
448,192,69305,1,0,0:0:0:0::
320,192,69385,1,0,0:0:0:0::
64,192,69385,128,0,69465:0:0:0:0:
192,192,69465,1,0,0:0:0:0::
320,192,69545,1,0,0:0:0:0::
64,192,69545,128,0,69946:0:0:0:0:
448,192,69625,128,0,69705:0:0:0:0:
320,192,69705,128,0,69785:0:0:0:0:
192,192,69705,1,0,0:0:0:0::
448,192,69785,1,0,0:0:0:0::
192,192,69866,128,0,69946:0:0:0:0:
320,192,69946,1,0,0:0:0:0::
448,192,70026,1,0,0:0:0:0::
192,192,70026,1,0,0:0:0:0::
320,192,70106,1,0,0:0:0:0::
64,192,70186,1,0,0:0:0:0::
448,192,70186,1,0,0:0:0:0::
192,192,70266,1,0,0:0:0:0::
320,192,70346,1,0,0:0:0:0::
448,192,70346,1,0,0:0:0:0::
64,192,70426,1,0,0:0:0:0::
320,192,70506,1,0,0:0:0:0::
448,192,70506,1,0,0:0:0:0::
64,192,70587,1,0,0:0:0:0::
448,192,70667,1,0,0:0:0:0::
192,192,70667,1,0,0:0:0:0::
320,192,70747,1,0,0:0:0:0::
64,192,70827,1,0,0:0:0:0::
448,192,70827,1,0,0:0:0:0::
192,192,70907,1,0,0:0:0:0::
64,192,70987,128,0,71187:0:0:0:0:
320,192,70987,1,0,0:0:0:0::
448,192,71067,1,0,0:0:0:0::
320,192,71147,1,0,0:0:0:0::
192,192,71228,1,0,0:0:0:0::
64,192,71308,1,0,0:0:0:0::
448,192,71308,1,0,0:0:0:0::
320,192,71388,1,0,0:0:0:0::
192,192,71468,1,0,0:0:0:0::
320,192,71548,1,0,0:0:0:0::
448,192,71548,1,0,0:0:0:0::
192,192,71628,1,0,0:0:0:0::
64,192,71628,128,0,71708:0:0:0:0:
448,192,71788,1,0,0:0:0:0::
320,192,71788,1,0,0:0:0:0::
64,192,71828,1,0,0:0:0:0::
192,192,71868,1,0,0:0:0:0::
320,192,71910,1,0,0:0:0:0::
448,192,71950,1,0,0:0:0:0::
64,192,71950,1,0,0:0:0:0::
192,192,71950,128,0,72270:0:0:0:0:
64,192,72270,1,0,0:0:0:0::
448,192,72270,1,0,0:0:0:0::
192,192,72350,1,0,0:0:0:0::
64,192,72430,1,0,0:0:0:0::
448,192,72430,1,0,0:0:0:0::
320,192,72510,1,0,0:0:0:0::
192,192,72590,1,0,0:0:0:0::
64,192,72590,1,0,0:0:0:0::
320,192,72671,1,0,0:0:0:0::
448,192,72671,1,0,0:0:0:0::
64,192,72751,1,0,0:0:0:0::
320,192,72831,1,0,0:0:0:0::
192,192,72831,1,0,0:0:0:0::
448,192,72911,1,0,0:0:0:0::
64,192,72911,1,0,0:0:0:0::
192,192,72991,1,0,0:0:0:0::
64,192,73071,1,0,0:0:0:0::
320,192,73151,1,0,0:0:0:0::
448,192,73231,1,0,0:0:0:0::
192,192,73231,1,0,0:0:0:0::
64,192,73312,1,0,0:0:0:0::
192,192,73392,1,0,0:0:0:0::
320,192,73392,1,0,0:0:0:0::
448,192,73472,1,0,0:0:0:0::
64,192,73552,1,0,0:0:0:0::
192,192,73552,1,0,0:0:0:0::
320,192,73632,1,0,0:0:0:0::
192,192,73712,1,0,0:0:0:0::
448,192,73712,1,0,0:0:0:0::
64,192,73792,1,0,0:0:0:0::
448,192,73872,1,0,0:0:0:0::
320,192,73872,1,0,0:0:0:0::
64,192,73952,1,0,0:0:0:0::
192,192,74033,1,0,0:0:0:0::
448,192,74033,1,0,0:0:0:0::
64,192,74113,1,0,0:0:0:0::
192,192,74193,1,0,0:0:0:0::
320,192,74193,1,0,0:0:0:0::
448,192,74193,1,0,0:0:0:0::
64,192,74273,1,0,0:0:0:0::
192,192,74353,1,0,0:0:0:0::
320,192,74353,1,0,0:0:0:0::
64,192,74433,1,0,0:0:0:0::
192,192,74513,1,0,0:0:0:0::
448,192,74513,1,0,0:0:0:0::
320,192,74593,1,0,0:0:0:0::
64,192,74674,1,0,0:0:0:0::
448,192,74674,1,0,0:0:0:0::
192,192,74754,1,0,0:0:0:0::
320,192,74834,128,0,74914:0:0:0:0:
448,192,74834,1,0,0:0:0:0::
64,192,74834,1,0,0:0:0:0::
192,192,74914,1,0,0:0:0:0::
448,192,74994,128,0,75074:0:0:0:0:
64,192,75074,1,0,0:0:0:0::
192,192,75154,1,0,0:0:0:0::
320,192,75154,1,0,0:0:0:0::
448,192,75234,1,0,0:0:0:0::
192,192,75314,1,0,0:0:0:0::
448,192,75395,1,0,0:0:0:0::
320,192,75395,1,0,0:0:0:0::
192,192,75475,1,0,0:0:0:0::
64,192,75475,1,0,0:0:0:0::
320,192,75555,1,0,0:0:0:0::
64,192,75635,1,0,0:0:0:0::
448,192,75715,1,0,0:0:0:0::
320,192,75715,1,0,0:0:0:0::
192,192,75795,1,0,0:0:0:0::
64,192,75795,1,0,0:0:0:0::
320,192,75875,1,0,0:0:0:0::
64,192,75955,1,0,0:0:0:0::
192,192,75955,1,0,0:0:0:0::
448,192,76035,1,0,0:0:0:0::
64,192,76116,1,0,0:0:0:0::
320,192,76116,1,0,0:0:0:0::
192,192,76196,1,0,0:0:0:0::
448,192,76276,1,0,0:0:0:0::
320,192,76276,1,0,0:0:0:0::
64,192,76356,1,0,0:0:0:0::
320,192,76436,1,0,0:0:0:0::
448,192,76436,1,0,0:0:0:0::
192,192,76516,1,0,0:0:0:0::
64,192,76516,1,0,0:0:0:0::
320,192,76596,1,0,0:0:0:0::
448,192,76596,1,0,0:0:0:0::
192,192,76676,1,0,0:0:0:0::
64,192,76757,1,0,0:0:0:0::
320,192,76757,1,0,0:0:0:0::
448,192,76837,1,0,0:0:0:0::
192,192,76917,1,0,0:0:0:0::
320,192,76917,1,0,0:0:0:0::
64,192,76997,1,0,0:0:0:0::
448,192,77077,1,0,0:0:0:0::
192,192,77077,1,0,0:0:0:0::
320,192,77077,1,0,0:0:0:0::
64,192,77157,1,0,0:0:0:0::
192,192,77237,1,0,0:0:0:0::
448,192,77237,1,0,0:0:0:0::
320,192,77317,1,0,0:0:0:0::
64,192,77397,128,0,77558:0:0:0:0:
192,192,77397,1,0,0:0:0:0::
448,192,77397,1,0,0:0:0:0::
320,192,77478,1,0,0:0:0:0::
192,192,77638,1,0,0:0:0:0::
64,192,77718,1,0,0:0:0:0::
320,192,77718,128,0,77958:0:0:0:0:
448,192,77718,128,0,77958:0:0:0:0:
192,192,77878,1,0,0:0:0:0::
64,192,77958,1,0,0:0:0:0::
192,192,78038,1,0,0:0:0:0::
448,192,78038,1,0,0:0:0:0::
320,192,78038,1,0,0:0:0:0::
320,192,78200,1,0,0:0:0:0::
64,192,78200,1,0,0:0:0:0::
448,192,78200,1,0,0:0:0:0::
192,192,78280,1,0,0:0:0:0::
64,192,78360,1,0,0:0:0:0::
320,192,78360,1,0,0:0:0:0::
448,192,78360,1,0,0:0:0:0::
64,192,78520,1,0,0:0:0:0::
448,192,78520,1,0,0:0:0:0::
192,192,78680,128,0,78921:0:0:0:0:
320,192,78680,128,0,78921:0:0:0:0:
448,192,78841,1,0,0:0:0:0::
64,192,79001,1,0,0:0:0:0::
192,192,79001,1,0,0:0:0:0::
448,192,79001,1,0,0:0:0:0::
320,192,79081,1,0,0:0:0:0::
64,192,79161,1,0,0:0:0:0::
192,192,79161,1,0,0:0:0:0::
448,192,79241,1,0,0:0:0:0::
320,192,79241,1,0,0:0:0:0::
64,192,79321,1,0,0:0:0:0::
192,192,79374,1,0,0:0:0:0::
448,192,79427,1,0,0:0:0:0::
64,192,79441,1,0,0:0:0:0::
320,192,79481,1,0,0:0:0:0::
192,192,79535,1,0,0:0:0:0::
64,192,79588,128,0,80102:0:0:0:0:
320,192,79642,1,0,0:0:0:0::
192,192,79642,1,0,0:0:0:0::
448,192,79642,128,0,82205:0:0:0:0:
64,192,80603,1,0,0:0:0:0::
320,192,80924,128,0,83487:0:0:0:0:
64,192,82205,128,0,82793:0:0:0:0:
64,192,83487,128,0,84770:0:0:0:0:
192,192,84770,1,0,0:0:0:0::
320,192,84770,128,0,85571:0:0:0:0:
448,192,84770,128,0,85251:0:0:0:0:
64,192,84930,1,0,0:0:0:0::
192,192,85091,1,0,0:0:0:0::
64,192,85251,1,0,0:0:0:0::
64,192,85411,1,0,0:0:0:0::
448,192,85411,128,0,85571:0:0:0:0:
192,192,85571,1,0,0:0:0:0::
320,192,85731,128,0,85892:0:0:0:0:
448,192,85731,128,0,85892:0:0:0:0:
64,192,85892,1,0,0:0:0:0::
320,192,86052,128,0,86533:0:0:0:0:
448,192,86052,128,0,86212:0:0:0:0:
64,192,86212,1,0,0:0:0:0::
448,192,86372,128,0,87174:0:0:0:0:
64,192,86693,1,0,0:0:0:0::
320,192,86693,128,0,89417:0:0:0:0:
192,192,86853,1,0,0:0:0:0::
64,192,87013,1,0,0:0:0:0::
64,192,87334,1,0,0:0:0:0::
448,192,87334,128,0,87814:0:0:0:0:
192,192,87494,1,0,0:0:0:0::
64,192,87654,1,0,0:0:0:0::
192,192,87814,1,0,0:0:0:0::
64,192,87975,1,0,0:0:0:0::
448,192,87975,128,0,88455:0:0:0:0:
192,192,88135,1,0,0:0:0:0::
64,192,88295,1,0,0:0:0:0::
192,192,88455,1,0,0:0:0:0::
448,192,88616,128,0,88776:0:0:0:0:
64,192,88616,1,0,0:0:0:0::
448,192,88936,128,0,89257:0:0:0:0:
192,192,89096,1,0,0:0:0:0::
64,192,89257,128,0,89417:0:0:0:0:
448,192,89417,128,0,89737:0:0:0:0:
192,192,89577,128,0,89737:0:0:0:0:
64,192,89897,128,0,90058:0:0:0:0:
448,192,89897,128,0,90058:0:0:0:0:
192,192,89897,128,0,90058:0:0:0:0:
448,192,90218,1,0,0:0:0:0::
64,192,90218,128,0,90298:0:0:0:0:
320,192,90218,128,0,90378:0:0:0:0:
448,192,90538,128,0,90700:0:0:0:0:
64,192,90538,128,0,90618:0:0:0:0:
192,192,90538,128,0,90700:0:0:0:0:
320,192,90700,128,0,90780:0:0:0:0:
64,192,90860,1,0,0:0:0:0::
320,192,90860,128,0,90940:0:0:0:0:
448,192,90860,128,0,90940:0:0:0:0:
192,192,90860,128,0,91020:0:0:0:0:
64,192,91020,128,0,91100:0:0:0:0:
192,192,91180,1,0,0:0:0:0::
320,192,91180,128,0,91260:0:0:0:0:
448,192,91180,128,0,91286:0:0:0:0:
192,192,91341,128,0,91421:0:0:0:0:
192,192,91501,128,0,91661:0:0:0:0:
320,192,91501,128,0,91581:0:0:0:0:
448,192,91501,128,0,91607:0:0:0:0:
64,192,91501,128,0,91581:0:0:0:0:
320,192,91661,1,0,0:0:0:0::
192,192,91821,128,0,91901:0:0:0:0:
64,192,91821,128,0,91901:0:0:0:0:
320,192,91821,128,0,91901:0:0:0:0:
192,192,91981,128,0,92062:0:0:0:0:
64,192,92142,128,0,92222:0:0:0:0:
192,192,92142,128,0,92222:0:0:0:0:
448,192,92142,128,0,92222:0:0:0:0:
320,192,92302,128,0,92342:0:0:0:0:
448,192,92302,128,0,92355:0:0:0:0:
320,192,92462,128,0,92542:0:0:0:0:
448,192,92462,128,0,92622:0:0:0:0:
64,192,92462,1,0,0:0:0:0::
192,192,92462,128,0,92542:0:0:0:0:
320,192,92622,128,0,92702:0:0:0:0:
64,192,92622,128,0,92702:0:0:0:0:
320,192,92783,128,0,92863:0:0:0:0:
448,192,92783,128,0,92863:0:0:0:0:
192,192,92783,128,0,92863:0:0:0:0:
192,192,92943,1,0,0:0:0:0::
320,192,92943,128,0,93023:0:0:0:0:
192,192,93103,1,0,0:0:0:0::
64,192,93103,128,0,93183:0:0:0:0:
320,192,93103,128,0,93183:0:0:0:0:
448,192,93103,128,0,93223:0:0:0:0:
192,192,93263,128,0,93316:0:0:0:0:
448,192,93424,128,0,93464:0:0:0:0:
320,192,93424,128,0,93504:0:0:0:0:
64,192,93424,128,0,93504:0:0:0:0:
192,192,93584,1,0,0:0:0:0::
64,192,93584,128,0,93664:0:0:0:0:
448,192,93744,128,0,93824:0:0:0:0:
64,192,93744,128,0,93784:0:0:0:0:
192,192,93744,128,0,93904:0:0:0:0:
320,192,93744,128,0,93824:0:0:0:0:
448,192,93904,128,0,93984:0:0:0:0:
320,192,94064,128,0,94225:0:0:0:0:
448,192,94064,128,0,94145:0:0:0:0:
64,192,94064,128,0,94145:0:0:0:0:
448,192,94385,1,0,0:0:0:0::
64,192,94385,128,0,94465:0:0:0:0:
192,192,94385,128,0,94545:0:0:0:0:
320,192,94545,1,0,0:0:0:0::
448,192,94705,128,0,94785:0:0:0:0:
320,192,94705,128,0,94785:0:0:0:0:
64,192,94705,128,0,94785:0:0:0:0:
64,192,94866,128,0,95186:0:0:0:0:
192,192,94866,1,0,0:0:0:0::
192,192,95026,128,0,95266:0:0:0:0:
320,192,95026,128,0,95186:0:0:0:0:
448,192,95026,1,0,0:0:0:0::
192,192,95346,128,0,95507:0:0:0:0:
320,192,95346,128,0,95426:0:0:0:0:
448,192,95346,128,0,95426:0:0:0:0:
320,192,95507,128,0,95587:0:0:0:0:
64,192,95667,1,0,0:0:0:0::
192,192,95667,128,0,95747:0:0:0:0:
448,192,95667,128,0,95827:0:0:0:0:
320,192,95827,128,0,95987:0:0:0:0:
64,192,95987,128,0,96067:0:0:0:0:
192,192,95987,128,0,96147:0:0:0:0:
448,192,95987,1,0,0:0:0:0::
320,192,96147,128,0,96228:0:0:0:0:
192,192,96308,128,0,96468:0:0:0:0:
320,192,96308,128,0,96388:0:0:0:0:
448,192,96308,128,0,96388:0:0:0:0:
64,192,96308,128,0,96388:0:0:0:0:
320,192,96468,128,0,96522:0:0:0:0:
192,192,96628,128,0,96708:0:0:0:0:
320,192,96628,128,0,96708:0:0:0:0:
448,192,96628,128,0,96708:0:0:0:0:
64,192,96628,1,0,0:0:0:0::
192,192,96788,1,0,0:0:0:0::
192,192,96950,128,0,97030:0:0:0:0:
320,192,96950,128,0,97030:0:0:0:0:
448,192,96950,1,0,0:0:0:0::
64,192,96950,128,0,97030:0:0:0:0:
448,192,97110,128,0,97190:0:0:0:0:
64,192,97270,128,0,97350:0:0:0:0:
192,192,97270,128,0,97390:0:0:0:0:
448,192,97270,128,0,97350:0:0:0:0:
320,192,97430,128,0,97510:0:0:0:0:
192,192,97591,128,0,98071:0:0:0:0:
64,192,98071,128,0,98231:0:0:0:0:
448,192,98231,128,0,98552:0:0:0:0:
192,192,98392,1,0,0:0:0:0::
320,192,98552,128,0,98712:0:0:0:0:
192,192,98712,128,0,99513:0:0:0:0:
64,192,98872,1,0,0:0:0:0::
320,192,99193,1,0,0:0:0:0::
64,192,99513,128,0,100154:0:0:0:0:
448,192,99513,128,0,100154:0:0:0:0:
192,192,100154,1,0,0:0:0:0::
320,192,100154,1,0,0:0:0:0::
320,192,100314,1,0,0:0:0:0::
64,192,100314,1,0,0:0:0:0::
192,192,100395,1,0,0:0:0:0::
64,192,100475,1,0,0:0:0:0::
448,192,100475,1,0,0:0:0:0::
320,192,100555,1,0,0:0:0:0::
64,192,100635,1,0,0:0:0:0::
192,192,100635,1,0,0:0:0:0::
448,192,100635,1,0,0:0:0:0::
192,192,100795,128,0,100955:0:0:0:0:
320,192,100795,128,0,100955:0:0:0:0:
64,192,101116,1,0,0:0:0:0::
192,192,101116,1,0,0:0:0:0::
320,192,101196,1,0,0:0:0:0::
448,192,101196,1,0,0:0:0:0::
64,192,101276,1,0,0:0:0:0::
192,192,101276,1,0,0:0:0:0::
448,192,101436,1,0,0:0:0:0::
192,192,101436,128,0,101596:0:0:0:0:
320,192,101436,128,0,101596:0:0:0:0:
192,192,101757,1,0,0:0:0:0::
64,192,101757,1,0,0:0:0:0::
320,192,101837,1,0,0:0:0:0::
448,192,101837,1,0,0:0:0:0::
64,192,101917,1,0,0:0:0:0::
192,192,101917,1,0,0:0:0:0::
320,192,102077,1,0,0:0:0:0::
448,192,102077,1,0,0:0:0:0::
192,192,102157,1,0,0:0:0:0::
64,192,102237,1,0,0:0:0:0::
448,192,102237,1,0,0:0:0:0::
64,192,102397,1,0,0:0:0:0::
448,192,102397,1,0,0:0:0:0::
192,192,102478,1,0,0:0:0:0::
64,192,102558,1,0,0:0:0:0::
448,192,102558,1,0,0:0:0:0::
320,192,102718,128,0,102878:0:0:0:0:
192,192,102718,128,0,102878:0:0:0:0:
320,192,103038,1,0,0:0:0:0::
448,192,103038,1,0,0:0:0:0::
64,192,103120,1,0,0:0:0:0::
192,192,103120,1,0,0:0:0:0::
320,192,103200,1,0,0:0:0:0::
448,192,103200,1,0,0:0:0:0::
64,192,103360,1,0,0:0:0:0::
448,192,103360,1,0,0:0:0:0::
320,192,103360,1,0,0:0:0:0::
192,192,103440,1,0,0:0:0:0::
64,192,103520,1,0,0:0:0:0::
448,192,103520,1,0,0:0:0:0::
192,192,103680,128,0,103921:0:0:0:0:
320,192,103680,128,0,103921:0:0:0:0:
192,192,104001,1,0,0:0:0:0::
320,192,104001,1,0,0:0:0:0::
448,192,104001,1,0,0:0:0:0::
64,192,104081,1,0,0:0:0:0::
320,192,104161,1,0,0:0:0:0::
192,192,104161,1,0,0:0:0:0::
64,192,104321,128,0,104481:0:0:0:0:
448,192,104321,128,0,104481:0:0:0:0:
192,192,104642,1,0,0:0:0:0::
320,192,104642,1,0,0:0:0:0::
448,192,104722,1,0,0:0:0:0::
192,192,104802,1,0,0:0:0:0::
320,192,104802,1,0,0:0:0:0::
64,192,104962,1,0,0:0:0:0::
448,192,104962,1,0,0:0:0:0::
320,192,105042,1,0,0:0:0:0::
192,192,105042,1,0,0:0:0:0::
64,192,105122,1,0,0:0:0:0::
448,192,105122,1,0,0:0:0:0::
192,192,105283,128,0,105603:0:0:0:0:
320,192,105283,128,0,105603:0:0:0:0:
448,192,105603,1,0,0:0:0:0::
64,192,105603,1,0,0:0:0:0::
192,192,105683,1,0,0:0:0:0::
320,192,105683,1,0,0:0:0:0::
64,192,105763,1,0,0:0:0:0::
448,192,105763,1,0,0:0:0:0::
320,192,105924,1,0,0:0:0:0::
448,192,105924,1,0,0:0:0:0::
192,192,106004,1,0,0:0:0:0::
64,192,106004,1,0,0:0:0:0::
192,192,106084,1,0,0:0:0:0::
320,192,106084,1,0,0:0:0:0::
320,192,106564,1,0,0:0:0:0::
448,192,106564,1,0,0:0:0:0::
64,192,106645,1,0,0:0:0:0::
192,192,106645,1,0,0:0:0:0::
320,192,106725,1,0,0:0:0:0::
448,192,106725,1,0,0:0:0:0::
320,192,106885,128,0,107045:0:0:0:0:
192,192,106885,128,0,107045:0:0:0:0:
448,192,107205,1,0,0:0:0:0::
64,192,107205,1,0,0:0:0:0::
320,192,107286,1,0,0:0:0:0::
64,192,107366,1,0,0:0:0:0::
192,192,107366,1,0,0:0:0:0::
320,192,107526,1,0,0:0:0:0::
448,192,107526,1,0,0:0:0:0::
192,192,107606,1,0,0:0:0:0::
64,192,107606,1,0,0:0:0:0::
320,192,107686,1,0,0:0:0:0::
448,192,107686,1,0,0:0:0:0::
64,192,107846,1,0,0:0:0:0::
448,192,107846,1,0,0:0:0:0::
320,192,107846,1,0,0:0:0:0::
64,192,108327,1,0,0:0:0:0::
192,192,108327,1,0,0:0:0:0::
64,192,108487,1,0,0:0:0:0::
320,192,108487,1,0,0:0:0:0::
448,192,108487,1,0,0:0:0:0::
448,192,108647,1,0,0:0:0:0::
320,192,108647,1,0,0:0:0:0::
64,192,108968,1,0,0:0:0:0::
192,192,108968,1,0,0:0:0:0::
64,192,109288,1,0,0:0:0:0::
320,192,109288,1,0,0:0:0:0::
448,192,109288,1,0,0:0:0:0::
64,192,109450,1,0,0:0:0:0::
192,192,109450,1,0,0:0:0:0::
64,192,109610,1,0,0:0:0:0::
448,192,109610,1,0,0:0:0:0::
320,192,109690,1,0,0:0:0:0::
64,192,109770,1,0,0:0:0:0::
192,192,109770,1,0,0:0:0:0::
448,192,109770,1,0,0:0:0:0::
64,192,109930,1,0,0:0:0:0::
448,192,109930,1,0,0:0:0:0::
192,192,110091,1,0,0:0:0:0::
320,192,110091,1,0,0:0:0:0::
64,192,110251,1,0,0:0:0:0::
448,192,110251,1,0,0:0:0:0::
320,192,110251,1,0,0:0:0:0::
64,192,110411,1,0,0:0:0:0::
192,192,110411,1,0,0:0:0:0::
320,192,110491,1,0,0:0:0:0::
448,192,110571,1,0,0:0:0:0::
64,192,110571,1,0,0:0:0:0::
320,192,110651,1,0,0:0:0:0::
192,192,110731,1,0,0:0:0:0::
448,192,110731,1,0,0:0:0:0::
320,192,110812,1,0,0:0:0:0::
192,192,110892,128,0,111212:0:0:0:0:
448,192,110892,1,0,0:0:0:0::
64,192,111372,1,0,0:0:0:0::
448,192,111372,1,0,0:0:0:0::
192,192,111453,1,0,0:0:0:0::
320,192,111533,1,0,0:0:0:0::
448,192,111533,1,0,0:0:0:0::
64,192,111693,1,0,0:0:0:0::
192,192,111693,128,0,111853:0:0:0:0:
448,192,111693,128,0,111853:0:0:0:0:
64,192,112013,1,0,0:0:0:0::
448,192,112013,1,0,0:0:0:0::
192,192,112093,1,0,0:0:0:0::
320,192,112093,1,0,0:0:0:0::
64,192,112174,1,0,0:0:0:0::
448,192,112174,1,0,0:0:0:0::
320,192,112334,1,0,0:0:0:0::
448,192,112334,1,0,0:0:0:0::
192,192,112414,1,0,0:0:0:0::
64,192,112494,1,0,0:0:0:0::
320,192,112494,1,0,0:0:0:0::
320,192,112654,1,0,0:0:0:0::
448,192,112654,1,0,0:0:0:0::
64,192,112734,1,0,0:0:0:0::
192,192,112814,1,0,0:0:0:0::
320,192,112814,1,0,0:0:0:0::
64,192,113295,1,0,0:0:0:0::
448,192,113295,1,0,0:0:0:0::
320,192,113375,1,0,0:0:0:0::
192,192,113375,1,0,0:0:0:0::
64,192,113455,1,0,0:0:0:0::
448,192,113455,1,0,0:0:0:0::
320,192,113536,1,0,0:0:0:0::
64,192,113616,1,0,0:0:0:0::
192,192,113616,1,0,0:0:0:0::
320,192,113696,1,0,0:0:0:0::
448,192,113696,1,0,0:0:0:0::
64,192,113776,1,0,0:0:0:0::
192,192,113776,1,0,0:0:0:0::
448,192,113936,128,0,114096:0:0:0:0:
320,192,113936,128,0,114096:0:0:0:0:
64,192,114257,1,0,0:0:0:0::
192,192,114257,1,0,0:0:0:0::
320,192,114337,1,0,0:0:0:0::
448,192,114337,1,0,0:0:0:0::
64,192,114417,1,0,0:0:0:0::
192,192,114417,128,0,114737:0:0:0:0:
64,192,114897,1,0,0:0:0:0::
192,192,114897,1,0,0:0:0:0::
448,192,114978,1,0,0:0:0:0::
320,192,114978,1,0,0:0:0:0::
192,192,115058,1,0,0:0:0:0::
64,192,115058,1,0,0:0:0:0::
320,192,115218,1,0,0:0:0:0::
448,192,115218,1,0,0:0:0:0::
64,192,115298,1,0,0:0:0:0::
192,192,115298,1,0,0:0:0:0::
320,192,115378,1,0,0:0:0:0::
448,192,115378,1,0,0:0:0:0::
448,192,115860,1,0,0:0:0:0::
320,192,115860,1,0,0:0:0:0::
64,192,115940,1,0,0:0:0:0::
192,192,115940,1,0,0:0:0:0::
320,192,116020,1,0,0:0:0:0::
448,192,116020,1,0,0:0:0:0::
64,192,116180,1,0,0:0:0:0::
448,192,116180,1,0,0:0:0:0::
192,192,116260,1,0,0:0:0:0::
320,192,116260,1,0,0:0:0:0::
64,192,116341,1,0,0:0:0:0::
448,192,116341,1,0,0:0:0:0::
320,192,116501,128,0,116661:0:0:0:0:
448,192,116501,128,0,116661:0:0:0:0:
448,192,116821,1,0,0:0:0:0::
320,192,116821,1,0,0:0:0:0::
64,192,116901,1,0,0:0:0:0::
192,192,116901,1,0,0:0:0:0::
320,192,116981,1,0,0:0:0:0::
448,192,116981,1,0,0:0:0:0::
64,192,117302,1,0,0:0:0:0::
192,192,117302,1,0,0:0:0:0::
448,192,117462,1,0,0:0:0:0::
320,192,117462,1,0,0:0:0:0::
192,192,117542,1,0,0:0:0:0::
64,192,117542,1,0,0:0:0:0::
320,192,117622,1,0,0:0:0:0::
448,192,117622,1,0,0:0:0:0::
64,192,117783,1,0,0:0:0:0::
448,192,117783,1,0,0:0:0:0::
192,192,117863,1,0,0:0:0:0::
320,192,117863,1,0,0:0:0:0::
64,192,117943,1,0,0:0:0:0::
448,192,117943,1,0,0:0:0:0::
192,192,118023,1,0,0:0:0:0::
320,192,118023,1,0,0:0:0:0::
64,192,118103,128,0,118424:0:0:0:0:
448,192,118103,128,0,118424:0:0:0:0:
320,192,118584,128,0,118904:0:0:0:0:
192,192,118744,128,0,118904:0:0:0:0:
64,192,119064,128,0,119385:0:0:0:0:
192,192,119385,128,0,119866:0:0:0:0:
320,192,119385,128,0,119786:0:0:0:0:
320,192,119866,1,0,0:0:0:0::
448,192,119866,1,0,0:0:0:0::
192,192,119946,1,0,0:0:0:0::
64,192,120026,1,0,0:0:0:0::
320,192,120026,1,0,0:0:0:0::
448,192,120026,1,0,0:0:0:0::
64,192,120186,1,0,0:0:0:0::
192,192,120186,1,0,0:0:0:0::
192,192,120346,1,0,0:0:0:0::
320,192,120346,1,0,0:0:0:0::
64,192,120346,1,0,0:0:0:0::
64,192,120507,1,0,0:0:0:0::
320,192,120507,1,0,0:0:0:0::
448,192,120507,1,0,0:0:0:0::
448,192,120667,1,0,0:0:0:0::
64,192,120667,1,0,0:0:0:0::
192,192,120667,1,0,0:0:0:0::
320,192,120987,1,0,0:0:0:0::
192,192,121308,1,0,0:0:0:0::
320,192,121628,1,0,0:0:0:0::
192,192,121950,1,0,0:0:0:0::
64,192,122110,1,0,0:0:0:0::
192,192,122270,1,0,0:0:0:0::
448,192,122430,1,0,0:0:0:0::
320,192,122591,1,0,0:0:0:0::
64,192,122911,1,0,0:0:0:0::
448,192,123231,1,0,0:0:0:0::
320,192,123231,1,0,0:0:0:0::
320,192,123552,1,0,0:0:0:0::
192,192,123872,1,0,0:0:0:0::
320,192,124033,1,0,0:0:0:0::
64,192,124193,1,0,0:0:0:0::
320,192,124353,1,0,0:0:0:0::
64,192,124513,1,0,0:0:0:0::
448,192,124513,1,0,0:0:0:0::
192,192,124674,1,0,0:0:0:0::
320,192,124674,1,0,0:0:0:0::
448,192,124834,1,0,0:0:0:0::
320,192,124994,1,0,0:0:0:0::
192,192,125154,1,0,0:0:0:0::
320,192,125475,1,0,0:0:0:0::
64,192,125635,1,0,0:0:0:0::
192,192,125635,1,0,0:0:0:0::
320,192,125795,1,0,0:0:0:0::
448,192,125795,1,0,0:0:0:0::
192,192,126116,1,0,0:0:0:0::
320,192,126436,1,0,0:0:0:0::
192,192,126596,1,0,0:0:0:0::
320,192,126757,1,0,0:0:0:0::
192,192,126917,1,0,0:0:0:0::
448,192,127077,1,0,0:0:0:0::
64,192,127077,1,0,0:0:0:0::
64,192,127398,1,0,0:0:0:0::
320,192,127558,1,0,0:0:0:0::
192,192,127718,1,0,0:0:0:0::
320,192,127878,1,0,0:0:0:0::
64,192,128038,1,0,0:0:0:0::
192,192,128200,1,0,0:0:0:0::
320,192,128360,1,0,0:0:0:0::
448,192,128360,1,0,0:0:0:0::
320,192,128680,1,0,0:0:0:0::
192,192,129001,1,0,0:0:0:0::
64,192,129161,1,0,0:0:0:0::
320,192,129321,1,0,0:0:0:0::
320,192,129482,1,0,0:0:0:0::
448,192,129562,1,0,0:0:0:0::
64,192,129642,1,0,0:0:0:0::
192,192,129642,1,0,0:0:0:0::
320,192,129802,1,0,0:0:0:0::
192,192,129962,1,0,0:0:0:0::
320,192,130122,1,0,0:0:0:0::
64,192,130283,1,0,0:0:0:0::
192,192,130443,1,0,0:0:0:0::
448,192,130603,1,0,0:0:0:0::
192,192,130763,1,0,0:0:0:0::
320,192,130924,1,0,0:0:0:0::
64,192,130924,1,0,0:0:0:0::
448,192,130924,1,0,0:0:0:0::
192,192,131244,1,0,0:0:0:0::
320,192,131565,1,0,0:0:0:0::
192,192,131725,1,0,0:0:0:0::
192,192,131885,1,0,0:0:0:0::
64,192,132205,1,0,0:0:0:0::
320,192,132205,1,0,0:0:0:0::
448,192,132205,1,0,0:0:0:0::
192,192,132366,1,0,0:0:0:0::
192,192,132526,1,0,0:0:0:0::
320,192,132686,1,0,0:0:0:0::
448,192,132686,1,0,0:0:0:0::
192,192,132846,1,0,0:0:0:0::
320,192,133007,1,0,0:0:0:0::
448,192,133167,1,0,0:0:0:0::
192,192,133327,1,0,0:0:0:0::
64,192,133487,1,0,0:0:0:0::
320,192,133487,1,0,0:0:0:0::
448,192,133487,1,0,0:0:0:0::
192,192,133968,1,0,0:0:0:0::
192,192,134288,1,0,0:0:0:0::
192,192,134450,1,0,0:0:0:0::
64,192,134770,1,0,0:0:0:0::
320,192,134770,1,0,0:0:0:0::
448,192,134770,1,0,0:0:0:0::
192,192,134930,1,0,0:0:0:0::
320,192,135091,1,0,0:0:0:0::
448,192,135251,1,0,0:0:0:0::
320,192,135411,1,0,0:0:0:0::
320,192,135571,1,0,0:0:0:0::
448,192,135732,1,0,0:0:0:0::
192,192,135892,1,0,0:0:0:0::
64,192,136052,1,0,0:0:0:0::
320,192,136052,1,0,0:0:0:0::
448,192,136052,1,0,0:0:0:0::
192,192,136372,1,0,0:0:0:0::
320,192,136693,1,0,0:0:0:0::
192,192,136853,1,0,0:0:0:0::
448,192,137334,1,0,0:0:0:0::
64,192,137334,1,0,0:0:0:0::
448,192,137815,1,0,0:0:0:0::
320,192,137815,1,0,0:0:0:0::
192,192,138295,1,0,0:0:0:0::
320,192,138455,1,0,0:0:0:0::
448,192,138455,1,0,0:0:0:0::
448,192,138616,1,0,0:0:0:0::
64,192,138616,1,0,0:0:0:0::
192,192,138616,1,0,0:0:0:0::
192,192,138936,1,0,0:0:0:0::
320,192,138936,1,0,0:0:0:0::
64,192,139417,1,0,0:0:0:0::
448,192,139417,1,0,0:0:0:0::
64,192,139898,128,0,139978:0:0:0:0:
320,192,139898,128,0,139978:0:0:0:0:
448,192,139898,128,0,139978:0:0:0:0:
64,192,140058,128,0,140138:0:0:0:0:
192,192,140058,128,0,140138:0:0:0:0:
448,192,140058,128,0,140138:0:0:0:0:
448,192,140218,128,0,140298:0:0:0:0:
64,192,140218,128,0,140298:0:0:0:0:
320,192,140218,1,0,0:0:0:0::
64,192,140378,128,0,140458:0:0:0:0:
192,192,140378,128,0,140538:0:0:0:0:
448,192,140378,128,0,140418:0:0:0:0:
320,192,140538,128,0,140620:0:0:0:0:
448,192,140538,1,0,0:0:0:0::
64,192,140538,128,0,140620:0:0:0:0:
192,192,140700,1,0,0:0:0:0::
448,192,140700,128,0,140780:0:0:0:0:
64,192,140700,1,0,0:0:0:0::
320,192,140700,128,0,140780:0:0:0:0:
64,192,140860,128,0,141020:0:0:0:0:
448,192,140860,128,0,140940:0:0:0:0:
192,192,140860,1,0,0:0:0:0::
192,192,141020,1,0,0:0:0:0::
320,192,141020,1,0,0:0:0:0::
64,192,141180,1,0,0:0:0:0::
192,192,141180,1,0,0:0:0:0::
448,192,141180,1,0,0:0:0:0::
448,192,141341,128,0,141741:0:0:0:0:
64,192,141341,128,0,141741:0:0:0:0:
320,192,141341,128,0,141741:0:0:0:0:
64,192,141821,1,0,0:0:0:0::
192,192,141821,128,0,142382:0:0:0:0:
320,192,141821,1,0,0:0:0:0::
448,192,141821,1,0,0:0:0:0::
320,192,142462,1,0,0:0:0:0::
192,192,142462,128,0,143023:0:0:0:0:
448,192,142462,128,0,142703:0:0:0:0:
64,192,142462,128,0,143023:0:0:0:0:
320,192,142783,128,0,143103:0:0:0:0:
448,192,142783,128,0,143023:0:0:0:0:
64,192,143103,1,0,0:0:0:0::
192,192,143103,1,0,0:0:0:0::
448,192,143103,1,0,0:0:0:0::
192,192,143263,1,0,0:0:0:0::
320,192,143263,128,0,143424:0:0:0:0:
64,192,143424,128,0,143664:0:0:0:0:
192,192,143424,128,0,143664:0:0:0:0:
448,192,143424,1,0,0:0:0:0::
320,192,143744,1,0,0:0:0:0::
448,192,143744,1,0,0:0:0:0::
64,192,143744,1,0,0:0:0:0::
64,192,143984,128,0,144305:0:0:0:0:
320,192,143984,128,0,144305:0:0:0:0:
448,192,143984,128,0,144305:0:0:0:0:
64,192,144385,1,0,0:0:0:0::
448,192,144385,1,0,0:0:0:0::
192,192,144385,1,0,0:0:0:0::
320,192,144385,1,0,0:0:0:0::
320,192,144705,128,0,144946:0:0:0:0:
64,192,144705,128,0,144946:0:0:0:0:
192,192,144705,128,0,144946:0:0:0:0:
192,192,145026,128,0,145266:0:0:0:0:
64,192,145026,1,0,0:0:0:0::
320,192,145026,128,0,145587:0:0:0:0:
448,192,145026,128,0,145266:0:0:0:0:
64,192,145346,128,0,145587:0:0:0:0:
448,192,145346,128,0,145587:0:0:0:0:
192,192,145346,1,0,0:0:0:0::
64,192,145667,1,0,0:0:0:0::
192,192,145667,1,0,0:0:0:0::
320,192,145667,1,0,0:0:0:0::
448,192,145667,1,0,0:0:0:0::
192,192,145827,1,0,0:0:0:0::
320,192,145827,1,0,0:0:0:0::
64,192,145987,128,0,146228:0:0:0:0:
320,192,145987,128,0,146228:0:0:0:0:
64,192,146308,1,0,0:0:0:0::
320,192,146308,128,0,146468:0:0:0:0:
448,192,146308,128,0,146468:0:0:0:0:
192,192,146548,128,0,146870:0:0:0:0:
320,192,146548,128,0,146870:0:0:0:0:
448,192,146548,128,0,146870:0:0:0:0:
64,192,146950,1,0,0:0:0:0::
320,192,146950,1,0,0:0:0:0::
192,192,146950,1,0,0:0:0:0::
448,192,146950,1,0,0:0:0:0::
192,192,147110,1,0,0:0:0:0::
320,192,147110,128,0,147510:0:0:0:0:
64,192,147110,128,0,147510:0:0:0:0:
64,192,147591,1,0,0:0:0:0::
448,192,147591,1,0,0:0:0:0::
192,192,147591,1,0,0:0:0:0::
192,192,147751,128,0,148151:0:0:0:0:
448,192,147751,128,0,148151:0:0:0:0:
64,192,148232,1,0,0:0:0:0::
320,192,148232,1,0,0:0:0:0::
448,192,148232,1,0,0:0:0:0::
192,192,148552,1,0,0:0:0:0::
64,192,148552,128,0,148792:0:0:0:0:
320,192,148552,128,0,148792:0:0:0:0:
64,192,148872,1,0,0:0:0:0::
192,192,148872,1,0,0:0:0:0::
320,192,148872,1,0,0:0:0:0::
448,192,148872,1,0,0:0:0:0::
64,192,149033,128,0,149193:0:0:0:0:
320,192,149033,128,0,149433:0:0:0:0:
192,192,149193,128,0,149433:0:0:0:0:
448,192,149193,128,0,149513:0:0:0:0:
320,192,149513,1,0,0:0:0:0::
64,192,149513,1,0,0:0:0:0::
192,192,149513,1,0,0:0:0:0::
64,192,149674,128,0,150074:0:0:0:0:
192,192,149674,128,0,150074:0:0:0:0:
448,192,149674,1,0,0:0:0:0::
192,192,150154,128,0,150395:0:0:0:0:
320,192,150154,128,0,150715:0:0:0:0:
448,192,150154,128,0,150715:0:0:0:0:
192,192,150475,128,0,150715:0:0:0:0:
64,192,150475,128,0,150715:0:0:0:0:
64,192,150795,1,0,0:0:0:0::
192,192,150795,1,0,0:0:0:0::
320,192,150795,1,0,0:0:0:0::
448,192,150795,1,0,0:0:0:0::
192,192,150955,1,0,0:0:0:0::
320,192,150955,1,0,0:0:0:0::
64,192,151116,128,0,151356:0:0:0:0:
320,192,151116,1,0,0:0:0:0::
192,192,151116,128,0,151356:0:0:0:0:
448,192,151436,1,0,0:0:0:0::
64,192,151436,1,0,0:0:0:0::
320,192,151436,1,0,0:0:0:0::
192,192,151516,1,0,0:0:0:0::
320,192,151596,1,0,0:0:0:0::
448,192,151676,1,0,0:0:0:0::
192,192,151757,1,0,0:0:0:0::
64,192,151757,1,0,0:0:0:0::
320,192,151757,1,0,0:0:0:0::
448,192,151837,1,0,0:0:0:0::
64,192,151917,1,0,0:0:0:0::
192,192,151997,1,0,0:0:0:0::
320,192,152077,1,0,0:0:0:0::
64,192,152077,1,0,0:0:0:0::
448,192,152077,1,0,0:0:0:0::
192,192,152157,1,0,0:0:0:0::
448,192,152237,1,0,0:0:0:0::
64,192,152317,1,0,0:0:0:0::
192,192,152398,1,0,0:0:0:0::
448,192,152398,1,0,0:0:0:0::
320,192,152478,1,0,0:0:0:0::
192,192,152558,1,0,0:0:0:0::
64,192,152638,1,0,0:0:0:0::
448,192,152718,1,0,0:0:0:0::
320,192,152718,1,0,0:0:0:0::
192,192,152798,1,0,0:0:0:0::
448,192,152878,1,0,0:0:0:0::
192,192,152958,1,0,0:0:0:0::
64,192,153038,1,0,0:0:0:0::
320,192,153038,1,0,0:0:0:0::
448,192,153038,1,0,0:0:0:0::
192,192,153120,1,0,0:0:0:0::
448,192,153200,1,0,0:0:0:0::
192,192,153280,1,0,0:0:0:0::
448,192,153360,1,0,0:0:0:0::
64,192,153360,1,0,0:0:0:0::
320,192,153360,1,0,0:0:0:0::
192,192,153440,1,0,0:0:0:0::
64,192,153520,1,0,0:0:0:0::
320,192,153600,1,0,0:0:0:0::
64,192,153680,1,0,0:0:0:0::
192,192,153680,1,0,0:0:0:0::
448,192,153680,1,0,0:0:0:0::
320,192,153761,1,0,0:0:0:0::
64,192,153841,1,0,0:0:0:0::
192,192,153921,1,0,0:0:0:0::
64,192,154001,1,0,0:0:0:0::
320,192,154001,1,0,0:0:0:0::
448,192,154001,1,0,0:0:0:0::
192,192,154081,1,0,0:0:0:0::
448,192,154161,1,0,0:0:0:0::
64,192,154241,1,0,0:0:0:0::
320,192,154241,1,0,0:0:0:0::
448,192,154321,1,0,0:0:0:0::
192,192,154321,1,0,0:0:0:0::
320,192,154401,1,0,0:0:0:0::
64,192,154482,1,0,0:0:0:0::
192,192,154562,1,0,0:0:0:0::
64,192,154642,1,0,0:0:0:0::
320,192,154642,1,0,0:0:0:0::
448,192,154722,1,0,0:0:0:0::
320,192,154802,1,0,0:0:0:0::
192,192,154882,1,0,0:0:0:0::
64,192,154962,1,0,0:0:0:0::
448,192,154962,1,0,0:0:0:0::
192,192,155042,1,0,0:0:0:0::
320,192,155122,1,0,0:0:0:0::
448,192,155203,1,0,0:0:0:0::
64,192,155283,1,0,0:0:0:0::
192,192,155283,1,0,0:0:0:0::
320,192,155283,1,0,0:0:0:0::
448,192,155363,1,0,0:0:0:0::
192,192,155443,1,0,0:0:0:0::
64,192,155523,1,0,0:0:0:0::
448,192,155603,1,0,0:0:0:0::
320,192,155603,1,0,0:0:0:0::
192,192,155603,1,0,0:0:0:0::
64,192,155683,1,0,0:0:0:0::
448,192,155763,1,0,0:0:0:0::
64,192,155844,1,0,0:0:0:0::
192,192,155924,1,0,0:0:0:0::
320,192,155924,1,0,0:0:0:0::
448,192,155924,1,0,0:0:0:0::
64,192,156004,1,0,0:0:0:0::
192,192,156084,1,0,0:0:0:0::
320,192,156164,1,0,0:0:0:0::
448,192,156164,1,0,0:0:0:0::
192,192,156244,1,0,0:0:0:0::
64,192,156244,1,0,0:0:0:0::
448,192,156324,1,0,0:0:0:0::
64,192,156404,1,0,0:0:0:0::
192,192,156484,1,0,0:0:0:0::
64,192,156565,1,0,0:0:0:0::
320,192,156565,1,0,0:0:0:0::
448,192,156565,1,0,0:0:0:0::
320,192,156725,1,0,0:0:0:0::
448,192,156725,1,0,0:0:0:0::
192,192,156725,1,0,0:0:0:0::
448,192,156885,1,0,0:0:0:0::
320,192,156885,1,0,0:0:0:0::
192,192,156965,1,0,0:0:0:0::
64,192,156965,1,0,0:0:0:0::
320,192,157045,1,0,0:0:0:0::
448,192,157045,1,0,0:0:0:0::
64,192,157125,1,0,0:0:0:0::
192,192,157205,1,0,0:0:0:0::
320,192,157205,1,0,0:0:0:0::
448,192,157205,1,0,0:0:0:0::
64,192,157366,1,0,0:0:0:0::
192,192,157366,1,0,0:0:0:0::
448,192,157446,1,0,0:0:0:0::
64,192,157526,1,0,0:0:0:0::
192,192,157526,1,0,0:0:0:0::
320,192,157606,1,0,0:0:0:0::
448,192,157606,1,0,0:0:0:0::
64,192,157686,1,0,0:0:0:0::
192,192,157686,1,0,0:0:0:0::
320,192,157766,1,0,0:0:0:0::
448,192,157766,1,0,0:0:0:0::
64,192,157846,1,0,0:0:0:0::
192,192,157846,1,0,0:0:0:0::
320,192,158007,1,0,0:0:0:0::
448,192,158007,1,0,0:0:0:0::
64,192,158087,1,0,0:0:0:0::
192,192,158087,1,0,0:0:0:0::
448,192,158167,1,0,0:0:0:0::
320,192,158167,1,0,0:0:0:0::
64,192,158247,1,0,0:0:0:0::
192,192,158247,1,0,0:0:0:0::
320,192,158327,1,0,0:0:0:0::
448,192,158327,1,0,0:0:0:0::
64,192,158407,1,0,0:0:0:0::
192,192,158407,1,0,0:0:0:0::
320,192,158487,1,0,0:0:0:0::
448,192,158487,1,0,0:0:0:0::
64,192,158567,1,0,0:0:0:0::
192,192,158567,1,0,0:0:0:0::
320,192,158648,1,0,0:0:0:0::
448,192,158648,1,0,0:0:0:0::
64,192,158728,1,0,0:0:0:0::
192,192,158808,1,0,0:0:0:0::
320,192,158888,1,0,0:0:0:0::
448,192,158968,1,0,0:0:0:0::
64,192,158968,1,0,0:0:0:0::
320,192,159048,1,0,0:0:0:0::
64,192,159128,128,0,160011:0:0:0:0:
448,192,159128,128,0,159370:0:0:0:0:
192,192,159128,128,0,159690:0:0:0:0:
448,192,159450,128,0,160051:0:0:0:0:
320,192,159610,128,0,159850:0:0:0:0:
192,192,159770,128,0,159930:0:0:0:0:
320,192,159930,128,0,160251:0:0:0:0:
64,192,160091,128,0,160251:0:0:0:0:
192,192,160091,128,0,160331:0:0:0:0:
320,192,160411,1,0,0:0:0:0::
64,192,160411,1,0,0:0:0:0::
448,192,160411,1,0,0:0:0:0::
64,192,160571,1,0,0:0:0:0::
320,192,160571,1,0,0:0:0:0::
192,192,160651,1,0,0:0:0:0::
320,192,160732,1,0,0:0:0:0::
448,192,160732,1,0,0:0:0:0::
64,192,160732,1,0,0:0:0:0::
192,192,160892,1,0,0:0:0:0::
64,192,160892,1,0,0:0:0:0::
320,192,160892,1,0,0:0:0:0::
448,192,160972,1,0,0:0:0:0::
64,192,161052,1,0,0:0:0:0::
192,192,161052,1,0,0:0:0:0::
320,192,161052,1,0,0:0:0:0::
448,192,161132,1,0,0:0:0:0::
64,192,161212,1,0,0:0:0:0::
192,192,161212,1,0,0:0:0:0::
320,192,161212,1,0,0:0:0:0::
448,192,161292,1,0,0:0:0:0::
64,192,161372,1,0,0:0:0:0::
192,192,161372,1,0,0:0:0:0::
192,192,161693,1,0,0:0:0:0::
448,192,161693,1,0,0:0:0:0::
320,192,161693,1,0,0:0:0:0::
64,192,161773,1,0,0:0:0:0::
448,192,161853,1,0,0:0:0:0::
192,192,161853,1,0,0:0:0:0::
320,192,161933,1,0,0:0:0:0::
64,192,162013,1,0,0:0:0:0::
192,192,162013,1,0,0:0:0:0::
448,192,162013,1,0,0:0:0:0::
320,192,162094,1,0,0:0:0:0::
64,192,162174,1,0,0:0:0:0::
192,192,162174,1,0,0:0:0:0::
448,192,162254,1,0,0:0:0:0::
192,192,162334,1,0,0:0:0:0::
64,192,162334,1,0,0:0:0:0::
320,192,162334,1,0,0:0:0:0::
448,192,162414,1,0,0:0:0:0::
320,192,162494,1,0,0:0:0:0::
64,192,162494,1,0,0:0:0:0::
192,192,162574,1,0,0:0:0:0::
64,192,162654,1,0,0:0:0:0::
448,192,162654,1,0,0:0:0:0::
320,192,162654,1,0,0:0:0:0::
192,192,162734,1,0,0:0:0:0::
448,192,162815,1,0,0:0:0:0::
64,192,162815,1,0,0:0:0:0::
320,192,162895,1,0,0:0:0:0::
192,192,162975,1,0,0:0:0:0::
448,192,162975,1,0,0:0:0:0::
320,192,163055,1,0,0:0:0:0::
64,192,163135,1,0,0:0:0:0::
448,192,163135,1,0,0:0:0:0::
192,192,163215,1,0,0:0:0:0::
448,192,163295,1,0,0:0:0:0::
320,192,163295,1,0,0:0:0:0::
64,192,163375,1,0,0:0:0:0::
320,192,163455,1,0,0:0:0:0::
192,192,163455,1,0,0:0:0:0::
448,192,163536,1,0,0:0:0:0::
192,192,163616,1,0,0:0:0:0::
64,192,163616,1,0,0:0:0:0::
320,192,163696,1,0,0:0:0:0::
192,192,163776,1,0,0:0:0:0::
448,192,163776,1,0,0:0:0:0::
64,192,163856,1,0,0:0:0:0::
448,192,163936,1,0,0:0:0:0::
320,192,163936,1,0,0:0:0:0::
192,192,164016,1,0,0:0:0:0::
64,192,164096,1,0,0:0:0:0::
320,192,164096,1,0,0:0:0:0::
192,192,164177,1,0,0:0:0:0::
448,192,164257,1,0,0:0:0:0::
320,192,164257,1,0,0:0:0:0::
192,192,164337,1,0,0:0:0:0::
64,192,164417,1,0,0:0:0:0::
192,192,164497,1,0,0:0:0:0::
320,192,164577,1,0,0:0:0:0::
64,192,164577,1,0,0:0:0:0::
448,192,164657,1,0,0:0:0:0::
64,192,164737,1,0,0:0:0:0::
192,192,164737,1,0,0:0:0:0::
320,192,164737,1,0,0:0:0:0::
448,192,164817,1,0,0:0:0:0::
64,192,164898,1,0,0:0:0:0::
192,192,164898,1,0,0:0:0:0::
320,192,164978,1,0,0:0:0:0::
448,192,165058,1,0,0:0:0:0::
192,192,165058,1,0,0:0:0:0::
320,192,165138,1,0,0:0:0:0::
64,192,165218,1,0,0:0:0:0::
192,192,165218,1,0,0:0:0:0::
448,192,165298,1,0,0:0:0:0::
192,192,165378,1,0,0:0:0:0::
320,192,165378,1,0,0:0:0:0::
64,192,165458,1,0,0:0:0:0::
448,192,165538,1,0,0:0:0:0::
192,192,165538,1,0,0:0:0:0::
320,192,165620,1,0,0:0:0:0::
64,192,165700,1,0,0:0:0:0::
448,192,165700,1,0,0:0:0:0::
320,192,165780,1,0,0:0:0:0::
64,192,165860,1,0,0:0:0:0::
192,192,165860,1,0,0:0:0:0::
448,192,165860,1,0,0:0:0:0::
320,192,165940,1,0,0:0:0:0::
192,192,166020,1,0,0:0:0:0::
448,192,166020,1,0,0:0:0:0::
64,192,166100,1,0,0:0:0:0::
320,192,166180,1,0,0:0:0:0::
448,192,166180,1,0,0:0:0:0::
192,192,166180,1,0,0:0:0:0::
64,192,166261,1,0,0:0:0:0::
192,192,166341,1,0,0:0:0:0::
448,192,166341,1,0,0:0:0:0::
320,192,166421,1,0,0:0:0:0::
448,192,166501,1,0,0:0:0:0::
64,192,166501,1,0,0:0:0:0::
192,192,166501,1,0,0:0:0:0::
320,192,166581,1,0,0:0:0:0::
64,192,166661,1,0,0:0:0:0::
448,192,166661,1,0,0:0:0:0::
192,192,166741,1,0,0:0:0:0::
64,192,166821,1,0,0:0:0:0::
320,192,166821,1,0,0:0:0:0::
448,192,166901,1,0,0:0:0:0::
192,192,166982,1,0,0:0:0:0::
64,192,166982,1,0,0:0:0:0::
320,192,167062,1,0,0:0:0:0::
64,192,167142,1,0,0:0:0:0::
192,192,167142,1,0,0:0:0:0::
448,192,167142,1,0,0:0:0:0::
320,192,167222,1,0,0:0:0:0::
64,192,167302,1,0,0:0:0:0::
192,192,167302,1,0,0:0:0:0::
448,192,167382,1,0,0:0:0:0::
320,192,167462,1,0,0:0:0:0::
64,192,167462,1,0,0:0:0:0::
192,192,167542,1,0,0:0:0:0::
320,192,167622,1,0,0:0:0:0::
448,192,167622,1,0,0:0:0:0::
64,192,167703,1,0,0:0:0:0::
448,192,167783,1,0,0:0:0:0::
192,192,167783,1,0,0:0:0:0::
320,192,167783,1,0,0:0:0:0::
64,192,167863,1,0,0:0:0:0::
192,192,167943,1,0,0:0:0:0::
448,192,167943,1,0,0:0:0:0::
64,192,168023,1,0,0:0:0:0::
192,192,168103,1,0,0:0:0:0::
448,192,168103,1,0,0:0:0:0::
64,192,168183,1,0,0:0:0:0::
320,192,168183,1,0,0:0:0:0::
448,192,168263,1,0,0:0:0:0::
192,192,168263,1,0,0:0:0:0::
320,192,168344,1,0,0:0:0:0::
192,192,168424,1,0,0:0:0:0::
448,192,168424,1,0,0:0:0:0::
64,192,168504,1,0,0:0:0:0::
320,192,168584,1,0,0:0:0:0::
448,192,168664,1,0,0:0:0:0::
192,192,168744,1,0,0:0:0:0::
320,192,168744,1,0,0:0:0:0::
64,192,168824,1,0,0:0:0:0::
320,192,168904,1,0,0:0:0:0::
448,192,168904,1,0,0:0:0:0::
192,192,168984,1,0,0:0:0:0::
64,192,169065,1,0,0:0:0:0::
448,192,169065,1,0,0:0:0:0::
192,192,169145,1,0,0:0:0:0::
320,192,169145,1,0,0:0:0:0::
64,192,169225,1,0,0:0:0:0::
448,192,169225,1,0,0:0:0:0::
320,192,169305,1,0,0:0:0:0::
64,192,169385,1,0,0:0:0:0::
448,192,169385,1,0,0:0:0:0::
192,192,169385,1,0,0:0:0:0::
320,192,169465,1,0,0:0:0:0::
448,192,169545,1,0,0:0:0:0::
64,192,169545,1,0,0:0:0:0::
192,192,169625,1,0,0:0:0:0::
448,192,169705,1,0,0:0:0:0::
320,192,169705,1,0,0:0:0:0::
64,192,169786,1,0,0:0:0:0::
192,192,169866,1,0,0:0:0:0::
320,192,169866,1,0,0:0:0:0::
448,192,169946,1,0,0:0:0:0::
64,192,170026,1,0,0:0:0:0::
320,192,170026,1,0,0:0:0:0::
448,192,170106,1,0,0:0:0:0::
192,192,170106,1,0,0:0:0:0::
320,192,170186,1,0,0:0:0:0::
64,192,170266,1,0,0:0:0:0::
192,192,170346,1,0,0:0:0:0::
448,192,170346,1,0,0:0:0:0::
320,192,170427,1,0,0:0:0:0::
64,192,170507,1,0,0:0:0:0::
448,192,170507,1,0,0:0:0:0::
192,192,170587,1,0,0:0:0:0::
320,192,170667,1,0,0:0:0:0::
64,192,170667,1,0,0:0:0:0::
448,192,170747,1,0,0:0:0:0::
64,192,170827,1,0,0:0:0:0::
320,192,170827,1,0,0:0:0:0::
192,192,170827,1,0,0:0:0:0::
448,192,170907,1,0,0:0:0:0::
64,192,170987,1,0,0:0:0:0::
192,192,170987,1,0,0:0:0:0::
320,192,170987,1,0,0:0:0:0::
448,192,171067,1,0,0:0:0:0::
64,192,171148,1,0,0:0:0:0::
192,192,171148,1,0,0:0:0:0::
320,192,171228,1,0,0:0:0:0::
448,192,171228,1,0,0:0:0:0::
64,192,171308,1,0,0:0:0:0::
192,192,171308,1,0,0:0:0:0::
320,192,171468,1,0,0:0:0:0::
448,192,171468,1,0,0:0:0:0::
64,192,171548,1,0,0:0:0:0::
192,192,171548,1,0,0:0:0:0::
320,192,171628,1,0,0:0:0:0::
448,192,171628,1,0,0:0:0:0::
192,192,171810,1,0,0:0:0:0::
64,192,171870,1,0,0:0:0:0::
320,192,171896,1,0,0:0:0:0::
448,192,171910,1,0,0:0:0:0::
192,192,172270,1,0,0:0:0:0::
448,192,172270,1,0,0:0:0:0::
64,192,172270,1,0,0:0:0:0::
320,192,172350,1,0,0:0:0:0::
448,192,172430,1,0,0:0:0:0::
64,192,172430,1,0,0:0:0:0::
192,192,172511,1,0,0:0:0:0::
320,192,172591,1,0,0:0:0:0::
448,192,172591,1,0,0:0:0:0::
64,192,172591,1,0,0:0:0:0::
192,192,172671,1,0,0:0:0:0::
64,192,172751,1,0,0:0:0:0::
448,192,172751,1,0,0:0:0:0::
320,192,172831,1,0,0:0:0:0::
192,192,172911,1,0,0:0:0:0::
64,192,172911,1,0,0:0:0:0::
320,192,172991,1,0,0:0:0:0::
192,192,173071,1,0,0:0:0:0::
448,192,173071,1,0,0:0:0:0::
64,192,173151,1,0,0:0:0:0::
192,192,173232,1,0,0:0:0:0::
448,192,173232,1,0,0:0:0:0::
320,192,173312,1,0,0:0:0:0::
192,192,173392,1,0,0:0:0:0::
64,192,173392,1,0,0:0:0:0::
448,192,173392,1,0,0:0:0:0::
320,192,173472,1,0,0:0:0:0::
192,192,173552,1,0,0:0:0:0::
64,192,173552,1,0,0:0:0:0::
448,192,173632,1,0,0:0:0:0::
320,192,173712,1,0,0:0:0:0::
64,192,173792,1,0,0:0:0:0::
192,192,173792,1,0,0:0:0:0::
320,192,173872,1,0,0:0:0:0::
448,192,173872,1,0,0:0:0:0::
64,192,173953,1,0,0:0:0:0::
320,192,174033,1,0,0:0:0:0::
192,192,174033,1,0,0:0:0:0::
448,192,174113,1,0,0:0:0:0::
64,192,174193,1,0,0:0:0:0::
192,192,174193,1,0,0:0:0:0::
320,192,174193,1,0,0:0:0:0::
320,192,174353,1,0,0:0:0:0::
192,192,174353,1,0,0:0:0:0::
448,192,174433,1,0,0:0:0:0::
64,192,174513,1,0,0:0:0:0::
192,192,174513,1,0,0:0:0:0::
320,192,174594,1,0,0:0:0:0::
64,192,174674,1,0,0:0:0:0::
192,192,174674,1,0,0:0:0:0::
320,192,174754,1,0,0:0:0:0::
192,192,174834,1,0,0:0:0:0::
64,192,174834,1,0,0:0:0:0::
448,192,174834,1,0,0:0:0:0::
320,192,174914,1,0,0:0:0:0::
64,192,174994,1,0,0:0:0:0::
192,192,174994,1,0,0:0:0:0::
448,192,175074,1,0,0:0:0:0::
192,192,175154,1,0,0:0:0:0::
64,192,175154,1,0,0:0:0:0::
320,192,175234,1,0,0:0:0:0::
64,192,175315,1,0,0:0:0:0::
448,192,175315,1,0,0:0:0:0::
192,192,175395,1,0,0:0:0:0::
448,192,175475,1,0,0:0:0:0::
64,192,175475,1,0,0:0:0:0::
320,192,175555,1,0,0:0:0:0::
448,192,175635,1,0,0:0:0:0::
192,192,175635,1,0,0:0:0:0::
320,192,175715,1,0,0:0:0:0::
448,192,175795,1,0,0:0:0:0::
64,192,175795,1,0,0:0:0:0::
192,192,175875,1,0,0:0:0:0::
64,192,175955,1,0,0:0:0:0::
448,192,175955,1,0,0:0:0:0::
320,192,176036,1,0,0:0:0:0::
64,192,176116,1,0,0:0:0:0::
448,192,176116,1,0,0:0:0:0::
192,192,176196,1,0,0:0:0:0::
320,192,176276,1,0,0:0:0:0::
64,192,176276,1,0,0:0:0:0::
448,192,176276,1,0,0:0:0:0::
192,192,176356,1,0,0:0:0:0::
64,192,176436,1,0,0:0:0:0::
448,192,176436,1,0,0:0:0:0::
192,192,176516,1,0,0:0:0:0::
64,192,176596,1,0,0:0:0:0::
448,192,176596,1,0,0:0:0:0::
320,192,176677,1,0,0:0:0:0::
64,192,176757,1,0,0:0:0:0::
192,192,176757,1,0,0:0:0:0::
448,192,176757,1,0,0:0:0:0::
320,192,176837,1,0,0:0:0:0::
64,192,176917,1,0,0:0:0:0::
192,192,176917,1,0,0:0:0:0::
320,192,176997,1,0,0:0:0:0::
192,192,177077,1,0,0:0:0:0::
448,192,177077,1,0,0:0:0:0::
64,192,177157,1,0,0:0:0:0::
192,192,177237,1,0,0:0:0:0::
320,192,177237,1,0,0:0:0:0::
448,192,177317,1,0,0:0:0:0::
64,192,177317,1,0,0:0:0:0::
192,192,177398,1,0,0:0:0:0::
320,192,177398,1,0,0:0:0:0::
64,192,177478,1,0,0:0:0:0::
448,192,177558,1,0,0:0:0:0::
64,192,177638,1,0,0:0:0:0::
192,192,177718,1,0,0:0:0:0::
320,192,177718,1,0,0:0:0:0::
448,192,177718,1,0,0:0:0:0::
64,192,177798,1,0,0:0:0:0::
192,192,177878,1,0,0:0:0:0::
448,192,177878,1,0,0:0:0:0::
320,192,177958,1,0,0:0:0:0::
64,192,178038,1,0,0:0:0:0::
448,192,178038,1,0,0:0:0:0::
192,192,178038,1,0,0:0:0:0::
64,192,178200,1,0,0:0:0:0::
192,192,178200,1,0,0:0:0:0::
320,192,178280,1,0,0:0:0:0::
448,192,178280,1,0,0:0:0:0::
64,192,178360,1,0,0:0:0:0::
192,192,178360,1,0,0:0:0:0::
64,192,178520,1,0,0:0:0:0::
192,192,178520,1,0,0:0:0:0::
320,192,178680,1,0,0:0:0:0::
448,192,178680,1,0,0:0:0:0::
192,192,178680,1,0,0:0:0:0::
320,192,178841,1,0,0:0:0:0::
448,192,178841,1,0,0:0:0:0::
64,192,179001,1,0,0:0:0:0::
320,192,179001,1,0,0:0:0:0::
448,192,179001,1,0,0:0:0:0::
320,192,179161,1,0,0:0:0:0::
192,192,179161,1,0,0:0:0:0::
64,192,179241,1,0,0:0:0:0::
448,192,179241,1,0,0:0:0:0::
192,192,179341,1,0,0:0:0:0::
448,192,179374,1,0,0:0:0:0::
320,192,179428,1,0,0:0:0:0::
192,192,179482,1,0,0:0:0:0::
64,192,179535,1,0,0:0:0:0::
448,192,179535,1,0,0:0:0:0::
320,192,179535,1,0,0:0:0:0::
192,192,179642,1,0,0:0:0:0::
64,192,179642,1,0,0:0:0:0::
448,192,179962,1,0,0:0:0:0::
320,192,179962,1,0,0:0:0:0::
192,192,180123,1,0,0:0:0:0::
192,192,180283,1,0,0:0:0:0::
320,192,180443,1,0,0:0:0:0::
64,192,180603,1,0,0:0:0:0::
448,192,180763,1,0,0:0:0:0::
192,192,180924,1,0,0:0:0:0::
320,192,181084,1,0,0:0:0:0::
64,192,181244,1,0,0:0:0:0::
320,192,181404,1,0,0:0:0:0::
192,192,181565,1,0,0:0:0:0::
320,192,181725,1,0,0:0:0:0::
192,192,181885,1,0,0:0:0:0::
320,192,182045,1,0,0:0:0:0::
64,192,182206,1,0,0:0:0:0::
192,192,182366,1,0,0:0:0:0::
448,192,182526,1,0,0:0:0:0::
192,192,182686,1,0,0:0:0:0::
64,192,182846,1,0,0:0:0:0::
320,192,183007,1,0,0:0:0:0::
192,192,183167,1,0,0:0:0:0::
64,192,183327,1,0,0:0:0:0::
320,192,183487,1,0,0:0:0:0::
448,192,183648,1,0,0:0:0:0::
192,192,183808,1,0,0:0:0:0::
320,192,183968,1,0,0:0:0:0::
192,192,184128,1,0,0:0:0:0::
192,192,184450,1,0,0:0:0:0::
320,192,184770,1,0,0:0:0:0::
448,192,184770,1,0,0:0:0:0::
64,192,184770,1,0,0:0:0:0::
192,192,184850,1,0,0:0:0:0::
64,192,184930,1,0,0:0:0:0::
448,192,184930,1,0,0:0:0:0::
192,192,185011,1,0,0:0:0:0::
64,192,185091,1,0,0:0:0:0::
448,192,185091,1,0,0:0:0:0::
320,192,185171,1,0,0:0:0:0::
64,192,185251,1,0,0:0:0:0::
192,192,185251,1,0,0:0:0:0::
448,192,185251,1,0,0:0:0:0::
320,192,185331,1,0,0:0:0:0::
64,192,185411,1,0,0:0:0:0::
192,192,185491,1,0,0:0:0:0::
448,192,185571,1,0,0:0:0:0::
64,192,185571,1,0,0:0:0:0::
320,192,185651,1,0,0:0:0:0::
192,192,185732,1,0,0:0:0:0::
448,192,185732,1,0,0:0:0:0::
64,192,185812,1,0,0:0:0:0::
448,192,185892,1,0,0:0:0:0::
320,192,185892,1,0,0:0:0:0::
192,192,185972,1,0,0:0:0:0::
64,192,186052,1,0,0:0:0:0::
448,192,186052,1,0,0:0:0:0::
320,192,186132,1,0,0:0:0:0::
64,192,186212,1,0,0:0:0:0::
192,192,186212,1,0,0:0:0:0::
320,192,186292,1,0,0:0:0:0::
192,192,186373,1,0,0:0:0:0::
64,192,186373,1,0,0:0:0:0::
448,192,186373,1,0,0:0:0:0::
320,192,186453,1,0,0:0:0:0::
192,192,186533,1,0,0:0:0:0::
64,192,186533,1,0,0:0:0:0::
448,192,186533,1,0,0:0:0:0::
320,192,186613,1,0,0:0:0:0::
64,192,186693,1,0,0:0:0:0::
448,192,186693,1,0,0:0:0:0::
320,192,186773,1,0,0:0:0:0::
192,192,186853,1,0,0:0:0:0::
64,192,186853,1,0,0:0:0:0::
64,192,187013,1,0,0:0:0:0::
192,192,187013,1,0,0:0:0:0::
448,192,187013,1,0,0:0:0:0::
192,192,187174,1,0,0:0:0:0::
320,192,187174,1,0,0:0:0:0::
64,192,187174,1,0,0:0:0:0::
320,192,187334,1,0,0:0:0:0::
448,192,187334,1,0,0:0:0:0::
64,192,187494,1,0,0:0:0:0::
320,192,187494,1,0,0:0:0:0::
448,192,187494,1,0,0:0:0:0::
192,192,187574,1,0,0:0:0:0::
64,192,187654,1,0,0:0:0:0::
320,192,187734,1,0,0:0:0:0::
64,192,187815,1,0,0:0:0:0::
192,192,187815,1,0,0:0:0:0::
448,192,187815,1,0,0:0:0:0::
320,192,187895,1,0,0:0:0:0::
448,192,187975,1,0,0:0:0:0::
192,192,188055,1,0,0:0:0:0::
320,192,188135,1,0,0:0:0:0::
448,192,188135,1,0,0:0:0:0::
64,192,188135,1,0,0:0:0:0::
192,192,188215,1,0,0:0:0:0::
320,192,188295,1,0,0:0:0:0::
64,192,188295,1,0,0:0:0:0::
448,192,188295,1,0,0:0:0:0::
192,192,188375,1,0,0:0:0:0::
320,192,188456,1,0,0:0:0:0::
448,192,188456,1,0,0:0:0:0::
192,192,188536,1,0,0:0:0:0::
64,192,188616,1,0,0:0:0:0::
448,192,188616,1,0,0:0:0:0::
192,192,188696,1,0,0:0:0:0::
448,192,188776,1,0,0:0:0:0::
320,192,188776,1,0,0:0:0:0::
64,192,188856,1,0,0:0:0:0::
192,192,188856,1,0,0:0:0:0::
320,192,188936,1,0,0:0:0:0::
448,192,189016,1,0,0:0:0:0::
64,192,189096,1,0,0:0:0:0::
320,192,189096,1,0,0:0:0:0::
192,192,189177,1,0,0:0:0:0::
320,192,189257,1,0,0:0:0:0::
448,192,189257,1,0,0:0:0:0::
64,192,189337,1,0,0:0:0:0::
192,192,189337,1,0,0:0:0:0::
448,192,189417,1,0,0:0:0:0::
320,192,189417,1,0,0:0:0:0::
192,192,189497,1,0,0:0:0:0::
64,192,189577,128,0,189817:0:0:0:0:
320,192,189577,128,0,189817:0:0:0:0:
448,192,189577,128,0,189898:0:0:0:0:
64,192,189898,128,0,190138:0:0:0:0:
192,192,189898,128,0,190058:0:0:0:0:
320,192,190058,128,0,190138:0:0:0:0:
64,192,190218,128,0,190378:0:0:0:0:
192,192,190218,1,0,0:0:0:0::
448,192,190218,128,0,190378:0:0:0:0:
192,192,190378,128,0,190432:0:0:0:0:
320,192,190540,1,0,0:0:0:0::
192,192,190540,128,0,190780:0:0:0:0:
448,192,190540,128,0,190780:0:0:0:0:
64,192,190860,128,0,191020:0:0:0:0:
448,192,190860,128,0,191020:0:0:0:0:
192,192,190860,1,0,0:0:0:0::
192,192,191020,128,0,191100:0:0:0:0:
320,192,191020,128,0,191100:0:0:0:0:
192,192,191180,128,0,191421:0:0:0:0:
448,192,191180,1,0,0:0:0:0::
64,192,191180,128,0,191421:0:0:0:0:
320,192,191341,128,0,191421:0:0:0:0:
64,192,191501,128,0,191661:0:0:0:0:
192,192,191501,1,0,0:0:0:0::
448,192,191501,128,0,191741:0:0:0:0:
320,192,191821,1,0,0:0:0:0::
64,192,191821,128,0,191982:0:0:0:0:
192,192,191821,128,0,192062:0:0:0:0:
448,192,191821,128,0,192142:0:0:0:0:
320,192,191982,128,0,192062:0:0:0:0:
192,192,192142,128,0,192222:0:0:0:0:
64,192,192142,128,0,192222:0:0:0:0:
320,192,192142,128,0,192382:0:0:0:0:
64,192,192302,128,0,192382:0:0:0:0:
192,192,192302,128,0,192623:0:0:0:0:
320,192,192462,128,0,192623:0:0:0:0:
448,192,192462,128,0,192568:0:0:0:0:
192,192,192783,128,0,192943:0:0:0:0:
64,192,192783,128,0,192943:0:0:0:0:
448,192,192783,128,0,192890:0:0:0:0:
320,192,192943,1,0,0:0:0:0::
64,192,193103,128,0,193263:0:0:0:0:
192,192,193103,128,0,193263:0:0:0:0:
448,192,193103,128,0,193263:0:0:0:0:
320,192,193344,1,0,0:0:0:0::
192,192,193424,128,0,193504:0:0:0:0:
64,192,193424,128,0,193504:0:0:0:0:
448,192,193424,128,0,193504:0:0:0:0:
192,192,193584,128,0,193664:0:0:0:0:
448,192,193664,128,0,193744:0:0:0:0:
192,192,193744,128,0,193824:0:0:0:0:
64,192,193744,1,0,0:0:0:0::
320,192,193744,128,0,193904:0:0:0:0:
64,192,193904,128,0,193944:0:0:0:0:
192,192,193984,128,0,194065:0:0:0:0:
320,192,194065,128,0,194105:0:0:0:0:
448,192,194065,128,0,194225:0:0:0:0:
64,192,194065,128,0,194105:0:0:0:0:
64,192,194225,128,0,194305:0:0:0:0:
320,192,194385,128,0,194706:0:0:0:0:
64,192,194385,128,0,194706:0:0:0:0:
448,192,194385,128,0,194706:0:0:0:0:
