osu file format v14

[General]
AudioFilename: audio.mp3
AudioLeadIn: 0
PreviewTime: 0
Countdown: 0
SampleSet: None
StackLeniency: 0.7
Mode: 3
LetterboxInBreaks: 0
SpecialStyle: 0
WidescreenStoryboard: 1

[Editor]
DistanceSpacing: 1.7
BeatDivisor: 4
GridSize: 16
TimelineZoom: 2.639998

[Metadata]
Title:chaotic solutions
TitleUnicode:chaotic solutions
Artist:Kobaryo
ArtistUnicode:Kobaryo
Creator:Worms
Version:11 - Crystal Meth Punk (RedOgre IMPERIAL PUNK DESTROY REMIX)
Source:Psycho Filth Records
Tags:full album speedcore 紅燐。 game over!!!
BeatmapID:1450157
BeatmapSetID:685233

[Difficulty]
HPDrainRate:8.5
CircleSize:4
OverallDifficulty:9
ApproachRate:5
SliderMultiplier:1.4
SliderTickRate:1

[Events]
//Background and Video events
0,0,"chaotic solutions.png",0,0
//Break Periods
2,2014172,2018772
//Storyboard Layer 0 (Background)
//Storyboard Layer 1 (Fail)
//Storyboard Layer 2 (Pass)
//Storyboard Layer 3 (Foreground)
//Storyboard Sound Samples

[TimingPoints]
1959972,187.5,4,3,0,20,1,0
2046972,-100,4,3,0,20,0,1
2070972,-100,4,3,0,20,0,0
2082972,-100,4,3,0,20,0,1
2091972,-100,4,3,0,20,0,0
2094972,-100,4,3,0,20,0,1
2106972,-100,4,3,0,20,0,0
2109972,-100,4,3,0,20,0,1
2133972,-100,4,3,0,20,0,0
2136972,-100,4,3,0,20,0,1
2145972,-100,4,3,0,20,0,0

[HitObjects]
448,192,1959972,5,0,0:0:0:0:
192,192,1960347,1,0,0:0:0:0:
64,192,1960534,1,0,0:0:0:0:
192,192,1960909,1,0,0:0:0:0:
64,192,1961097,1,0,0:0:0:0:
192,192,1961284,1,0,0:0:0:0:
448,192,1961472,1,0,0:0:0:0:
192,192,1961847,1,0,0:0:0:0:
64,192,1962034,1,0,0:0:0:0:
192,192,1962409,1,0,0:0:0:0:
64,192,1962597,1,0,0:0:0:0:
192,192,1962784,1,0,0:0:0:0:
448,192,1962972,1,0,0:0:0:0:
192,192,1963347,1,0,0:0:0:0:
64,192,1963534,1,0,0:0:0:0:
192,192,1963909,1,0,0:0:0:0:
64,192,1964097,1,0,0:0:0:0:
192,192,1964284,1,0,0:0:0:0:
448,192,1964472,1,0,0:0:0:0:
192,192,1964847,1,0,0:0:0:0:
64,192,1965034,1,0,0:0:0:0:
192,192,1965409,1,0,0:0:0:0:
64,192,1965597,1,0,0:0:0:0:
192,192,1965784,1,0,0:0:0:0:
320,192,1965972,1,0,0:0:0:0:
448,192,1965972,1,0,0:0:0:0:
64,192,1966347,1,0,0:0:0:0:
448,192,1966534,1,0,0:0:0:0:
64,192,1966909,1,0,0:0:0:0:
448,192,1967097,1,0,0:0:0:0:
64,192,1967284,1,0,0:0:0:0:
320,192,1967472,1,0,0:0:0:0:
192,192,1967472,1,0,0:0:0:0:
64,192,1967847,1,0,0:0:0:0:
448,192,1968034,1,0,0:0:0:0:
192,192,1968222,1,0,0:0:0:0:
448,192,1968222,1,0,0:0:0:0:
64,192,1968409,1,0,0:0:0:0:
448,192,1968597,1,0,0:0:0:0:
64,192,1968784,1,0,0:0:0:0:
320,192,1968972,1,0,0:0:0:0:
448,192,1968972,1,0,0:0:0:0:
64,192,1969347,1,0,0:0:0:0:
448,192,1969534,1,0,0:0:0:0:
64,192,1969909,1,0,0:0:0:0:
448,192,1970097,1,0,0:0:0:0:
64,192,1970284,1,0,0:0:0:0:
320,192,1970472,1,0,0:0:0:0:
448,192,1970659,1,0,0:0:0:0:
192,192,1970659,1,0,0:0:0:0:
64,192,1970847,1,0,0:0:0:0:
192,192,1970847,1,0,0:0:0:0:
448,192,1971034,1,0,0:0:0:0:
320,192,1971222,1,0,0:0:0:0:
448,192,1971222,1,0,0:0:0:0:
64,192,1971409,1,0,0:0:0:0:
448,192,1971597,1,0,0:0:0:0:
64,192,1971784,1,0,0:0:0:0:
192,192,1971972,1,0,0:0:0:0:
320,192,1971972,1,0,0:0:0:0:
320,192,1972347,1,0,0:0:0:0:
448,192,1972534,1,0,0:0:0:0:
64,192,1972722,128,0,1973097:0:0:0:0:
320,192,1972909,1,0,0:0:0:0:
448,192,1973097,1,0,0:0:0:0:
320,192,1973284,1,0,0:0:0:0:
192,192,1973472,1,0,0:0:0:0:
448,192,1973472,1,0,0:0:0:0:
320,192,1973847,128,0,1974222:0:0:0:0:
448,192,1974034,1,0,0:0:0:0:
448,192,1974222,1,0,0:0:0:0:
64,192,1974222,1,0,0:0:0:0:
320,192,1974409,1,0,0:0:0:0:
448,192,1974597,1,0,0:0:0:0:
320,192,1974784,1,0,0:0:0:0:
192,192,1974972,1,0,0:0:0:0:
64,192,1974972,1,0,0:0:0:0:
320,192,1975347,1,0,0:0:0:0:
448,192,1975534,1,0,0:0:0:0:
192,192,1975722,128,0,1976097:0:0:0:0:
320,192,1975909,1,0,0:0:0:0:
448,192,1976097,1,0,0:0:0:0:
320,192,1976284,1,0,0:0:0:0:
192,192,1976472,1,0,0:0:0:0:
448,192,1976472,1,0,0:0:0:0:
64,192,1976659,1,0,0:0:0:0:
320,192,1976847,1,0,0:0:0:0:
192,192,1976847,1,0,0:0:0:0:
448,192,1977034,1,0,0:0:0:0:
192,192,1977034,1,0,0:0:0:0:
448,192,1977222,1,0,0:0:0:0:
64,192,1977222,128,0,1977597:0:0:0:0:
320,192,1977409,1,0,0:0:0:0:
448,192,1977597,1,0,0:0:0:0:
448,192,1977784,1,0,0:0:0:0:
64,192,1977972,5,0,0:0:0:0:
192,192,1977972,1,0,0:0:0:0:
320,192,1978347,1,0,0:0:0:0:
448,192,1978534,1,0,0:0:0:0:
192,192,1978722,128,0,1979097:0:0:0:0:
320,192,1978909,1,0,0:0:0:0:
448,192,1979097,1,0,0:0:0:0:
320,192,1979284,1,0,0:0:0:0:
64,192,1979472,1,0,0:0:0:0:
320,192,1979847,128,0,1980222:0:0:0:0:
448,192,1980034,1,0,0:0:0:0:
192,192,1980222,1,0,0:0:0:0:
64,192,1980222,1,0,0:0:0:0:
320,192,1980409,1,0,0:0:0:0:
448,192,1980597,1,0,0:0:0:0:
320,192,1980784,1,0,0:0:0:0:
64,192,1980972,1,0,0:0:0:0:
448,192,1980972,1,0,0:0:0:0:
320,192,1981347,1,0,0:0:0:0:
448,192,1981534,1,0,0:0:0:0:
64,192,1981722,128,0,1982097:0:0:0:0:
320,192,1981909,1,0,0:0:0:0:
448,192,1982097,1,0,0:0:0:0:
320,192,1982284,1,0,0:0:0:0:
64,192,1982472,1,0,0:0:0:0:
192,192,1982659,1,0,0:0:0:0:
448,192,1982659,1,0,0:0:0:0:
320,192,1982847,1,0,0:0:0:0:
192,192,1982847,1,0,0:0:0:0:
448,192,1983034,1,0,0:0:0:0:
320,192,1983034,1,0,0:0:0:0:
64,192,1983222,128,0,1983597:0:0:0:0:
448,192,1983222,1,0,0:0:0:0:
320,192,1983409,1,0,0:0:0:0:
448,192,1983597,1,0,0:0:0:0:
192,192,1983690,1,0,0:0:0:0:
320,192,1983784,1,0,0:0:0:0:
448,192,1983972,1,0,0:0:0:0:
192,192,1983972,1,0,0:0:0:0:
64,192,1983972,128,0,1984159:0:0:0:0:
64,192,1984347,128,0,1984534:0:0:0:0:
192,192,1984347,1,0,0:0:0:0:
448,192,1984534,1,0,0:0:0:0:
192,192,1984722,128,0,1984909:0:0:0:0:
320,192,1984722,128,0,1985097:0:0:0:0:
448,192,1984909,1,0,0:0:0:0:
64,192,1985097,128,0,1985284:0:0:0:0:
192,192,1985097,1,0,0:0:0:0:
448,192,1985284,1,0,0:0:0:0:
64,192,1985472,128,0,1985659:0:0:0:0:
192,192,1985472,1,0,0:0:0:0:
320,192,1985472,1,0,0:0:0:0:
192,192,1985847,128,0,1986034:0:0:0:0:
320,192,1985847,128,0,1986222:0:0:0:0:
448,192,1986034,1,0,0:0:0:0:
64,192,1986222,128,0,1986409:0:0:0:0:
448,192,1986222,1,0,0:0:0:0:
192,192,1986222,1,0,0:0:0:0:
64,192,1986597,128,0,1986784:0:0:0:0:
192,192,1986597,1,0,0:0:0:0:
448,192,1986784,1,0,0:0:0:0:
320,192,1986972,128,0,1987159:0:0:0:0:
192,192,1986972,1,0,0:0:0:0:
64,192,1986972,1,0,0:0:0:0:
64,192,1987347,128,0,1987534:0:0:0:0:
192,192,1987347,1,0,0:0:0:0:
448,192,1987534,1,0,0:0:0:0:
64,192,1987722,128,0,1987909:0:0:0:0:
320,192,1987722,128,0,1988097:0:0:0:0:
192,192,1987909,1,0,0:0:0:0:
448,192,1988097,128,0,1988284:0:0:0:0:
64,192,1988097,1,0,0:0:0:0:
192,192,1988284,1,0,0:0:0:0:
64,192,1988472,128,0,1988659:0:0:0:0:
320,192,1988472,1,0,0:0:0:0:
448,192,1988472,1,0,0:0:0:0:
64,192,1988847,128,0,1989034:0:0:0:0:
192,192,1988847,1,0,0:0:0:0:
320,192,1988847,1,0,0:0:0:0:
448,192,1989034,1,0,0:0:0:0:
192,192,1989222,128,0,1989409:0:0:0:0:
64,192,1989222,1,0,0:0:0:0:
448,192,1989222,128,0,1989597:0:0:0:0:
320,192,1989409,1,0,0:0:0:0:
64,192,1989597,128,0,1989784:0:0:0:0:
192,192,1989597,1,0,0:0:0:0:
448,192,1989784,1,0,0:0:0:0:
320,192,1989972,128,0,1990159:0:0:0:0:
64,192,1989972,1,0,0:0:0:0:
192,192,1989972,1,0,0:0:0:0:
64,192,1990347,128,0,1990534:0:0:0:0:
320,192,1990347,1,0,0:0:0:0:
192,192,1990534,1,0,0:0:0:0:
64,192,1990722,128,0,1990909:0:0:0:0:
448,192,1990722,128,0,1991097:0:0:0:0:
192,192,1990909,1,0,0:0:0:0:
320,192,1991097,128,0,1991284:0:0:0:0:
64,192,1991097,1,0,0:0:0:0:
192,192,1991284,1,0,0:0:0:0:
64,192,1991472,128,0,1991659:0:0:0:0:
320,192,1991472,1,0,0:0:0:0:
448,192,1991472,1,0,0:0:0:0:
64,192,1991847,128,0,1992034:0:0:0:0:
320,192,1991847,128,0,1992222:0:0:0:0:
192,192,1992034,1,0,0:0:0:0:
448,192,1992222,128,0,1992409:0:0:0:0:
192,192,1992222,1,0,0:0:0:0:
64,192,1992222,1,0,0:0:0:0:
320,192,1992409,1,0,0:0:0:0:
192,192,1992597,128,0,1992784:0:0:0:0:
64,192,1992597,1,0,0:0:0:0:
320,192,1992784,1,0,0:0:0:0:
64,192,1992972,128,0,1993159:0:0:0:0:
192,192,1992972,1,0,0:0:0:0:
448,192,1992972,1,0,0:0:0:0:
64,192,1993347,128,0,1993534:0:0:0:0:
448,192,1993347,1,0,0:0:0:0:
320,192,1993534,1,0,0:0:0:0:
192,192,1993722,128,0,1993909:0:0:0:0:
448,192,1993722,128,0,1994097:0:0:0:0:
320,192,1993909,1,0,0:0:0:0:
64,192,1994097,128,0,1994284:0:0:0:0:
192,192,1994097,1,0,0:0:0:0:
320,192,1994284,1,0,0:0:0:0:
64,192,1994472,128,0,1994659:0:0:0:0:
448,192,1994472,1,0,0:0:0:0:
320,192,1994659,1,0,0:0:0:0:
192,192,1994659,1,0,0:0:0:0:
64,192,1994847,128,0,1995034:0:0:0:0:
448,192,1994847,1,0,0:0:0:0:
320,192,1994847,1,0,0:0:0:0:
192,192,1995034,1,0,0:0:0:0:
448,192,1995222,128,0,1995409:0:0:0:0:
192,192,1995222,1,0,0:0:0:0:
320,192,1995222,128,0,1995597:0:0:0:0:
64,192,1995409,1,0,0:0:0:0:
448,192,1995597,1,0,0:0:0:0:
192,192,1995690,1,0,0:0:0:0:
64,192,1995784,1,0,0:0:0:0:
448,192,1995972,128,0,1996159:0:0:0:0:
320,192,1995972,1,0,0:0:0:0:
192,192,1995972,1,0,0:0:0:0:
448,192,1996347,128,0,1996534:0:0:0:0:
64,192,1996347,1,0,0:0:0:0:
192,192,1996534,1,0,0:0:0:0:
320,192,1996722,128,0,1996909:0:0:0:0:
64,192,1996722,128,0,1997097:0:0:0:0:
192,192,1996909,1,0,0:0:0:0:
448,192,1997097,128,0,1997284:0:0:0:0:
320,192,1997097,1,0,0:0:0:0:
192,192,1997284,1,0,0:0:0:0:
448,192,1997472,128,0,1997659:0:0:0:0:
320,192,1997472,1,0,0:0:0:0:
64,192,1997472,1,0,0:0:0:0:
320,192,1997847,128,0,1998034:0:0:0:0:
192,192,1997847,128,0,1998222:0:0:0:0:
64,192,1998034,1,0,0:0:0:0:
448,192,1998222,128,0,1998409:0:0:0:0:
320,192,1998222,1,0,0:0:0:0:
64,192,1998222,1,0,0:0:0:0:
192,192,1998409,1,0,0:0:0:0:
448,192,1998597,128,0,1998784:0:0:0:0:
320,192,1998597,1,0,0:0:0:0:
64,192,1998784,1,0,0:0:0:0:
192,192,1998972,128,0,1999159:0:0:0:0:
320,192,1998972,1,0,0:0:0:0:
448,192,1998972,1,0,0:0:0:0:
448,192,1999347,128,0,1999534:0:0:0:0:
64,192,1999347,1,0,0:0:0:0:
192,192,1999534,1,0,0:0:0:0:
448,192,1999722,128,0,1999909:0:0:0:0:
320,192,1999722,128,0,2000097:0:0:0:0:
192,192,1999909,1,0,0:0:0:0:
64,192,2000097,128,0,2000284:0:0:0:0:
448,192,2000097,1,0,0:0:0:0:
192,192,2000284,1,0,0:0:0:0:
448,192,2000472,128,0,2000659:0:0:0:0:
64,192,2000472,1,0,0:0:0:0:
320,192,2000472,1,0,0:0:0:0:
192,192,2000659,1,0,0:0:0:0:
448,192,2000847,128,0,2001034:0:0:0:0:
320,192,2000847,1,0,0:0:0:0:
64,192,2000847,1,0,0:0:0:0:
192,192,2001034,1,0,0:0:0:0:
64,192,2001034,1,0,0:0:0:0:
320,192,2001222,128,0,2001409:0:0:0:0:
448,192,2001222,1,0,0:0:0:0:
192,192,2001222,128,0,2001597:0:0:0:0:
64,192,2001409,1,0,0:0:0:0:
448,192,2001597,128,0,2001784:0:0:0:0:
320,192,2001597,1,0,0:0:0:0:
64,192,2001784,1,0,0:0:0:0:
192,192,2001972,128,0,2002159:0:0:0:0:
320,192,2001972,1,0,0:0:0:0:
448,192,2001972,1,0,0:0:0:0:
448,192,2002347,128,0,2002534:0:0:0:0:
320,192,2002347,1,0,0:0:0:0:
64,192,2002534,1,0,0:0:0:0:
448,192,2002722,128,0,2002909:0:0:0:0:
320,192,2002722,128,0,2003097:0:0:0:0:
64,192,2002909,1,0,0:0:0:0:
192,192,2003097,128,0,2003284:0:0:0:0:
448,192,2003097,1,0,0:0:0:0:
64,192,2003284,1,0,0:0:0:0:
448,192,2003472,128,0,2003659:0:0:0:0:
320,192,2003472,1,0,0:0:0:0:
192,192,2003472,1,0,0:0:0:0:
448,192,2003847,128,0,2004034:0:0:0:0:
192,192,2003847,128,0,2004222:0:0:0:0:
320,192,2004034,1,0,0:0:0:0:
64,192,2004222,128,0,2004409:0:0:0:0:
448,192,2004222,1,0,0:0:0:0:
320,192,2004222,1,0,0:0:0:0:
192,192,2004409,1,0,0:0:0:0:
320,192,2004597,128,0,2004784:0:0:0:0:
64,192,2004597,1,0,0:0:0:0:
192,192,2004784,1,0,0:0:0:0:
448,192,2004972,128,0,2005159:0:0:0:0:
320,192,2004972,1,0,0:0:0:0:
64,192,2004972,1,0,0:0:0:0:
448,192,2005347,128,0,2005534:0:0:0:0:
192,192,2005347,1,0,0:0:0:0:
64,192,2005534,1,0,0:0:0:0:
320,192,2005722,128,0,2005909:0:0:0:0:
192,192,2005722,128,0,2006097:0:0:0:0:
64,192,2005909,1,0,0:0:0:0:
448,192,2006097,128,0,2006284:0:0:0:0:
320,192,2006097,1,0,0:0:0:0:
64,192,2006284,1,0,0:0:0:0:
448,192,2006472,128,0,2006659:0:0:0:0:
192,192,2006472,1,0,0:0:0:0:
320,192,2006659,1,0,0:0:0:0:
64,192,2006659,1,0,0:0:0:0:
448,192,2006847,128,0,2007034:0:0:0:0:
192,192,2006847,1,0,0:0:0:0:
64,192,2006847,1,0,0:0:0:0:
320,192,2007034,1,0,0:0:0:0:
64,192,2007222,128,0,2007409:0:0:0:0:
448,192,2007222,1,0,0:0:0:0:
320,192,2007222,128,0,2007597:0:0:0:0:
192,192,2007409,1,0,0:0:0:0:
448,192,2007597,1,0,0:0:0:0:
64,192,2007690,1,0,0:0:0:0:
192,192,2007784,1,0,0:0:0:0:
320,192,2007972,1,0,0:0:0:0:
64,192,2007972,1,0,0:0:0:0:
448,192,2007972,128,0,2008347:0:0:0:0:
192,192,2008347,128,0,2008534:0:0:0:0:
64,192,2008534,128,0,2008909:0:0:0:0:
192,192,2008909,128,0,2009097:0:0:0:0:
64,192,2009097,128,0,2009284:0:0:0:0:
192,192,2009284,128,0,2009472:0:0:0:0:
448,192,2009472,128,0,2009847:0:0:0:0:
192,192,2009847,128,0,2010034:0:0:0:0:
64,192,2010034,128,0,2010409:0:0:0:0:
192,192,2010409,128,0,2010597:0:0:0:0:
64,192,2010597,128,0,2010784:0:0:0:0:
192,192,2010784,128,0,2010972:0:0:0:0:
448,192,2010972,128,0,2011347:0:0:0:0:
192,192,2011347,128,0,2011534:0:0:0:0:
64,192,2011534,128,0,2011909:0:0:0:0:
192,192,2011909,128,0,2012097:0:0:0:0:
64,192,2012097,128,0,2012284:0:0:0:0:
192,192,2012284,128,0,2012472:0:0:0:0:
448,192,2012472,128,0,2012847:0:0:0:0:
192,192,2012847,128,0,2013034:0:0:0:0:
64,192,2013034,128,0,2013409:0:0:0:0:
192,192,2013409,128,0,2013597:0:0:0:0:
64,192,2013597,128,0,2013784:0:0:0:0:
192,192,2013784,128,0,2013972:0:0:0:0:
320,192,2019972,5,0,0:0:0:0:
192,192,2019972,1,0,0:0:0:0:
64,192,2019972,1,0,0:0:0:0:
448,192,2019972,1,0,0:0:0:0:
192,192,2020065,1,0,0:0:0:0:
320,192,2020159,1,0,0:0:0:0:
64,192,2020253,1,0,0:0:0:0:
448,192,2020347,1,0,0:0:0:0:
192,192,2020440,1,0,0:0:0:0:
320,192,2020440,1,0,0:0:0:0:
64,192,2020534,1,0,0:0:0:0:
448,192,2020581,1,0,0:0:0:0:
192,192,2020628,1,0,0:0:0:0:
320,192,2020815,1,0,0:0:0:0:
448,192,2020909,1,0,0:0:0:0:
192,192,2021003,1,0,0:0:0:0:
64,192,2021097,1,0,0:0:0:0:
320,192,2021190,1,0,0:0:0:0:
192,192,2021237,1,0,0:0:0:0:
448,192,2021284,1,0,0:0:0:0:
64,192,2021378,1,0,0:0:0:0:
320,192,2021425,1,0,0:0:0:0:
192,192,2021472,1,0,0:0:0:0:
448,192,2021565,1,0,0:0:0:0:
320,192,2021659,1,0,0:0:0:0:
64,192,2021753,1,0,0:0:0:0:
192,192,2021847,1,0,0:0:0:0:
448,192,2021940,1,0,0:0:0:0:
320,192,2022034,1,0,0:0:0:0:
192,192,2022081,1,0,0:0:0:0:
64,192,2022128,1,0,0:0:0:0:
448,192,2022222,1,0,0:0:0:0:
192,192,2022315,1,0,0:0:0:0:
320,192,2022409,1,0,0:0:0:0:
64,192,2022503,1,0,0:0:0:0:
448,192,2022597,1,0,0:0:0:0:
192,192,2022690,1,0,0:0:0:0:
320,192,2022737,1,0,0:0:0:0:
64,192,2022784,1,0,0:0:0:0:
192,192,2022878,1,0,0:0:0:0:
448,192,2022972,1,0,0:0:0:0:
320,192,2023065,1,0,0:0:0:0:
64,192,2023159,1,0,0:0:0:0:
448,192,2023253,1,0,0:0:0:0:
192,192,2023347,1,0,0:0:0:0:
320,192,2023440,1,0,0:0:0:0:
448,192,2023534,1,0,0:0:0:0:
192,192,2023581,1,0,0:0:0:0:
64,192,2023628,1,0,0:0:0:0:
320,192,2023722,1,0,0:0:0:0:
192,192,2023815,1,0,0:0:0:0:
448,192,2023909,1,0,0:0:0:0:
320,192,2024003,1,0,0:0:0:0:
64,192,2024097,1,0,0:0:0:0:
192,192,2024190,1,0,0:0:0:0:
448,192,2024237,1,0,0:0:0:0:
64,192,2024284,1,0,0:0:0:0:
320,192,2024378,1,0,0:0:0:0:
448,192,2024425,1,0,0:0:0:0:
192,192,2024472,1,0,0:0:0:0:
64,192,2024565,1,0,0:0:0:0:
320,192,2024659,1,0,0:0:0:0:
448,192,2024753,1,0,0:0:0:0:
192,192,2024847,1,0,0:0:0:0:
320,192,2024940,1,0,0:0:0:0:
64,192,2025034,1,0,0:0:0:0:
448,192,2025081,1,0,0:0:0:0:
192,192,2025128,1,0,0:0:0:0:
320,192,2025222,1,0,0:0:0:0:
448,192,2025222,1,0,0:0:0:0:
64,192,2025222,1,0,0:0:0:0:
192,192,2025315,1,0,0:0:0:0:
320,192,2025409,1,0,0:0:0:0:
64,192,2025409,1,0,0:0:0:0:
448,192,2025409,1,0,0:0:0:0:
448,192,2025503,1,0,0:0:0:0:
192,192,2025503,1,0,0:0:0:0:
320,192,2025597,1,0,0:0:0:0:
192,192,2025690,1,0,0:0:0:0:
64,192,2025690,1,0,0:0:0:0:
320,192,2025784,1,0,0:0:0:0:
448,192,2025784,1,0,0:0:0:0:
192,192,2025878,1,0,0:0:0:0:
64,192,2025878,1,0,0:0:0:0:
320,192,2025972,1,0,0:0:0:0:
448,192,2025972,1,0,0:0:0:0:
192,192,2025972,1,0,0:0:0:0:
64,192,2026065,1,0,0:0:0:0:
448,192,2026159,1,0,0:0:0:0:
320,192,2026159,1,0,0:0:0:0:
192,192,2026253,1,0,0:0:0:0:
64,192,2026347,1,0,0:0:0:0:
448,192,2026440,1,0,0:0:0:0:
320,192,2026440,1,0,0:0:0:0:
192,192,2026534,1,0,0:0:0:0:
448,192,2026628,1,0,0:0:0:0:
64,192,2026628,1,0,0:0:0:0:
320,192,2026722,1,0,0:0:0:0:
192,192,2026722,1,0,0:0:0:0:
64,192,2026815,1,0,0:0:0:0:
320,192,2026909,1,0,0:0:0:0:
448,192,2026909,1,0,0:0:0:0:
64,192,2027003,1,0,0:0:0:0:
192,192,2027097,1,0,0:0:0:0:
448,192,2027097,1,0,0:0:0:0:
320,192,2027190,1,0,0:0:0:0:
64,192,2027284,1,0,0:0:0:0:
192,192,2027284,1,0,0:0:0:0:
448,192,2027378,1,0,0:0:0:0:
320,192,2027472,1,0,0:0:0:0:
64,192,2027472,1,0,0:0:0:0:
192,192,2027565,1,0,0:0:0:0:
320,192,2027659,1,0,0:0:0:0:
448,192,2027659,1,0,0:0:0:0:
192,192,2027753,1,0,0:0:0:0:
64,192,2027753,1,0,0:0:0:0:
448,192,2027847,1,0,0:0:0:0:
320,192,2027940,1,0,0:0:0:0:
192,192,2027940,1,0,0:0:0:0:
64,192,2028034,1,0,0:0:0:0:
320,192,2028128,1,0,0:0:0:0:
448,192,2028128,1,0,0:0:0:0:
320,192,2028222,1,0,0:0:0:0:
192,192,2028222,1,0,0:0:0:0:
64,192,2028222,1,0,0:0:0:0:
448,192,2028315,1,0,0:0:0:0:
320,192,2028409,1,0,0:0:0:0:
192,192,2028409,1,0,0:0:0:0:
64,192,2028503,1,0,0:0:0:0:
192,192,2028503,1,0,0:0:0:0:
448,192,2028503,1,0,0:0:0:0:
320,192,2028597,1,0,0:0:0:0:
448,192,2028597,1,0,0:0:0:0:
64,192,2028690,1,0,0:0:0:0:
192,192,2028690,1,0,0:0:0:0:
192,192,2028784,1,0,0:0:0:0:
320,192,2028784,1,0,0:0:0:0:
448,192,2028784,1,0,0:0:0:0:
64,192,2028878,1,0,0:0:0:0:
448,192,2028878,1,0,0:0:0:0:
64,192,2028972,1,0,0:0:0:0:
320,192,2028972,1,0,0:0:0:0:
192,192,2028972,1,0,0:0:0:0:
448,192,2029065,1,0,0:0:0:0:
320,192,2029159,1,0,0:0:0:0:
192,192,2029159,1,0,0:0:0:0:
64,192,2029253,1,0,0:0:0:0:
448,192,2029253,1,0,0:0:0:0:
192,192,2029347,1,0,0:0:0:0:
320,192,2029440,1,0,0:0:0:0:
64,192,2029440,1,0,0:0:0:0:
448,192,2029534,1,0,0:0:0:0:
192,192,2029628,1,0,0:0:0:0:
320,192,2029628,1,0,0:0:0:0:
64,192,2029722,1,0,0:0:0:0:
448,192,2029722,1,0,0:0:0:0:
192,192,2029815,1,0,0:0:0:0:
320,192,2029909,1,0,0:0:0:0:
64,192,2029909,1,0,0:0:0:0:
448,192,2030003,1,0,0:0:0:0:
320,192,2030097,1,0,0:0:0:0:
192,192,2030097,1,0,0:0:0:0:
448,192,2030190,1,0,0:0:0:0:
192,192,2030284,1,0,0:0:0:0:
64,192,2030284,1,0,0:0:0:0:
320,192,2030378,1,0,0:0:0:0:
448,192,2030472,1,0,0:0:0:0:
192,192,2030472,1,0,0:0:0:0:
64,192,2030472,1,0,0:0:0:0:
320,192,2030565,1,0,0:0:0:0:
64,192,2030659,1,0,0:0:0:0:
448,192,2030659,1,0,0:0:0:0:
320,192,2030753,1,0,0:0:0:0:
192,192,2030753,1,0,0:0:0:0:
448,192,2030847,1,0,0:0:0:0:
192,192,2030940,1,0,0:0:0:0:
64,192,2030940,1,0,0:0:0:0:
320,192,2031034,1,0,0:0:0:0:
64,192,2031128,1,0,0:0:0:0:
448,192,2031128,1,0,0:0:0:0:
192,192,2031222,1,0,0:0:0:0:
320,192,2031222,1,0,0:0:0:0:
64,192,2031222,1,0,0:0:0:0:
320,192,2031315,1,0,0:0:0:0:
320,192,2031409,1,0,0:0:0:0:
320,192,2031503,1,0,0:0:0:0:
320,192,2031597,1,0,0:0:0:0:
64,192,2031597,1,0,0:0:0:0:
320,192,2031690,1,0,0:0:0:0:
192,192,2031690,1,0,0:0:0:0:
320,192,2031784,1,0,0:0:0:0:
448,192,2031784,1,0,0:0:0:0:
192,192,2031831,1,0,0:0:0:0:
64,192,2031831,1,0,0:0:0:0:
320,192,2031878,1,0,0:0:0:0:
448,192,2031878,1,0,0:0:0:0:
448,192,2031972,1,0,0:0:0:0:
192,192,2031972,1,0,0:0:0:0:
64,192,2031972,1,0,0:0:0:0:
320,192,2032065,1,0,0:0:0:0:
64,192,2032159,1,0,0:0:0:0:
192,192,2032159,1,0,0:0:0:0:
448,192,2032253,1,0,0:0:0:0:
320,192,2032347,1,0,0:0:0:0:
192,192,2032440,1,0,0:0:0:0:
448,192,2032440,1,0,0:0:0:0:
64,192,2032534,1,0,0:0:0:0:
320,192,2032628,1,0,0:0:0:0:
192,192,2032628,1,0,0:0:0:0:
448,192,2032722,1,0,0:0:0:0:
64,192,2032722,1,0,0:0:0:0:
320,192,2032815,1,0,0:0:0:0:
192,192,2032909,1,0,0:0:0:0:
448,192,2032909,1,0,0:0:0:0:
64,192,2033003,1,0,0:0:0:0:
320,192,2033097,1,0,0:0:0:0:
192,192,2033097,1,0,0:0:0:0:
448,192,2033190,1,0,0:0:0:0:
320,192,2033284,1,0,0:0:0:0:
64,192,2033284,1,0,0:0:0:0:
192,192,2033378,1,0,0:0:0:0:
64,192,2033472,1,0,0:0:0:0:
448,192,2033472,1,0,0:0:0:0:
320,192,2033472,1,0,0:0:0:0:
192,192,2033565,1,0,0:0:0:0:
448,192,2033659,1,0,0:0:0:0:
64,192,2033659,1,0,0:0:0:0:
320,192,2033753,1,0,0:0:0:0:
192,192,2033753,1,0,0:0:0:0:
448,192,2033847,1,0,0:0:0:0:
320,192,2033940,1,0,0:0:0:0:
64,192,2033940,1,0,0:0:0:0:
192,192,2034034,1,0,0:0:0:0:
448,192,2034128,1,0,0:0:0:0:
64,192,2034128,1,0,0:0:0:0:
320,192,2034222,1,0,0:0:0:0:
192,192,2034222,1,0,0:0:0:0:
448,192,2034315,1,0,0:0:0:0:
320,192,2034409,1,0,0:0:0:0:
64,192,2034409,1,0,0:0:0:0:
192,192,2034503,1,0,0:0:0:0:
448,192,2034597,1,0,0:0:0:0:
64,192,2034597,1,0,0:0:0:0:
192,192,2034690,1,0,0:0:0:0:
320,192,2034690,1,0,0:0:0:0:
448,192,2034784,1,0,0:0:0:0:
64,192,2034784,1,0,0:0:0:0:
320,192,2034878,1,0,0:0:0:0:
192,192,2034878,1,0,0:0:0:0:
320,192,2034972,1,0,0:0:0:0:
448,192,2034972,1,0,0:0:0:0:
64,192,2034972,1,0,0:0:0:0:
192,192,2035065,1,0,0:0:0:0:
320,192,2035159,1,0,0:0:0:0:
64,192,2035159,1,0,0:0:0:0:
448,192,2035253,1,0,0:0:0:0:
192,192,2035347,1,0,0:0:0:0:
64,192,2035440,1,0,0:0:0:0:
320,192,2035440,1,0,0:0:0:0:
448,192,2035534,1,0,0:0:0:0:
64,192,2035628,1,0,0:0:0:0:
192,192,2035628,1,0,0:0:0:0:
448,192,2035722,1,0,0:0:0:0:
320,192,2035722,1,0,0:0:0:0:
192,192,2035815,1,0,0:0:0:0:
64,192,2035909,1,0,0:0:0:0:
320,192,2035909,1,0,0:0:0:0:
192,192,2036003,1,0,0:0:0:0:
320,192,2036097,1,0,0:0:0:0:
448,192,2036097,1,0,0:0:0:0:
64,192,2036097,1,0,0:0:0:0:
192,192,2036190,1,0,0:0:0:0:
448,192,2036284,1,0,0:0:0:0:
64,192,2036284,1,0,0:0:0:0:
320,192,2036378,1,0,0:0:0:0:
192,192,2036472,1,0,0:0:0:0:
448,192,2036472,1,0,0:0:0:0:
64,192,2036472,1,0,0:0:0:0:
320,192,2036565,1,0,0:0:0:0:
192,192,2036659,1,0,0:0:0:0:
448,192,2036659,1,0,0:0:0:0:
64,192,2036753,1,0,0:0:0:0:
320,192,2036847,1,0,0:0:0:0:
448,192,2036940,1,0,0:0:0:0:
192,192,2036940,1,0,0:0:0:0:
64,192,2037034,1,0,0:0:0:0:
192,192,2037128,1,0,0:0:0:0:
320,192,2037128,1,0,0:0:0:0:
448,192,2037222,1,0,0:0:0:0:
192,192,2037222,1,0,0:0:0:0:
64,192,2037222,1,0,0:0:0:0:
320,192,2037315,1,0,0:0:0:0:
448,192,2037315,1,0,0:0:0:0:
192,192,2037409,1,0,0:0:0:0:
64,192,2037409,1,0,0:0:0:0:
320,192,2037503,1,0,0:0:0:0:
448,192,2037503,1,0,0:0:0:0:
320,192,2037597,1,0,0:0:0:0:
192,192,2037597,1,0,0:0:0:0:
64,192,2037643,1,0,0:0:0:0:
448,192,2037643,1,0,0:0:0:0:
320,192,2037690,1,0,0:0:0:0:
192,192,2037690,1,0,0:0:0:0:
192,192,2037784,1,0,0:0:0:0:
64,192,2037784,1,0,0:0:0:0:
448,192,2037784,1,0,0:0:0:0:
320,192,2037878,1,0,0:0:0:0:
448,192,2037878,1,0,0:0:0:0:
64,192,2037878,1,0,0:0:0:0:
192,192,2037972,1,0,0:0:0:0:
320,192,2037972,1,0,0:0:0:0:
448,192,2037972,1,0,0:0:0:0:
64,192,2038065,1,0,0:0:0:0:
320,192,2038159,1,0,0:0:0:0:
192,192,2038159,1,0,0:0:0:0:
448,192,2038253,1,0,0:0:0:0:
64,192,2038347,1,0,0:0:0:0:
192,192,2038440,1,0,0:0:0:0:
448,192,2038440,1,0,0:0:0:0:
320,192,2038534,1,0,0:0:0:0:
192,192,2038628,1,0,0:0:0:0:
64,192,2038628,1,0,0:0:0:0:
64,192,2038722,1,0,0:0:0:0:
320,192,2038722,1,0,0:0:0:0:
448,192,2038722,1,0,0:0:0:0:
192,192,2038815,1,0,0:0:0:0:
320,192,2038909,1,0,0:0:0:0:
448,192,2038909,1,0,0:0:0:0:
64,192,2039003,1,0,0:0:0:0:
192,192,2039097,1,0,0:0:0:0:
448,192,2039097,1,0,0:0:0:0:
64,192,2039190,1,0,0:0:0:0:
192,192,2039284,1,0,0:0:0:0:
320,192,2039284,1,0,0:0:0:0:
448,192,2039378,1,0,0:0:0:0:
320,192,2039472,1,0,0:0:0:0:
192,192,2039472,1,0,0:0:0:0:
64,192,2039472,1,0,0:0:0:0:
448,192,2039565,1,0,0:0:0:0:
192,192,2039659,1,0,0:0:0:0:
64,192,2039659,1,0,0:0:0:0:
320,192,2039753,1,0,0:0:0:0:
448,192,2039847,1,0,0:0:0:0:
192,192,2039847,1,0,0:0:0:0:
64,192,2039847,1,0,0:0:0:0:
320,192,2039940,1,0,0:0:0:0:
448,192,2040034,1,0,0:0:0:0:
192,192,2040034,1,0,0:0:0:0:
64,192,2040128,1,0,0:0:0:0:
320,192,2040222,1,0,0:0:0:0:
448,192,2040222,1,0,0:0:0:0:
192,192,2040222,1,0,0:0:0:0:
64,192,2040315,1,0,0:0:0:0:
320,192,2040409,1,0,0:0:0:0:
448,192,2040409,1,0,0:0:0:0:
192,192,2040503,1,0,0:0:0:0:
320,192,2040597,1,0,0:0:0:0:
448,192,2040597,1,0,0:0:0:0:
64,192,2040597,1,0,0:0:0:0:
192,192,2040690,1,0,0:0:0:0:
320,192,2040690,1,0,0:0:0:0:
192,192,2040784,1,0,0:0:0:0:
64,192,2040784,1,0,0:0:0:0:
448,192,2040784,1,0,0:0:0:0:
320,192,2040878,1,0,0:0:0:0:
448,192,2040878,1,0,0:0:0:0:
320,192,2040972,1,0,0:0:0:0:
192,192,2040972,1,0,0:0:0:0:
64,192,2040972,1,0,0:0:0:0:
448,192,2041065,1,0,0:0:0:0:
320,192,2041159,1,0,0:0:0:0:
64,192,2041159,1,0,0:0:0:0:
192,192,2041159,1,0,0:0:0:0:
448,192,2041253,1,0,0:0:0:0:
320,192,2041347,1,0,0:0:0:0:
64,192,2041347,1,0,0:0:0:0:
448,192,2041347,1,0,0:0:0:0:
192,192,2041440,1,0,0:0:0:0:
320,192,2041534,1,0,0:0:0:0:
448,192,2041534,1,0,0:0:0:0:
64,192,2041534,1,0,0:0:0:0:
192,192,2041628,1,0,0:0:0:0:
192,192,2041722,1,0,0:0:0:0:
320,192,2041722,1,0,0:0:0:0:
448,192,2041722,1,0,0:0:0:0:
64,192,2041815,1,0,0:0:0:0:
192,192,2041909,1,0,0:0:0:0:
448,192,2041909,1,0,0:0:0:0:
320,192,2041909,1,0,0:0:0:0:
64,192,2042003,1,0,0:0:0:0:
448,192,2042097,1,0,0:0:0:0:
192,192,2042097,1,0,0:0:0:0:
448,192,2042190,1,0,0:0:0:0:
320,192,2042190,1,0,0:0:0:0:
64,192,2042284,1,0,0:0:0:0:
320,192,2042284,1,0,0:0:0:0:
192,192,2042378,1,0,0:0:0:0:
64,192,2042378,1,0,0:0:0:0:
192,192,2042472,1,0,0:0:0:0:
320,192,2042472,1,0,0:0:0:0:
448,192,2042565,1,0,0:0:0:0:
320,192,2042565,1,0,0:0:0:0:
448,192,2042659,1,0,0:0:0:0:
192,192,2042659,1,0,0:0:0:0:
64,192,2042753,1,0,0:0:0:0:
192,192,2042753,1,0,0:0:0:0:
320,192,2042847,1,0,0:0:0:0:
64,192,2042847,1,0,0:0:0:0:
192,192,2042940,1,0,0:0:0:0:
320,192,2042940,1,0,0:0:0:0:
448,192,2043034,1,0,0:0:0:0:
192,192,2043034,1,0,0:0:0:0:
448,192,2043128,1,0,0:0:0:0:
64,192,2043128,1,0,0:0:0:0:
192,192,2043222,1,0,0:0:0:0:
64,192,2043222,1,0,0:0:0:0:
320,192,2043268,1,0,0:0:0:0:
448,192,2043268,1,0,0:0:0:0:
192,192,2043315,1,0,0:0:0:0:
64,192,2043315,1,0,0:0:0:0:
320,192,2043362,1,0,0:0:0:0:
448,192,2043362,1,0,0:0:0:0:
192,192,2043409,1,0,0:0:0:0:
64,192,2043409,1,0,0:0:0:0:
320,192,2043456,1,0,0:0:0:0:
448,192,2043456,1,0,0:0:0:0:
192,192,2043503,1,0,0:0:0:0:
64,192,2043503,1,0,0:0:0:0:
320,192,2043550,1,0,0:0:0:0:
448,192,2043550,1,0,0:0:0:0:
192,192,2043597,1,0,0:0:0:0:
64,192,2043620,1,0,0:0:0:0:
320,192,2043643,1,0,0:0:0:0:
448,192,2043667,1,0,0:0:0:0:
192,192,2043690,1,0,0:0:0:0:
64,192,2043714,1,0,0:0:0:0:
320,192,2043737,1,0,0:0:0:0:
448,192,2043761,1,0,0:0:0:0:
64,192,2043784,1,0,0:0:0:0:
192,192,2043807,1,0,0:0:0:0:
448,192,2043831,1,0,0:0:0:0:
320,192,2043854,1,0,0:0:0:0:
64,192,2043878,1,0,0:0:0:0:
192,192,2043901,1,0,0:0:0:0:
448,192,2043925,1,0,0:0:0:0:
320,192,2043948,1,0,0:0:0:0:
192,192,2043972,1,0,0:0:0:0:
64,192,2043972,1,0,0:0:0:0:
448,192,2046972,1,0,0:0:0:0:
192,192,2046972,1,0,0:0:0:0:
64,192,2046972,1,0,0:0:0:0:
320,192,2047065,1,0,0:0:0:0:
320,192,2047159,1,0,0:0:0:0:
448,192,2047159,1,0,0:0:0:0:
192,192,2047159,1,0,0:0:0:0:
64,192,2047253,1,0,0:0:0:0:
192,192,2047347,1,0,0:0:0:0:
64,192,2047347,1,0,0:0:0:0:
320,192,2047347,1,0,0:0:0:0:
448,192,2047440,1,0,0:0:0:0:
448,192,2047534,1,0,0:0:0:0:
320,192,2047534,1,0,0:0:0:0:
64,192,2047534,1,0,0:0:0:0:
192,192,2047628,1,0,0:0:0:0:
320,192,2047722,1,0,0:0:0:0:
64,192,2047722,1,0,0:0:0:0:
192,192,2047722,1,0,0:0:0:0:
448,192,2047815,1,0,0:0:0:0:
448,192,2047909,1,0,0:0:0:0:
320,192,2047909,1,0,0:0:0:0:
192,192,2047909,1,0,0:0:0:0:
64,192,2048003,1,0,0:0:0:0:
64,192,2048097,1,0,0:0:0:0:
192,192,2048097,1,0,0:0:0:0:
448,192,2048097,1,0,0:0:0:0:
320,192,2048190,1,0,0:0:0:0:
320,192,2048284,1,0,0:0:0:0:
448,192,2048284,1,0,0:0:0:0:
64,192,2048284,1,0,0:0:0:0:
192,192,2048378,1,0,0:0:0:0:
64,192,2048472,1,0,0:0:0:0:
192,192,2048472,1,0,0:0:0:0:
448,192,2048472,1,0,0:0:0:0:
320,192,2048565,1,0,0:0:0:0:
320,192,2048659,1,0,0:0:0:0:
448,192,2048659,1,0,0:0:0:0:
192,192,2048659,1,0,0:0:0:0:
64,192,2048753,1,0,0:0:0:0:
64,192,2048847,1,0,0:0:0:0:
192,192,2048847,1,0,0:0:0:0:
320,192,2048847,1,0,0:0:0:0:
448,192,2048940,1,0,0:0:0:0:
448,192,2049034,1,0,0:0:0:0:
320,192,2049034,1,0,0:0:0:0:
64,192,2049034,1,0,0:0:0:0:
192,192,2049128,1,0,0:0:0:0:
320,192,2049222,1,0,0:0:0:0:
448,192,2049222,1,0,0:0:0:0:
192,192,2049222,1,0,0:0:0:0:
64,192,2049315,1,0,0:0:0:0:
64,192,2049409,1,0,0:0:0:0:
320,192,2049409,1,0,0:0:0:0:
448,192,2049503,1,0,0:0:0:0:
320,192,2049503,1,0,0:0:0:0:
448,192,2049597,1,0,0:0:0:0:
64,192,2049597,1,0,0:0:0:0:
192,192,2049690,1,0,0:0:0:0:
64,192,2049690,1,0,0:0:0:0:
192,192,2049784,1,0,0:0:0:0:
320,192,2049784,1,0,0:0:0:0:
320,192,2049878,1,0,0:0:0:0:
448,192,2049878,1,0,0:0:0:0:
192,192,2049972,1,0,0:0:0:0:
448,192,2049972,1,0,0:0:0:0:
64,192,2049972,1,0,0:0:0:0:
320,192,2050065,1,0,0:0:0:0:
320,192,2050159,1,0,0:0:0:0:
448,192,2050159,1,0,0:0:0:0:
192,192,2050159,1,0,0:0:0:0:
64,192,2050253,1,0,0:0:0:0:
64,192,2050347,1,0,0:0:0:0:
320,192,2050347,1,0,0:0:0:0:
448,192,2050347,1,0,0:0:0:0:
192,192,2050440,1,0,0:0:0:0:
192,192,2050534,1,0,0:0:0:0:
64,192,2050534,1,0,0:0:0:0:
320,192,2050534,1,0,0:0:0:0:
448,192,2050628,1,0,0:0:0:0:
448,192,2050722,1,0,0:0:0:0:
192,192,2050722,1,0,0:0:0:0:
64,192,2050722,1,0,0:0:0:0:
320,192,2050815,1,0,0:0:0:0:
320,192,2050909,1,0,0:0:0:0:
448,192,2050909,1,0,0:0:0:0:
64,192,2050909,1,0,0:0:0:0:
192,192,2051003,1,0,0:0:0:0:
192,192,2051097,1,0,0:0:0:0:
64,192,2051097,1,0,0:0:0:0:
320,192,2051097,1,0,0:0:0:0:
448,192,2051190,1,0,0:0:0:0:
448,192,2051284,1,0,0:0:0:0:
320,192,2051284,1,0,0:0:0:0:
192,192,2051284,1,0,0:0:0:0:
64,192,2051378,1,0,0:0:0:0:
64,192,2051472,1,0,0:0:0:0:
320,192,2051472,1,0,0:0:0:0:
192,192,2051472,1,0,0:0:0:0:
448,192,2051565,1,0,0:0:0:0:
448,192,2051659,1,0,0:0:0:0:
192,192,2051659,1,0,0:0:0:0:
320,192,2051753,1,0,0:0:0:0:
192,192,2051753,1,0,0:0:0:0:
64,192,2051847,1,0,0:0:0:0:
320,192,2051847,1,0,0:0:0:0:
64,192,2051940,1,0,0:0:0:0:
448,192,2051940,1,0,0:0:0:0:
320,192,2052034,1,0,0:0:0:0:
448,192,2052034,1,0,0:0:0:0:
192,192,2052128,1,0,0:0:0:0:
320,192,2052222,1,0,0:0:0:0:
192,192,2052222,1,0,0:0:0:0:
64,192,2052222,1,0,0:0:0:0:
448,192,2052315,1,0,0:0:0:0:
192,192,2052409,1,0,0:0:0:0:
320,192,2052409,1,0,0:0:0:0:
448,192,2052409,1,0,0:0:0:0:
64,192,2052503,1,0,0:0:0:0:
64,192,2052597,1,0,0:0:0:0:
448,192,2052597,1,0,0:0:0:0:
320,192,2052690,1,0,0:0:0:0:
448,192,2052690,1,0,0:0:0:0:
320,192,2052784,1,0,0:0:0:0:
64,192,2052784,1,0,0:0:0:0:
192,192,2052878,1,0,0:0:0:0:
64,192,2052878,1,0,0:0:0:0:
192,192,2052972,1,0,0:0:0:0:
320,192,2052972,1,0,0:0:0:0:
448,192,2052972,1,0,0:0:0:0:
448,192,2053065,1,0,0:0:0:0:
64,192,2053065,1,0,0:0:0:0:
320,192,2053159,1,0,0:0:0:0:
192,192,2053159,1,0,0:0:0:0:
64,192,2053159,1,0,0:0:0:0:
320,192,2053253,1,0,0:0:0:0:
448,192,2053253,1,0,0:0:0:0:
448,192,2053347,1,0,0:0:0:0:
192,192,2053347,1,0,0:0:0:0:
64,192,2053347,1,0,0:0:0:0:
320,192,2053440,1,0,0:0:0:0:
192,192,2053440,1,0,0:0:0:0:
320,192,2053534,1,0,0:0:0:0:
448,192,2053534,1,0,0:0:0:0:
64,192,2053534,1,0,0:0:0:0:
192,192,2053628,1,0,0:0:0:0:
192,192,2053722,1,0,0:0:0:0:
320,192,2053722,1,0,0:0:0:0:
448,192,2053722,1,0,0:0:0:0:
64,192,2053815,1,0,0:0:0:0:
320,192,2053909,1,0,0:0:0:0:
192,192,2053909,1,0,0:0:0:0:
64,192,2053909,1,0,0:0:0:0:
448,192,2054003,1,0,0:0:0:0:
448,192,2054097,1,0,0:0:0:0:
192,192,2054097,1,0,0:0:0:0:
64,192,2054097,1,0,0:0:0:0:
320,192,2054190,1,0,0:0:0:0:
64,192,2054190,1,0,0:0:0:0:
320,192,2054284,1,0,0:0:0:0:
448,192,2054284,1,0,0:0:0:0:
192,192,2054284,1,0,0:0:0:0:
64,192,2054378,1,0,0:0:0:0:
192,192,2054472,1,0,0:0:0:0:
64,192,2054472,1,0,0:0:0:0:
448,192,2054472,1,0,0:0:0:0:
320,192,2054565,1,0,0:0:0:0:
192,192,2054565,1,0,0:0:0:0:
320,192,2054659,1,0,0:0:0:0:
448,192,2054659,1,0,0:0:0:0:
64,192,2054659,1,0,0:0:0:0:
192,192,2054753,1,0,0:0:0:0:
448,192,2054753,1,0,0:0:0:0:
320,192,2054847,1,0,0:0:0:0:
192,192,2054847,1,0,0:0:0:0:
64,192,2054847,1,0,0:0:0:0:
448,192,2054940,1,0,0:0:0:0:
64,192,2054940,1,0,0:0:0:0:
320,192,2055034,1,0,0:0:0:0:
448,192,2055034,1,0,0:0:0:0:
320,192,2055128,1,0,0:0:0:0:
192,192,2055128,1,0,0:0:0:0:
64,192,2055222,1,0,0:0:0:0:
448,192,2055222,1,0,0:0:0:0:
192,192,2055315,1,0,0:0:0:0:
64,192,2055315,1,0,0:0:0:0:
192,192,2055409,1,0,0:0:0:0:
320,192,2055409,1,0,0:0:0:0:
448,192,2055503,1,0,0:0:0:0:
448,192,2055597,1,0,0:0:0:0:
320,192,2055597,1,0,0:0:0:0:
320,192,2055690,1,0,0:0:0:0:
64,192,2055690,1,0,0:0:0:0:
192,192,2055784,1,0,0:0:0:0:
64,192,2055784,1,0,0:0:0:0:
448,192,2055878,1,0,0:0:0:0:
192,192,2055878,1,0,0:0:0:0:
320,192,2055972,1,0,0:0:0:0:
448,192,2055972,1,0,0:0:0:0:
64,192,2055972,1,0,0:0:0:0:
192,192,2056065,1,0,0:0:0:0:
64,192,2056065,1,0,0:0:0:0:
320,192,2056159,1,0,0:0:0:0:
192,192,2056159,1,0,0:0:0:0:
448,192,2056159,1,0,0:0:0:0:
64,192,2056253,1,0,0:0:0:0:
448,192,2056253,1,0,0:0:0:0:
192,192,2056347,1,0,0:0:0:0:
320,192,2056347,1,0,0:0:0:0:
64,192,2056347,1,0,0:0:0:0:
448,192,2056440,1,0,0:0:0:0:
192,192,2056440,1,0,0:0:0:0:
320,192,2056534,1,0,0:0:0:0:
448,192,2056534,1,0,0:0:0:0:
64,192,2056534,1,0,0:0:0:0:
192,192,2056628,1,0,0:0:0:0:
320,192,2056722,1,0,0:0:0:0:
192,192,2056722,1,0,0:0:0:0:
64,192,2056722,1,0,0:0:0:0:
448,192,2056815,1,0,0:0:0:0:
448,192,2056909,1,0,0:0:0:0:
320,192,2056909,1,0,0:0:0:0:
192,192,2056909,1,0,0:0:0:0:
64,192,2057003,1,0,0:0:0:0:
192,192,2057097,1,0,0:0:0:0:
64,192,2057097,1,0,0:0:0:0:
448,192,2057097,1,0,0:0:0:0:
320,192,2057190,1,0,0:0:0:0:
320,192,2057284,1,0,0:0:0:0:
448,192,2057284,1,0,0:0:0:0:
64,192,2057284,1,0,0:0:0:0:
192,192,2057378,1,0,0:0:0:0:
192,192,2057472,1,0,0:0:0:0:
448,192,2057472,1,0,0:0:0:0:
64,192,2057472,1,0,0:0:0:0:
320,192,2057565,1,0,0:0:0:0:
448,192,2057565,1,0,0:0:0:0:
64,192,2057565,1,0,0:0:0:0:
192,192,2057659,1,0,0:0:0:0:
320,192,2057753,1,0,0:0:0:0:
192,192,2057753,1,0,0:0:0:0:
64,192,2057753,1,0,0:0:0:0:
448,192,2057847,1,0,0:0:0:0:
320,192,2057940,1,0,0:0:0:0:
448,192,2057940,1,0,0:0:0:0:
192,192,2057940,1,0,0:0:0:0:
64,192,2058034,1,0,0:0:0:0:
192,192,2058034,1,0,0:0:0:0:
64,192,2058128,1,0,0:0:0:0:
320,192,2058128,1,0,0:0:0:0:
448,192,2058128,1,0,0:0:0:0:
192,192,2058222,1,0,0:0:0:0:
448,192,2058222,1,0,0:0:0:0:
320,192,2058315,1,0,0:0:0:0:
192,192,2058315,1,0,0:0:0:0:
64,192,2058409,1,0,0:0:0:0:
320,192,2058409,1,0,0:0:0:0:
64,192,2058503,1,0,0:0:0:0:
448,192,2058503,1,0,0:0:0:0:
192,192,2058597,1,0,0:0:0:0:
448,192,2058597,1,0,0:0:0:0:
320,192,2058690,1,0,0:0:0:0:
192,192,2058690,1,0,0:0:0:0:
320,192,2058784,1,0,0:0:0:0:
448,192,2058784,1,0,0:0:0:0:
448,192,2058878,1,0,0:0:0:0:
64,192,2058878,1,0,0:0:0:0:
320,192,2058972,1,0,0:0:0:0:
192,192,2058972,1,0,0:0:0:0:
64,192,2058972,1,0,0:0:0:0:
448,192,2059065,1,0,0:0:0:0:
320,192,2059159,1,0,0:0:0:0:
448,192,2059159,1,0,0:0:0:0:
64,192,2059159,1,0,0:0:0:0:
192,192,2059253,1,0,0:0:0:0:
192,192,2059347,1,0,0:0:0:0:
64,192,2059347,1,0,0:0:0:0:
448,192,2059347,1,0,0:0:0:0:
320,192,2059440,1,0,0:0:0:0:
320,192,2059534,1,0,0:0:0:0:
448,192,2059534,1,0,0:0:0:0:
192,192,2059534,1,0,0:0:0:0:
64,192,2059628,1,0,0:0:0:0:
64,192,2059722,1,0,0:0:0:0:
192,192,2059722,1,0,0:0:0:0:
448,192,2059722,1,0,0:0:0:0:
320,192,2059815,1,0,0:0:0:0:
320,192,2059909,1,0,0:0:0:0:
192,192,2059909,1,0,0:0:0:0:
64,192,2059909,1,0,0:0:0:0:
448,192,2060003,1,0,0:0:0:0:
448,192,2060097,1,0,0:0:0:0:
320,192,2060097,1,0,0:0:0:0:
64,192,2060097,1,0,0:0:0:0:
192,192,2060190,1,0,0:0:0:0:
192,192,2060284,1,0,0:0:0:0:
320,192,2060284,1,0,0:0:0:0:
448,192,2060284,1,0,0:0:0:0:
64,192,2060378,1,0,0:0:0:0:
64,192,2060472,1,0,0:0:0:0:
192,192,2060472,1,0,0:0:0:0:
320,192,2060472,1,0,0:0:0:0:
448,192,2060565,1,0,0:0:0:0:
448,192,2060659,1,0,0:0:0:0:
320,192,2060659,1,0,0:0:0:0:
64,192,2060659,1,0,0:0:0:0:
192,192,2060753,1,0,0:0:0:0:
192,192,2060847,1,0,0:0:0:0:
320,192,2060847,1,0,0:0:0:0:
448,192,2060847,1,0,0:0:0:0:
64,192,2060940,1,0,0:0:0:0:
64,192,2061034,1,0,0:0:0:0:
192,192,2061034,1,0,0:0:0:0:
448,192,2061034,1,0,0:0:0:0:
320,192,2061128,1,0,0:0:0:0:
320,192,2061222,1,0,0:0:0:0:
448,192,2061222,1,0,0:0:0:0:
64,192,2061222,1,0,0:0:0:0:
192,192,2061315,1,0,0:0:0:0:
192,192,2061409,1,0,0:0:0:0:
448,192,2061409,1,0,0:0:0:0:
320,192,2061503,1,0,0:0:0:0:
448,192,2061503,1,0,0:0:0:0:
320,192,2061597,1,0,0:0:0:0:
64,192,2061597,1,0,0:0:0:0:
64,192,2061690,1,0,0:0:0:0:
448,192,2061690,1,0,0:0:0:0:
448,192,2061784,1,0,0:0:0:0:
192,192,2061784,1,0,0:0:0:0:
320,192,2061878,1,0,0:0:0:0:
192,192,2061878,1,0,0:0:0:0:
448,192,2061972,1,0,0:0:0:0:
320,192,2061972,1,0,0:0:0:0:
64,192,2061972,1,0,0:0:0:0:
192,192,2062065,1,0,0:0:0:0:
192,192,2062159,1,0,0:0:0:0:
64,192,2062159,1,0,0:0:0:0:
448,192,2062159,1,0,0:0:0:0:
320,192,2062253,1,0,0:0:0:0:
320,192,2062347,1,0,0:0:0:0:
448,192,2062347,1,0,0:0:0:0:
192,192,2062347,1,0,0:0:0:0:
64,192,2062440,1,0,0:0:0:0:
64,192,2062534,1,0,0:0:0:0:
192,192,2062534,1,0,0:0:0:0:
320,192,2062534,1,0,0:0:0:0:
448,192,2062628,1,0,0:0:0:0:
448,192,2062722,1,0,0:0:0:0:
320,192,2062722,1,0,0:0:0:0:
64,192,2062722,1,0,0:0:0:0:
192,192,2062815,1,0,0:0:0:0:
192,192,2062909,1,0,0:0:0:0:
64,192,2062909,1,0,0:0:0:0:
448,192,2062909,1,0,0:0:0:0:
320,192,2063003,1,0,0:0:0:0:
320,192,2063097,1,0,0:0:0:0:
192,192,2063097,1,0,0:0:0:0:
64,192,2063097,1,0,0:0:0:0:
448,192,2063190,1,0,0:0:0:0:
448,192,2063284,1,0,0:0:0:0:
320,192,2063284,1,0,0:0:0:0:
192,192,2063284,1,0,0:0:0:0:
64,192,2063378,1,0,0:0:0:0:
64,192,2063472,1,0,0:0:0:0:
192,192,2063472,1,0,0:0:0:0:
320,192,2063472,1,0,0:0:0:0:
192,192,2063565,1,0,0:0:0:0:
320,192,2063565,1,0,0:0:0:0:
448,192,2063565,1,0,0:0:0:0:
64,192,2063659,1,0,0:0:0:0:
448,192,2063753,1,0,0:0:0:0:
320,192,2063753,1,0,0:0:0:0:
64,192,2063753,1,0,0:0:0:0:
192,192,2063847,1,0,0:0:0:0:
192,192,2063940,1,0,0:0:0:0:
64,192,2063940,1,0,0:0:0:0:
448,192,2063940,1,0,0:0:0:0:
320,192,2064034,1,0,0:0:0:0:
320,192,2064128,1,0,0:0:0:0:
64,192,2064128,1,0,0:0:0:0:
192,192,2064128,1,0,0:0:0:0:
448,192,2064222,1,0,0:0:0:0:
448,192,2064315,1,0,0:0:0:0:
320,192,2064315,1,0,0:0:0:0:
192,192,2064315,1,0,0:0:0:0:
64,192,2064409,1,0,0:0:0:0:
192,192,2064409,1,0,0:0:0:0:
320,192,2064409,1,0,0:0:0:0:
448,192,2064503,1,0,0:0:0:0:
320,192,2064597,1,0,0:0:0:0:
64,192,2064597,1,0,0:0:0:0:
192,192,2064690,1,0,0:0:0:0:
448,192,2064690,1,0,0:0:0:0:
320,192,2064784,1,0,0:0:0:0:
64,192,2064784,1,0,0:0:0:0:
448,192,2064878,1,0,0:0:0:0:
192,192,2064878,1,0,0:0:0:0:
320,192,2064972,1,0,0:0:0:0:
192,192,2064972,1,0,0:0:0:0:
64,192,2064972,1,0,0:0:0:0:
320,192,2065065,1,0,0:0:0:0:
448,192,2065065,1,0,0:0:0:0:
448,192,2065159,1,0,0:0:0:0:
192,192,2065159,1,0,0:0:0:0:
64,192,2065159,1,0,0:0:0:0:
320,192,2065253,1,0,0:0:0:0:
64,192,2065253,1,0,0:0:0:0:
192,192,2065347,1,0,0:0:0:0:
320,192,2065347,1,0,0:0:0:0:
448,192,2065347,1,0,0:0:0:0:
192,192,2065440,1,0,0:0:0:0:
64,192,2065440,1,0,0:0:0:0:
64,192,2065534,1,0,0:0:0:0:
448,192,2065534,1,0,0:0:0:0:
320,192,2065534,1,0,0:0:0:0:
192,192,2065628,1,0,0:0:0:0:
192,192,2065722,1,0,0:0:0:0:
64,192,2065722,1,0,0:0:0:0:
448,192,2065722,1,0,0:0:0:0:
320,192,2065815,1,0,0:0:0:0:
320,192,2065909,1,0,0:0:0:0:
448,192,2065909,1,0,0:0:0:0:
192,192,2065909,1,0,0:0:0:0:
64,192,2066003,1,0,0:0:0:0:
64,192,2066097,1,0,0:0:0:0:
192,192,2066097,1,0,0:0:0:0:
320,192,2066097,1,0,0:0:0:0:
448,192,2066190,1,0,0:0:0:0:
320,192,2066284,1,0,0:0:0:0:
448,192,2066284,1,0,0:0:0:0:
64,192,2066284,1,0,0:0:0:0:
192,192,2066378,1,0,0:0:0:0:
320,192,2066472,1,0,0:0:0:0:
64,192,2066472,1,0,0:0:0:0:
192,192,2066472,1,0,0:0:0:0:
448,192,2066565,1,0,0:0:0:0:
448,192,2066659,1,0,0:0:0:0:
64,192,2066659,1,0,0:0:0:0:
192,192,2066659,1,0,0:0:0:0:
320,192,2066753,1,0,0:0:0:0:
64,192,2066753,1,0,0:0:0:0:
192,192,2066753,1,0,0:0:0:0:
448,192,2066847,1,0,0:0:0:0:
448,192,2066940,1,0,0:0:0:0:
320,192,2066940,1,0,0:0:0:0:
64,192,2066940,1,0,0:0:0:0:
192,192,2067034,1,0,0:0:0:0:
64,192,2067034,1,0,0:0:0:0:
320,192,2067034,1,0,0:0:0:0:
448,192,2067128,1,0,0:0:0:0:
320,192,2067222,1,0,0:0:0:0:
448,192,2067222,1,0,0:0:0:0:
192,192,2067222,1,0,0:0:0:0:
64,192,2067315,1,0,0:0:0:0:
64,192,2067409,1,0,0:0:0:0:
192,192,2067409,1,0,0:0:0:0:
320,192,2067503,1,0,0:0:0:0:
192,192,2067503,1,0,0:0:0:0:
320,192,2067597,1,0,0:0:0:0:
448,192,2067597,1,0,0:0:0:0:
64,192,2067690,1,0,0:0:0:0:
192,192,2067690,1,0,0:0:0:0:
320,192,2067784,1,0,0:0:0:0:
448,192,2067784,1,0,0:0:0:0:
192,192,2067878,1,0,0:0:0:0:
64,192,2067878,1,0,0:0:0:0:
192,192,2067972,1,0,0:0:0:0:
448,192,2067972,1,0,0:0:0:0:
320,192,2067972,1,0,0:0:0:0:
320,192,2068065,1,0,0:0:0:0:
64,192,2068065,1,0,0:0:0:0:
192,192,2068159,1,0,0:0:0:0:
448,192,2068159,1,0,0:0:0:0:
64,192,2068159,1,0,0:0:0:0:
448,192,2068253,1,0,0:0:0:0:
320,192,2068253,1,0,0:0:0:0:
320,192,2068347,1,0,0:0:0:0:
64,192,2068347,1,0,0:0:0:0:
192,192,2068347,1,0,0:0:0:0:
192,192,2068440,1,0,0:0:0:0:
448,192,2068440,1,0,0:0:0:0:
320,192,2068534,1,0,0:0:0:0:
448,192,2068534,1,0,0:0:0:0:
64,192,2068534,1,0,0:0:0:0:
192,192,2068628,1,0,0:0:0:0:
192,192,2068722,1,0,0:0:0:0:
448,192,2068722,1,0,0:0:0:0:
320,192,2068722,1,0,0:0:0:0:
64,192,2068815,1,0,0:0:0:0:
64,192,2068909,1,0,0:0:0:0:
320,192,2068909,1,0,0:0:0:0:
192,192,2068909,1,0,0:0:0:0:
448,192,2069003,1,0,0:0:0:0:
448,192,2069097,1,0,0:0:0:0:
320,192,2069097,1,0,0:0:0:0:
64,192,2069097,1,0,0:0:0:0:
192,192,2069190,1,0,0:0:0:0:
192,192,2069284,1,0,0:0:0:0:
64,192,2069284,1,0,0:0:0:0:
448,192,2069284,1,0,0:0:0:0:
320,192,2069378,1,0,0:0:0:0:
320,192,2069472,1,0,0:0:0:0:
448,192,2069472,1,0,0:0:0:0:
448,192,2069565,1,0,0:0:0:0:
192,192,2069565,1,0,0:0:0:0:
320,192,2069659,1,0,0:0:0:0:
192,192,2069659,1,0,0:0:0:0:
64,192,2069753,1,0,0:0:0:0:
320,192,2069753,1,0,0:0:0:0:
64,192,2069847,5,0,0:0:0:0:
448,192,2069847,1,0,0:0:0:0:
192,192,2069940,1,0,0:0:0:0:
320,192,2069940,1,0,0:0:0:0:
192,192,2070034,1,0,0:0:0:0:
64,192,2070034,1,0,0:0:0:0:
448,192,2070034,1,0,0:0:0:0:
320,192,2070128,1,0,0:0:0:0:
448,192,2070222,1,0,0:0:0:0:
320,192,2070222,1,0,0:0:0:0:
192,192,2070315,1,0,0:0:0:0:
64,192,2070315,1,0,0:0:0:0:
320,192,2070409,1,0,0:0:0:0:
448,192,2070409,1,0,0:0:0:0:
192,192,2070503,1,0,0:0:0:0:
64,192,2070503,1,0,0:0:0:0:
64,192,2070597,1,0,0:0:0:0:
448,192,2070597,1,0,0:0:0:0:
192,192,2070690,1,0,0:0:0:0:
320,192,2070690,1,0,0:0:0:0:
448,192,2070784,1,0,0:0:0:0:
64,192,2070784,1,0,0:0:0:0:
192,192,2070878,1,0,0:0:0:0:
320,192,2070878,1,0,0:0:0:0:
448,192,2070972,1,0,0:0:0:0:
64,192,2070972,1,0,0:0:0:0:
320,192,2070972,128,0,2071018:0:0:0:0:
192,192,2071065,128,0,2071112:0:0:0:0:
320,192,2071159,128,0,2071206:0:0:0:0:
320,192,2071253,128,0,2071393:0:0:0:0:
64,192,2071347,1,0,0:0:0:0:
320,192,2071440,128,0,2071487:0:0:0:0:
192,192,2071534,128,0,2071675:0:0:0:0:
448,192,2071628,1,0,0:0:0:0:
320,192,2071722,128,0,2071768:0:0:0:0:
192,192,2071815,128,0,2071862:0:0:0:0:
320,192,2071909,128,0,2071956:0:0:0:0:
320,192,2072003,128,0,2072143:0:0:0:0:
448,192,2072097,1,0,0:0:0:0:
320,192,2072190,128,0,2072237:0:0:0:0:
448,192,2072284,128,0,2072425:0:0:0:0:
64,192,2072378,1,0,0:0:0:0:
192,192,2072472,128,0,2072518:0:0:0:0:
320,192,2072565,128,0,2072612:0:0:0:0:
192,192,2072659,128,0,2072706:0:0:0:0:
192,192,2072753,128,0,2072893:0:0:0:0:
448,192,2072847,1,0,0:0:0:0:
192,192,2072940,128,0,2072987:0:0:0:0:
320,192,2073034,128,0,2073175:0:0:0:0:
64,192,2073128,1,0,0:0:0:0:
192,192,2073222,128,0,2073268:0:0:0:0:
320,192,2073315,128,0,2073362:0:0:0:0:
192,192,2073409,128,0,2073456:0:0:0:0:
192,192,2073503,128,0,2073643:0:0:0:0:
64,192,2073597,1,0,0:0:0:0:
192,192,2073690,128,0,2073737:0:0:0:0:
64,192,2073784,128,0,2073925:0:0:0:0:
320,192,2073878,1,0,0:0:0:0:
448,192,2073972,128,0,2074018:0:0:0:0:
192,192,2073972,1,0,0:0:0:0:
64,192,2074065,128,0,2074112:0:0:0:0:
448,192,2074159,128,0,2074206:0:0:0:0:
448,192,2074253,128,0,2074393:0:0:0:0:
192,192,2074347,1,0,0:0:0:0:
320,192,2074347,1,0,0:0:0:0:
448,192,2074440,128,0,2074487:0:0:0:0:
64,192,2074534,128,0,2074675:0:0:0:0:
192,192,2074628,1,0,0:0:0:0:
448,192,2074722,128,0,2074768:0:0:0:0:
320,192,2074722,1,0,0:0:0:0:
64,192,2074815,128,0,2074862:0:0:0:0:
448,192,2074909,128,0,2074956:0:0:0:0:
448,192,2075003,128,0,2075143:0:0:0:0:
320,192,2075097,1,0,0:0:0:0:
192,192,2075097,1,0,0:0:0:0:
448,192,2075190,128,0,2075237:0:0:0:0:
320,192,2075284,128,0,2075425:0:0:0:0:
64,192,2075284,1,0,0:0:0:0:
448,192,2075378,1,0,0:0:0:0:
64,192,2075472,128,0,2075518:0:0:0:0:
192,192,2075472,1,0,0:0:0:0:
448,192,2075565,128,0,2075612:0:0:0:0:
64,192,2075659,128,0,2075706:0:0:0:0:
64,192,2075753,128,0,2075893:0:0:0:0:
320,192,2075847,1,0,0:0:0:0:
448,192,2075847,1,0,0:0:0:0:
64,192,2075940,128,0,2075987:0:0:0:0:
448,192,2076034,128,0,2076175:0:0:0:0:
192,192,2076128,1,0,0:0:0:0:
64,192,2076222,128,0,2076268:0:0:0:0:
320,192,2076222,1,0,0:0:0:0:
448,192,2076315,128,0,2076362:0:0:0:0:
64,192,2076409,128,0,2076456:0:0:0:0:
192,192,2076503,128,0,2076597:0:0:0:0:
64,192,2076972,1,0,0:0:0:0:
192,192,2077018,1,0,0:0:0:0:
320,192,2077065,1,0,0:0:0:0:
448,192,2077112,1,0,0:0:0:0:
64,192,2077159,1,0,0:0:0:0:
192,192,2077206,1,0,0:0:0:0:
448,192,2077253,1,0,0:0:0:0:
320,192,2077300,1,0,0:0:0:0:
192,192,2077347,1,0,0:0:0:0:
64,192,2077393,1,0,0:0:0:0:
448,192,2077440,1,0,0:0:0:0:
320,192,2077487,1,0,0:0:0:0:
64,192,2077534,1,0,0:0:0:0:
192,192,2077581,1,0,0:0:0:0:
320,192,2077628,1,0,0:0:0:0:
448,192,2077675,1,0,0:0:0:0:
64,192,2077722,1,0,0:0:0:0:
320,192,2077768,1,0,0:0:0:0:
192,192,2077815,1,0,0:0:0:0:
448,192,2077862,1,0,0:0:0:0:
320,192,2077909,1,0,0:0:0:0:
64,192,2077956,1,0,0:0:0:0:
192,192,2078003,1,0,0:0:0:0:
448,192,2078050,1,0,0:0:0:0:
64,192,2078097,1,0,0:0:0:0:
320,192,2078143,1,0,0:0:0:0:
448,192,2078190,1,0,0:0:0:0:
192,192,2078237,1,0,0:0:0:0:
320,192,2078284,1,0,0:0:0:0:
64,192,2078331,1,0,0:0:0:0:
448,192,2078378,1,0,0:0:0:0:
192,192,2078425,1,0,0:0:0:0:
64,192,2078472,1,0,0:0:0:0:
448,192,2078518,1,0,0:0:0:0:
192,192,2078565,1,0,0:0:0:0:
320,192,2078612,1,0,0:0:0:0:
64,192,2078659,1,0,0:0:0:0:
448,192,2078706,1,0,0:0:0:0:
320,192,2078753,1,0,0:0:0:0:
192,192,2078800,1,0,0:0:0:0:
448,192,2078847,1,0,0:0:0:0:
64,192,2078893,1,0,0:0:0:0:
320,192,2078940,1,0,0:0:0:0:
192,192,2078987,1,0,0:0:0:0:
448,192,2079034,1,0,0:0:0:0:
64,192,2079081,1,0,0:0:0:0:
192,192,2079128,1,0,0:0:0:0:
320,192,2079175,1,0,0:0:0:0:
64,192,2079222,1,0,0:0:0:0:
448,192,2079268,1,0,0:0:0:0:
192,192,2079315,1,0,0:0:0:0:
320,192,2079362,1,0,0:0:0:0:
64,192,2079409,1,0,0:0:0:0:
448,192,2079456,1,0,0:0:0:0:
320,192,2079503,1,0,0:0:0:0:
192,192,2079550,1,0,0:0:0:0:
448,192,2079597,1,0,0:0:0:0:
64,192,2079643,1,0,0:0:0:0:
320,192,2079690,1,0,0:0:0:0:
192,192,2079737,1,0,0:0:0:0:
448,192,2079784,1,0,0:0:0:0:
64,192,2079831,1,0,0:0:0:0:
192,192,2079878,1,0,0:0:0:0:
320,192,2079925,1,0,0:0:0:0:
448,192,2079972,128,0,2080018:0:0:0:0:
64,192,2080065,128,0,2080112:0:0:0:0:
448,192,2080159,1,0,0:0:0:0:
320,192,2080347,128,0,2080393:0:0:0:0:
192,192,2080440,128,0,2080487:0:0:0:0:
320,192,2080534,128,0,2080581:0:0:0:0:
448,192,2080722,128,0,2080768:0:0:0:0:
64,192,2080815,128,0,2080862:0:0:0:0:
448,192,2080909,1,0,0:0:0:0:
320,192,2081097,128,0,2081143:0:0:0:0:
192,192,2081190,128,0,2081237:0:0:0:0:
320,192,2081284,128,0,2081331:0:0:0:0:
320,192,2081378,128,0,2081425:0:0:0:0:
448,192,2081472,128,0,2081636:0:0:0:0:
64,192,2081472,1,0,0:0:0:0:
448,192,2081659,128,0,2081823:0:0:0:0:
192,192,2081659,1,0,0:0:0:0:
448,192,2081847,128,0,2081917:0:0:0:0:
320,192,2081847,1,0,0:0:0:0:
448,192,2081940,128,0,2082011:0:0:0:0:
192,192,2081940,1,0,0:0:0:0:
448,192,2082034,128,0,2082104:0:0:0:0:
64,192,2082034,1,0,0:0:0:0:
448,192,2082128,128,0,2082198:0:0:0:0:
192,192,2082128,1,0,0:0:0:0:
320,192,2082972,128,0,2083018:0:0:0:0:
448,192,2082972,1,0,0:0:0:0:
64,192,2082972,1,0,0:0:0:0:
192,192,2083065,128,0,2083112:0:0:0:0:
320,192,2083159,128,0,2083206:0:0:0:0:
448,192,2083159,1,0,0:0:0:0:
64,192,2083159,1,0,0:0:0:0:
320,192,2083253,128,0,2083393:0:0:0:0:
64,192,2083347,1,0,0:0:0:0:
192,192,2083347,1,0,0:0:0:0:
448,192,2083347,1,0,0:0:0:0:
320,192,2083440,128,0,2083487:0:0:0:0:
192,192,2083534,128,0,2083675:0:0:0:0:
64,192,2083534,1,0,0:0:0:0:
448,192,2083534,1,0,0:0:0:0:
320,192,2083722,128,0,2083768:0:0:0:0:
64,192,2083722,1,0,0:0:0:0:
448,192,2083722,1,0,0:0:0:0:
192,192,2083815,128,0,2083862:0:0:0:0:
320,192,2083909,128,0,2083956:0:0:0:0:
448,192,2083909,1,0,0:0:0:0:
64,192,2083909,1,0,0:0:0:0:
320,192,2084003,128,0,2084143:0:0:0:0:
448,192,2084097,1,0,0:0:0:0:
192,192,2084097,1,0,0:0:0:0:
64,192,2084097,1,0,0:0:0:0:
320,192,2084190,128,0,2084237:0:0:0:0:
448,192,2084284,128,0,2084425:0:0:0:0:
192,192,2084284,1,0,0:0:0:0:
64,192,2084284,1,0,0:0:0:0:
192,192,2084472,128,0,2084518:0:0:0:0:
64,192,2084472,1,0,0:0:0:0:
448,192,2084472,1,0,0:0:0:0:
320,192,2084565,128,0,2084612:0:0:0:0:
192,192,2084659,128,0,2084706:0:0:0:0:
448,192,2084659,1,0,0:0:0:0:
64,192,2084659,1,0,0:0:0:0:
192,192,2084753,128,0,2084893:0:0:0:0:
448,192,2084847,1,0,0:0:0:0:
320,192,2084847,1,0,0:0:0:0:
64,192,2084847,1,0,0:0:0:0:
192,192,2084940,128,0,2084987:0:0:0:0:
320,192,2085034,128,0,2085175:0:0:0:0:
64,192,2085034,1,0,0:0:0:0:
448,192,2085034,1,0,0:0:0:0:
192,192,2085222,128,0,2085268:0:0:0:0:
64,192,2085222,1,0,0:0:0:0:
448,192,2085222,1,0,0:0:0:0:
320,192,2085315,128,0,2085362:0:0:0:0:
192,192,2085409,128,0,2085456:0:0:0:0:
448,192,2085409,1,0,0:0:0:0:
64,192,2085409,1,0,0:0:0:0:
192,192,2085503,128,0,2085643:0:0:0:0:
64,192,2085597,1,0,0:0:0:0:
320,192,2085597,1,0,0:0:0:0:
448,192,2085597,1,0,0:0:0:0:
192,192,2085690,128,0,2085737:0:0:0:0:
64,192,2085784,128,0,2085925:0:0:0:0:
448,192,2085784,1,0,0:0:0:0:
320,192,2085784,1,0,0:0:0:0:
320,192,2085878,1,0,0:0:0:0:
192,192,2085878,1,0,0:0:0:0:
448,192,2085972,128,0,2086018:0:0:0:0:
192,192,2085972,1,0,0:0:0:0:
320,192,2085972,1,0,0:0:0:0:
64,192,2086065,128,0,2086112:0:0:0:0:
448,192,2086159,128,0,2086206:0:0:0:0:
192,192,2086159,1,0,0:0:0:0:
320,192,2086159,1,0,0:0:0:0:
448,192,2086253,128,0,2086393:0:0:0:0:
192,192,2086347,1,0,0:0:0:0:
64,192,2086347,1,0,0:0:0:0:
448,192,2086440,128,0,2086487:0:0:0:0:
64,192,2086534,128,0,2086675:0:0:0:0:
320,192,2086534,1,0,0:0:0:0:
192,192,2086534,1,0,0:0:0:0:
448,192,2086722,128,0,2086768:0:0:0:0:
320,192,2086722,1,0,0:0:0:0:
192,192,2086722,1,0,0:0:0:0:
64,192,2086815,128,0,2086862:0:0:0:0:
448,192,2086909,128,0,2086956:0:0:0:0:
320,192,2086909,1,0,0:0:0:0:
192,192,2086909,1,0,0:0:0:0:
448,192,2087003,128,0,2087143:0:0:0:0:
320,192,2087097,1,0,0:0:0:0:
64,192,2087097,1,0,0:0:0:0:
448,192,2087190,128,0,2087237:0:0:0:0:
320,192,2087284,128,0,2087425:0:0:0:0:
64,192,2087284,1,0,0:0:0:0:
192,192,2087284,1,0,0:0:0:0:
64,192,2087472,128,0,2087518:0:0:0:0:
192,192,2087472,1,0,0:0:0:0:
320,192,2087472,1,0,0:0:0:0:
448,192,2087565,128,0,2087612:0:0:0:0:
64,192,2087659,128,0,2087706:0:0:0:0:
192,192,2087659,1,0,0:0:0:0:
320,192,2087659,1,0,0:0:0:0:
64,192,2087753,128,0,2087893:0:0:0:0:
448,192,2087847,1,0,0:0:0:0:
320,192,2087847,1,0,0:0:0:0:
64,192,2087940,128,0,2087987:0:0:0:0:
448,192,2088034,128,0,2088175:0:0:0:0:
192,192,2088034,1,0,0:0:0:0:
320,192,2088034,1,0,0:0:0:0:
64,192,2088222,128,0,2088268:0:0:0:0:
192,192,2088222,1,0,0:0:0:0:
448,192,2088315,128,0,2088362:0:0:0:0:
192,192,2088315,1,0,0:0:0:0:
64,192,2088409,128,0,2088456:0:0:0:0:
448,192,2088409,1,0,0:0:0:0:
192,192,2088503,128,0,2088643:0:0:0:0:
192,192,2088690,128,0,2088737:0:0:0:0:
64,192,2088784,128,0,2088925:0:0:0:0:
192,192,2088972,128,0,2089018:0:0:0:0:
64,192,2088972,1,0,0:0:0:0:
448,192,2088972,1,0,0:0:0:0:
320,192,2089065,128,0,2089112:0:0:0:0:
192,192,2089159,128,0,2089206:0:0:0:0:
64,192,2089159,1,0,0:0:0:0:
448,192,2089159,1,0,0:0:0:0:
192,192,2089253,128,0,2089393:0:0:0:0:
448,192,2089347,1,0,0:0:0:0:
320,192,2089347,1,0,0:0:0:0:
64,192,2089347,1,0,0:0:0:0:
192,192,2089440,128,0,2089487:0:0:0:0:
320,192,2089534,128,0,2089675:0:0:0:0:
448,192,2089534,1,0,0:0:0:0:
64,192,2089534,1,0,0:0:0:0:
192,192,2089628,1,0,0:0:0:0:
192,192,2089722,128,0,2089768:0:0:0:0:
448,192,2089722,1,0,0:0:0:0:
64,192,2089722,1,0,0:0:0:0:
320,192,2089815,128,0,2089862:0:0:0:0:
192,192,2089909,128,0,2089956:0:0:0:0:
64,192,2089909,1,0,0:0:0:0:
448,192,2089909,1,0,0:0:0:0:
192,192,2090003,128,0,2090143:0:0:0:0:
64,192,2090097,1,0,0:0:0:0:
320,192,2090097,1,0,0:0:0:0:
448,192,2090097,1,0,0:0:0:0:
192,192,2090190,128,0,2090237:0:0:0:0:
64,192,2090284,128,0,2090425:0:0:0:0:
320,192,2090284,1,0,0:0:0:0:
448,192,2090284,1,0,0:0:0:0:
192,192,2090378,1,0,0:0:0:0:
320,192,2090472,128,0,2090518:0:0:0:0:
448,192,2090472,1,0,0:0:0:0:
64,192,2090472,1,0,0:0:0:0:
192,192,2090565,128,0,2090612:0:0:0:0:
320,192,2090659,128,0,2090706:0:0:0:0:
64,192,2090659,1,0,0:0:0:0:
448,192,2090659,1,0,0:0:0:0:
320,192,2090753,128,0,2090893:0:0:0:0:
64,192,2090847,1,0,0:0:0:0:
192,192,2090847,1,0,0:0:0:0:
448,192,2090847,1,0,0:0:0:0:
320,192,2090940,128,0,2090987:0:0:0:0:
192,192,2091034,128,0,2091175:0:0:0:0:
448,192,2091034,1,0,0:0:0:0:
64,192,2091034,1,0,0:0:0:0:
320,192,2091128,1,0,0:0:0:0:
320,192,2091222,128,0,2091268:0:0:0:0:
448,192,2091222,1,0,0:0:0:0:
64,192,2091222,1,0,0:0:0:0:
192,192,2091315,128,0,2091362:0:0:0:0:
320,192,2091409,128,0,2091456:0:0:0:0:
64,192,2091409,1,0,0:0:0:0:
448,192,2091409,1,0,0:0:0:0:
320,192,2091503,128,0,2091643:0:0:0:0:
448,192,2091597,1,0,0:0:0:0:
192,192,2091597,1,0,0:0:0:0:
64,192,2091597,1,0,0:0:0:0:
320,192,2091690,128,0,2091737:0:0:0:0:
448,192,2091784,128,0,2091925:0:0:0:0:
64,192,2091784,1,0,0:0:0:0:
192,192,2091784,1,0,0:0:0:0:
192,192,2091878,1,0,0:0:0:0:
320,192,2091878,1,0,0:0:0:0:
320,192,2091972,1,0,0:0:0:0:
448,192,2091972,1,0,0:0:0:0:
64,192,2091972,128,0,2092018:0:0:0:0:
192,192,2092065,128,0,2092112:0:0:0:0:
64,192,2092159,128,0,2092206:0:0:0:0:
448,192,2092347,128,0,2092393:0:0:0:0:
192,192,2092347,1,0,0:0:0:0:
64,192,2092347,1,0,0:0:0:0:
320,192,2092440,128,0,2092487:0:0:0:0:
192,192,2092534,128,0,2092581:0:0:0:0:
448,192,2092722,1,0,0:0:0:0:
64,192,2092722,1,0,0:0:0:0:
320,192,2092722,128,0,2092768:0:0:0:0:
192,192,2092815,128,0,2092862:0:0:0:0:
320,192,2092909,128,0,2092956:0:0:0:0:
448,192,2093097,1,0,0:0:0:0:
64,192,2093097,1,0,0:0:0:0:
192,192,2093097,128,0,2093143:0:0:0:0:
320,192,2093190,128,0,2093237:0:0:0:0:
64,192,2093284,128,0,2093425:0:0:0:0:
448,192,2093472,128,0,2093518:0:0:0:0:
192,192,2093472,1,0,0:0:0:0:
448,192,2093565,128,0,2093612:0:0:0:0:
320,192,2093565,1,0,0:0:0:0:
448,192,2093659,128,0,2093706:0:0:0:0:
64,192,2093659,1,0,0:0:0:0:
448,192,2093753,128,0,2093800:0:0:0:0:
192,192,2093753,1,0,0:0:0:0:
448,192,2093847,128,0,2093987:0:0:0:0:
320,192,2093847,1,0,0:0:0:0:
192,192,2094034,128,0,2094175:0:0:0:0:
64,192,2094034,1,0,0:0:0:0:
320,192,2094034,1,0,0:0:0:0:
320,192,2094222,1,0,0:0:0:0:
448,192,2094222,1,0,0:0:0:0:
64,192,2094222,1,0,0:0:0:0:
192,192,2094315,1,0,0:0:0:0:
320,192,2094409,1,0,0:0:0:0:
448,192,2094409,1,0,0:0:0:0:
64,192,2094409,1,0,0:0:0:0:
192,192,2094503,1,0,0:0:0:0:
448,192,2094597,1,0,0:0:0:0:
64,192,2094597,128,0,2094643:0:0:0:0:
64,192,2094690,128,0,2094737:0:0:0:0:
320,192,2094690,1,0,0:0:0:0:
64,192,2094784,128,0,2094831:0:0:0:0:
192,192,2094784,1,0,0:0:0:0:
64,192,2094878,128,0,2094925:0:0:0:0:
448,192,2094878,1,0,0:0:0:0:
192,192,2094972,1,0,0:0:0:0:
448,192,2094972,1,0,0:0:0:0:
320,192,2094972,1,0,0:0:0:0:
64,192,2095065,1,0,0:0:0:0:
64,192,2095159,1,0,0:0:0:0:
192,192,2095159,1,0,0:0:0:0:
448,192,2095159,1,0,0:0:0:0:
320,192,2095253,1,0,0:0:0:0:
320,192,2095347,1,0,0:0:0:0:
192,192,2095347,1,0,0:0:0:0:
64,192,2095347,1,0,0:0:0:0:
448,192,2095440,1,0,0:0:0:0:
448,192,2095534,1,0,0:0:0:0:
320,192,2095534,1,0,0:0:0:0:
64,192,2095534,1,0,0:0:0:0:
192,192,2095628,1,0,0:0:0:0:
192,192,2095722,1,0,0:0:0:0:
320,192,2095722,1,0,0:0:0:0:
64,192,2095722,1,0,0:0:0:0:
448,192,2095815,1,0,0:0:0:0:
448,192,2095909,1,0,0:0:0:0:
320,192,2095909,1,0,0:0:0:0:
192,192,2095909,1,0,0:0:0:0:
64,192,2096003,1,0,0:0:0:0:
64,192,2096097,1,0,0:0:0:0:
448,192,2096097,1,0,0:0:0:0:
320,192,2096190,1,0,0:0:0:0:
448,192,2096190,1,0,0:0:0:0:
320,192,2096284,1,0,0:0:0:0:
192,192,2096284,1,0,0:0:0:0:
192,192,2096378,1,0,0:0:0:0:
64,192,2096378,1,0,0:0:0:0:
320,192,2096472,1,0,0:0:0:0:
448,192,2096472,1,0,0:0:0:0:
64,192,2096472,1,0,0:0:0:0:
192,192,2096565,1,0,0:0:0:0:
192,192,2096659,1,0,0:0:0:0:
320,192,2096659,1,0,0:0:0:0:
64,192,2096659,1,0,0:0:0:0:
448,192,2096753,1,0,0:0:0:0:
448,192,2096847,1,0,0:0:0:0:
192,192,2096847,1,0,0:0:0:0:
64,192,2096847,1,0,0:0:0:0:
320,192,2096940,1,0,0:0:0:0:
320,192,2097034,1,0,0:0:0:0:
448,192,2097034,1,0,0:0:0:0:
192,192,2097034,1,0,0:0:0:0:
64,192,2097128,1,0,0:0:0:0:
64,192,2097222,1,0,0:0:0:0:
192,192,2097222,1,0,0:0:0:0:
448,192,2097222,1,0,0:0:0:0:
320,192,2097315,1,0,0:0:0:0:
448,192,2097315,1,0,0:0:0:0:
192,192,2097315,1,0,0:0:0:0:
64,192,2097409,1,0,0:0:0:0:
320,192,2097503,1,0,0:0:0:0:
448,192,2097503,1,0,0:0:0:0:
64,192,2097503,1,0,0:0:0:0:
192,192,2097597,1,0,0:0:0:0:
320,192,2097597,1,0,0:0:0:0:
448,192,2097597,1,0,0:0:0:0:
64,192,2097690,1,0,0:0:0:0:
192,192,2097784,1,0,0:0:0:0:
64,192,2097784,1,0,0:0:0:0:
192,192,2097878,1,0,0:0:0:0:
448,192,2097878,1,0,0:0:0:0:
320,192,2097972,1,0,0:0:0:0:
448,192,2097972,1,0,0:0:0:0:
64,192,2098065,1,0,0:0:0:0:
192,192,2098159,1,0,0:0:0:0:
320,192,2098159,1,0,0:0:0:0:
64,192,2098159,1,0,0:0:0:0:
448,192,2098253,1,0,0:0:0:0:
448,192,2098347,1,0,0:0:0:0:
320,192,2098347,1,0,0:0:0:0:
64,192,2098347,1,0,0:0:0:0:
192,192,2098440,1,0,0:0:0:0:
192,192,2098534,1,0,0:0:0:0:
64,192,2098534,1,0,0:0:0:0:
448,192,2098534,1,0,0:0:0:0:
320,192,2098628,1,0,0:0:0:0:
320,192,2098722,1,0,0:0:0:0:
448,192,2098722,1,0,0:0:0:0:
448,192,2098815,1,0,0:0:0:0:
64,192,2098815,1,0,0:0:0:0:
320,192,2098909,1,0,0:0:0:0:
64,192,2098909,1,0,0:0:0:0:
192,192,2099003,1,0,0:0:0:0:
320,192,2099003,1,0,0:0:0:0:
192,192,2099097,1,0,0:0:0:0:
64,192,2099097,1,0,0:0:0:0:
64,192,2099190,1,0,0:0:0:0:
448,192,2099190,1,0,0:0:0:0:
448,192,2099284,1,0,0:0:0:0:
192,192,2099284,1,0,0:0:0:0:
192,192,2099378,1,0,0:0:0:0:
320,192,2099378,1,0,0:0:0:0:
64,192,2099472,1,0,0:0:0:0:
448,192,2099472,1,0,0:0:0:0:
320,192,2099472,1,0,0:0:0:0:
192,192,2099565,1,0,0:0:0:0:
192,192,2099659,1,0,0:0:0:0:
64,192,2099659,1,0,0:0:0:0:
448,192,2099659,1,0,0:0:0:0:
320,192,2099753,1,0,0:0:0:0:
320,192,2099847,1,0,0:0:0:0:
192,192,2099847,1,0,0:0:0:0:
64,192,2099847,1,0,0:0:0:0:
448,192,2099940,1,0,0:0:0:0:
448,192,2100034,1,0,0:0:0:0:
320,192,2100034,1,0,0:0:0:0:
192,192,2100034,1,0,0:0:0:0:
64,192,2100128,1,0,0:0:0:0:
320,192,2100222,128,0,2100268:0:0:0:0:
320,192,2100409,128,0,2100456:0:0:0:0:
448,192,2100503,128,0,2100643:0:0:0:0:
320,192,2100597,1,0,0:0:0:0:
64,192,2100597,1,0,0:0:0:0:
192,192,2100597,1,0,0:0:0:0:
448,192,2100690,128,0,2100737:0:0:0:0:
320,192,2100784,128,0,2100925:0:0:0:0:
192,192,2100972,1,0,0:0:0:0:
64,192,2100972,1,0,0:0:0:0:
448,192,2100972,1,0,0:0:0:0:
320,192,2100972,1,0,0:0:0:0:
192,192,2101065,1,0,0:0:0:0:
320,192,2101159,1,0,0:0:0:0:
192,192,2101159,1,0,0:0:0:0:
64,192,2101159,1,0,0:0:0:0:
448,192,2101253,1,0,0:0:0:0:
448,192,2101347,1,0,0:0:0:0:
64,192,2101347,1,0,0:0:0:0:
192,192,2101347,1,0,0:0:0:0:
320,192,2101440,1,0,0:0:0:0:
320,192,2101534,1,0,0:0:0:0:
448,192,2101534,1,0,0:0:0:0:
192,192,2101534,1,0,0:0:0:0:
64,192,2101628,1,0,0:0:0:0:
64,192,2101722,1,0,0:0:0:0:
192,192,2101722,1,0,0:0:0:0:
320,192,2101722,1,0,0:0:0:0:
448,192,2101815,1,0,0:0:0:0:
448,192,2101909,1,0,0:0:0:0:
192,192,2101909,1,0,0:0:0:0:
320,192,2101909,1,0,0:0:0:0:
64,192,2102003,1,0,0:0:0:0:
64,192,2102097,1,0,0:0:0:0:
320,192,2102097,1,0,0:0:0:0:
448,192,2102097,1,0,0:0:0:0:
192,192,2102190,1,0,0:0:0:0:
192,192,2102284,1,0,0:0:0:0:
64,192,2102284,1,0,0:0:0:0:
448,192,2102284,1,0,0:0:0:0:
320,192,2102378,1,0,0:0:0:0:
448,192,2102472,1,0,0:0:0:0:
320,192,2102472,1,0,0:0:0:0:
192,192,2102472,1,0,0:0:0:0:
64,192,2102472,1,0,0:0:0:0:
64,192,2102565,1,0,0:0:0:0:
64,192,2102659,1,0,0:0:0:0:
192,192,2102659,1,0,0:0:0:0:
448,192,2102659,1,0,0:0:0:0:
320,192,2102753,1,0,0:0:0:0:
320,192,2102847,1,0,0:0:0:0:
448,192,2102847,1,0,0:0:0:0:
64,192,2102847,1,0,0:0:0:0:
192,192,2102940,1,0,0:0:0:0:
192,192,2103034,1,0,0:0:0:0:
64,192,2103034,1,0,0:0:0:0:
320,192,2103034,1,0,0:0:0:0:
448,192,2103128,1,0,0:0:0:0:
448,192,2103222,1,0,0:0:0:0:
192,192,2103222,1,0,0:0:0:0:
64,192,2103222,1,0,0:0:0:0:
320,192,2103315,1,0,0:0:0:0:
320,192,2103409,1,0,0:0:0:0:
448,192,2103409,1,0,0:0:0:0:
64,192,2103409,1,0,0:0:0:0:
192,192,2103503,1,0,0:0:0:0:
192,192,2103597,1,0,0:0:0:0:
64,192,2103597,1,0,0:0:0:0:
320,192,2103597,1,0,0:0:0:0:
448,192,2103690,1,0,0:0:0:0:
448,192,2103784,1,0,0:0:0:0:
64,192,2103784,1,0,0:0:0:0:
320,192,2103878,1,0,0:0:0:0:
64,192,2103878,1,0,0:0:0:0:
192,192,2103972,1,0,0:0:0:0:
64,192,2103972,1,0,0:0:0:0:
320,192,2103972,1,0,0:0:0:0:
448,192,2103972,1,0,0:0:0:0:
192,192,2104065,1,0,0:0:0:0:
448,192,2104159,1,0,0:0:0:0:
320,192,2104159,1,0,0:0:0:0:
64,192,2104159,1,0,0:0:0:0:
192,192,2104159,1,0,0:0:0:0:
448,192,2104253,1,0,0:0:0:0:
192,192,2104347,1,0,0:0:0:0:
320,192,2104347,1,0,0:0:0:0:
448,192,2104347,1,0,0:0:0:0:
64,192,2104347,1,0,0:0:0:0:
320,192,2104440,1,0,0:0:0:0:
64,192,2104534,1,0,0:0:0:0:
192,192,2104534,1,0,0:0:0:0:
448,192,2104534,1,0,0:0:0:0:
320,192,2104534,1,0,0:0:0:0:
320,192,2104722,1,0,0:0:0:0:
448,192,2104722,1,0,0:0:0:0:
192,192,2104722,1,0,0:0:0:0:
64,192,2104722,1,0,0:0:0:0:
64,192,2104815,1,0,0:0:0:0:
192,192,2104909,1,0,0:0:0:0:
448,192,2104909,1,0,0:0:0:0:
320,192,2105003,1,0,0:0:0:0:
192,192,2105003,1,0,0:0:0:0:
320,192,2105097,1,0,0:0:0:0:
448,192,2105097,1,0,0:0:0:0:
64,192,2105190,1,0,0:0:0:0:
448,192,2105190,1,0,0:0:0:0:
320,192,2105378,1,0,0:0:0:0:
192,192,2105378,1,0,0:0:0:0:
192,192,2105472,1,0,0:0:0:0:
64,192,2105472,1,0,0:0:0:0:
448,192,2105565,1,0,0:0:0:0:
64,192,2105565,1,0,0:0:0:0:
320,192,2105659,1,0,0:0:0:0:
448,192,2105659,1,0,0:0:0:0:
192,192,2105753,1,0,0:0:0:0:
64,192,2105847,5,0,0:0:0:0:
192,192,2105847,1,0,0:0:0:0:
320,192,2105847,1,0,0:0:0:0:
448,192,2105940,1,0,0:0:0:0:
320,192,2106034,1,0,0:0:0:0:
448,192,2106034,1,0,0:0:0:0:
64,192,2106034,1,0,0:0:0:0:
192,192,2106128,1,0,0:0:0:0:
448,192,2106597,1,0,0:0:0:0:
64,192,2106597,1,0,0:0:0:0:
320,192,2106690,1,0,0:0:0:0:
64,192,2106690,1,0,0:0:0:0:
192,192,2106784,1,0,0:0:0:0:
320,192,2106784,1,0,0:0:0:0:
192,192,2106878,1,0,0:0:0:0:
448,192,2106878,1,0,0:0:0:0:
320,192,2106972,1,0,0:0:0:0:
64,192,2106972,1,0,0:0:0:0:
448,192,2106972,1,0,0:0:0:0:
64,192,2109222,128,0,2109362:0:0:0:0:
64,192,2109409,128,0,2109456:0:0:0:0:
320,192,2109409,1,0,0:0:0:0:
448,192,2109503,128,0,2109550:0:0:0:0:
192,192,2109503,1,0,0:0:0:0:
64,192,2109597,128,0,2109643:0:0:0:0:
320,192,2109597,1,0,0:0:0:0:
448,192,2109690,128,0,2109737:0:0:0:0:
192,192,2109690,1,0,0:0:0:0:
64,192,2109784,128,0,2109831:0:0:0:0:
320,192,2109784,1,0,0:0:0:0:
448,192,2109878,128,0,2109925:0:0:0:0:
192,192,2109878,1,0,0:0:0:0:
320,192,2109972,1,0,0:0:0:0:
192,192,2109972,1,0,0:0:0:0:
64,192,2109972,1,0,0:0:0:0:
448,192,2109972,1,0,0:0:0:0:
320,192,2110065,1,0,0:0:0:0:
64,192,2110159,1,0,0:0:0:0:
192,192,2110159,1,0,0:0:0:0:
448,192,2110159,1,0,0:0:0:0:
64,192,2110253,1,0,0:0:0:0:
192,192,2110347,1,0,0:0:0:0:
320,192,2110347,1,0,0:0:0:0:
448,192,2110347,1,0,0:0:0:0:
448,192,2110440,1,0,0:0:0:0:
320,192,2110534,1,0,0:0:0:0:
64,192,2110534,1,0,0:0:0:0:
192,192,2110534,1,0,0:0:0:0:
192,192,2110628,1,0,0:0:0:0:
320,192,2110722,1,0,0:0:0:0:
448,192,2110722,1,0,0:0:0:0:
64,192,2110722,1,0,0:0:0:0:
64,192,2110815,1,0,0:0:0:0:
192,192,2110909,1,0,0:0:0:0:
320,192,2110909,1,0,0:0:0:0:
448,192,2110909,1,0,0:0:0:0:
448,192,2111003,1,0,0:0:0:0:
320,192,2111097,1,0,0:0:0:0:
192,192,2111097,1,0,0:0:0:0:
64,192,2111097,1,0,0:0:0:0:
320,192,2111190,1,0,0:0:0:0:
192,192,2111284,1,0,0:0:0:0:
64,192,2111284,1,0,0:0:0:0:
448,192,2111284,1,0,0:0:0:0:
192,192,2111378,1,0,0:0:0:0:
320,192,2111472,1,0,0:0:0:0:
448,192,2111472,1,0,0:0:0:0:
64,192,2111472,1,0,0:0:0:0:
320,192,2111565,1,0,0:0:0:0:
192,192,2111659,1,0,0:0:0:0:
64,192,2111659,1,0,0:0:0:0:
448,192,2111659,1,0,0:0:0:0:
192,192,2111753,1,0,0:0:0:0:
320,192,2111847,1,0,0:0:0:0:
448,192,2111847,1,0,0:0:0:0:
64,192,2111847,1,0,0:0:0:0:
64,192,2111940,1,0,0:0:0:0:
192,192,2112034,1,0,0:0:0:0:
320,192,2112034,1,0,0:0:0:0:
448,192,2112034,1,0,0:0:0:0:
448,192,2112128,1,0,0:0:0:0:
320,192,2112222,1,0,0:0:0:0:
192,192,2112222,1,0,0:0:0:0:
64,192,2112222,1,0,0:0:0:0:
320,192,2112315,1,0,0:0:0:0:
64,192,2112409,1,0,0:0:0:0:
448,192,2112409,1,0,0:0:0:0:
192,192,2112503,1,0,0:0:0:0:
448,192,2112503,1,0,0:0:0:0:
320,192,2112597,1,0,0:0:0:0:
192,192,2112597,1,0,0:0:0:0:
64,192,2112690,1,0,0:0:0:0:
320,192,2112690,1,0,0:0:0:0:
192,192,2112784,1,0,0:0:0:0:
64,192,2112784,1,0,0:0:0:0:
192,192,2112878,1,0,0:0:0:0:
320,192,2112878,1,0,0:0:0:0:
320,192,2112972,1,0,0:0:0:0:
448,192,2112972,1,0,0:0:0:0:
192,192,2112972,1,0,0:0:0:0:
64,192,2112972,1,0,0:0:0:0:
448,192,2113065,1,0,0:0:0:0:
64,192,2113065,1,0,0:0:0:0:
192,192,2113159,1,0,0:0:0:0:
320,192,2113159,1,0,0:0:0:0:
448,192,2113159,1,0,0:0:0:0:
320,192,2113253,1,0,0:0:0:0:
64,192,2113253,1,0,0:0:0:0:
192,192,2113347,1,0,0:0:0:0:
64,192,2113347,1,0,0:0:0:0:
448,192,2113347,1,0,0:0:0:0:
320,192,2113440,1,0,0:0:0:0:
448,192,2113440,1,0,0:0:0:0:
320,192,2113534,1,0,0:0:0:0:
192,192,2113534,1,0,0:0:0:0:
64,192,2113534,1,0,0:0:0:0:
192,192,2113628,1,0,0:0:0:0:
320,192,2113722,1,0,0:0:0:0:
448,192,2113722,1,0,0:0:0:0:
64,192,2113722,1,0,0:0:0:0:
448,192,2113815,1,0,0:0:0:0:
320,192,2113909,1,0,0:0:0:0:
192,192,2113909,1,0,0:0:0:0:
64,192,2113909,1,0,0:0:0:0:
320,192,2114003,1,0,0:0:0:0:
448,192,2114097,1,0,0:0:0:0:
192,192,2114097,1,0,0:0:0:0:
64,192,2114097,1,0,0:0:0:0:
192,192,2114190,1,0,0:0:0:0:
320,192,2114284,1,0,0:0:0:0:
448,192,2114284,1,0,0:0:0:0:
64,192,2114284,1,0,0:0:0:0:
64,192,2114378,1,0,0:0:0:0:
192,192,2114472,1,0,0:0:0:0:
320,192,2114472,1,0,0:0:0:0:
448,192,2114472,1,0,0:0:0:0:
320,192,2114565,1,0,0:0:0:0:
64,192,2114659,1,0,0:0:0:0:
192,192,2114659,1,0,0:0:0:0:
64,192,2114753,1,0,0:0:0:0:
320,192,2114753,1,0,0:0:0:0:
192,192,2114847,1,0,0:0:0:0:
320,192,2114847,1,0,0:0:0:0:
192,192,2114940,1,0,0:0:0:0:
448,192,2114940,1,0,0:0:0:0:
320,192,2115034,1,0,0:0:0:0:
448,192,2115034,1,0,0:0:0:0:
320,192,2115128,1,0,0:0:0:0:
192,192,2115222,1,0,0:0:0:0:
64,192,2115222,1,0,0:0:0:0:
448,192,2115222,1,0,0:0:0:0:
64,192,2115315,1,0,0:0:0:0:
192,192,2115409,1,0,0:0:0:0:
320,192,2115409,1,0,0:0:0:0:
448,192,2115409,1,0,0:0:0:0:
320,192,2115503,1,0,0:0:0:0:
192,192,2115597,1,0,0:0:0:0:
64,192,2115597,1,0,0:0:0:0:
192,192,2115690,1,0,0:0:0:0:
448,192,2115690,1,0,0:0:0:0:
320,192,2115784,1,0,0:0:0:0:
448,192,2115784,1,0,0:0:0:0:
320,192,2115878,1,0,0:0:0:0:
64,192,2115878,1,0,0:0:0:0:
192,192,2115972,1,0,0:0:0:0:
64,192,2115972,1,0,0:0:0:0:
320,192,2115972,1,0,0:0:0:0:
448,192,2115972,1,0,0:0:0:0:
192,192,2116065,1,0,0:0:0:0:
448,192,2116065,1,0,0:0:0:0:
320,192,2116159,1,0,0:0:0:0:
192,192,2116159,1,0,0:0:0:0:
64,192,2116159,1,0,0:0:0:0:
448,192,2116253,1,0,0:0:0:0:
320,192,2116253,1,0,0:0:0:0:
192,192,2116347,1,0,0:0:0:0:
64,192,2116347,1,0,0:0:0:0:
448,192,2116347,1,0,0:0:0:0:
320,192,2116440,1,0,0:0:0:0:
64,192,2116440,1,0,0:0:0:0:
192,192,2116534,1,0,0:0:0:0:
320,192,2116534,1,0,0:0:0:0:
448,192,2116534,1,0,0:0:0:0:
192,192,2116628,1,0,0:0:0:0:
320,192,2116722,1,0,0:0:0:0:
448,192,2116722,1,0,0:0:0:0:
64,192,2116722,1,0,0:0:0:0:
64,192,2116815,1,0,0:0:0:0:
192,192,2116909,1,0,0:0:0:0:
448,192,2116909,1,0,0:0:0:0:
320,192,2116909,1,0,0:0:0:0:
448,192,2117003,1,0,0:0:0:0:
320,192,2117097,1,0,0:0:0:0:
192,192,2117097,1,0,0:0:0:0:
64,192,2117097,1,0,0:0:0:0:
320,192,2117190,1,0,0:0:0:0:
448,192,2117284,1,0,0:0:0:0:
192,192,2117284,1,0,0:0:0:0:
64,192,2117284,1,0,0:0:0:0:
192,192,2117378,1,0,0:0:0:0:
320,192,2117472,1,0,0:0:0:0:
448,192,2117472,1,0,0:0:0:0:
320,192,2117565,1,0,0:0:0:0:
64,192,2117565,1,0,0:0:0:0:
192,192,2117659,1,0,0:0:0:0:
64,192,2117659,1,0,0:0:0:0:
192,192,2117753,1,0,0:0:0:0:
320,192,2117847,1,0,0:0:0:0:
448,192,2117847,1,0,0:0:0:0:
64,192,2117847,1,0,0:0:0:0:
448,192,2117940,1,0,0:0:0:0:
320,192,2118034,1,0,0:0:0:0:
192,192,2118034,1,0,0:0:0:0:
64,192,2118034,1,0,0:0:0:0:
64,192,2118128,1,0,0:0:0:0:
192,192,2118128,1,0,0:0:0:0:
448,192,2118128,1,0,0:0:0:0:
320,192,2118315,1,0,0:0:0:0:
448,192,2118315,1,0,0:0:0:0:
192,192,2118315,1,0,0:0:0:0:
320,192,2118409,1,0,0:0:0:0:
192,192,2118409,1,0,0:0:0:0:
64,192,2118409,1,0,0:0:0:0:
64,192,2118503,1,0,0:0:0:0:
448,192,2118597,1,0,0:0:0:0:
320,192,2118597,1,0,0:0:0:0:
320,192,2118690,1,0,0:0:0:0:
192,192,2118690,1,0,0:0:0:0:
192,192,2118784,1,0,0:0:0:0:
448,192,2118784,1,0,0:0:0:0:
448,192,2118878,1,0,0:0:0:0:
64,192,2118878,1,0,0:0:0:0:
320,192,2118972,1,0,0:0:0:0:
192,192,2118972,1,0,0:0:0:0:
64,192,2118972,1,0,0:0:0:0:
448,192,2118972,1,0,0:0:0:0:
320,192,2119065,1,0,0:0:0:0:
192,192,2119065,1,0,0:0:0:0:
192,192,2119159,1,0,0:0:0:0:
64,192,2119159,1,0,0:0:0:0:
448,192,2119159,1,0,0:0:0:0:
320,192,2119253,1,0,0:0:0:0:
64,192,2119253,1,0,0:0:0:0:
320,192,2119347,1,0,0:0:0:0:
448,192,2119347,1,0,0:0:0:0:
192,192,2119347,1,0,0:0:0:0:
448,192,2119440,1,0,0:0:0:0:
64,192,2119440,1,0,0:0:0:0:
320,192,2119534,1,0,0:0:0:0:
192,192,2119534,1,0,0:0:0:0:
64,192,2119534,1,0,0:0:0:0:
320,192,2119628,1,0,0:0:0:0:
192,192,2119722,1,0,0:0:0:0:
448,192,2119722,1,0,0:0:0:0:
64,192,2119722,1,0,0:0:0:0:
192,192,2119815,1,0,0:0:0:0:
64,192,2119909,1,0,0:0:0:0:
320,192,2119909,1,0,0:0:0:0:
448,192,2119909,1,0,0:0:0:0:
320,192,2120003,1,0,0:0:0:0:
192,192,2120097,1,0,0:0:0:0:
64,192,2120097,1,0,0:0:0:0:
64,192,2120190,1,0,0:0:0:0:
320,192,2120190,1,0,0:0:0:0:
448,192,2120284,1,0,0:0:0:0:
320,192,2120307,1,0,0:0:0:0:
192,192,2120331,1,0,0:0:0:0:
64,192,2120354,1,0,0:0:0:0:
320,192,2120378,1,0,0:0:0:0:
448,192,2120378,1,0,0:0:0:0:
192,192,2120472,1,0,0:0:0:0:
448,192,2120472,1,0,0:0:0:0:
64,192,2120472,1,0,0:0:0:0:
320,192,2120565,1,0,0:0:0:0:
192,192,2120565,1,0,0:0:0:0:
64,192,2120565,1,0,0:0:0:0:
192,192,2120753,1,0,0:0:0:0:
320,192,2120753,1,0,0:0:0:0:
448,192,2120753,1,0,0:0:0:0:
320,192,2120940,1,0,0:0:0:0:
64,192,2120940,1,0,0:0:0:0:
448,192,2120940,1,0,0:0:0:0:
192,192,2121034,1,0,0:0:0:0:
64,192,2121034,1,0,0:0:0:0:
448,192,2121128,1,0,0:0:0:0:
320,192,2121128,1,0,0:0:0:0:
192,192,2121222,1,0,0:0:0:0:
448,192,2121222,1,0,0:0:0:0:
320,192,2121315,1,0,0:0:0:0:
192,192,2121315,1,0,0:0:0:0:
64,192,2121409,1,0,0:0:0:0:
320,192,2121409,1,0,0:0:0:0:
64,192,2121503,1,0,0:0:0:0:
448,192,2121503,1,0,0:0:0:0:
192,192,2121597,1,0,0:0:0:0:
448,192,2121597,1,0,0:0:0:0:
320,192,2121690,1,0,0:0:0:0:
192,192,2121690,1,0,0:0:0:0:
320,192,2121784,1,0,0:0:0:0:
64,192,2121784,1,0,0:0:0:0:
64,192,2121878,1,0,0:0:0:0:
448,192,2121878,1,0,0:0:0:0:
192,192,2121972,1,0,0:0:0:0:
320,192,2121972,1,0,0:0:0:0:
448,192,2121972,1,0,0:0:0:0:
64,192,2121972,1,0,0:0:0:0:
320,192,2122065,1,0,0:0:0:0:
192,192,2122065,1,0,0:0:0:0:
320,192,2122159,1,0,0:0:0:0:
448,192,2122159,1,0,0:0:0:0:
64,192,2122159,1,0,0:0:0:0:
64,192,2122253,1,0,0:0:0:0:
192,192,2122253,1,0,0:0:0:0:
448,192,2122347,1,0,0:0:0:0:
320,192,2122347,1,0,0:0:0:0:
192,192,2122347,1,0,0:0:0:0:
448,192,2122440,1,0,0:0:0:0:
64,192,2122440,1,0,0:0:0:0:
320,192,2122534,1,0,0:0:0:0:
192,192,2122534,1,0,0:0:0:0:
64,192,2122534,1,0,0:0:0:0:
320,192,2122628,1,0,0:0:0:0:
192,192,2122722,1,0,0:0:0:0:
64,192,2122722,1,0,0:0:0:0:
448,192,2122722,1,0,0:0:0:0:
192,192,2122815,1,0,0:0:0:0:
320,192,2122909,1,0,0:0:0:0:
448,192,2122909,1,0,0:0:0:0:
64,192,2122909,1,0,0:0:0:0:
320,192,2123003,1,0,0:0:0:0:
192,192,2123097,1,0,0:0:0:0:
64,192,2123097,1,0,0:0:0:0:
448,192,2123097,1,0,0:0:0:0:
448,192,2123190,1,0,0:0:0:0:
320,192,2123190,1,0,0:0:0:0:
320,192,2123284,1,0,0:0:0:0:
192,192,2123284,1,0,0:0:0:0:
64,192,2123284,1,0,0:0:0:0:
64,192,2123378,1,0,0:0:0:0:
192,192,2123472,1,0,0:0:0:0:
448,192,2123472,1,0,0:0:0:0:
320,192,2123472,1,0,0:0:0:0:
448,192,2123565,1,0,0:0:0:0:
64,192,2123565,1,0,0:0:0:0:
320,192,2123659,1,0,0:0:0:0:
64,192,2123659,1,0,0:0:0:0:
192,192,2123659,1,0,0:0:0:0:
192,192,2123753,1,0,0:0:0:0:
448,192,2123753,1,0,0:0:0:0:
320,192,2123847,1,0,0:0:0:0:
448,192,2123847,1,0,0:0:0:0:
64,192,2123847,1,0,0:0:0:0:
192,192,2123940,1,0,0:0:0:0:
64,192,2123940,1,0,0:0:0:0:
192,192,2124034,1,0,0:0:0:0:
320,192,2124034,1,0,0:0:0:0:
448,192,2124034,1,0,0:0:0:0:
320,192,2124128,1,0,0:0:0:0:
448,192,2124222,1,0,0:0:0:0:
192,192,2124222,1,0,0:0:0:0:
64,192,2124222,1,0,0:0:0:0:
64,192,2124315,1,0,0:0:0:0:
192,192,2124409,1,0,0:0:0:0:
320,192,2124409,1,0,0:0:0:0:
192,192,2124503,1,0,0:0:0:0:
448,192,2124503,1,0,0:0:0:0:
320,192,2124597,1,0,0:0:0:0:
448,192,2124597,1,0,0:0:0:0:
320,192,2124690,1,0,0:0:0:0:
64,192,2124690,1,0,0:0:0:0:
192,192,2124784,1,0,0:0:0:0:
64,192,2124784,1,0,0:0:0:0:
192,192,2124878,1,0,0:0:0:0:
320,192,2124878,1,0,0:0:0:0:
320,192,2124972,1,0,0:0:0:0:
448,192,2124972,1,0,0:0:0:0:
64,192,2124972,1,0,0:0:0:0:
192,192,2124972,1,0,0:0:0:0:
64,192,2125065,1,0,0:0:0:0:
192,192,2125159,1,0,0:0:0:0:
320,192,2125159,1,0,0:0:0:0:
448,192,2125159,1,0,0:0:0:0:
192,192,2125253,1,0,0:0:0:0:
64,192,2125347,1,0,0:0:0:0:
448,192,2125347,1,0,0:0:0:0:
320,192,2125347,1,0,0:0:0:0:
320,192,2125440,1,0,0:0:0:0:
192,192,2125534,1,0,0:0:0:0:
64,192,2125534,1,0,0:0:0:0:
448,192,2125534,1,0,0:0:0:0:
448,192,2125628,1,0,0:0:0:0:
320,192,2125722,1,0,0:0:0:0:
64,192,2125722,1,0,0:0:0:0:
192,192,2125722,1,0,0:0:0:0:
192,192,2125815,1,0,0:0:0:0:
320,192,2125909,1,0,0:0:0:0:
448,192,2125909,1,0,0:0:0:0:
64,192,2125909,1,0,0:0:0:0:
64,192,2126003,1,0,0:0:0:0:
192,192,2126097,1,0,0:0:0:0:
320,192,2126097,1,0,0:0:0:0:
448,192,2126097,1,0,0:0:0:0:
448,192,2126190,1,0,0:0:0:0:
64,192,2126190,1,0,0:0:0:0:
192,192,2126284,1,0,0:0:0:0:
64,192,2126284,1,0,0:0:0:0:
320,192,2126284,1,0,0:0:0:0:
320,192,2126378,1,0,0:0:0:0:
448,192,2126472,1,0,0:0:0:0:
192,192,2126472,1,0,0:0:0:0:
64,192,2126472,1,0,0:0:0:0:
192,192,2126565,1,0,0:0:0:0:
448,192,2126565,1,0,0:0:0:0:
320,192,2126565,1,0,0:0:0:0:
64,192,2126753,1,0,0:0:0:0:
320,192,2126753,1,0,0:0:0:0:
192,192,2126753,1,0,0:0:0:0:
64,192,2126940,1,0,0:0:0:0:
320,192,2126940,1,0,0:0:0:0:
448,192,2126940,1,0,0:0:0:0:
192,192,2127034,1,0,0:0:0:0:
448,192,2127034,1,0,0:0:0:0:
320,192,2127128,1,0,0:0:0:0:
64,192,2127128,1,0,0:0:0:0:
192,192,2127128,1,0,0:0:0:0:
64,192,2127315,1,0,0:0:0:0:
320,192,2127315,1,0,0:0:0:0:
448,192,2127315,1,0,0:0:0:0:
192,192,2127409,1,0,0:0:0:0:
448,192,2127409,1,0,0:0:0:0:
320,192,2127409,1,0,0:0:0:0:
192,192,2127503,1,0,0:0:0:0:
64,192,2127597,1,0,0:0:0:0:
448,192,2127597,1,0,0:0:0:0:
320,192,2127690,1,0,0:0:0:0:
192,192,2127690,1,0,0:0:0:0:
64,192,2127784,1,0,0:0:0:0:
448,192,2127784,1,0,0:0:0:0:
320,192,2127878,1,0,0:0:0:0:
192,192,2127878,1,0,0:0:0:0:
320,192,2127972,1,0,0:0:0:0:
448,192,2127972,1,0,0:0:0:0:
192,192,2127972,1,0,0:0:0:0:
64,192,2127972,1,0,0:0:0:0:
64,192,2128065,1,0,0:0:0:0:
448,192,2128065,1,0,0:0:0:0:
320,192,2128159,1,0,0:0:0:0:
192,192,2128159,1,0,0:0:0:0:
64,192,2128159,1,0,0:0:0:0:
192,192,2128253,1,0,0:0:0:0:
448,192,2128253,1,0,0:0:0:0:
320,192,2128347,1,0,0:0:0:0:
448,192,2128347,1,0,0:0:0:0:
64,192,2128347,1,0,0:0:0:0:
192,192,2128440,1,0,0:0:0:0:
320,192,2128440,1,0,0:0:0:0:
192,192,2128534,1,0,0:0:0:0:
64,192,2128534,1,0,0:0:0:0:
448,192,2128534,1,0,0:0:0:0:
448,192,2128628,1,0,0:0:0:0:
320,192,2128722,1,0,0:0:0:0:
192,192,2128722,1,0,0:0:0:0:
64,192,2128722,1,0,0:0:0:0:
64,192,2128815,1,0,0:0:0:0:
192,192,2128909,1,0,0:0:0:0:
320,192,2128909,1,0,0:0:0:0:
448,192,2128909,1,0,0:0:0:0:
320,192,2129003,1,0,0:0:0:0:
192,192,2129097,1,0,0:0:0:0:
64,192,2129097,1,0,0:0:0:0:
448,192,2129097,1,0,0:0:0:0:
192,192,2129190,1,0,0:0:0:0:
448,192,2129284,1,0,0:0:0:0:
64,192,2129284,1,0,0:0:0:0:
320,192,2129284,1,0,0:0:0:0:
448,192,2129378,1,0,0:0:0:0:
320,192,2129472,1,0,0:0:0:0:
192,192,2129472,1,0,0:0:0:0:
64,192,2129472,1,0,0:0:0:0:
192,192,2129565,1,0,0:0:0:0:
448,192,2129659,1,0,0:0:0:0:
320,192,2129659,1,0,0:0:0:0:
64,192,2129659,1,0,0:0:0:0:
192,192,2129753,1,0,0:0:0:0:
64,192,2129753,1,0,0:0:0:0:
448,192,2129753,1,0,0:0:0:0:
192,192,2129940,1,0,0:0:0:0:
320,192,2129940,1,0,0:0:0:0:
448,192,2129940,1,0,0:0:0:0:
320,192,2130034,1,0,0:0:0:0:
192,192,2130034,1,0,0:0:0:0:
64,192,2130034,1,0,0:0:0:0:
64,192,2130128,1,0,0:0:0:0:
192,192,2130222,1,0,0:0:0:0:
320,192,2130222,1,0,0:0:0:0:
448,192,2130222,1,0,0:0:0:0:
448,192,2130315,1,0,0:0:0:0:
192,192,2130409,1,0,0:0:0:0:
64,192,2130409,1,0,0:0:0:0:
192,192,2130503,1,0,0:0:0:0:
320,192,2130503,1,0,0:0:0:0:
320,192,2130597,1,0,0:0:0:0:
448,192,2130597,1,0,0:0:0:0:
448,192,2130690,1,0,0:0:0:0:
192,192,2130690,1,0,0:0:0:0:
320,192,2130784,1,0,0:0:0:0:
192,192,2130784,1,0,0:0:0:0:
64,192,2130878,1,0,0:0:0:0:
320,192,2130878,1,0,0:0:0:0:
192,192,2130972,1,0,0:0:0:0:
64,192,2130972,1,0,0:0:0:0:
448,192,2130972,1,0,0:0:0:0:
320,192,2131065,1,0,0:0:0:0:
448,192,2131065,1,0,0:0:0:0:
320,192,2131159,1,0,0:0:0:0:
192,192,2131159,1,0,0:0:0:0:
192,192,2131253,1,0,0:0:0:0:
448,192,2131253,1,0,0:0:0:0:
448,192,2131347,1,0,0:0:0:0:
64,192,2131347,1,0,0:0:0:0:
320,192,2131440,1,0,0:0:0:0:
64,192,2131440,1,0,0:0:0:0:
192,192,2131534,1,0,0:0:0:0:
320,192,2131534,1,0,0:0:0:0:
192,192,2131628,1,0,0:0:0:0:
64,192,2131628,1,0,0:0:0:0:
64,192,2131722,1,0,0:0:0:0:
448,192,2131722,1,0,0:0:0:0:
192,192,2131815,1,0,0:0:0:0:
448,192,2131815,1,0,0:0:0:0:
192,192,2131909,1,0,0:0:0:0:
320,192,2131956,1,0,0:0:0:0:
448,192,2132003,1,0,0:0:0:0:
64,192,2132003,1,0,0:0:0:0:
64,192,2132097,1,0,0:0:0:0:
192,192,2132097,1,0,0:0:0:0:
192,192,2132190,1,0,0:0:0:0:
320,192,2132190,1,0,0:0:0:0:
448,192,2132284,1,0,0:0:0:0:
320,192,2132284,1,0,0:0:0:0:
448,192,2132378,1,0,0:0:0:0:
192,192,2132378,1,0,0:0:0:0:
320,192,2132472,1,0,0:0:0:0:
192,192,2132472,1,0,0:0:0:0:
64,192,2132565,1,0,0:0:0:0:
320,192,2132565,1,0,0:0:0:0:
64,192,2132659,1,0,0:0:0:0:
192,192,2132706,1,0,0:0:0:0:
320,192,2132753,1,0,0:0:0:0:
448,192,2132753,1,0,0:0:0:0:
448,192,2132847,1,0,0:0:0:0:
192,192,2132847,1,0,0:0:0:0:
192,192,2132940,1,0,0:0:0:0:
320,192,2133034,1,0,0:0:0:0:
448,192,2133034,1,0,0:0:0:0:
64,192,2133034,1,0,0:0:0:0:
320,192,2133128,1,0,0:0:0:0:
192,192,2133222,1,0,0:0:0:0:
64,192,2133222,1,0,0:0:0:0:
448,192,2133315,1,0,0:0:0:0:
320,192,2133315,1,0,0:0:0:0:
192,192,2133409,1,0,0:0:0:0:
64,192,2133409,1,0,0:0:0:0:
320,192,2133503,1,0,0:0:0:0:
448,192,2133503,1,0,0:0:0:0:
448,192,2133597,1,0,0:0:0:0:
192,192,2133597,1,0,0:0:0:0:
320,192,2133690,1,0,0:0:0:0:
64,192,2133690,1,0,0:0:0:0:
192,192,2133784,1,0,0:0:0:0:
448,192,2133784,1,0,0:0:0:0:
320,192,2133878,1,0,0:0:0:0:
64,192,2133878,1,0,0:0:0:0:
192,192,2133972,1,0,0:0:0:0:
448,192,2133972,1,0,0:0:0:0:
64,192,2133972,128,0,2134112:0:0:0:0:
64,192,2134159,128,0,2134206:0:0:0:0:
192,192,2134253,128,0,2134300:0:0:0:0:
64,192,2134347,128,0,2134487:0:0:0:0:
192,192,2134534,128,0,2134581:0:0:0:0:
448,192,2134628,128,0,2134675:0:0:0:0:
320,192,2134722,128,0,2134956:0:0:0:0:
192,192,2135003,128,0,2135237:0:0:0:0:
64,192,2135284,128,0,2135425:0:0:0:0:
448,192,2135472,128,0,2135612:0:0:0:0:
448,192,2135659,128,0,2135706:0:0:0:0:
320,192,2135753,128,0,2135800:0:0:0:0:
448,192,2135847,128,0,2135987:0:0:0:0:
448,192,2136034,128,0,2136081:0:0:0:0:
320,192,2136128,128,0,2136175:0:0:0:0:
192,192,2136222,128,0,2136456:0:0:0:0:
64,192,2136503,128,0,2136737:0:0:0:0:
192,192,2136784,128,0,2136925:0:0:0:0:
320,192,2136972,1,0,0:0:0:0:
448,192,2136972,1,0,0:0:0:0:
192,192,2136972,1,0,0:0:0:0:
64,192,2136972,1,0,0:0:0:0:
320,192,2137065,1,0,0:0:0:0:
192,192,2137159,1,0,0:0:0:0:
64,192,2137159,1,0,0:0:0:0:
448,192,2137159,1,0,0:0:0:0:
192,192,2137253,1,0,0:0:0:0:
320,192,2137347,1,0,0:0:0:0:
448,192,2137347,1,0,0:0:0:0:
64,192,2137347,1,0,0:0:0:0:
448,192,2137440,1,0,0:0:0:0:
320,192,2137534,1,0,0:0:0:0:
192,192,2137534,1,0,0:0:0:0:
64,192,2137534,1,0,0:0:0:0:
64,192,2137628,1,0,0:0:0:0:
192,192,2137722,1,0,0:0:0:0:
320,192,2137722,1,0,0:0:0:0:
448,192,2137722,1,0,0:0:0:0:
448,192,2137815,1,0,0:0:0:0:
320,192,2137909,1,0,0:0:0:0:
192,192,2137909,1,0,0:0:0:0:
64,192,2137909,1,0,0:0:0:0:
192,192,2138003,1,0,0:0:0:0:
448,192,2138097,1,0,0:0:0:0:
320,192,2138097,1,0,0:0:0:0:
64,192,2138097,1,0,0:0:0:0:
320,192,2138190,1,0,0:0:0:0:
448,192,2138284,1,0,0:0:0:0:
192,192,2138284,1,0,0:0:0:0:
64,192,2138284,1,0,0:0:0:0:
64,192,2138378,1,0,0:0:0:0:
192,192,2138472,1,0,0:0:0:0:
320,192,2138472,1,0,0:0:0:0:
448,192,2138472,1,0,0:0:0:0:
192,192,2138565,1,0,0:0:0:0:
320,192,2138659,1,0,0:0:0:0:
448,192,2138659,1,0,0:0:0:0:
64,192,2138659,1,0,0:0:0:0:
448,192,2138753,1,0,0:0:0:0:
320,192,2138847,1,0,0:0:0:0:
64,192,2138847,1,0,0:0:0:0:
192,192,2138847,1,0,0:0:0:0:
64,192,2138940,1,0,0:0:0:0:
192,192,2139034,1,0,0:0:0:0:
320,192,2139034,1,0,0:0:0:0:
448,192,2139034,1,0,0:0:0:0:
320,192,2139128,1,0,0:0:0:0:
448,192,2139222,1,0,0:0:0:0:
192,192,2139222,1,0,0:0:0:0:
64,192,2139222,1,0,0:0:0:0:
64,192,2139315,1,0,0:0:0:0:
192,192,2139409,1,0,0:0:0:0:
320,192,2139409,1,0,0:0:0:0:
448,192,2139409,1,0,0:0:0:0:
192,192,2139503,1,0,0:0:0:0:
320,192,2139597,1,0,0:0:0:0:
448,192,2139597,1,0,0:0:0:0:
64,192,2139597,1,0,0:0:0:0:
320,192,2139784,1,0,0:0:0:0:
448,192,2139972,1,0,0:0:0:0:
320,192,2139972,1,0,0:0:0:0:
64,192,2139972,1,0,0:0:0:0:
192,192,2139972,1,0,0:0:0:0:
64,192,2140065,1,0,0:0:0:0:
448,192,2140065,1,0,0:0:0:0:
320,192,2140159,1,0,0:0:0:0:
448,192,2140159,1,0,0:0:0:0:
192,192,2140159,1,0,0:0:0:0:
64,192,2140253,1,0,0:0:0:0:
320,192,2140253,1,0,0:0:0:0:
448,192,2140347,1,0,0:0:0:0:
64,192,2140347,1,0,0:0:0:0:
192,192,2140347,1,0,0:0:0:0:
448,192,2140440,1,0,0:0:0:0:
320,192,2140534,1,0,0:0:0:0:
192,192,2140534,1,0,0:0:0:0:
64,192,2140534,1,0,0:0:0:0:
192,192,2140628,1,0,0:0:0:0:
320,192,2140722,1,0,0:0:0:0:
448,192,2140722,1,0,0:0:0:0:
64,192,2140722,1,0,0:0:0:0:
320,192,2140815,1,0,0:0:0:0:
64,192,2140909,1,0,0:0:0:0:
192,192,2140909,1,0,0:0:0:0:
448,192,2140909,1,0,0:0:0:0:
64,192,2141003,1,0,0:0:0:0:
192,192,2141097,1,0,0:0:0:0:
320,192,2141097,1,0,0:0:0:0:
448,192,2141097,1,0,0:0:0:0:
448,192,2141190,1,0,0:0:0:0:
320,192,2141284,1,0,0:0:0:0:
192,192,2141284,1,0,0:0:0:0:
64,192,2141284,1,0,0:0:0:0:
192,192,2141378,1,0,0:0:0:0:
320,192,2141472,1,0,0:0:0:0:
448,192,2141472,1,0,0:0:0:0:
64,192,2141472,1,0,0:0:0:0:
448,192,2141565,1,0,0:0:0:0:
192,192,2141565,1,0,0:0:0:0:
320,192,2141659,1,0,0:0:0:0:
192,192,2141659,1,0,0:0:0:0:
64,192,2141659,1,0,0:0:0:0:
64,192,2141753,1,0,0:0:0:0:
448,192,2141753,1,0,0:0:0:0:
320,192,2141847,1,0,0:0:0:0:
448,192,2141847,1,0,0:0:0:0:
192,192,2141847,1,0,0:0:0:0:
320,192,2141940,1,0,0:0:0:0:
192,192,2142034,1,0,0:0:0:0:
448,192,2142034,1,0,0:0:0:0:
64,192,2142034,1,0,0:0:0:0:
64,192,2142128,1,0,0:0:0:0:
192,192,2142222,1,0,0:0:0:0:
320,192,2142222,1,0,0:0:0:0:
448,192,2142222,1,0,0:0:0:0:
448,192,2142315,1,0,0:0:0:0:
320,192,2142409,1,0,0:0:0:0:
64,192,2142409,1,0,0:0:0:0:
192,192,2142409,1,0,0:0:0:0:
192,192,2142503,1,0,0:0:0:0:
320,192,2142597,1,0,0:0:0:0:
64,192,2142597,1,0,0:0:0:0:
448,192,2142597,1,0,0:0:0:0:
192,192,2142690,1,0,0:0:0:0:
448,192,2142690,1,0,0:0:0:0:
320,192,2142690,1,0,0:0:0:0:
192,192,2142784,1,0,0:0:0:0:
64,192,2142784,1,0,0:0:0:0:
320,192,2142831,1,0,0:0:0:0:
448,192,2142831,1,0,0:0:0:0:
192,192,2142878,1,0,0:0:0:0:
64,192,2142878,1,0,0:0:0:0:
320,192,2142972,1,0,0:0:0:0:
448,192,2142972,1,0,0:0:0:0:
448,192,2143065,1,0,0:0:0:0:
64,192,2143065,1,0,0:0:0:0:
320,192,2143159,1,0,0:0:0:0:
64,192,2143159,1,0,0:0:0:0:
192,192,2143253,1,0,0:0:0:0:
320,192,2143253,1,0,0:0:0:0:
192,192,2143347,1,0,0:0:0:0:
448,192,2143347,1,0,0:0:0:0:
448,192,2143440,1,0,0:0:0:0:
64,192,2143440,1,0,0:0:0:0:
192,192,2143534,1,0,0:0:0:0:
64,192,2143534,1,0,0:0:0:0:
192,192,2143628,1,0,0:0:0:0:
320,192,2143628,1,0,0:0:0:0:
320,192,2143722,1,0,0:0:0:0:
448,192,2143722,1,0,0:0:0:0:
192,192,2143768,1,0,0:0:0:0:
64,192,2143768,1,0,0:0:0:0:
320,192,2143815,1,0,0:0:0:0:
448,192,2143815,1,0,0:0:0:0:
64,192,2143909,1,0,0:0:0:0:
192,192,2143909,1,0,0:0:0:0:
448,192,2144003,1,0,0:0:0:0:
64,192,2144003,1,0,0:0:0:0:
448,192,2144097,1,0,0:0:0:0:
192,192,2144097,1,0,0:0:0:0:
320,192,2144143,1,0,0:0:0:0:
64,192,2144143,1,0,0:0:0:0:
192,192,2144190,1,0,0:0:0:0:
448,192,2144190,1,0,0:0:0:0:
320,192,2144284,1,0,0:0:0:0:
64,192,2144284,1,0,0:0:0:0:
192,192,2144331,1,0,0:0:0:0:
448,192,2144331,1,0,0:0:0:0:
320,192,2144378,1,0,0:0:0:0:
64,192,2144378,1,0,0:0:0:0:
192,192,2144472,1,0,0:0:0:0:
448,192,2144472,1,0,0:0:0:0:
320,192,2144565,1,0,0:0:0:0:
192,192,2144565,1,0,0:0:0:0:
320,192,2144659,1,0,0:0:0:0:
64,192,2144659,1,0,0:0:0:0:
64,192,2144753,1,0,0:0:0:0:
448,192,2144753,1,0,0:0:0:0:
320,192,2144847,5,0,0:0:0:0:
448,192,2144847,1,0,0:0:0:0:
320,192,2144940,1,0,0:0:0:0:
192,192,2144940,1,0,0:0:0:0:
192,192,2145034,1,0,0:0:0:0:
64,192,2145034,1,0,0:0:0:0:
64,192,2145128,1,0,0:0:0:0:
320,192,2145128,1,0,0:0:0:0:
320,192,2145222,1,0,0:0:0:0:
448,192,2145222,1,0,0:0:0:0:
192,192,2145268,1,0,0:0:0:0:
64,192,2145268,1,0,0:0:0:0:
448,192,2145315,1,0,0:0:0:0:
320,192,2145315,1,0,0:0:0:0:
192,192,2145362,1,0,0:0:0:0:
64,192,2145362,1,0,0:0:0:0:
320,192,2145409,1,0,0:0:0:0:
448,192,2145409,1,0,0:0:0:0:
192,192,2145456,1,0,0:0:0:0:
64,192,2145456,1,0,0:0:0:0:
320,192,2145503,1,0,0:0:0:0:
448,192,2145503,1,0,0:0:0:0:
192,192,2145550,1,0,0:0:0:0:
64,192,2145550,1,0,0:0:0:0:
448,192,2145597,1,0,0:0:0:0:
320,192,2145620,1,0,0:0:0:0:
192,192,2145643,1,0,0:0:0:0:
64,192,2145667,1,0,0:0:0:0:
448,192,2145690,1,0,0:0:0:0:
320,192,2145714,1,0,0:0:0:0:
192,192,2145737,1,0,0:0:0:0:
64,192,2145761,1,0,0:0:0:0:
320,192,2145784,1,0,0:0:0:0:
448,192,2145807,1,0,0:0:0:0:
64,192,2145831,1,0,0:0:0:0:
192,192,2145854,1,0,0:0:0:0:
320,192,2145878,1,0,0:0:0:0:
448,192,2145901,1,0,0:0:0:0:
64,192,2145925,1,0,0:0:0:0:
192,192,2145948,1,0,0:0:0:0:
448,192,2145972,5,0,0:0:0:0:
320,192,2145972,1,0,0:0:0:0:
192,192,2146347,1,0,0:0:0:0:
64,192,2146534,1,0,0:0:0:0:
192,192,2146909,1,0,0:0:0:0:
64,192,2147097,1,0,0:0:0:0:
192,192,2147284,1,0,0:0:0:0:
448,192,2147472,1,0,0:0:0:0:
192,192,2147847,1,0,0:0:0:0:
64,192,2148034,1,0,0:0:0:0:
192,192,2148409,1,0,0:0:0:0:
64,192,2148597,1,0,0:0:0:0:
192,192,2148784,1,0,0:0:0:0:
448,192,2148972,1,0,0:0:0:0:
192,192,2149347,1,0,0:0:0:0:
64,192,2149534,1,0,0:0:0:0:
192,192,2149909,1,0,0:0:0:0:
64,192,2150097,1,0,0:0:0:0:
192,192,2150284,1,0,0:0:0:0:
448,192,2150472,1,0,0:0:0:0:
192,192,2150847,1,0,0:0:0:0:
64,192,2151034,1,0,0:0:0:0:
192,192,2151409,1,0,0:0:0:0:
64,192,2151597,1,0,0:0:0:0:
192,192,2151784,1,0,0:0:0:0:
448,192,2151972,1,0,0:0:0:0:
320,192,2152065,1,0,0:0:0:0:
192,192,2152159,1,0,0:0:0:0:
64,192,2152347,1,0,0:0:0:0:
320,192,2152440,1,0,0:0:0:0:
448,192,2152534,1,0,0:0:0:0:
192,192,2152722,1,0,0:0:0:0:
320,192,2152815,1,0,0:0:0:0:
64,192,2152909,1,0,0:0:0:0:
448,192,2153097,1,0,0:0:0:0:
192,192,2153190,1,0,0:0:0:0:
64,192,2153284,1,0,0:0:0:0:
320,192,2153472,1,0,0:0:0:0:
448,192,2153565,1,0,0:0:0:0:
192,192,2153659,1,0,0:0:0:0:
64,192,2153847,1,0,0:0:0:0:
320,192,2153940,1,0,0:0:0:0:
448,192,2154034,1,0,0:0:0:0:
192,192,2154222,1,0,0:0:0:0:
320,192,2154315,1,0,0:0:0:0:
64,192,2154409,1,0,0:0:0:0:
448,192,2154597,1,0,0:0:0:0:
320,192,2154690,1,0,0:0:0:0:
64,192,2154784,1,0,0:0:0:0:
448,192,2154831,1,0,0:0:0:0:
192,192,2154878,1,0,0:0:0:0:
64,192,2154925,1,0,0:0:0:0:
320,192,2154972,1,0,0:0:0:0:
448,192,2155065,1,0,0:0:0:0:
192,192,2155159,1,0,0:0:0:0:
64,192,2155347,1,0,0:0:0:0:
192,192,2155440,1,0,0:0:0:0:
448,192,2155534,1,0,0:0:0:0:
320,192,2155722,1,0,0:0:0:0:
192,192,2155815,1,0,0:0:0:0:
64,192,2155909,1,0,0:0:0:0:
448,192,2156097,1,0,0:0:0:0:
320,192,2156190,1,0,0:0:0:0:
64,192,2156284,1,0,0:0:0:0:
320,192,2156472,1,0,0:0:0:0:
192,192,2156565,1,0,0:0:0:0:
448,192,2156659,1,0,0:0:0:0:
64,192,2156847,1,0,0:0:0:0:
320,192,2156940,1,0,0:0:0:0:
448,192,2157034,1,0,0:0:0:0:
320,192,2157222,1,0,0:0:0:0:
192,192,2157315,1,0,0:0:0:0:
64,192,2157409,1,0,0:0:0:0:
448,192,2157597,1,0,0:0:0:0:
192,192,2157690,1,0,0:0:0:0:
64,192,2157784,1,0,0:0:0:0:
320,192,2157831,1,0,0:0:0:0:
448,192,2157878,1,0,0:0:0:0:
192,192,2157925,1,0,0:0:0:0:
320,192,2157972,1,0,0:0:0:0:
64,192,2157972,1,0,0:0:0:0:
448,192,2158065,1,0,0:0:0:0:
192,192,2158159,1,0,0:0:0:0:
320,192,2158347,1,0,0:0:0:0:
64,192,2158440,1,0,0:0:0:0:
448,192,2158534,1,0,0:0:0:0:
64,192,2158722,128,0,2159097:0:0:0:0:
192,192,2158815,1,0,0:0:0:0:
320,192,2158909,1,0,0:0:0:0:
448,192,2159097,1,0,0:0:0:0:
192,192,2159190,1,0,0:0:0:0:
320,192,2159284,1,0,0:0:0:0:
448,192,2159472,1,0,0:0:0:0:
192,192,2159472,1,0,0:0:0:0:
320,192,2159565,1,0,0:0:0:0:
64,192,2159659,1,0,0:0:0:0:
320,192,2159847,128,0,2160222:0:0:0:0:
192,192,2159940,1,0,0:0:0:0:
448,192,2160034,1,0,0:0:0:0:
64,192,2160222,1,0,0:0:0:0:
448,192,2160222,1,0,0:0:0:0:
192,192,2160315,1,0,0:0:0:0:
320,192,2160409,1,0,0:0:0:0:
448,192,2160597,1,0,0:0:0:0:
64,192,2160690,1,0,0:0:0:0:
320,192,2160784,1,0,0:0:0:0:
192,192,2160831,1,0,0:0:0:0:
448,192,2160878,1,0,0:0:0:0:
320,192,2160925,1,0,0:0:0:0:
64,192,2160972,1,0,0:0:0:0:
192,192,2160972,1,0,0:0:0:0:
448,192,2161065,1,0,0:0:0:0:
320,192,2161159,1,0,0:0:0:0:
64,192,2161347,1,0,0:0:0:0:
192,192,2161440,1,0,0:0:0:0:
448,192,2161534,1,0,0:0:0:0:
192,192,2161722,128,0,2162097:0:0:0:0:
64,192,2161815,1,0,0:0:0:0:
320,192,2161909,1,0,0:0:0:0:
448,192,2162097,1,0,0:0:0:0:
192,192,2162190,1,0,0:0:0:0:
320,192,2162284,1,0,0:0:0:0:
448,192,2162472,1,0,0:0:0:0:
192,192,2162472,1,0,0:0:0:0:
320,192,2162565,1,0,0:0:0:0:
64,192,2162659,1,0,0:0:0:0:
192,192,2162847,1,0,0:0:0:0:
320,192,2162847,1,0,0:0:0:0:
64,192,2162940,1,0,0:0:0:0:
192,192,2163034,1,0,0:0:0:0:
448,192,2163034,1,0,0:0:0:0:
64,192,2163222,128,0,2163597:0:0:0:0:
448,192,2163222,1,0,0:0:0:0:
320,192,2163315,1,0,0:0:0:0:
192,192,2163409,1,0,0:0:0:0:
448,192,2163597,1,0,0:0:0:0:
320,192,2163690,1,0,0:0:0:0:
448,192,2163784,1,0,0:0:0:0:
192,192,2163831,1,0,0:0:0:0:
320,192,2163878,1,0,0:0:0:0:
64,192,2163925,1,0,0:0:0:0:
192,192,2163972,1,0,0:0:0:0:
448,192,2163972,1,0,0:0:0:0:
320,192,2164065,1,0,0:0:0:0:
320,192,2164347,1,0,0:0:0:0:
64,192,2164440,1,0,0:0:0:0:
448,192,2164534,1,0,0:0:0:0:
192,192,2164722,128,0,2165097:0:0:0:0:
448,192,2164815,1,0,0:0:0:0:
320,192,2164909,1,0,0:0:0:0:
448,192,2165097,1,0,0:0:0:0:
64,192,2165190,1,0,0:0:0:0:
320,192,2165284,1,0,0:0:0:0:
64,192,2165472,1,0,0:0:0:0:
192,192,2165565,1,0,0:0:0:0:
448,192,2165659,1,0,0:0:0:0:
320,192,2165847,128,0,2166222:0:0:0:0:
192,192,2165940,1,0,0:0:0:0:
448,192,2166034,1,0,0:0:0:0:
64,192,2166222,1,0,0:0:0:0:
192,192,2166222,1,0,0:0:0:0:
448,192,2166315,1,0,0:0:0:0:
320,192,2166409,1,0,0:0:0:0:
448,192,2166597,1,0,0:0:0:0:
64,192,2166690,1,0,0:0:0:0:
320,192,2166784,1,0,0:0:0:0:
192,192,2166831,1,0,0:0:0:0:
448,192,2166878,1,0,0:0:0:0:
320,192,2166925,1,0,0:0:0:0:
64,192,2166972,1,0,0:0:0:0:
192,192,2166972,1,0,0:0:0:0:
448,192,2167065,1,0,0:0:0:0:
320,192,2167159,1,0,0:0:0:0:
64,192,2167347,1,0,0:0:0:0:
192,192,2167440,1,0,0:0:0:0:
448,192,2167534,1,0,0:0:0:0:
64,192,2167722,128,0,2168097:0:0:0:0:
448,192,2167815,1,0,0:0:0:0:
320,192,2167909,1,0,0:0:0:0:
448,192,2168097,1,0,0:0:0:0:
192,192,2168190,1,0,0:0:0:0:
320,192,2168284,1,0,0:0:0:0:
64,192,2168472,1,0,0:0:0:0:
320,192,2168565,1,0,0:0:0:0:
448,192,2168659,1,0,0:0:0:0:
192,192,2168659,1,0,0:0:0:0:
192,192,2168847,1,0,0:0:0:0:
320,192,2168847,1,0,0:0:0:0:
320,192,2169034,1,0,0:0:0:0:
448,192,2169034,1,0,0:0:0:0:
448,192,2169222,1,0,0:0:0:0:
64,192,2169222,128,0,2169597:0:0:0:0:
192,192,2169315,1,0,0:0:0:0:
320,192,2169409,1,0,0:0:0:0:
448,192,2169597,1,0,0:0:0:0:
192,192,2169690,1,0,0:0:0:0:
320,192,2169784,1,0,0:0:0:0:
448,192,2169831,1,0,0:0:0:0:
64,192,2169878,1,0,0:0:0:0:
320,192,2169925,1,0,0:0:0:0:
