osu file format v14

[General]
AudioFilename: audio.mp3
AudioLeadIn: 0
PreviewTime: 0
Countdown: 0
SampleSet: Drum
StackLeniency: 0.7
Mode: 3
LetterboxInBreaks: 0
SpecialStyle: 0
WidescreenStoryboard: 1

[Editor]
DistanceSpacing: 1.7
BeatDivisor: 2
GridSize: 16
TimelineZoom: 3.339998

[Metadata]
Title:chaotic solutions
TitleUnicode:chaotic solutions
Artist:Kobaryo
ArtistUnicode:Kobaryo
Creator:Worms
Version:07 - G4M3-0V3R!!1
Source:Psycho Filth Records
Tags:full album speedcore 紅燐。 game over!!!
BeatmapID:1450153
BeatmapSetID:685233

[Difficulty]
HPDrainRate:8.5
CircleSize:4
OverallDifficulty:9
ApproachRate:5
SliderMultiplier:1.4
SliderTickRate:1

[Events]
//Background and Video events
0,0,"chaotic solutions.png",0,0
//Break Periods
//Storyboard Layer 0 (Background)
//Storyboard Layer 1 (Fail)
//Storyboard Layer 2 (Pass)
//Storyboard Layer 3 (Foreground)
//Storyboard Layer 4 (Overlay)
//Storyboard Sound Samples

[TimingPoints]
1030180,135.135135135135,4,3,0,20,1,0
1047477,-100,4,3,0,20,0,1
1063693,-100,4,3,0,20,0,0
1064774,-100,4,3,0,20,0,1
1080990,-100,4,3,0,20,0,0
1090720,-100,4,3,0,20,0,1
1106936,-100,4,3,0,20,0,0
1127477,-100,4,3,0,20,0,1
1143693,-100,4,3,0,20,0,0

[HitObjects]
192,192,1030179,5,0,0:0:0:0:
64,192,1030179,1,0,0:0:0:0:
448,192,1030179,128,0,1030315:0:0:0:0:
320,192,1030315,1,0,0:0:0:0:
192,192,1030382,1,0,0:0:0:0:
320,192,1030450,1,0,0:0:0:0:
192,192,1030517,1,0,0:0:0:0:
448,192,1030585,128,0,1030720:0:0:0:0:
192,192,1030720,1,0,0:0:0:0:
320,192,1030788,1,0,0:0:0:0:
192,192,1030855,1,0,0:0:0:0:
320,192,1030923,1,0,0:0:0:0:
448,192,1030990,128,0,1031125:0:0:0:0:
320,192,1031125,1,0,0:0:0:0:
192,192,1031193,1,0,0:0:0:0:
320,192,1031261,1,0,0:0:0:0:
192,192,1031328,1,0,0:0:0:0:
448,192,1031396,128,0,1031531:0:0:0:0:
320,192,1031531,128,0,1031666:0:0:0:0:
448,192,1031666,128,0,1031801:0:0:0:0:
320,192,1031801,128,0,1031936:0:0:0:0:
192,192,1031936,128,0,1032071:0:0:0:0:
64,192,1032071,128,0,1032207:0:0:0:0:
192,192,1032207,128,0,1032342:0:0:0:0:
448,192,1032342,1,0,0:0:0:0:
64,192,1032342,128,0,1032477:0:0:0:0:
320,192,1032342,1,0,0:0:0:0:
192,192,1032477,1,0,0:0:0:0:
320,192,1032544,1,0,0:0:0:0:
192,192,1032612,1,0,0:0:0:0:
320,192,1032679,1,0,0:0:0:0:
64,192,1032747,128,0,1032882:0:0:0:0:
320,192,1032882,1,0,0:0:0:0:
192,192,1032950,1,0,0:0:0:0:
320,192,1033017,1,0,0:0:0:0:
192,192,1033085,1,0,0:0:0:0:
64,192,1033152,128,0,1033288:0:0:0:0:
192,192,1033288,1,0,0:0:0:0:
320,192,1033355,1,0,0:0:0:0:
192,192,1033423,1,0,0:0:0:0:
320,192,1033490,1,0,0:0:0:0:
64,192,1033558,128,0,1033693:0:0:0:0:
192,192,1033693,128,0,1033828:0:0:0:0:
64,192,1033828,128,0,1033963:0:0:0:0:
448,192,1033963,128,0,1034098:0:0:0:0:
320,192,1034098,128,0,1034234:0:0:0:0:
192,192,1034234,128,0,1034369:0:0:0:0:
448,192,1034369,128,0,1034504:0:0:0:0:
192,192,1034504,1,0,0:0:0:0:
64,192,1034504,1,0,0:0:0:0:
320,192,1034504,128,0,1034639:0:0:0:0:
448,192,1034639,1,0,0:0:0:0:
64,192,1034707,1,0,0:0:0:0:
448,192,1034774,1,0,0:0:0:0:
64,192,1034842,1,0,0:0:0:0:
320,192,1034909,128,0,1035044:0:0:0:0:
64,192,1035044,1,0,0:0:0:0:
448,192,1035112,1,0,0:0:0:0:
64,192,1035179,1,0,0:0:0:0:
448,192,1035247,1,0,0:0:0:0:
320,192,1035315,128,0,1035450:0:0:0:0:
448,192,1035450,1,0,0:0:0:0:
64,192,1035517,1,0,0:0:0:0:
448,192,1035585,1,0,0:0:0:0:
64,192,1035652,1,0,0:0:0:0:
320,192,1035720,128,0,1035855:0:0:0:0:
192,192,1035855,128,0,1035990:0:0:0:0:
320,192,1035990,128,0,1036125:0:0:0:0:
192,192,1036125,128,0,1036261:0:0:0:0:
64,192,1036261,128,0,1036396:0:0:0:0:
448,192,1036396,128,0,1036531:0:0:0:0:
64,192,1036531,128,0,1036666:0:0:0:0:
320,192,1036666,1,0,0:0:0:0:
192,192,1036666,128,0,1036801:0:0:0:0:
448,192,1036666,1,0,0:0:0:0:
64,192,1036801,1,0,0:0:0:0:
448,192,1036869,1,0,0:0:0:0:
64,192,1036936,1,0,0:0:0:0:
448,192,1037004,1,0,0:0:0:0:
192,192,1037071,128,0,1037207:0:0:0:0:
448,192,1037207,1,0,0:0:0:0:
64,192,1037274,1,0,0:0:0:0:
448,192,1037342,1,0,0:0:0:0:
64,192,1037409,1,0,0:0:0:0:
192,192,1037477,128,0,1037612:0:0:0:0:
64,192,1037612,1,0,0:0:0:0:
448,192,1037679,1,0,0:0:0:0:
64,192,1037747,1,0,0:0:0:0:
448,192,1037815,1,0,0:0:0:0:
192,192,1037882,128,0,1038017:0:0:0:0:
320,192,1038017,128,0,1038152:0:0:0:0:
192,192,1038152,128,0,1038288:0:0:0:0:
64,192,1038288,128,0,1038423:0:0:0:0:
192,192,1038423,128,0,1038558:0:0:0:0:
320,192,1038558,128,0,1038693:0:0:0:0:
448,192,1038693,128,0,1038828:0:0:0:0:
64,192,1038828,128,0,1038963:0:0:0:0:
192,192,1038828,1,0,0:0:0:0:
320,192,1038828,1,0,0:0:0:0:
448,192,1038963,1,0,0:0:0:0:
192,192,1039031,1,0,0:0:0:0:
448,192,1039098,1,0,0:0:0:0:
192,192,1039166,1,0,0:0:0:0:
64,192,1039234,128,0,1039369:0:0:0:0:
192,192,1039369,1,0,0:0:0:0:
448,192,1039436,1,0,0:0:0:0:
192,192,1039504,1,0,0:0:0:0:
448,192,1039571,1,0,0:0:0:0:
64,192,1039639,128,0,1039774:0:0:0:0:
448,192,1039774,1,0,0:0:0:0:
192,192,1039842,1,0,0:0:0:0:
320,192,1039909,1,0,0:0:0:0:
448,192,1039909,1,0,0:0:0:0:
192,192,1039977,1,0,0:0:0:0:
64,192,1040044,128,0,1040179:0:0:0:0:
192,192,1040179,128,0,1040315:0:0:0:0:
64,192,1040315,128,0,1040450:0:0:0:0:
320,192,1040450,128,0,1040585:0:0:0:0:
448,192,1040585,128,0,1040720:0:0:0:0:
192,192,1040720,128,0,1040855:0:0:0:0:
64,192,1040855,128,0,1040990:0:0:0:0:
448,192,1040990,128,0,1041125:0:0:0:0:
192,192,1040990,1,0,0:0:0:0:
320,192,1040990,1,0,0:0:0:0:
64,192,1041125,1,0,0:0:0:0:
320,192,1041193,1,0,0:0:0:0:
64,192,1041261,1,0,0:0:0:0:
320,192,1041328,1,0,0:0:0:0:
448,192,1041396,128,0,1041531:0:0:0:0:
320,192,1041531,1,0,0:0:0:0:
64,192,1041598,1,0,0:0:0:0:
320,192,1041666,1,0,0:0:0:0:
64,192,1041734,1,0,0:0:0:0:
448,192,1041801,128,0,1041936:0:0:0:0:
64,192,1041936,1,0,0:0:0:0:
320,192,1042004,1,0,0:0:0:0:
192,192,1042071,1,0,0:0:0:0:
64,192,1042071,1,0,0:0:0:0:
320,192,1042139,1,0,0:0:0:0:
448,192,1042207,128,0,1042342:0:0:0:0:
320,192,1042342,128,0,1042477:0:0:0:0:
448,192,1042477,128,0,1042612:0:0:0:0:
64,192,1042612,128,0,1042747:0:0:0:0:
192,192,1042747,128,0,1042882:0:0:0:0:
448,192,1042882,128,0,1043017:0:0:0:0:
64,192,1043017,128,0,1043152:0:0:0:0:
320,192,1043152,128,0,1043288:0:0:0:0:
192,192,1043152,1,0,0:0:0:0:
448,192,1043152,1,0,0:0:0:0:
64,192,1043288,1,0,0:0:0:0:
192,192,1043355,1,0,0:0:0:0:
64,192,1043423,1,0,0:0:0:0:
192,192,1043490,1,0,0:0:0:0:
320,192,1043558,128,0,1043693:0:0:0:0:
192,192,1043693,1,0,0:0:0:0:
448,192,1043693,1,0,0:0:0:0:
64,192,1043761,1,0,0:0:0:0:
192,192,1043828,1,0,0:0:0:0:
64,192,1043896,1,0,0:0:0:0:
320,192,1043963,128,0,1044098:0:0:0:0:
64,192,1044098,1,0,0:0:0:0:
192,192,1044166,1,0,0:0:0:0:
448,192,1044234,1,0,0:0:0:0:
64,192,1044234,1,0,0:0:0:0:
192,192,1044301,1,0,0:0:0:0:
320,192,1044369,128,0,1044504:0:0:0:0:
448,192,1044504,128,0,1044639:0:0:0:0:
320,192,1044639,128,0,1044774:0:0:0:0:
448,192,1044774,1,0,0:0:0:0:
192,192,1044774,128,0,1044909:0:0:0:0:
64,192,1044909,128,0,1045044:0:0:0:0:
448,192,1045044,1,0,0:0:0:0:
320,192,1045078,1,0,0:0:0:0:
64,192,1045112,1,0,0:0:0:0:
192,192,1045146,1,0,0:0:0:0:
320,192,1045179,1,0,0:0:0:0:
448,192,1045213,1,0,0:0:0:0:
192,192,1045247,1,0,0:0:0:0:
64,192,1045281,1,0,0:0:0:0:
448,192,1045315,1,0,0:0:0:0:
320,192,1045315,1,0,0:0:0:0:
64,192,1045382,1,0,0:0:0:0:
192,192,1045382,1,0,0:0:0:0:
448,192,1045450,1,0,0:0:0:0:
320,192,1045484,1,0,0:0:0:0:
192,192,1045517,1,0,0:0:0:0:
64,192,1045551,1,0,0:0:0:0:
448,192,1045585,1,0,0:0:0:0:
320,192,1045585,1,0,0:0:0:0:
192,192,1045652,1,0,0:0:0:0:
64,192,1045720,1,0,0:0:0:0:
448,192,1045720,1,0,0:0:0:0:
320,192,1045788,1,0,0:0:0:0:
192,192,1045788,1,0,0:0:0:0:
64,192,1045855,1,0,0:0:0:0:
448,192,1045855,1,0,0:0:0:0:
320,192,1045923,1,0,0:0:0:0:
64,192,1045990,1,0,0:0:0:0:
192,192,1045990,1,0,0:0:0:0:
448,192,1046058,1,0,0:0:0:0:
320,192,1046058,1,0,0:0:0:0:
192,192,1046125,1,0,0:0:0:0:
64,192,1046159,1,0,0:0:0:0:
320,192,1046193,1,0,0:0:0:0:
448,192,1046227,1,0,0:0:0:0:
64,192,1046261,1,0,0:0:0:0:
192,192,1046294,1,0,0:0:0:0:
448,192,1046328,1,0,0:0:0:0:
320,192,1046362,1,0,0:0:0:0:
64,192,1047477,1,0,0:0:0:0:
320,192,1047477,1,0,0:0:0:0:
448,192,1047477,1,0,0:0:0:0:
192,192,1047544,1,0,0:0:0:0:
320,192,1047612,1,0,0:0:0:0:
448,192,1047612,1,0,0:0:0:0:
64,192,1047679,1,0,0:0:0:0:
448,192,1047747,1,0,0:0:0:0:
192,192,1047747,1,0,0:0:0:0:
320,192,1047815,1,0,0:0:0:0:
64,192,1047882,1,0,0:0:0:0:
192,192,1047882,1,0,0:0:0:0:
448,192,1047950,1,0,0:0:0:0:
64,192,1048017,1,0,0:0:0:0:
320,192,1048017,1,0,0:0:0:0:
192,192,1048085,1,0,0:0:0:0:
448,192,1048152,1,0,0:0:0:0:
320,192,1048152,1,0,0:0:0:0:
192,192,1048220,1,0,0:0:0:0:
448,192,1048288,1,0,0:0:0:0:
64,192,1048288,1,0,0:0:0:0:
320,192,1048355,1,0,0:0:0:0:
64,192,1048423,1,0,0:0:0:0:
192,192,1048423,1,0,0:0:0:0:
448,192,1048490,1,0,0:0:0:0:
320,192,1048558,1,0,0:0:0:0:
192,192,1048558,1,0,0:0:0:0:
64,192,1048625,1,0,0:0:0:0:
448,192,1048693,1,0,0:0:0:0:
320,192,1048693,1,0,0:0:0:0:
192,192,1048761,1,0,0:0:0:0:
448,192,1048828,1,0,0:0:0:0:
64,192,1048828,1,0,0:0:0:0:
192,192,1048896,1,0,0:0:0:0:
64,192,1048963,1,0,0:0:0:0:
320,192,1048963,1,0,0:0:0:0:
448,192,1049031,1,0,0:0:0:0:
320,192,1049098,1,0,0:0:0:0:
192,192,1049098,1,0,0:0:0:0:
64,192,1049166,1,0,0:0:0:0:
448,192,1049234,1,0,0:0:0:0:
192,192,1049234,1,0,0:0:0:0:
320,192,1049301,1,0,0:0:0:0:
64,192,1049369,1,0,0:0:0:0:
448,192,1049369,1,0,0:0:0:0:
320,192,1049436,1,0,0:0:0:0:
64,192,1049504,1,0,0:0:0:0:
192,192,1049504,1,0,0:0:0:0:
448,192,1049571,1,0,0:0:0:0:
192,192,1049639,1,0,0:0:0:0:
320,192,1049639,1,0,0:0:0:0:
64,192,1049707,1,0,0:0:0:0:
448,192,1049774,1,0,0:0:0:0:
320,192,1049774,1,0,0:0:0:0:
192,192,1049842,1,0,0:0:0:0:
448,192,1049909,1,0,0:0:0:0:
64,192,1049909,1,0,0:0:0:0:
320,192,1049977,1,0,0:0:0:0:
64,192,1050044,1,0,0:0:0:0:
192,192,1050044,1,0,0:0:0:0:
320,192,1050112,1,0,0:0:0:0:
192,192,1050179,1,0,0:0:0:0:
448,192,1050179,1,0,0:0:0:0:
64,192,1050247,1,0,0:0:0:0:
448,192,1050315,1,0,0:0:0:0:
320,192,1050315,1,0,0:0:0:0:
192,192,1050382,1,0,0:0:0:0:
64,192,1050450,1,0,0:0:0:0:
320,192,1050450,1,0,0:0:0:0:
448,192,1050517,1,0,0:0:0:0:
64,192,1050585,1,0,0:0:0:0:
192,192,1050585,1,0,0:0:0:0:
448,192,1050652,1,0,0:0:0:0:
192,192,1050720,1,0,0:0:0:0:
320,192,1050720,1,0,0:0:0:0:
64,192,1050788,1,0,0:0:0:0:
448,192,1050855,1,0,0:0:0:0:
320,192,1050855,1,0,0:0:0:0:
192,192,1050923,1,0,0:0:0:0:
64,192,1050990,1,0,0:0:0:0:
448,192,1050990,1,0,0:0:0:0:
320,192,1051058,1,0,0:0:0:0:
192,192,1051125,1,0,0:0:0:0:
64,192,1051125,1,0,0:0:0:0:
448,192,1051193,1,0,0:0:0:0:
192,192,1051261,1,0,0:0:0:0:
320,192,1051261,1,0,0:0:0:0:
64,192,1051328,1,0,0:0:0:0:
448,192,1051396,1,0,0:0:0:0:
320,192,1051396,1,0,0:0:0:0:
192,192,1051463,1,0,0:0:0:0:
448,192,1051531,1,0,0:0:0:0:
64,192,1051531,1,0,0:0:0:0:
192,192,1051598,1,0,0:0:0:0:
320,192,1051598,1,0,0:0:0:0:
64,192,1051666,1,0,0:0:0:0:
448,192,1051666,1,0,0:0:0:0:
320,192,1051734,1,0,0:0:0:0:
192,192,1051734,1,0,0:0:0:0:
64,192,1051801,1,0,0:0:0:0:
448,192,1051801,1,0,0:0:0:0:
320,192,1051869,1,0,0:0:0:0:
64,192,1051936,1,0,0:0:0:0:
192,192,1051936,1,0,0:0:0:0:
448,192,1052004,1,0,0:0:0:0:
320,192,1052071,1,0,0:0:0:0:
192,192,1052071,1,0,0:0:0:0:
448,192,1052139,1,0,0:0:0:0:
320,192,1052207,1,0,0:0:0:0:
64,192,1052207,1,0,0:0:0:0:
192,192,1052274,1,0,0:0:0:0:
64,192,1052342,1,0,0:0:0:0:
448,192,1052342,1,0,0:0:0:0:
320,192,1052409,1,0,0:0:0:0:
448,192,1052477,1,0,0:0:0:0:
192,192,1052477,1,0,0:0:0:0:
64,192,1052544,1,0,0:0:0:0:
320,192,1052612,1,0,0:0:0:0:
192,192,1052612,1,0,0:0:0:0:
448,192,1052679,1,0,0:0:0:0:
64,192,1052747,1,0,0:0:0:0:
320,192,1052747,1,0,0:0:0:0:
192,192,1052815,1,0,0:0:0:0:
448,192,1052882,1,0,0:0:0:0:
64,192,1052882,1,0,0:0:0:0:
192,192,1052950,1,0,0:0:0:0:
448,192,1053017,1,0,0:0:0:0:
320,192,1053017,1,0,0:0:0:0:
64,192,1053085,1,0,0:0:0:0:
192,192,1053152,1,0,0:0:0:0:
320,192,1053152,1,0,0:0:0:0:
448,192,1053220,1,0,0:0:0:0:
64,192,1053288,1,0,0:0:0:0:
192,192,1053288,1,0,0:0:0:0:
320,192,1053355,1,0,0:0:0:0:
64,192,1053423,1,0,0:0:0:0:
448,192,1053423,1,0,0:0:0:0:
192,192,1053490,1,0,0:0:0:0:
448,192,1053558,1,0,0:0:0:0:
320,192,1053558,1,0,0:0:0:0:
64,192,1053625,1,0,0:0:0:0:
192,192,1053693,1,0,0:0:0:0:
320,192,1053693,1,0,0:0:0:0:
448,192,1053761,1,0,0:0:0:0:
64,192,1053828,1,0,0:0:0:0:
192,192,1053828,1,0,0:0:0:0:
448,192,1053896,1,0,0:0:0:0:
64,192,1053963,1,0,0:0:0:0:
320,192,1053963,1,0,0:0:0:0:
192,192,1054031,1,0,0:0:0:0:
448,192,1054098,1,0,0:0:0:0:
320,192,1054098,1,0,0:0:0:0:
64,192,1054166,1,0,0:0:0:0:
448,192,1054234,1,0,0:0:0:0:
192,192,1054234,1,0,0:0:0:0:
320,192,1054301,1,0,0:0:0:0:
64,192,1054369,1,0,0:0:0:0:
192,192,1054369,1,0,0:0:0:0:
320,192,1054436,1,0,0:0:0:0:
448,192,1054504,1,0,0:0:0:0:
64,192,1054504,1,0,0:0:0:0:
192,192,1054571,1,0,0:0:0:0:
320,192,1054639,1,0,0:0:0:0:
448,192,1054639,1,0,0:0:0:0:
64,192,1054707,1,0,0:0:0:0:
320,192,1054774,1,0,0:0:0:0:
192,192,1054774,1,0,0:0:0:0:
64,192,1054842,1,0,0:0:0:0:
448,192,1054909,1,0,0:0:0:0:
192,192,1054909,1,0,0:0:0:0:
320,192,1054977,1,0,0:0:0:0:
448,192,1055044,1,0,0:0:0:0:
64,192,1055044,1,0,0:0:0:0:
192,192,1055112,1,0,0:0:0:0:
320,192,1055112,1,0,0:0:0:0:
448,192,1055179,1,0,0:0:0:0:
64,192,1055179,1,0,0:0:0:0:
192,192,1055247,1,0,0:0:0:0:
320,192,1055247,1,0,0:0:0:0:
448,192,1055315,1,0,0:0:0:0:
64,192,1055315,1,0,0:0:0:0:
192,192,1055382,1,0,0:0:0:0:
320,192,1055382,1,0,0:0:0:0:
448,192,1055450,1,0,0:0:0:0:
64,192,1055450,1,0,0:0:0:0:
192,192,1055517,1,0,0:0:0:0:
320,192,1055517,1,0,0:0:0:0:
64,192,1055585,1,0,0:0:0:0:
448,192,1055619,1,0,0:0:0:0:
192,192,1055652,1,0,0:0:0:0:
320,192,1055686,1,0,0:0:0:0:
448,192,1055720,1,0,0:0:0:0:
64,192,1055720,1,0,0:0:0:0:
192,192,1055788,1,0,0:0:0:0:
320,192,1055788,1,0,0:0:0:0:
448,192,1055855,1,0,0:0:0:0:
64,192,1055889,1,0,0:0:0:0:
320,192,1055923,1,0,0:0:0:0:
192,192,1055957,1,0,0:0:0:0:
64,192,1055990,1,0,0:0:0:0:
448,192,1055990,1,0,0:0:0:0:
192,192,1056058,1,0,0:0:0:0:
320,192,1056058,1,0,0:0:0:0:
64,192,1056125,1,0,0:0:0:0:
448,192,1056125,1,0,0:0:0:0:
192,192,1056193,1,0,0:0:0:0:
64,192,1056261,1,0,0:0:0:0:
448,192,1056261,1,0,0:0:0:0:
320,192,1056328,1,0,0:0:0:0:
64,192,1056396,1,0,0:0:0:0:
192,192,1056396,1,0,0:0:0:0:
448,192,1056463,1,0,0:0:0:0:
64,192,1056531,1,0,0:0:0:0:
192,192,1056531,1,0,0:0:0:0:
320,192,1056598,1,0,0:0:0:0:
192,192,1056666,1,0,0:0:0:0:
448,192,1056666,1,0,0:0:0:0:
320,192,1056734,1,0,0:0:0:0:
192,192,1056801,1,0,0:0:0:0:
448,192,1056801,1,0,0:0:0:0:
64,192,1056869,1,0,0:0:0:0:
448,192,1056936,1,0,0:0:0:0:
320,192,1056936,1,0,0:0:0:0:
192,192,1057004,1,0,0:0:0:0:
448,192,1057071,1,0,0:0:0:0:
320,192,1057071,1,0,0:0:0:0:
64,192,1057139,1,0,0:0:0:0:
320,192,1057207,1,0,0:0:0:0:
192,192,1057207,1,0,0:0:0:0:
448,192,1057274,1,0,0:0:0:0:
192,192,1057342,1,0,0:0:0:0:
320,192,1057342,1,0,0:0:0:0:
64,192,1057409,1,0,0:0:0:0:
448,192,1057477,1,0,0:0:0:0:
192,192,1057477,1,0,0:0:0:0:
64,192,1057544,1,0,0:0:0:0:
448,192,1057612,1,0,0:0:0:0:
192,192,1057612,1,0,0:0:0:0:
320,192,1057679,1,0,0:0:0:0:
448,192,1057747,1,0,0:0:0:0:
64,192,1057747,1,0,0:0:0:0:
192,192,1057815,1,0,0:0:0:0:
64,192,1057882,1,0,0:0:0:0:
320,192,1057882,1,0,0:0:0:0:
448,192,1057950,1,0,0:0:0:0:
64,192,1058017,1,0,0:0:0:0:
320,192,1058017,1,0,0:0:0:0:
192,192,1058085,1,0,0:0:0:0:
448,192,1058152,1,0,0:0:0:0:
320,192,1058152,1,0,0:0:0:0:
192,192,1058220,1,0,0:0:0:0:
448,192,1058288,1,0,0:0:0:0:
320,192,1058288,1,0,0:0:0:0:
64,192,1058355,1,0,0:0:0:0:
448,192,1058423,1,0,0:0:0:0:
192,192,1058423,1,0,0:0:0:0:
320,192,1058490,1,0,0:0:0:0:
192,192,1058558,1,0,0:0:0:0:
64,192,1058558,1,0,0:0:0:0:
448,192,1058625,1,0,0:0:0:0:
64,192,1058693,1,0,0:0:0:0:
192,192,1058693,1,0,0:0:0:0:
320,192,1058761,1,0,0:0:0:0:
64,192,1058828,1,0,0:0:0:0:
448,192,1058828,1,0,0:0:0:0:
192,192,1058896,1,0,0:0:0:0:
64,192,1058963,1,0,0:0:0:0:
448,192,1058963,1,0,0:0:0:0:
320,192,1059031,1,0,0:0:0:0:
448,192,1059098,1,0,0:0:0:0:
192,192,1059098,1,0,0:0:0:0:
64,192,1059166,1,0,0:0:0:0:
192,192,1059234,1,0,0:0:0:0:
448,192,1059234,1,0,0:0:0:0:
64,192,1059301,1,0,0:0:0:0:
320,192,1059369,1,0,0:0:0:0:
192,192,1059369,1,0,0:0:0:0:
448,192,1059436,1,0,0:0:0:0:
192,192,1059504,1,0,0:0:0:0:
320,192,1059504,1,0,0:0:0:0:
64,192,1059571,1,0,0:0:0:0:
448,192,1059639,1,0,0:0:0:0:
320,192,1059639,1,0,0:0:0:0:
64,192,1059707,1,0,0:0:0:0:
448,192,1059774,1,0,0:0:0:0:
320,192,1059774,1,0,0:0:0:0:
192,192,1059842,1,0,0:0:0:0:
64,192,1059909,1,0,0:0:0:0:
448,192,1059909,1,0,0:0:0:0:
320,192,1059977,1,0,0:0:0:0:
448,192,1060044,1,0,0:0:0:0:
64,192,1060044,1,0,0:0:0:0:
192,192,1060112,1,0,0:0:0:0:
64,192,1060179,1,0,0:0:0:0:
320,192,1060179,1,0,0:0:0:0:
192,192,1060247,1,0,0:0:0:0:
448,192,1060247,1,0,0:0:0:0:
64,192,1060315,1,0,0:0:0:0:
320,192,1060315,1,0,0:0:0:0:
192,192,1060382,1,0,0:0:0:0:
448,192,1060382,1,0,0:0:0:0:
64,192,1060450,1,0,0:0:0:0:
320,192,1060450,1,0,0:0:0:0:
448,192,1060517,1,0,0:0:0:0:
64,192,1060585,1,0,0:0:0:0:
320,192,1060585,1,0,0:0:0:0:
192,192,1060652,1,0,0:0:0:0:
448,192,1060720,1,0,0:0:0:0:
320,192,1060720,1,0,0:0:0:0:
192,192,1060788,1,0,0:0:0:0:
448,192,1060855,1,0,0:0:0:0:
320,192,1060855,1,0,0:0:0:0:
64,192,1060923,1,0,0:0:0:0:
448,192,1060990,1,0,0:0:0:0:
192,192,1060990,1,0,0:0:0:0:
320,192,1061058,1,0,0:0:0:0:
448,192,1061125,1,0,0:0:0:0:
192,192,1061125,1,0,0:0:0:0:
64,192,1061193,1,0,0:0:0:0:
192,192,1061261,1,0,0:0:0:0:
320,192,1061261,1,0,0:0:0:0:
448,192,1061328,1,0,0:0:0:0:
192,192,1061396,1,0,0:0:0:0:
320,192,1061396,1,0,0:0:0:0:
448,192,1061463,1,0,0:0:0:0:
64,192,1061531,1,0,0:0:0:0:
320,192,1061531,1,0,0:0:0:0:
192,192,1061598,1,0,0:0:0:0:
64,192,1061666,1,0,0:0:0:0:
320,192,1061666,1,0,0:0:0:0:
448,192,1061734,1,0,0:0:0:0:
64,192,1061801,1,0,0:0:0:0:
192,192,1061801,1,0,0:0:0:0:
448,192,1061869,1,0,0:0:0:0:
64,192,1061936,1,0,0:0:0:0:
192,192,1061936,1,0,0:0:0:0:
320,192,1062004,1,0,0:0:0:0:
448,192,1062071,1,0,0:0:0:0:
192,192,1062071,1,0,0:0:0:0:
64,192,1062139,1,0,0:0:0:0:
448,192,1062207,1,0,0:0:0:0:
192,192,1062207,1,0,0:0:0:0:
320,192,1062274,1,0,0:0:0:0:
448,192,1062342,1,0,0:0:0:0:
64,192,1062342,1,0,0:0:0:0:
192,192,1062409,1,0,0:0:0:0:
448,192,1062477,1,0,0:0:0:0:
64,192,1062477,1,0,0:0:0:0:
320,192,1062544,1,0,0:0:0:0:
64,192,1062612,1,0,0:0:0:0:
192,192,1062612,1,0,0:0:0:0:
448,192,1062679,1,0,0:0:0:0:
320,192,1062679,1,0,0:0:0:0:
64,192,1062747,1,0,0:0:0:0:
192,192,1062781,1,0,0:0:0:0:
448,192,1062815,1,0,0:0:0:0:
320,192,1062848,1,0,0:0:0:0:
64,192,1062882,1,0,0:0:0:0:
192,192,1062882,1,0,0:0:0:0:
448,192,1062950,1,0,0:0:0:0:
64,192,1063017,1,0,0:0:0:0:
192,192,1063017,1,0,0:0:0:0:
320,192,1063085,1,0,0:0:0:0:
448,192,1063152,1,0,0:0:0:0:
192,192,1063152,1,0,0:0:0:0:
64,192,1063220,1,0,0:0:0:0:
448,192,1063288,1,0,0:0:0:0:
192,192,1063288,1,0,0:0:0:0:
64,192,1063355,1,0,0:0:0:0:
320,192,1063355,1,0,0:0:0:0:
448,192,1063423,1,0,0:0:0:0:
192,192,1063457,1,0,0:0:0:0:
320,192,1063490,1,0,0:0:0:0:
64,192,1063524,1,0,0:0:0:0:
448,192,1063558,1,0,0:0:0:0:
192,192,1063592,1,0,0:0:0:0:
64,192,1063625,1,0,0:0:0:0:
320,192,1063659,1,0,0:0:0:0:
448,192,1063693,128,0,1063794:0:0:0:0:
192,192,1063693,1,0,0:0:0:0:
64,192,1063761,128,0,1063828:0:0:0:0:
320,192,1063828,128,0,1063929:0:0:0:0:
448,192,1063896,128,0,1063963:0:0:0:0:
192,192,1063963,128,0,1064065:0:0:0:0:
320,192,1064031,128,0,1064098:0:0:0:0:
64,192,1064098,128,0,1064200:0:0:0:0:
192,192,1064166,128,0,1064234:0:0:0:0:
320,192,1064234,128,0,1064740:0:0:0:0:
448,192,1064234,128,0,1064740:0:0:0:0:
64,192,1064504,128,0,1064740:0:0:0:0:
192,192,1064504,128,0,1064740:0:0:0:0:
448,192,1064774,1,0,0:0:0:0:
64,192,1064774,1,0,0:0:0:0:
192,192,1064774,1,0,0:0:0:0:
320,192,1064774,1,0,0:0:0:0:
448,192,1064909,1,0,0:0:0:0:
320,192,1064909,1,0,0:0:0:0:
192,192,1064909,1,0,0:0:0:0:
64,192,1065044,1,0,0:0:0:0:
192,192,1065044,1,0,0:0:0:0:
320,192,1065044,1,0,0:0:0:0:
448,192,1065179,1,0,0:0:0:0:
192,192,1065179,1,0,0:0:0:0:
64,192,1065179,1,0,0:0:0:0:
64,192,1065315,1,0,0:0:0:0:
448,192,1065315,1,0,0:0:0:0:
320,192,1065315,1,0,0:0:0:0:
320,192,1065450,1,0,0:0:0:0:
192,192,1065450,1,0,0:0:0:0:
64,192,1065450,1,0,0:0:0:0:
320,192,1065585,1,0,0:0:0:0:
192,192,1065585,1,0,0:0:0:0:
448,192,1065585,1,0,0:0:0:0:
448,192,1065720,1,0,0:0:0:0:
192,192,1065720,1,0,0:0:0:0:
64,192,1065720,1,0,0:0:0:0:
64,192,1065855,1,0,0:0:0:0:
448,192,1065855,1,0,0:0:0:0:
320,192,1065855,1,0,0:0:0:0:
320,192,1065990,1,0,0:0:0:0:
64,192,1065990,1,0,0:0:0:0:
192,192,1065990,1,0,0:0:0:0:
448,192,1066125,1,0,0:0:0:0:
64,192,1066125,1,0,0:0:0:0:
192,192,1066125,1,0,0:0:0:0:
448,192,1066261,1,0,0:0:0:0:
320,192,1066261,1,0,0:0:0:0:
192,192,1066261,1,0,0:0:0:0:
448,192,1066396,1,0,0:0:0:0:
64,192,1066396,1,0,0:0:0:0:
320,192,1066396,1,0,0:0:0:0:
64,192,1066531,1,0,0:0:0:0:
192,192,1066531,1,0,0:0:0:0:
320,192,1066531,1,0,0:0:0:0:
448,192,1066666,1,0,0:0:0:0:
64,192,1066666,1,0,0:0:0:0:
192,192,1066666,1,0,0:0:0:0:
320,192,1066801,1,0,0:0:0:0:
448,192,1066801,1,0,0:0:0:0:
192,192,1066801,1,0,0:0:0:0:
320,192,1066936,1,0,0:0:0:0:
192,192,1066936,1,0,0:0:0:0:
64,192,1066936,1,0,0:0:0:0:
448,192,1067071,1,0,0:0:0:0:
64,192,1067071,1,0,0:0:0:0:
320,192,1067071,1,0,0:0:0:0:
448,192,1067207,1,0,0:0:0:0:
64,192,1067207,1,0,0:0:0:0:
192,192,1067207,1,0,0:0:0:0:
448,192,1067342,1,0,0:0:0:0:
192,192,1067342,1,0,0:0:0:0:
320,192,1067342,1,0,0:0:0:0:
64,192,1067477,1,0,0:0:0:0:
192,192,1067477,1,0,0:0:0:0:
320,192,1067477,1,0,0:0:0:0:
448,192,1067612,1,0,0:0:0:0:
192,192,1067612,1,0,0:0:0:0:
64,192,1067612,1,0,0:0:0:0:
64,192,1067747,1,0,0:0:0:0:
448,192,1067747,1,0,0:0:0:0:
320,192,1067747,1,0,0:0:0:0:
192,192,1067882,1,0,0:0:0:0:
448,192,1067882,1,0,0:0:0:0:
320,192,1067882,1,0,0:0:0:0:
64,192,1068017,1,0,0:0:0:0:
192,192,1068017,1,0,0:0:0:0:
320,192,1068017,1,0,0:0:0:0:
192,192,1068152,1,0,0:0:0:0:
448,192,1068152,1,0,0:0:0:0:
64,192,1068152,1,0,0:0:0:0:
320,192,1068288,1,0,0:0:0:0:
448,192,1068288,1,0,0:0:0:0:
192,192,1068288,1,0,0:0:0:0:
448,192,1068423,1,0,0:0:0:0:
64,192,1068423,1,0,0:0:0:0:
320,192,1068423,1,0,0:0:0:0:
192,192,1068558,1,0,0:0:0:0:
320,192,1068592,1,0,0:0:0:0:
64,192,1068625,1,0,0:0:0:0:
448,192,1068659,1,0,0:0:0:0:
192,192,1068693,1,0,0:0:0:0:
320,192,1068693,1,0,0:0:0:0:
64,192,1068761,1,0,0:0:0:0:
448,192,1068761,1,0,0:0:0:0:
192,192,1068828,1,0,0:0:0:0:
320,192,1068828,1,0,0:0:0:0:
64,192,1068896,1,0,0:0:0:0:
448,192,1068896,1,0,0:0:0:0:
192,192,1068963,1,0,0:0:0:0:
320,192,1068963,1,0,0:0:0:0:
448,192,1069031,1,0,0:0:0:0:
64,192,1069031,1,0,0:0:0:0:
192,192,1069098,1,0,0:0:0:0:
320,192,1069098,1,0,0:0:0:0:
64,192,1069234,1,0,0:0:0:0:
192,192,1069234,1,0,0:0:0:0:
448,192,1069234,1,0,0:0:0:0:
448,192,1069369,1,0,0:0:0:0:
320,192,1069369,1,0,0:0:0:0:
64,192,1069369,1,0,0:0:0:0:
448,192,1069504,1,0,0:0:0:0:
320,192,1069504,1,0,0:0:0:0:
192,192,1069504,1,0,0:0:0:0:
448,192,1069639,1,0,0:0:0:0:
64,192,1069639,1,0,0:0:0:0:
192,192,1069639,1,0,0:0:0:0:
64,192,1069774,1,0,0:0:0:0:
192,192,1069774,1,0,0:0:0:0:
320,192,1069774,1,0,0:0:0:0:
448,192,1069909,1,0,0:0:0:0:
320,192,1069909,1,0,0:0:0:0:
64,192,1069909,1,0,0:0:0:0:
448,192,1070044,1,0,0:0:0:0:
320,192,1070044,1,0,0:0:0:0:
192,192,1070044,1,0,0:0:0:0:
64,192,1070179,1,0,0:0:0:0:
192,192,1070179,1,0,0:0:0:0:
448,192,1070179,1,0,0:0:0:0:
448,192,1070315,1,0,0:0:0:0:
320,192,1070315,1,0,0:0:0:0:
64,192,1070315,1,0,0:0:0:0:
64,192,1070450,1,0,0:0:0:0:
192,192,1070450,1,0,0:0:0:0:
320,192,1070450,1,0,0:0:0:0:
448,192,1070585,1,0,0:0:0:0:
320,192,1070585,1,0,0:0:0:0:
192,192,1070585,1,0,0:0:0:0:
448,192,1070720,1,0,0:0:0:0:
192,192,1070720,1,0,0:0:0:0:
64,192,1070720,1,0,0:0:0:0:
192,192,1070855,1,0,0:0:0:0:
64,192,1070855,1,0,0:0:0:0:
320,192,1070855,1,0,0:0:0:0:
448,192,1070990,1,0,0:0:0:0:
320,192,1070990,1,0,0:0:0:0:
64,192,1070990,1,0,0:0:0:0:
448,192,1071125,1,0,0:0:0:0:
320,192,1071125,1,0,0:0:0:0:
192,192,1071125,1,0,0:0:0:0:
64,192,1071261,1,0,0:0:0:0:
192,192,1071261,1,0,0:0:0:0:
448,192,1071261,1,0,0:0:0:0:
64,192,1071396,1,0,0:0:0:0:
192,192,1071396,1,0,0:0:0:0:
320,192,1071396,1,0,0:0:0:0:
448,192,1071531,1,0,0:0:0:0:
320,192,1071531,1,0,0:0:0:0:
64,192,1071531,1,0,0:0:0:0:
448,192,1071666,1,0,0:0:0:0:
320,192,1071666,1,0,0:0:0:0:
192,192,1071666,1,0,0:0:0:0:
448,192,1071801,1,0,0:0:0:0:
64,192,1071801,1,0,0:0:0:0:
192,192,1071801,1,0,0:0:0:0:
64,192,1071936,1,0,0:0:0:0:
192,192,1071936,1,0,0:0:0:0:
320,192,1071936,1,0,0:0:0:0:
448,192,1072071,1,0,0:0:0:0:
320,192,1072071,1,0,0:0:0:0:
192,192,1072071,1,0,0:0:0:0:
448,192,1072207,1,0,0:0:0:0:
320,192,1072207,1,0,0:0:0:0:
64,192,1072207,1,0,0:0:0:0:
64,192,1072342,1,0,0:0:0:0:
192,192,1072342,1,0,0:0:0:0:
448,192,1072409,1,0,0:0:0:0:
320,192,1072409,1,0,0:0:0:0:
192,192,1072477,128,0,1072612:0:0:0:0:
64,192,1072477,128,0,1072612:0:0:0:0:
448,192,1072612,1,0,0:0:0:0:
320,192,1072646,1,0,0:0:0:0:
192,192,1072679,1,0,0:0:0:0:
64,192,1072713,1,0,0:0:0:0:
448,192,1072747,1,0,0:0:0:0:
320,192,1072747,1,0,0:0:0:0:
64,192,1072815,1,0,0:0:0:0:
192,192,1072815,1,0,0:0:0:0:
320,192,1072882,128,0,1073017:0:0:0:0:
448,192,1072882,128,0,1073017:0:0:0:0:
64,192,1073017,1,0,0:0:0:0:
192,192,1073051,1,0,0:0:0:0:
320,192,1073085,1,0,0:0:0:0:
448,192,1073119,1,0,0:0:0:0:
64,192,1073152,1,0,0:0:0:0:
192,192,1073152,1,0,0:0:0:0:
448,192,1073220,1,0,0:0:0:0:
320,192,1073220,1,0,0:0:0:0:
64,192,1073288,1,0,0:0:0:0:
192,192,1073288,1,0,0:0:0:0:
448,192,1073355,1,0,0:0:0:0:
320,192,1073355,1,0,0:0:0:0:
320,192,1073423,1,0,0:0:0:0:
448,192,1073423,1,0,0:0:0:0:
192,192,1073423,1,0,0:0:0:0:
64,192,1073423,1,0,0:0:0:0:
64,192,1073558,1,0,0:0:0:0:
192,192,1073558,1,0,0:0:0:0:
320,192,1073558,1,0,0:0:0:0:
448,192,1073693,1,0,0:0:0:0:
320,192,1073693,1,0,0:0:0:0:
64,192,1073693,1,0,0:0:0:0:
192,192,1073693,1,0,0:0:0:0:
64,192,1073828,1,0,0:0:0:0:
448,192,1073828,1,0,0:0:0:0:
192,192,1073828,1,0,0:0:0:0:
448,192,1073963,1,0,0:0:0:0:
320,192,1073963,1,0,0:0:0:0:
192,192,1073963,1,0,0:0:0:0:
64,192,1074098,1,0,0:0:0:0:
320,192,1074098,1,0,0:0:0:0:
448,192,1074098,1,0,0:0:0:0:
64,192,1074234,1,0,0:0:0:0:
192,192,1074234,1,0,0:0:0:0:
320,192,1074234,1,0,0:0:0:0:
448,192,1074369,1,0,0:0:0:0:
320,192,1074369,1,0,0:0:0:0:
192,192,1074369,1,0,0:0:0:0:
64,192,1074504,1,0,0:0:0:0:
448,192,1074504,1,0,0:0:0:0:
192,192,1074504,1,0,0:0:0:0:
448,192,1074639,1,0,0:0:0:0:
64,192,1074639,1,0,0:0:0:0:
320,192,1074639,1,0,0:0:0:0:
64,192,1074774,1,0,0:0:0:0:
192,192,1074774,1,0,0:0:0:0:
320,192,1074774,1,0,0:0:0:0:
320,192,1074909,1,0,0:0:0:0:
448,192,1074909,1,0,0:0:0:0:
192,192,1074909,1,0,0:0:0:0:
448,192,1075044,1,0,0:0:0:0:
64,192,1075044,1,0,0:0:0:0:
192,192,1075044,1,0,0:0:0:0:
64,192,1075179,1,0,0:0:0:0:
192,192,1075179,1,0,0:0:0:0:
320,192,1075179,1,0,0:0:0:0:
448,192,1075315,1,0,0:0:0:0:
320,192,1075315,1,0,0:0:0:0:
64,192,1075315,1,0,0:0:0:0:
448,192,1075450,1,0,0:0:0:0:
320,192,1075450,1,0,0:0:0:0:
192,192,1075450,1,0,0:0:0:0:
64,192,1075585,1,0,0:0:0:0:
192,192,1075585,1,0,0:0:0:0:
448,192,1075585,1,0,0:0:0:0:
448,192,1075720,1,0,0:0:0:0:
320,192,1075720,1,0,0:0:0:0:
64,192,1075720,1,0,0:0:0:0:
64,192,1075855,1,0,0:0:0:0:
192,192,1075855,1,0,0:0:0:0:
320,192,1075855,1,0,0:0:0:0:
320,192,1075990,1,0,0:0:0:0:
448,192,1075990,1,0,0:0:0:0:
192,192,1075990,1,0,0:0:0:0:
64,192,1076125,1,0,0:0:0:0:
192,192,1076125,1,0,0:0:0:0:
448,192,1076125,1,0,0:0:0:0:
448,192,1076261,1,0,0:0:0:0:
320,192,1076261,1,0,0:0:0:0:
64,192,1076261,1,0,0:0:0:0:
192,192,1076396,1,0,0:0:0:0:
320,192,1076396,1,0,0:0:0:0:
448,192,1076396,1,0,0:0:0:0:
320,192,1076531,1,0,0:0:0:0:
192,192,1076531,1,0,0:0:0:0:
64,192,1076531,1,0,0:0:0:0:
448,192,1076666,1,0,0:0:0:0:
192,192,1076666,1,0,0:0:0:0:
64,192,1076666,1,0,0:0:0:0:
64,192,1076801,1,0,0:0:0:0:
448,192,1076801,1,0,0:0:0:0:
320,192,1076801,1,0,0:0:0:0:
448,192,1076936,1,0,0:0:0:0:
320,192,1076936,1,0,0:0:0:0:
192,192,1076936,1,0,0:0:0:0:
64,192,1077071,1,0,0:0:0:0:
192,192,1077071,1,0,0:0:0:0:
320,192,1077071,1,0,0:0:0:0:
448,192,1077207,1,0,0:0:0:0:
64,192,1077240,1,0,0:0:0:0:
320,192,1077274,1,0,0:0:0:0:
192,192,1077308,1,0,0:0:0:0:
64,192,1077342,1,0,0:0:0:0:
448,192,1077342,1,0,0:0:0:0:
192,192,1077409,1,0,0:0:0:0:
320,192,1077409,1,0,0:0:0:0:
448,192,1077477,1,0,0:0:0:0:
64,192,1077477,1,0,0:0:0:0:
320,192,1077544,1,0,0:0:0:0:
192,192,1077544,1,0,0:0:0:0:
448,192,1077612,1,0,0:0:0:0:
64,192,1077612,1,0,0:0:0:0:
320,192,1077679,1,0,0:0:0:0:
192,192,1077679,1,0,0:0:0:0:
64,192,1077747,1,0,0:0:0:0:
448,192,1077747,1,0,0:0:0:0:
448,192,1077882,1,0,0:0:0:0:
320,192,1077882,1,0,0:0:0:0:
192,192,1077882,1,0,0:0:0:0:
64,192,1078017,1,0,0:0:0:0:
192,192,1078017,1,0,0:0:0:0:
320,192,1078017,1,0,0:0:0:0:
448,192,1078152,1,0,0:0:0:0:
320,192,1078152,1,0,0:0:0:0:
64,192,1078152,1,0,0:0:0:0:
448,192,1078288,1,0,0:0:0:0:
64,192,1078288,1,0,0:0:0:0:
192,192,1078288,1,0,0:0:0:0:
448,192,1078423,1,0,0:0:0:0:
320,192,1078423,1,0,0:0:0:0:
192,192,1078423,1,0,0:0:0:0:
64,192,1078558,1,0,0:0:0:0:
320,192,1078558,1,0,0:0:0:0:
448,192,1078558,1,0,0:0:0:0:
64,192,1078693,1,0,0:0:0:0:
192,192,1078693,1,0,0:0:0:0:
320,192,1078693,1,0,0:0:0:0:
448,192,1078828,1,0,0:0:0:0:
192,192,1078828,1,0,0:0:0:0:
64,192,1078828,1,0,0:0:0:0:
448,192,1078963,1,0,0:0:0:0:
320,192,1078963,1,0,0:0:0:0:
64,192,1078963,1,0,0:0:0:0:
448,192,1079098,1,0,0:0:0:0:
320,192,1079098,1,0,0:0:0:0:
192,192,1079098,1,0,0:0:0:0:
64,192,1079234,1,0,0:0:0:0:
192,192,1079234,1,0,0:0:0:0:
320,192,1079234,1,0,0:0:0:0:
448,192,1079369,1,0,0:0:0:0:
64,192,1079369,1,0,0:0:0:0:
192,192,1079369,1,0,0:0:0:0:
64,192,1079504,1,0,0:0:0:0:
448,192,1079504,1,0,0:0:0:0:
320,192,1079504,1,0,0:0:0:0:
64,192,1079639,1,0,0:0:0:0:
320,192,1079639,1,0,0:0:0:0:
192,192,1079639,1,0,0:0:0:0:
448,192,1079774,1,0,0:0:0:0:
320,192,1079774,1,0,0:0:0:0:
192,192,1079774,1,0,0:0:0:0:
448,192,1079909,1,0,0:0:0:0:
64,192,1079909,1,0,0:0:0:0:
192,192,1079977,1,0,0:0:0:0:
320,192,1079977,1,0,0:0:0:0:
64,192,1080044,1,0,0:0:0:0:
448,192,1080044,1,0,0:0:0:0:
320,192,1080112,1,0,0:0:0:0:
192,192,1080112,1,0,0:0:0:0:
64,192,1080179,1,0,0:0:0:0:
448,192,1080213,1,0,0:0:0:0:
192,192,1080247,1,0,0:0:0:0:
320,192,1080281,1,0,0:0:0:0:
64,192,1080315,1,0,0:0:0:0:
448,192,1080348,1,0,0:0:0:0:
192,192,1080382,1,0,0:0:0:0:
320,192,1080416,1,0,0:0:0:0:
448,192,1080450,128,0,1080585:0:0:0:0:
64,192,1080450,128,0,1080585:0:0:0:0:
192,192,1080585,1,0,0:0:0:0:
320,192,1080619,1,0,0:0:0:0:
64,192,1080652,1,0,0:0:0:0:
448,192,1080686,1,0,0:0:0:0:
320,192,1080720,128,0,1080990:0:0:0:0:
192,192,1080720,128,0,1080990:0:0:0:0:
64,192,1080990,1,0,0:0:0:0:
448,192,1080990,1,0,0:0:0:0:
64,192,1081531,128,0,1082038:0:0:0:0:
320,192,1081531,128,0,1082038:0:0:0:0:
448,192,1081801,128,0,1082038:0:0:0:0:
192,192,1081801,128,0,1082038:0:0:0:0:
64,192,1082071,1,0,0:0:0:0:
448,192,1082071,1,0,0:0:0:0:
320,192,1082139,1,0,0:0:0:0:
192,192,1082139,1,0,0:0:0:0:
64,192,1082207,1,0,0:0:0:0:
448,192,1082207,1,0,0:0:0:0:
448,192,1082342,1,0,0:0:0:0:
320,192,1082342,1,0,0:0:0:0:
192,192,1082342,1,0,0:0:0:0:
64,192,1082477,1,0,0:0:0:0:
320,192,1082477,1,0,0:0:0:0:
448,192,1082544,1,0,0:0:0:0:
192,192,1082544,1,0,0:0:0:0:
64,192,1082612,1,0,0:0:0:0:
320,192,1082612,1,0,0:0:0:0:
448,192,1082747,1,0,0:0:0:0:
64,192,1082747,1,0,0:0:0:0:
192,192,1082747,1,0,0:0:0:0:
192,192,1082882,1,0,0:0:0:0:
320,192,1082882,1,0,0:0:0:0:
64,192,1082950,1,0,0:0:0:0:
448,192,1082950,1,0,0:0:0:0:
192,192,1083017,1,0,0:0:0:0:
320,192,1083017,1,0,0:0:0:0:
448,192,1083152,1,0,0:0:0:0:
320,192,1083152,1,0,0:0:0:0:
64,192,1083220,1,0,0:0:0:0:
192,192,1083220,1,0,0:0:0:0:
448,192,1083288,1,0,0:0:0:0:
320,192,1083288,1,0,0:0:0:0:
64,192,1083423,1,0,0:0:0:0:
192,192,1083423,1,0,0:0:0:0:
448,192,1083423,1,0,0:0:0:0:
64,192,1083558,1,0,0:0:0:0:
320,192,1083558,1,0,0:0:0:0:
448,192,1083625,1,0,0:0:0:0:
192,192,1083625,1,0,0:0:0:0:
64,192,1083693,1,0,0:0:0:0:
320,192,1083693,1,0,0:0:0:0:
448,192,1083828,1,0,0:0:0:0:
320,192,1083828,1,0,0:0:0:0:
192,192,1083828,1,0,0:0:0:0:
64,192,1083963,1,0,0:0:0:0:
448,192,1083997,1,0,0:0:0:0:
320,192,1084031,1,0,0:0:0:0:
192,192,1084031,1,0,0:0:0:0:
448,192,1084098,1,0,0:0:0:0:
64,192,1084132,1,0,0:0:0:0:
192,192,1084166,1,0,0:0:0:0:
320,192,1084166,1,0,0:0:0:0:
64,192,1084234,1,0,0:0:0:0:
448,192,1084234,1,0,0:0:0:0:
192,192,1084301,1,0,0:0:0:0:
320,192,1084301,1,0,0:0:0:0:
64,192,1084369,1,0,0:0:0:0:
448,192,1084369,1,0,0:0:0:0:
64,192,1084504,1,0,0:0:0:0:
320,192,1084504,1,0,0:0:0:0:
192,192,1084504,1,0,0:0:0:0:
448,192,1084639,1,0,0:0:0:0:
192,192,1084639,1,0,0:0:0:0:
64,192,1084707,1,0,0:0:0:0:
320,192,1084707,1,0,0:0:0:0:
448,192,1084774,1,0,0:0:0:0:
192,192,1084774,1,0,0:0:0:0:
64,192,1084909,1,0,0:0:0:0:
448,192,1084909,1,0,0:0:0:0:
320,192,1084909,1,0,0:0:0:0:
192,192,1085044,1,0,0:0:0:0:
320,192,1085044,1,0,0:0:0:0:
64,192,1085112,1,0,0:0:0:0:
448,192,1085112,1,0,0:0:0:0:
320,192,1085179,1,0,0:0:0:0:
192,192,1085179,1,0,0:0:0:0:
192,192,1085315,1,0,0:0:0:0:
64,192,1085315,1,0,0:0:0:0:
448,192,1085382,1,0,0:0:0:0:
320,192,1085382,1,0,0:0:0:0:
64,192,1085450,1,0,0:0:0:0:
192,192,1085450,1,0,0:0:0:0:
448,192,1085585,1,0,0:0:0:0:
64,192,1085585,1,0,0:0:0:0:
320,192,1085585,1,0,0:0:0:0:
192,192,1085720,1,0,0:0:0:0:
448,192,1085720,1,0,0:0:0:0:
64,192,1085788,1,0,0:0:0:0:
320,192,1085788,1,0,0:0:0:0:
192,192,1085855,1,0,0:0:0:0:
448,192,1085855,1,0,0:0:0:0:
64,192,1085990,1,0,0:0:0:0:
192,192,1085990,1,0,0:0:0:0:
320,192,1085990,1,0,0:0:0:0:
448,192,1086125,1,0,0:0:0:0:
320,192,1086159,1,0,0:0:0:0:
64,192,1086193,1,0,0:0:0:0:
192,192,1086193,1,0,0:0:0:0:
320,192,1086261,1,0,0:0:0:0:
448,192,1086294,1,0,0:0:0:0:
192,192,1086328,1,0,0:0:0:0:
64,192,1086328,1,0,0:0:0:0:
448,192,1086396,1,0,0:0:0:0:
320,192,1086429,1,0,0:0:0:0:
192,192,1086463,1,0,0:0:0:0:
64,192,1086497,1,0,0:0:0:0:
448,192,1086531,1,0,0:0:0:0:
320,192,1086531,1,0,0:0:0:0:
64,192,1086598,1,0,0:0:0:0:
192,192,1086598,1,0,0:0:0:0:
448,192,1086666,1,0,0:0:0:0:
320,192,1086666,1,0,0:0:0:0:
64,192,1086734,1,0,0:0:0:0:
192,192,1086734,1,0,0:0:0:0:
320,192,1086801,1,0,0:0:0:0:
448,192,1086835,1,0,0:0:0:0:
64,192,1086869,1,0,0:0:0:0:
192,192,1086902,1,0,0:0:0:0:
448,192,1086936,1,0,0:0:0:0:
320,192,1086936,1,0,0:0:0:0:
64,192,1087004,1,0,0:0:0:0:
192,192,1087004,1,0,0:0:0:0:
448,192,1087071,1,0,0:0:0:0:
320,192,1087071,1,0,0:0:0:0:
64,192,1087139,1,0,0:0:0:0:
192,192,1087139,1,0,0:0:0:0:
320,192,1087207,1,0,0:0:0:0:
448,192,1087240,1,0,0:0:0:0:
192,192,1087274,1,0,0:0:0:0:
64,192,1087308,1,0,0:0:0:0:
448,192,1087342,128,0,1087477:0:0:0:0:
320,192,1087342,128,0,1087477:0:0:0:0:
192,192,1087477,1,0,0:0:0:0:
64,192,1087511,1,0,0:0:0:0:
320,192,1087544,1,0,0:0:0:0:
448,192,1087578,1,0,0:0:0:0:
64,192,1087612,1,0,0:0:0:0:
192,192,1087612,1,0,0:0:0:0:
448,192,1087679,1,0,0:0:0:0:
320,192,1087679,1,0,0:0:0:0:
64,192,1087747,1,0,0:0:0:0:
192,192,1087747,1,0,0:0:0:0:
448,192,1087815,1,0,0:0:0:0:
320,192,1087815,1,0,0:0:0:0:
64,192,1087882,1,0,0:0:0:0:
192,192,1087916,1,0,0:0:0:0:
448,192,1087950,1,0,0:0:0:0:
320,192,1087984,1,0,0:0:0:0:
64,192,1088017,1,0,0:0:0:0:
192,192,1088017,1,0,0:0:0:0:
448,192,1088085,1,0,0:0:0:0:
320,192,1088085,1,0,0:0:0:0:
64,192,1088152,1,0,0:0:0:0:
192,192,1088152,1,0,0:0:0:0:
448,192,1088220,1,0,0:0:0:0:
320,192,1088220,1,0,0:0:0:0:
64,192,1088288,1,0,0:0:0:0:
192,192,1088321,1,0,0:0:0:0:
448,192,1088355,128,0,1088423:0:0:0:0:
320,192,1088355,128,0,1088423:0:0:0:0:
192,192,1088423,1,0,0:0:0:0:
64,192,1088457,1,0,0:0:0:0:
448,192,1088490,128,0,1088558:0:0:0:0:
320,192,1088490,128,0,1088558:0:0:0:0:
64,192,1088558,1,0,0:0:0:0:
192,192,1088592,1,0,0:0:0:0:
320,192,1088625,1,0,0:0:0:0:
448,192,1088659,1,0,0:0:0:0:
64,192,1088693,1,0,0:0:0:0:
192,192,1088693,1,0,0:0:0:0:
448,192,1088761,1,0,0:0:0:0:
320,192,1088761,1,0,0:0:0:0:
64,192,1088828,1,0,0:0:0:0:
192,192,1088828,1,0,0:0:0:0:
448,192,1088896,1,0,0:0:0:0:
320,192,1088896,1,0,0:0:0:0:
64,192,1088963,1,0,0:0:0:0:
192,192,1088997,1,0,0:0:0:0:
448,192,1089031,1,0,0:0:0:0:
320,192,1089065,1,0,0:0:0:0:
64,192,1089098,1,0,0:0:0:0:
192,192,1089098,1,0,0:0:0:0:
448,192,1089166,1,0,0:0:0:0:
320,192,1089166,1,0,0:0:0:0:
64,192,1089234,1,0,0:0:0:0:
192,192,1089234,1,0,0:0:0:0:
448,192,1089301,1,0,0:0:0:0:
320,192,1089301,1,0,0:0:0:0:
192,192,1089369,1,0,0:0:0:0:
64,192,1089402,1,0,0:0:0:0:
448,192,1089436,1,0,0:0:0:0:
320,192,1089470,1,0,0:0:0:0:
64,192,1089504,128,0,1089639:0:0:0:0:
192,192,1089504,128,0,1089639:0:0:0:0:
448,192,1089639,128,0,1090179:0:0:0:0:
320,192,1089639,1,0,0:0:0:0:
64,192,1089909,128,0,1090450:0:0:0:0:
320,192,1089909,1,0,0:0:0:0:
320,192,1090179,128,0,1090720:0:0:0:0:
192,192,1090179,1,0,0:0:0:0:
192,192,1090450,128,0,1090720:0:0:0:0:
448,192,1090450,1,0,0:0:0:0:
64,192,1090720,1,0,0:0:0:0:
448,192,1090720,1,0,0:0:0:0:
320,192,1090788,1,0,0:0:0:0:
64,192,1090855,1,0,0:0:0:0:
192,192,1090855,1,0,0:0:0:0:
448,192,1090923,1,0,0:0:0:0:
320,192,1090990,1,0,0:0:0:0:
192,192,1090990,1,0,0:0:0:0:
64,192,1091058,1,0,0:0:0:0:
448,192,1091125,1,0,0:0:0:0:
320,192,1091125,1,0,0:0:0:0:
192,192,1091193,1,0,0:0:0:0:
64,192,1091261,1,0,0:0:0:0:
448,192,1091261,1,0,0:0:0:0:
192,192,1091328,1,0,0:0:0:0:
64,192,1091396,1,0,0:0:0:0:
320,192,1091396,1,0,0:0:0:0:
448,192,1091463,1,0,0:0:0:0:
192,192,1091531,1,0,0:0:0:0:
320,192,1091531,1,0,0:0:0:0:
64,192,1091598,1,0,0:0:0:0:
448,192,1091666,1,0,0:0:0:0:
192,192,1091666,1,0,0:0:0:0:
320,192,1091734,1,0,0:0:0:0:
448,192,1091801,1,0,0:0:0:0:
64,192,1091801,1,0,0:0:0:0:
320,192,1091869,1,0,0:0:0:0:
64,192,1091936,1,0,0:0:0:0:
192,192,1091936,1,0,0:0:0:0:
448,192,1092004,1,0,0:0:0:0:
192,192,1092071,1,0,0:0:0:0:
320,192,1092071,1,0,0:0:0:0:
64,192,1092139,1,0,0:0:0:0:
448,192,1092207,1,0,0:0:0:0:
320,192,1092207,1,0,0:0:0:0:
192,192,1092274,1,0,0:0:0:0:
448,192,1092342,1,0,0:0:0:0:
64,192,1092342,1,0,0:0:0:0:
320,192,1092409,1,0,0:0:0:0:
64,192,1092477,1,0,0:0:0:0:
192,192,1092477,1,0,0:0:0:0:
320,192,1092544,1,0,0:0:0:0:
192,192,1092612,1,0,0:0:0:0:
448,192,1092612,1,0,0:0:0:0:
64,192,1092679,1,0,0:0:0:0:
320,192,1092747,1,0,0:0:0:0:
448,192,1092747,1,0,0:0:0:0:
192,192,1092815,1,0,0:0:0:0:
64,192,1092882,1,0,0:0:0:0:
320,192,1092882,1,0,0:0:0:0:
448,192,1092950,1,0,0:0:0:0:
64,192,1093017,1,0,0:0:0:0:
192,192,1093017,1,0,0:0:0:0:
320,192,1093085,1,0,0:0:0:0:
192,192,1093152,1,0,0:0:0:0:
448,192,1093152,1,0,0:0:0:0:
320,192,1093220,1,0,0:0:0:0:
448,192,1093288,1,0,0:0:0:0:
64,192,1093288,1,0,0:0:0:0:
192,192,1093355,1,0,0:0:0:0:
64,192,1093423,1,0,0:0:0:0:
320,192,1093423,1,0,0:0:0:0:
448,192,1093490,1,0,0:0:0:0:
192,192,1093558,1,0,0:0:0:0:
320,192,1093558,1,0,0:0:0:0:
64,192,1093625,1,0,0:0:0:0:
448,192,1093693,1,0,0:0:0:0:
192,192,1093693,1,0,0:0:0:0:
320,192,1093761,1,0,0:0:0:0:
448,192,1093828,1,0,0:0:0:0:
64,192,1093828,1,0,0:0:0:0:
192,192,1093896,1,0,0:0:0:0:
64,192,1093963,1,0,0:0:0:0:
320,192,1093963,1,0,0:0:0:0:
192,192,1094031,1,0,0:0:0:0:
448,192,1094098,1,0,0:0:0:0:
320,192,1094098,1,0,0:0:0:0:
64,192,1094166,1,0,0:0:0:0:
448,192,1094234,1,0,0:0:0:0:
192,192,1094234,1,0,0:0:0:0:
320,192,1094301,1,0,0:0:0:0:
64,192,1094369,1,0,0:0:0:0:
192,192,1094369,1,0,0:0:0:0:
320,192,1094436,1,0,0:0:0:0:
448,192,1094504,1,0,0:0:0:0:
64,192,1094504,1,0,0:0:0:0:
192,192,1094571,1,0,0:0:0:0:
448,192,1094639,1,0,0:0:0:0:
320,192,1094639,1,0,0:0:0:0:
192,192,1094707,1,0,0:0:0:0:
320,192,1094774,1,0,0:0:0:0:
64,192,1094774,1,0,0:0:0:0:
192,192,1094842,1,0,0:0:0:0:
448,192,1094842,1,0,0:0:0:0:
64,192,1094909,1,0,0:0:0:0:
320,192,1094909,1,0,0:0:0:0:
448,192,1094977,1,0,0:0:0:0:
192,192,1094977,1,0,0:0:0:0:
64,192,1095044,1,0,0:0:0:0:
320,192,1095044,1,0,0:0:0:0:
448,192,1095112,1,0,0:0:0:0:
64,192,1095179,1,0,0:0:0:0:
192,192,1095179,1,0,0:0:0:0:
320,192,1095247,1,0,0:0:0:0:
192,192,1095315,1,0,0:0:0:0:
448,192,1095315,1,0,0:0:0:0:
64,192,1095382,1,0,0:0:0:0:
448,192,1095450,1,0,0:0:0:0:
320,192,1095450,1,0,0:0:0:0:
64,192,1095517,1,0,0:0:0:0:
320,192,1095585,1,0,0:0:0:0:
192,192,1095585,1,0,0:0:0:0:
448,192,1095652,1,0,0:0:0:0:
64,192,1095720,1,0,0:0:0:0:
192,192,1095720,1,0,0:0:0:0:
320,192,1095788,1,0,0:0:0:0:
64,192,1095855,1,0,0:0:0:0:
448,192,1095855,1,0,0:0:0:0:
320,192,1095923,1,0,0:0:0:0:
448,192,1095990,1,0,0:0:0:0:
192,192,1095990,1,0,0:0:0:0:
64,192,1096058,1,0,0:0:0:0:
320,192,1096125,1,0,0:0:0:0:
192,192,1096125,1,0,0:0:0:0:
448,192,1096193,1,0,0:0:0:0:
64,192,1096261,1,0,0:0:0:0:
320,192,1096261,1,0,0:0:0:0:
192,192,1096328,1,0,0:0:0:0:
64,192,1096396,1,0,0:0:0:0:
448,192,1096396,1,0,0:0:0:0:
320,192,1096463,1,0,0:0:0:0:
448,192,1096531,1,0,0:0:0:0:
192,192,1096531,1,0,0:0:0:0:
64,192,1096598,1,0,0:0:0:0:
320,192,1096666,1,0,0:0:0:0:
192,192,1096666,1,0,0:0:0:0:
448,192,1096734,1,0,0:0:0:0:
64,192,1096801,1,0,0:0:0:0:
320,192,1096801,1,0,0:0:0:0:
192,192,1096869,1,0,0:0:0:0:
64,192,1096936,1,0,0:0:0:0:
448,192,1096936,1,0,0:0:0:0:
320,192,1097004,1,0,0:0:0:0:
448,192,1097071,1,0,0:0:0:0:
192,192,1097071,1,0,0:0:0:0:
64,192,1097139,1,0,0:0:0:0:
192,192,1097207,1,0,0:0:0:0:
320,192,1097207,1,0,0:0:0:0:
448,192,1097274,1,0,0:0:0:0:
64,192,1097342,1,0,0:0:0:0:
320,192,1097342,1,0,0:0:0:0:
192,192,1097409,1,0,0:0:0:0:
448,192,1097477,1,0,0:0:0:0:
64,192,1097477,1,0,0:0:0:0:
192,192,1097544,1,0,0:0:0:0:
448,192,1097612,1,0,0:0:0:0:
320,192,1097612,1,0,0:0:0:0:
64,192,1097679,1,0,0:0:0:0:
192,192,1097747,1,0,0:0:0:0:
320,192,1097747,1,0,0:0:0:0:
448,192,1097815,1,0,0:0:0:0:
64,192,1097882,1,0,0:0:0:0:
192,192,1097882,1,0,0:0:0:0:
320,192,1097950,1,0,0:0:0:0:
64,192,1098017,1,0,0:0:0:0:
448,192,1098017,1,0,0:0:0:0:
192,192,1098085,1,0,0:0:0:0:
448,192,1098152,1,0,0:0:0:0:
320,192,1098152,1,0,0:0:0:0:
64,192,1098220,1,0,0:0:0:0:
320,192,1098288,1,0,0:0:0:0:
192,192,1098288,1,0,0:0:0:0:
448,192,1098423,128,0,1098558:0:0:0:0:
64,192,1098558,1,0,0:0:0:0:
320,192,1098558,1,0,0:0:0:0:
64,192,1098693,1,0,0:0:0:0:
192,192,1098693,1,0,0:0:0:0:
192,192,1098828,1,0,0:0:0:0:
448,192,1098828,128,0,1098963:0:0:0:0:
64,192,1098963,1,0,0:0:0:0:
320,192,1098963,128,0,1099098:0:0:0:0:
448,192,1099098,1,0,0:0:0:0:
192,192,1099098,128,0,1099234:0:0:0:0:
320,192,1099234,1,0,0:0:0:0:
64,192,1099234,128,0,1099369:0:0:0:0:
192,192,1099369,1,0,0:0:0:0:
320,192,1099369,1,0,0:0:0:0:
448,192,1099369,1,0,0:0:0:0:
64,192,1099436,1,0,0:0:0:0:
448,192,1099504,1,0,0:0:0:0:
192,192,1099504,1,0,0:0:0:0:
320,192,1099571,1,0,0:0:0:0:
192,192,1099639,1,0,0:0:0:0:
64,192,1099639,1,0,0:0:0:0:
448,192,1099707,1,0,0:0:0:0:
64,192,1099774,1,0,0:0:0:0:
192,192,1099774,1,0,0:0:0:0:
320,192,1099842,1,0,0:0:0:0:
64,192,1099909,1,0,0:0:0:0:
448,192,1099909,1,0,0:0:0:0:
320,192,1099977,1,0,0:0:0:0:
448,192,1100044,1,0,0:0:0:0:
64,192,1100044,1,0,0:0:0:0:
192,192,1100112,1,0,0:0:0:0:
448,192,1100179,1,0,0:0:0:0:
320,192,1100179,1,0,0:0:0:0:
64,192,1100247,1,0,0:0:0:0:
448,192,1100315,1,0,0:0:0:0:
320,192,1100315,1,0,0:0:0:0:
192,192,1100382,1,0,0:0:0:0:
64,192,1100450,1,0,0:0:0:0:
320,192,1100450,1,0,0:0:0:0:
448,192,1100517,1,0,0:0:0:0:
64,192,1100585,1,0,0:0:0:0:
320,192,1100585,1,0,0:0:0:0:
192,192,1100652,1,0,0:0:0:0:
64,192,1100720,1,0,0:0:0:0:
448,192,1100720,1,0,0:0:0:0:
192,192,1100788,1,0,0:0:0:0:
64,192,1100855,1,0,0:0:0:0:
448,192,1100855,1,0,0:0:0:0:
320,192,1100923,1,0,0:0:0:0:
448,192,1100990,1,0,0:0:0:0:
192,192,1100990,1,0,0:0:0:0:
320,192,1101058,1,0,0:0:0:0:
448,192,1101125,1,0,0:0:0:0:
192,192,1101125,1,0,0:0:0:0:
64,192,1101193,1,0,0:0:0:0:
192,192,1101261,1,0,0:0:0:0:
320,192,1101261,1,0,0:0:0:0:
448,192,1101328,1,0,0:0:0:0:
192,192,1101396,1,0,0:0:0:0:
320,192,1101396,1,0,0:0:0:0:
64,192,1101463,1,0,0:0:0:0:
448,192,1101531,1,0,0:0:0:0:
320,192,1101531,1,0,0:0:0:0:
192,192,1101598,1,0,0:0:0:0:
448,192,1101666,1,0,0:0:0:0:
320,192,1101666,1,0,0:0:0:0:
64,192,1101734,1,0,0:0:0:0:
448,192,1101801,1,0,0:0:0:0:
192,192,1101801,1,0,0:0:0:0:
64,192,1101869,1,0,0:0:0:0:
448,192,1101936,1,0,0:0:0:0:
192,192,1101936,1,0,0:0:0:0:
320,192,1102004,1,0,0:0:0:0:
64,192,1102071,1,0,0:0:0:0:
192,192,1102071,1,0,0:0:0:0:
448,192,1102139,1,0,0:0:0:0:
64,192,1102207,1,0,0:0:0:0:
192,192,1102207,1,0,0:0:0:0:
320,192,1102274,1,0,0:0:0:0:
64,192,1102342,1,0,0:0:0:0:
448,192,1102342,1,0,0:0:0:0:
192,192,1102409,1,0,0:0:0:0:
448,192,1102477,1,0,0:0:0:0:
64,192,1102477,1,0,0:0:0:0:
320,192,1102544,1,0,0:0:0:0:
448,192,1102612,1,0,0:0:0:0:
192,192,1102612,1,0,0:0:0:0:
64,192,1102679,1,0,0:0:0:0:
448,192,1102747,1,0,0:0:0:0:
192,192,1102747,1,0,0:0:0:0:
320,192,1102815,1,0,0:0:0:0:
64,192,1102882,1,0,0:0:0:0:
192,192,1102882,1,0,0:0:0:0:
320,192,1102950,1,0,0:0:0:0:
64,192,1103017,1,0,0:0:0:0:
192,192,1103017,1,0,0:0:0:0:
448,192,1103085,1,0,0:0:0:0:
64,192,1103152,1,0,0:0:0:0:
320,192,1103152,1,0,0:0:0:0:
192,192,1103220,1,0,0:0:0:0:
64,192,1103288,1,0,0:0:0:0:
320,192,1103288,1,0,0:0:0:0:
448,192,1103355,1,0,0:0:0:0:
320,192,1103423,1,0,0:0:0:0:
192,192,1103423,1,0,0:0:0:0:
64,192,1103490,1,0,0:0:0:0:
448,192,1103490,1,0,0:0:0:0:
320,192,1103558,1,0,0:0:0:0:
192,192,1103558,1,0,0:0:0:0:
448,192,1103625,1,0,0:0:0:0:
64,192,1103625,1,0,0:0:0:0:
320,192,1103693,1,0,0:0:0:0:
192,192,1103693,1,0,0:0:0:0:
64,192,1103761,1,0,0:0:0:0:
320,192,1103828,1,0,0:0:0:0:
192,192,1103828,1,0,0:0:0:0:
448,192,1103896,1,0,0:0:0:0:
64,192,1103963,1,0,0:0:0:0:
192,192,1103963,1,0,0:0:0:0:
320,192,1104031,1,0,0:0:0:0:
64,192,1104098,1,0,0:0:0:0:
192,192,1104098,1,0,0:0:0:0:
448,192,1104166,1,0,0:0:0:0:
64,192,1104234,1,0,0:0:0:0:
320,192,1104234,1,0,0:0:0:0:
448,192,1104301,1,0,0:0:0:0:
64,192,1104369,1,0,0:0:0:0:
320,192,1104369,1,0,0:0:0:0:
192,192,1104436,1,0,0:0:0:0:
448,192,1104504,1,0,0:0:0:0:
320,192,1104504,1,0,0:0:0:0:
64,192,1104571,1,0,0:0:0:0:
448,192,1104639,1,0,0:0:0:0:
320,192,1104639,1,0,0:0:0:0:
192,192,1104707,1,0,0:0:0:0:
64,192,1104774,1,0,0:0:0:0:
448,192,1104774,1,0,0:0:0:0:
320,192,1104842,1,0,0:0:0:0:
192,192,1104842,1,0,0:0:0:0:
64,192,1104909,1,0,0:0:0:0:
448,192,1104943,1,0,0:0:0:0:
192,192,1104977,1,0,0:0:0:0:
320,192,1105011,1,0,0:0:0:0:
448,192,1105044,1,0,0:0:0:0:
64,192,1105044,1,0,0:0:0:0:
192,192,1105112,1,0,0:0:0:0:
448,192,1105179,1,0,0:0:0:0:
64,192,1105179,1,0,0:0:0:0:
320,192,1105247,1,0,0:0:0:0:
192,192,1105247,1,0,0:0:0:0:
448,192,1105315,1,0,0:0:0:0:
64,192,1105315,1,0,0:0:0:0:
320,192,1105382,1,0,0:0:0:0:
64,192,1105450,1,0,0:0:0:0:
192,192,1105450,1,0,0:0:0:0:
320,192,1105517,1,0,0:0:0:0:
448,192,1105517,1,0,0:0:0:0:
192,192,1105585,1,0,0:0:0:0:
64,192,1105619,1,0,0:0:0:0:
448,192,1105652,1,0,0:0:0:0:
320,192,1105686,1,0,0:0:0:0:
64,192,1105720,128,0,1105855:0:0:0:0:
192,192,1105720,128,0,1105855:0:0:0:0:
448,192,1105855,1,0,0:0:0:0:
320,192,1105855,1,0,0:0:0:0:
64,192,1105923,1,0,0:0:0:0:
192,192,1105923,1,0,0:0:0:0:
448,192,1105990,1,0,0:0:0:0:
320,192,1106024,1,0,0:0:0:0:
192,192,1106058,1,0,0:0:0:0:
64,192,1106092,1,0,0:0:0:0:
448,192,1106125,1,0,0:0:0:0:
320,192,1106125,1,0,0:0:0:0:
192,192,1106193,1,0,0:0:0:0:
64,192,1106193,1,0,0:0:0:0:
320,192,1106261,1,0,0:0:0:0:
448,192,1106294,1,0,0:0:0:0:
64,192,1106328,1,0,0:0:0:0:
192,192,1106362,1,0,0:0:0:0:
448,192,1106396,128,0,1106531:0:0:0:0:
320,192,1106396,128,0,1106531:0:0:0:0:
64,192,1106531,1,0,0:0:0:0:
192,192,1106531,1,0,0:0:0:0:
448,192,1106598,1,0,0:0:0:0:
320,192,1106598,1,0,0:0:0:0:
64,192,1106666,1,0,0:0:0:0:
192,192,1106700,1,0,0:0:0:0:
320,192,1106734,1,0,0:0:0:0:
448,192,1106767,1,0,0:0:0:0:
64,192,1106801,128,0,1106936:0:0:0:0:
192,192,1106801,128,0,1106936:0:0:0:0:
320,192,1106936,1,0,0:0:0:0:
448,192,1106936,128,0,1108017:0:0:0:0:
192,192,1107004,1,0,0:0:0:0:
64,192,1107071,1,0,0:0:0:0:
320,192,1107139,1,0,0:0:0:0:
192,192,1107207,1,0,0:0:0:0:
64,192,1107274,1,0,0:0:0:0:
320,192,1107342,1,0,0:0:0:0:
192,192,1107409,1,0,0:0:0:0:
64,192,1107477,1,0,0:0:0:0:
192,192,1107544,1,0,0:0:0:0:
320,192,1107612,1,0,0:0:0:0:
64,192,1107679,1,0,0:0:0:0:
192,192,1107747,1,0,0:0:0:0:
320,192,1107815,1,0,0:0:0:0:
64,192,1107882,1,0,0:0:0:0:
192,192,1107950,1,0,0:0:0:0:
64,192,1108017,128,0,1108152:0:0:0:0:
320,192,1108017,1,0,0:0:0:0:
192,192,1108152,128,0,1108288:0:0:0:0:
448,192,1108288,128,0,1108423:0:0:0:0:
320,192,1108423,1,0,0:0:0:0:
320,192,1108490,1,0,0:0:0:0:
192,192,1108558,128,0,1108625:0:0:0:0:
64,192,1108625,128,0,1108693:0:0:0:0:
448,192,1108693,128,0,1108761:0:0:0:0:
320,192,1108761,128,0,1108828:0:0:0:0:
192,192,1108828,128,0,1108963:0:0:0:0:
320,192,1108963,128,0,1109098:0:0:0:0:
448,192,1109098,128,0,1109234:0:0:0:0:
320,192,1109234,128,0,1109369:0:0:0:0:
192,192,1109369,128,0,1109504:0:0:0:0:
64,192,1109504,128,0,1109639:0:0:0:0:
448,192,1109639,128,0,1109774:0:0:0:0:
320,192,1109774,128,0,1109909:0:0:0:0:
64,192,1109909,128,0,1110044:0:0:0:0:
192,192,1110044,128,0,1110179:0:0:0:0:
320,192,1110179,128,0,1110315:0:0:0:0:
64,192,1110315,128,0,1110450:0:0:0:0:
192,192,1110450,128,0,1110585:0:0:0:0:
64,192,1110585,1,0,0:0:0:0:
64,192,1110652,1,0,0:0:0:0:
448,192,1110720,128,0,1110788:0:0:0:0:
320,192,1110788,128,0,1110855:0:0:0:0:
192,192,1110855,128,0,1110923:0:0:0:0:
64,192,1110923,128,0,1110990:0:0:0:0:
320,192,1110990,128,0,1111125:0:0:0:0:
448,192,1111125,128,0,1111261:0:0:0:0:
64,192,1111261,128,0,1111396:0:0:0:0:
192,192,1111396,128,0,1111531:0:0:0:0:
320,192,1111531,128,0,1111666:0:0:0:0:
448,192,1111666,128,0,1111801:0:0:0:0:
320,192,1111801,128,0,1111936:0:0:0:0:
192,192,1111936,128,0,1112071:0:0:0:0:
64,192,1112071,128,0,1112207:0:0:0:0:
448,192,1112207,128,0,1112342:0:0:0:0:
320,192,1112342,128,0,1112477:0:0:0:0:
64,192,1112477,128,0,1112612:0:0:0:0:
192,192,1112612,128,0,1112747:0:0:0:0:
448,192,1112747,1,0,0:0:0:0:
448,192,1112815,1,0,0:0:0:0:
320,192,1112882,128,0,1112950:0:0:0:0:
192,192,1112950,128,0,1113017:0:0:0:0:
448,192,1113017,128,0,1113085:0:0:0:0:
64,192,1113085,128,0,1113152:0:0:0:0:
320,192,1113152,128,0,1113288:0:0:0:0:
192,192,1113288,128,0,1113423:0:0:0:0:
64,192,1113423,128,0,1113558:0:0:0:0:
192,192,1113558,128,0,1113693:0:0:0:0:
320,192,1113693,128,0,1113828:0:0:0:0:
448,192,1113828,128,0,1113963:0:0:0:0:
320,192,1113963,128,0,1114098:0:0:0:0:
192,192,1114098,128,0,1114234:0:0:0:0:
64,192,1114234,128,0,1114369:0:0:0:0:
192,192,1114369,128,0,1114504:0:0:0:0:
320,192,1114504,128,0,1114639:0:0:0:0:
448,192,1114639,128,0,1114774:0:0:0:0:
64,192,1114774,128,0,1114909:0:0:0:0:
192,192,1114909,1,0,0:0:0:0:
192,192,1114977,1,0,0:0:0:0:
320,192,1115044,128,0,1115112:0:0:0:0:
448,192,1115112,128,0,1115179:0:0:0:0:
192,192,1115179,128,0,1115247:0:0:0:0:
64,192,1115247,128,0,1115315:0:0:0:0:
320,192,1115315,128,0,1115450:0:0:0:0:
448,192,1115450,128,0,1115585:0:0:0:0:
192,192,1115585,128,0,1115720:0:0:0:0:
64,192,1115720,128,0,1115855:0:0:0:0:
448,192,1115855,128,0,1115990:0:0:0:0:
320,192,1115990,128,0,1116125:0:0:0:0:
192,192,1116125,128,0,1116261:0:0:0:0:
320,192,1116261,128,0,1116396:0:0:0:0:
448,192,1116396,128,0,1116666:0:0:0:0:
192,192,1116666,1,0,0:0:0:0:
320,192,1116666,1,0,0:0:0:0:
64,192,1116666,128,0,1116801:0:0:0:0:
192,192,1116801,128,0,1116936:0:0:0:0:
448,192,1116936,128,0,1117071:0:0:0:0:
320,192,1117071,1,0,0:0:0:0:
320,192,1117139,1,0,0:0:0:0:
64,192,1117207,1,0,0:0:0:0:
448,192,1117207,1,0,0:0:0:0:
192,192,1117207,128,0,1117274:0:0:0:0:
320,192,1117274,128,0,1117342:0:0:0:0:
64,192,1117342,128,0,1117409:0:0:0:0:
448,192,1117409,128,0,1117477:0:0:0:0:
192,192,1117477,128,0,1117612:0:0:0:0:
320,192,1117612,128,0,1117747:0:0:0:0:
64,192,1117747,1,0,0:0:0:0:
192,192,1117747,1,0,0:0:0:0:
448,192,1117747,128,0,1117882:0:0:0:0:
320,192,1117882,128,0,1118017:0:0:0:0:
192,192,1118017,128,0,1118152:0:0:0:0:
64,192,1118152,128,0,1118288:0:0:0:0:
192,192,1118288,1,0,0:0:0:0:
320,192,1118288,1,0,0:0:0:0:
448,192,1118288,128,0,1118423:0:0:0:0:
320,192,1118423,128,0,1118558:0:0:0:0:
64,192,1118558,128,0,1118693:0:0:0:0:
192,192,1118693,128,0,1118828:0:0:0:0:
64,192,1118828,1,0,0:0:0:0:
448,192,1118828,1,0,0:0:0:0:
320,192,1118828,128,0,1118963:0:0:0:0:
64,192,1118963,128,0,1119098:0:0:0:0:
192,192,1119098,128,0,1119234:0:0:0:0:
64,192,1119234,1,0,0:0:0:0:
64,192,1119301,1,0,0:0:0:0:
192,192,1119369,1,0,0:0:0:0:
320,192,1119369,1,0,0:0:0:0:
448,192,1119369,128,0,1119436:0:0:0:0:
64,192,1119436,128,0,1119504:0:0:0:0:
320,192,1119504,128,0,1119571:0:0:0:0:
192,192,1119571,128,0,1119639:0:0:0:0:
448,192,1119639,128,0,1119774:0:0:0:0:
320,192,1119774,128,0,1119909:0:0:0:0:
448,192,1119909,1,0,0:0:0:0:
192,192,1119909,1,0,0:0:0:0:
64,192,1119909,128,0,1120044:0:0:0:0:
192,192,1120044,128,0,1120179:0:0:0:0:
320,192,1120179,128,0,1120315:0:0:0:0:
448,192,1120315,128,0,1120450:0:0:0:0:
64,192,1120450,1,0,0:0:0:0:
192,192,1120450,1,0,0:0:0:0:
320,192,1120450,128,0,1120585:0:0:0:0:
192,192,1120585,128,0,1120720:0:0:0:0:
64,192,1120720,128,0,1120855:0:0:0:0:
448,192,1120855,128,0,1120990:0:0:0:0:
64,192,1120990,1,0,0:0:0:0:
192,192,1120990,1,0,0:0:0:0:
320,192,1120990,128,0,1121125:0:0:0:0:
64,192,1121125,128,0,1121261:0:0:0:0:
448,192,1121261,1,0,0:0:0:0:
320,192,1121261,1,0,0:0:0:0:
192,192,1121261,128,0,1121396:0:0:0:0:
448,192,1121396,1,0,0:0:0:0:
448,192,1121463,1,0,0:0:0:0:
64,192,1121531,1,0,0:0:0:0:
192,192,1121531,1,0,0:0:0:0:
320,192,1121531,128,0,1121598:0:0:0:0:
448,192,1121598,128,0,1121666:0:0:0:0:
64,192,1121666,128,0,1121734:0:0:0:0:
192,192,1121734,128,0,1121801:0:0:0:0:
64,192,1121801,1,0,0:0:0:0:
448,192,1121801,1,0,0:0:0:0:
320,192,1121801,128,0,1121936:0:0:0:0:
192,192,1121936,128,0,1122071:0:0:0:0:
448,192,1122071,1,0,0:0:0:0:
320,192,1122071,1,0,0:0:0:0:
64,192,1122071,128,0,1122207:0:0:0:0:
192,192,1122207,128,0,1122342:0:0:0:0:
448,192,1122342,1,0,0:0:0:0:
64,192,1122342,1,0,0:0:0:0:
320,192,1122342,128,0,1122477:0:0:0:0:
448,192,1122477,128,0,1122612:0:0:0:0:
64,192,1122612,1,0,0:0:0:0:
192,192,1122612,1,0,0:0:0:0:
320,192,1122612,128,0,1122747:0:0:0:0:
192,192,1122747,128,0,1122882:0:0:0:0:
448,192,1122882,1,0,0:0:0:0:
320,192,1122882,1,0,0:0:0:0:
64,192,1122882,128,0,1123017:0:0:0:0:
192,192,1123017,128,0,1123152:0:0:0:0:
448,192,1123152,1,0,0:0:0:0:
320,192,1123152,128,0,1123288:0:0:0:0:
64,192,1123288,1,0,0:0:0:0:
448,192,1123288,128,0,1123423:0:0:0:0:
320,192,1123423,1,0,0:0:0:0:
64,192,1123423,128,0,1123558:0:0:0:0:
320,192,1123558,1,0,0:0:0:0:
192,192,1123558,1,0,0:0:0:0:
192,192,1123625,1,0,0:0:0:0:
64,192,1123693,1,0,0:0:0:0:
448,192,1123693,128,0,1123761:0:0:0:0:
320,192,1123761,128,0,1123828:0:0:0:0:
64,192,1123828,1,0,0:0:0:0:
192,192,1123828,128,0,1123896:0:0:0:0:
448,192,1123896,128,0,1123963:0:0:0:0:
320,192,1123963,1,0,0:0:0:0:
64,192,1123963,128,0,1124098:0:0:0:0:
192,192,1124098,1,0,0:0:0:0:
320,192,1124098,128,0,1124234:0:0:0:0:
64,192,1124234,1,0,0:0:0:0:
192,192,1124234,1,0,0:0:0:0:
448,192,1124301,1,0,0:0:0:0:
320,192,1124301,1,0,0:0:0:0:
64,192,1124369,1,0,0:0:0:0:
192,192,1124369,1,0,0:0:0:0:
448,192,1124436,1,0,0:0:0:0:
320,192,1124436,1,0,0:0:0:0:
64,192,1124504,1,0,0:0:0:0:
192,192,1124504,1,0,0:0:0:0:
448,192,1124571,1,0,0:0:0:0:
320,192,1124571,1,0,0:0:0:0:
64,192,1124639,1,0,0:0:0:0:
192,192,1124639,1,0,0:0:0:0:
448,192,1124707,1,0,0:0:0:0:
320,192,1124707,1,0,0:0:0:0:
64,192,1124774,1,0,0:0:0:0:
192,192,1124774,1,0,0:0:0:0:
448,192,1124842,1,0,0:0:0:0:
320,192,1124842,1,0,0:0:0:0:
64,192,1124909,1,0,0:0:0:0:
192,192,1124909,1,0,0:0:0:0:
448,192,1124977,1,0,0:0:0:0:
320,192,1124977,1,0,0:0:0:0:
64,192,1125044,1,0,0:0:0:0:
192,192,1125044,1,0,0:0:0:0:
448,192,1125112,1,0,0:0:0:0:
320,192,1125112,1,0,0:0:0:0:
64,192,1125179,1,0,0:0:0:0:
192,192,1125179,1,0,0:0:0:0:
448,192,1125247,1,0,0:0:0:0:
320,192,1125247,1,0,0:0:0:0:
192,192,1125315,1,0,0:0:0:0:
64,192,1125348,1,0,0:0:0:0:
448,192,1125382,1,0,0:0:0:0:
320,192,1125416,1,0,0:0:0:0:
64,192,1125450,1,0,0:0:0:0:
192,192,1125484,1,0,0:0:0:0:
448,192,1125517,1,0,0:0:0:0:
320,192,1125551,1,0,0:0:0:0:
64,192,1125585,1,0,0:0:0:0:
192,192,1125619,1,0,0:0:0:0:
320,192,1125652,1,0,0:0:0:0:
448,192,1125686,1,0,0:0:0:0:
192,192,1125720,1,0,0:0:0:0:
64,192,1125754,1,0,0:0:0:0:
320,192,1125788,1,0,0:0:0:0:
448,192,1125821,1,0,0:0:0:0:
64,192,1125855,1,0,0:0:0:0:
192,192,1125889,1,0,0:0:0:0:
448,192,1125923,1,0,0:0:0:0:
320,192,1125957,1,0,0:0:0:0:
192,192,1125990,1,0,0:0:0:0:
64,192,1126024,1,0,0:0:0:0:
320,192,1126058,1,0,0:0:0:0:
448,192,1126092,1,0,0:0:0:0:
64,192,1126125,1,0,0:0:0:0:
192,192,1126159,1,0,0:0:0:0:
320,192,1126193,1,0,0:0:0:0:
448,192,1126227,1,0,0:0:0:0:
64,192,1126261,1,0,0:0:0:0:
192,192,1126294,1,0,0:0:0:0:
448,192,1126328,1,0,0:0:0:0:
320,192,1126362,1,0,0:0:0:0:
64,192,1126396,1,0,0:0:0:0:
192,192,1126396,1,0,0:0:0:0:
448,192,1127477,1,0,0:0:0:0:
192,192,1127477,1,0,0:0:0:0:
64,192,1127477,1,0,0:0:0:0:
320,192,1127544,1,0,0:0:0:0:
448,192,1127612,1,0,0:0:0:0:
64,192,1127612,1,0,0:0:0:0:
192,192,1127679,1,0,0:0:0:0:
448,192,1127747,1,0,0:0:0:0:
320,192,1127747,1,0,0:0:0:0:
64,192,1127815,1,0,0:0:0:0:
320,192,1127882,1,0,0:0:0:0:
192,192,1127882,1,0,0:0:0:0:
192,192,1127950,1,0,0:0:0:0:
448,192,1128017,1,0,0:0:0:0:
64,192,1128017,1,0,0:0:0:0:
320,192,1128085,1,0,0:0:0:0:
192,192,1128152,1,0,0:0:0:0:
64,192,1128152,1,0,0:0:0:0:
320,192,1128220,1,0,0:0:0:0:
448,192,1128288,1,0,0:0:0:0:
192,192,1128288,1,0,0:0:0:0:
64,192,1128355,1,0,0:0:0:0:
448,192,1128423,1,0,0:0:0:0:
320,192,1128423,1,0,0:0:0:0:
192,192,1128490,1,0,0:0:0:0:
320,192,1128558,1,0,0:0:0:0:
64,192,1128558,1,0,0:0:0:0:
192,192,1128625,1,0,0:0:0:0:
448,192,1128693,1,0,0:0:0:0:
64,192,1128693,1,0,0:0:0:0:
320,192,1128761,1,0,0:0:0:0:
448,192,1128828,1,0,0:0:0:0:
192,192,1128828,1,0,0:0:0:0:
320,192,1128896,1,0,0:0:0:0:
192,192,1128963,1,0,0:0:0:0:
64,192,1128963,1,0,0:0:0:0:
448,192,1129031,1,0,0:0:0:0:
320,192,1129098,1,0,0:0:0:0:
64,192,1129098,1,0,0:0:0:0:
192,192,1129166,1,0,0:0:0:0:
448,192,1129234,1,0,0:0:0:0:
320,192,1129234,1,0,0:0:0:0:
64,192,1129301,1,0,0:0:0:0:
448,192,1129369,1,0,0:0:0:0:
192,192,1129369,1,0,0:0:0:0:
64,192,1129436,1,0,0:0:0:0:
320,192,1129504,1,0,0:0:0:0:
192,192,1129504,1,0,0:0:0:0:
448,192,1129571,1,0,0:0:0:0:
320,192,1129639,1,0,0:0:0:0:
64,192,1129639,1,0,0:0:0:0:
192,192,1129707,1,0,0:0:0:0:
448,192,1129774,1,0,0:0:0:0:
64,192,1129774,1,0,0:0:0:0:
320,192,1129842,1,0,0:0:0:0:
448,192,1129909,1,0,0:0:0:0:
192,192,1129909,1,0,0:0:0:0:
64,192,1129977,1,0,0:0:0:0:
320,192,1130044,1,0,0:0:0:0:
192,192,1130044,1,0,0:0:0:0:
320,192,1130112,1,0,0:0:0:0:
448,192,1130179,1,0,0:0:0:0:
64,192,1130179,1,0,0:0:0:0:
192,192,1130247,1,0,0:0:0:0:
448,192,1130315,1,0,0:0:0:0:
320,192,1130315,1,0,0:0:0:0:
64,192,1130382,1,0,0:0:0:0:
320,192,1130450,1,0,0:0:0:0:
192,192,1130450,1,0,0:0:0:0:
448,192,1130517,1,0,0:0:0:0:
192,192,1130585,1,0,0:0:0:0:
64,192,1130585,1,0,0:0:0:0:
320,192,1130652,1,0,0:0:0:0:
448,192,1130720,1,0,0:0:0:0:
64,192,1130720,1,0,0:0:0:0:
192,192,1130788,1,0,0:0:0:0:
448,192,1130855,1,0,0:0:0:0:
320,192,1130855,1,0,0:0:0:0:
64,192,1130923,1,0,0:0:0:0:
320,192,1130990,1,0,0:0:0:0:
192,192,1130990,1,0,0:0:0:0:
64,192,1131058,1,0,0:0:0:0:
448,192,1131125,1,0,0:0:0:0:
192,192,1131125,1,0,0:0:0:0:
320,192,1131193,1,0,0:0:0:0:
448,192,1131261,1,0,0:0:0:0:
64,192,1131261,1,0,0:0:0:0:
192,192,1131328,1,0,0:0:0:0:
320,192,1131396,1,0,0:0:0:0:
64,192,1131396,1,0,0:0:0:0:
448,192,1131463,1,0,0:0:0:0:
320,192,1131531,1,0,0:0:0:0:
192,192,1131531,1,0,0:0:0:0:
448,192,1131598,1,0,0:0:0:0:
64,192,1131598,1,0,0:0:0:0:
320,192,1131666,1,0,0:0:0:0:
192,192,1131666,1,0,0:0:0:0:
448,192,1131734,1,0,0:0:0:0:
64,192,1131734,1,0,0:0:0:0:
320,192,1131801,1,0,0:0:0:0:
192,192,1131801,1,0,0:0:0:0:
64,192,1131869,1,0,0:0:0:0:
448,192,1131936,1,0,0:0:0:0:
192,192,1131936,1,0,0:0:0:0:
64,192,1132004,1,0,0:0:0:0:
448,192,1132071,1,0,0:0:0:0:
320,192,1132071,1,0,0:0:0:0:
192,192,1132139,1,0,0:0:0:0:
320,192,1132207,1,0,0:0:0:0:
64,192,1132207,1,0,0:0:0:0:
64,192,1132274,1,0,0:0:0:0:
448,192,1132342,1,0,0:0:0:0:
192,192,1132342,1,0,0:0:0:0:
320,192,1132409,1,0,0:0:0:0:
448,192,1132477,1,0,0:0:0:0:
64,192,1132477,1,0,0:0:0:0:
192,192,1132544,1,0,0:0:0:0:
320,192,1132612,1,0,0:0:0:0:
64,192,1132612,1,0,0:0:0:0:
448,192,1132679,1,0,0:0:0:0:
320,192,1132747,1,0,0:0:0:0:
192,192,1132747,1,0,0:0:0:0:
64,192,1132815,1,0,0:0:0:0:
448,192,1132882,1,0,0:0:0:0:
192,192,1132882,1,0,0:0:0:0:
320,192,1132950,1,0,0:0:0:0:
448,192,1133017,1,0,0:0:0:0:
64,192,1133017,1,0,0:0:0:0:
192,192,1133085,1,0,0:0:0:0:
320,192,1133152,1,0,0:0:0:0:
64,192,1133152,1,0,0:0:0:0:
448,192,1133220,1,0,0:0:0:0:
320,192,1133288,1,0,0:0:0:0:
192,192,1133288,1,0,0:0:0:0:
64,192,1133355,1,0,0:0:0:0:
448,192,1133423,1,0,0:0:0:0:
192,192,1133423,1,0,0:0:0:0:
64,192,1133490,1,0,0:0:0:0:
448,192,1133558,1,0,0:0:0:0:
320,192,1133558,1,0,0:0:0:0:
192,192,1133625,1,0,0:0:0:0:
320,192,1133693,1,0,0:0:0:0:
64,192,1133693,1,0,0:0:0:0:
192,192,1133761,1,0,0:0:0:0:
448,192,1133828,1,0,0:0:0:0:
64,192,1133828,1,0,0:0:0:0:
320,192,1133896,1,0,0:0:0:0:
448,192,1133963,1,0,0:0:0:0:
192,192,1133963,1,0,0:0:0:0:
64,192,1134031,1,0,0:0:0:0:
320,192,1134098,1,0,0:0:0:0:
192,192,1134098,1,0,0:0:0:0:
448,192,1134166,1,0,0:0:0:0:
320,192,1134234,1,0,0:0:0:0:
64,192,1134234,1,0,0:0:0:0:
192,192,1134301,1,0,0:0:0:0:
448,192,1134369,1,0,0:0:0:0:
64,192,1134369,1,0,0:0:0:0:
448,192,1134436,1,0,0:0:0:0:
320,192,1134504,1,0,0:0:0:0:
192,192,1134504,1,0,0:0:0:0:
64,192,1134571,1,0,0:0:0:0:
448,192,1134639,1,0,0:0:0:0:
320,192,1134639,1,0,0:0:0:0:
192,192,1134707,1,0,0:0:0:0:
448,192,1134774,1,0,0:0:0:0:
64,192,1134774,1,0,0:0:0:0:
192,192,1134842,1,0,0:0:0:0:
320,192,1134909,1,0,0:0:0:0:
64,192,1134909,1,0,0:0:0:0:
448,192,1134977,1,0,0:0:0:0:
320,192,1135044,1,0,0:0:0:0:
192,192,1135044,1,0,0:0:0:0:
448,192,1135112,1,0,0:0:0:0:
64,192,1135112,1,0,0:0:0:0:
320,192,1135179,1,0,0:0:0:0:
192,192,1135179,1,0,0:0:0:0:
448,192,1135247,1,0,0:0:0:0:
64,192,1135247,1,0,0:0:0:0:
320,192,1135315,1,0,0:0:0:0:
192,192,1135315,1,0,0:0:0:0:
448,192,1135382,1,0,0:0:0:0:
64,192,1135382,1,0,0:0:0:0:
320,192,1135450,1,0,0:0:0:0:
192,192,1135450,1,0,0:0:0:0:
448,192,1135517,1,0,0:0:0:0:
64,192,1135517,1,0,0:0:0:0:
192,192,1135585,1,0,0:0:0:0:
320,192,1135619,1,0,0:0:0:0:
64,192,1135652,1,0,0:0:0:0:
448,192,1135686,1,0,0:0:0:0:
320,192,1135720,1,0,0:0:0:0:
192,192,1135720,1,0,0:0:0:0:
448,192,1135788,1,0,0:0:0:0:
64,192,1135788,1,0,0:0:0:0:
320,192,1135855,1,0,0:0:0:0:
192,192,1135889,1,0,0:0:0:0:
64,192,1135923,1,0,0:0:0:0:
448,192,1135957,1,0,0:0:0:0:
320,192,1135990,1,0,0:0:0:0:
192,192,1135990,1,0,0:0:0:0:
448,192,1136058,1,0,0:0:0:0:
64,192,1136058,1,0,0:0:0:0:
192,192,1136125,1,0,0:0:0:0:
320,192,1136125,1,0,0:0:0:0:
64,192,1136193,1,0,0:0:0:0:
448,192,1136261,1,0,0:0:0:0:
320,192,1136261,1,0,0:0:0:0:
192,192,1136328,1,0,0:0:0:0:
64,192,1136396,1,0,0:0:0:0:
448,192,1136396,1,0,0:0:0:0:
320,192,1136463,1,0,0:0:0:0:
64,192,1136531,1,0,0:0:0:0:
192,192,1136531,1,0,0:0:0:0:
192,192,1136598,1,0,0:0:0:0:
448,192,1136666,1,0,0:0:0:0:
320,192,1136666,1,0,0:0:0:0:
64,192,1136734,1,0,0:0:0:0:
192,192,1136801,1,0,0:0:0:0:
320,192,1136801,1,0,0:0:0:0:
64,192,1136869,1,0,0:0:0:0:
448,192,1136936,1,0,0:0:0:0:
192,192,1136936,1,0,0:0:0:0:
320,192,1137004,1,0,0:0:0:0:
64,192,1137071,1,0,0:0:0:0:
448,192,1137071,1,0,0:0:0:0:
192,192,1137139,1,0,0:0:0:0:
64,192,1137207,1,0,0:0:0:0:
320,192,1137207,1,0,0:0:0:0:
192,192,1137274,1,0,0:0:0:0:
448,192,1137342,1,0,0:0:0:0:
320,192,1137342,1,0,0:0:0:0:
64,192,1137409,1,0,0:0:0:0:
448,192,1137477,1,0,0:0:0:0:
192,192,1137477,1,0,0:0:0:0:
64,192,1137544,1,0,0:0:0:0:
192,192,1137612,1,0,0:0:0:0:
320,192,1137612,1,0,0:0:0:0:
448,192,1137679,1,0,0:0:0:0:
64,192,1137747,1,0,0:0:0:0:
320,192,1137747,1,0,0:0:0:0:
192,192,1137815,1,0,0:0:0:0:
64,192,1137882,1,0,0:0:0:0:
448,192,1137882,1,0,0:0:0:0:
320,192,1137950,1,0,0:0:0:0:
448,192,1138017,1,0,0:0:0:0:
192,192,1138017,1,0,0:0:0:0:
320,192,1138085,1,0,0:0:0:0:
64,192,1138152,1,0,0:0:0:0:
192,192,1138152,1,0,0:0:0:0:
448,192,1138220,1,0,0:0:0:0:
64,192,1138288,1,0,0:0:0:0:
320,192,1138288,1,0,0:0:0:0:
192,192,1138355,1,0,0:0:0:0:
448,192,1138423,1,0,0:0:0:0:
320,192,1138423,1,0,0:0:0:0:
64,192,1138490,1,0,0:0:0:0:
448,192,1138558,1,0,0:0:0:0:
192,192,1138558,1,0,0:0:0:0:
320,192,1138625,1,0,0:0:0:0:
64,192,1138693,1,0,0:0:0:0:
192,192,1138693,1,0,0:0:0:0:
64,192,1138761,1,0,0:0:0:0:
448,192,1138828,1,0,0:0:0:0:
320,192,1138828,1,0,0:0:0:0:
192,192,1138896,1,0,0:0:0:0:
64,192,1138963,1,0,0:0:0:0:
448,192,1138963,1,0,0:0:0:0:
320,192,1139031,1,0,0:0:0:0:
64,192,1139098,1,0,0:0:0:0:
192,192,1139098,1,0,0:0:0:0:
448,192,1139166,1,0,0:0:0:0:
192,192,1139234,1,0,0:0:0:0:
320,192,1139234,1,0,0:0:0:0:
64,192,1139301,1,0,0:0:0:0:
448,192,1139369,1,0,0:0:0:0:
320,192,1139369,1,0,0:0:0:0:
192,192,1139436,1,0,0:0:0:0:
64,192,1139504,1,0,0:0:0:0:
448,192,1139504,1,0,0:0:0:0:
320,192,1139571,1,0,0:0:0:0:
64,192,1139639,1,0,0:0:0:0:
192,192,1139639,1,0,0:0:0:0:
320,192,1139707,1,0,0:0:0:0:
448,192,1139774,1,0,0:0:0:0:
192,192,1139774,1,0,0:0:0:0:
64,192,1139842,1,0,0:0:0:0:
448,192,1139909,1,0,0:0:0:0:
320,192,1139909,1,0,0:0:0:0:
192,192,1139977,1,0,0:0:0:0:
64,192,1140044,1,0,0:0:0:0:
320,192,1140044,1,0,0:0:0:0:
448,192,1140112,1,0,0:0:0:0:
64,192,1140179,1,0,0:0:0:0:
192,192,1140179,1,0,0:0:0:0:
448,192,1140247,1,0,0:0:0:0:
320,192,1140247,1,0,0:0:0:0:
64,192,1140315,1,0,0:0:0:0:
192,192,1140315,1,0,0:0:0:0:
448,192,1140382,1,0,0:0:0:0:
320,192,1140382,1,0,0:0:0:0:
64,192,1140450,1,0,0:0:0:0:
192,192,1140450,1,0,0:0:0:0:
320,192,1140517,1,0,0:0:0:0:
448,192,1140585,1,0,0:0:0:0:
192,192,1140585,1,0,0:0:0:0:
320,192,1140652,1,0,0:0:0:0:
64,192,1140720,1,0,0:0:0:0:
448,192,1140720,1,0,0:0:0:0:
192,192,1140788,1,0,0:0:0:0:
64,192,1140855,1,0,0:0:0:0:
320,192,1140855,1,0,0:0:0:0:
320,192,1140923,1,0,0:0:0:0:
448,192,1140990,1,0,0:0:0:0:
192,192,1140990,1,0,0:0:0:0:
64,192,1141058,1,0,0:0:0:0:
192,192,1141125,1,0,0:0:0:0:
320,192,1141125,1,0,0:0:0:0:
64,192,1141193,1,0,0:0:0:0:
448,192,1141261,1,0,0:0:0:0:
320,192,1141261,1,0,0:0:0:0:
192,192,1141328,1,0,0:0:0:0:
64,192,1141396,1,0,0:0:0:0:
448,192,1141396,1,0,0:0:0:0:
192,192,1141463,1,0,0:0:0:0:
64,192,1141531,1,0,0:0:0:0:
320,192,1141531,1,0,0:0:0:0:
448,192,1141598,1,0,0:0:0:0:
192,192,1141666,1,0,0:0:0:0:
320,192,1141666,1,0,0:0:0:0:
64,192,1141734,1,0,0:0:0:0:
192,192,1141801,1,0,0:0:0:0:
448,192,1141801,1,0,0:0:0:0:
320,192,1141869,1,0,0:0:0:0:
64,192,1141936,1,0,0:0:0:0:
448,192,1141936,1,0,0:0:0:0:
320,192,1142004,1,0,0:0:0:0:
64,192,1142071,1,0,0:0:0:0:
192,192,1142071,1,0,0:0:0:0:
448,192,1142139,1,0,0:0:0:0:
320,192,1142207,1,0,0:0:0:0:
192,192,1142207,1,0,0:0:0:0:
64,192,1142274,1,0,0:0:0:0:
448,192,1142342,1,0,0:0:0:0:
320,192,1142342,1,0,0:0:0:0:
192,192,1142409,1,0,0:0:0:0:
64,192,1142477,1,0,0:0:0:0:
448,192,1142477,1,0,0:0:0:0:
320,192,1142544,1,0,0:0:0:0:
64,192,1142612,1,0,0:0:0:0:
192,192,1142612,1,0,0:0:0:0:
448,192,1142679,1,0,0:0:0:0:
320,192,1142679,1,0,0:0:0:0:
192,192,1142747,1,0,0:0:0:0:
64,192,1142781,1,0,0:0:0:0:
320,192,1142815,1,0,0:0:0:0:
448,192,1142848,1,0,0:0:0:0:
64,192,1142882,1,0,0:0:0:0:
192,192,1142882,1,0,0:0:0:0:
320,192,1142950,1,0,0:0:0:0:
448,192,1143017,1,0,0:0:0:0:
192,192,1143017,1,0,0:0:0:0:
448,192,1143085,1,0,0:0:0:0:
64,192,1143152,1,0,0:0:0:0:
192,192,1143152,1,0,0:0:0:0:
320,192,1143220,1,0,0:0:0:0:
64,192,1143288,1,0,0:0:0:0:
448,192,1143288,1,0,0:0:0:0:
320,192,1143355,1,0,0:0:0:0:
192,192,1143355,1,0,0:0:0:0:
448,192,1143423,1,0,0:0:0:0:
64,192,1143457,1,0,0:0:0:0:
192,192,1143490,1,0,0:0:0:0:
320,192,1143524,1,0,0:0:0:0:
64,192,1143558,128,0,1143693:0:0:0:0:
448,192,1143558,128,0,1143693:0:0:0:0:
320,192,1143693,128,0,1143828:0:0:0:0:
192,192,1143693,128,0,1143963:0:0:0:0:
448,192,1143828,128,0,1143963:0:0:0:0:
64,192,1143963,128,0,1144098:0:0:0:0:
192,192,1144098,128,0,1144234:0:0:0:0:
448,192,1144234,128,0,1144369:0:0:0:0:
64,192,1144234,128,0,1144504:0:0:0:0:
320,192,1144369,128,0,1144504:0:0:0:0:
448,192,1144504,128,0,1144774:0:0:0:0:
192,192,1144504,128,0,1144639:0:0:0:0:
64,192,1144639,128,0,1144774:0:0:0:0:
192,192,1144774,128,0,1144909:0:0:0:0:
320,192,1144774,1,0,0:0:0:0:
448,192,1144909,1,0,0:0:0:0:
320,192,1144977,1,0,0:0:0:0:
448,192,1145044,1,0,0:0:0:0:
320,192,1145112,1,0,0:0:0:0:
192,192,1145179,128,0,1145315:0:0:0:0:
320,192,1145315,1,0,0:0:0:0:
448,192,1145382,1,0,0:0:0:0:
320,192,1145450,1,0,0:0:0:0:
448,192,1145517,1,0,0:0:0:0:
192,192,1145585,128,0,1145720:0:0:0:0:
448,192,1145720,1,0,0:0:0:0:
320,192,1145788,1,0,0:0:0:0:
448,192,1145855,1,0,0:0:0:0:
320,192,1145923,1,0,0:0:0:0:
192,192,1145990,128,0,1146125:0:0:0:0:
64,192,1146125,128,0,1146261:0:0:0:0:
192,192,1146261,128,0,1146396:0:0:0:0:
320,192,1146396,128,0,1146531:0:0:0:0:
448,192,1146531,128,0,1146666:0:0:0:0:
192,192,1146666,128,0,1146801:0:0:0:0:
64,192,1146801,128,0,1146936:0:0:0:0:
192,192,1146936,1,0,0:0:0:0:
448,192,1146936,1,0,0:0:0:0:
320,192,1146936,128,0,1147071:0:0:0:0:
64,192,1147071,1,0,0:0:0:0:
192,192,1147139,1,0,0:0:0:0:
64,192,1147207,1,0,0:0:0:0:
192,192,1147274,1,0,0:0:0:0:
320,192,1147342,128,0,1147477:0:0:0:0:
192,192,1147477,1,0,0:0:0:0:
64,192,1147544,1,0,0:0:0:0:
192,192,1147612,1,0,0:0:0:0:
64,192,1147679,1,0,0:0:0:0:
320,192,1147747,128,0,1147882:0:0:0:0:
64,192,1147882,1,0,0:0:0:0:
192,192,1147950,1,0,0:0:0:0:
64,192,1148017,1,0,0:0:0:0:
192,192,1148085,1,0,0:0:0:0:
320,192,1148152,128,0,1148288:0:0:0:0:
448,192,1148288,128,0,1148423:0:0:0:0:
320,192,1148423,128,0,1148558:0:0:0:0:
64,192,1148558,128,0,1148693:0:0:0:0:
192,192,1148693,128,0,1148828:0:0:0:0:
320,192,1148828,128,0,1148963:0:0:0:0:
448,192,1148963,128,0,1149098:0:0:0:0:
192,192,1149098,1,0,0:0:0:0:
320,192,1149098,1,0,0:0:0:0:
64,192,1149098,128,0,1149234:0:0:0:0:
448,192,1149234,1,0,0:0:0:0:
192,192,1149301,1,0,0:0:0:0:
448,192,1149369,1,0,0:0:0:0:
192,192,1149436,1,0,0:0:0:0:
64,192,1149504,128,0,1149639:0:0:0:0:
192,192,1149639,1,0,0:0:0:0:
448,192,1149707,1,0,0:0:0:0:
192,192,1149774,1,0,0:0:0:0:
448,192,1149842,1,0,0:0:0:0:
64,192,1149909,128,0,1150044:0:0:0:0:
448,192,1150044,1,0,0:0:0:0:
192,192,1150112,1,0,0:0:0:0:
448,192,1150179,1,0,0:0:0:0:
192,192,1150247,1,0,0:0:0:0:
64,192,1150315,128,0,1150450:0:0:0:0:
192,192,1150450,128,0,1150585:0:0:0:0:
64,192,1150585,128,0,1150720:0:0:0:0:
320,192,1150720,128,0,1150855:0:0:0:0:
448,192,1150855,128,0,1150990:0:0:0:0:
192,192,1150990,128,0,1151125:0:0:0:0:
64,192,1151125,128,0,1151261:0:0:0:0:
320,192,1151261,1,0,0:0:0:0:
192,192,1151261,1,0,0:0:0:0:
448,192,1151261,128,0,1151396:0:0:0:0:
64,192,1151396,1,0,0:0:0:0:
320,192,1151463,1,0,0:0:0:0:
64,192,1151531,1,0,0:0:0:0:
320,192,1151598,1,0,0:0:0:0:
448,192,1151666,128,0,1151801:0:0:0:0:
320,192,1151801,1,0,0:0:0:0:
64,192,1151869,1,0,0:0:0:0:
320,192,1151936,1,0,0:0:0:0:
64,192,1152004,1,0,0:0:0:0:
448,192,1152071,128,0,1152207:0:0:0:0:
64,192,1152207,1,0,0:0:0:0:
320,192,1152274,1,0,0:0:0:0:
64,192,1152342,1,0,0:0:0:0:
320,192,1152409,1,0,0:0:0:0:
448,192,1152477,128,0,1152612:0:0:0:0:
320,192,1152612,128,0,1152747:0:0:0:0:
448,192,1152747,128,0,1152882:0:0:0:0:
192,192,1152882,128,0,1153017:0:0:0:0:
64,192,1153017,128,0,1153152:0:0:0:0:
448,192,1153152,128,0,1153288:0:0:0:0:
320,192,1153288,128,0,1153423:0:0:0:0:
448,192,1153423,1,0,0:0:0:0:
192,192,1153423,1,0,0:0:0:0:
64,192,1153423,128,0,1153558:0:0:0:0:
320,192,1153558,1,0,0:0:0:0:
192,192,1153625,1,0,0:0:0:0:
320,192,1153693,1,0,0:0:0:0:
192,192,1153761,1,0,0:0:0:0:
64,192,1153828,128,0,1153963:0:0:0:0:
192,192,1153963,1,0,0:0:0:0:
320,192,1154031,1,0,0:0:0:0:
192,192,1154098,1,0,0:0:0:0:
320,192,1154166,1,0,0:0:0:0:
64,192,1154234,128,0,1154369:0:0:0:0:
320,192,1154369,1,0,0:0:0:0:
192,192,1154436,1,0,0:0:0:0:
448,192,1154504,1,0,0:0:0:0:
320,192,1154504,1,0,0:0:0:0:
192,192,1154571,1,0,0:0:0:0:
64,192,1154639,128,0,1154774:0:0:0:0:
448,192,1154774,128,0,1154909:0:0:0:0:
64,192,1154909,128,0,1155044:0:0:0:0:
320,192,1155044,128,0,1155179:0:0:0:0:
192,192,1155179,128,0,1155315:0:0:0:0:
448,192,1155315,128,0,1155450:0:0:0:0:
64,192,1155450,128,0,1155585:0:0:0:0:
320,192,1155585,128,0,1155720:0:0:0:0:
448,192,1155585,1,0,0:0:0:0:
192,192,1155585,1,0,0:0:0:0:
64,192,1155720,1,0,0:0:0:0:
448,192,1155788,1,0,0:0:0:0:
64,192,1155855,1,0,0:0:0:0:
448,192,1155923,1,0,0:0:0:0:
320,192,1155990,128,0,1156125:0:0:0:0:
448,192,1156125,1,0,0:0:0:0:
64,192,1156193,1,0,0:0:0:0:
448,192,1156261,1,0,0:0:0:0:
64,192,1156328,1,0,0:0:0:0:
320,192,1156396,128,0,1156531:0:0:0:0:
64,192,1156531,1,0,0:0:0:0:
448,192,1156598,1,0,0:0:0:0:
192,192,1156666,1,0,0:0:0:0:
64,192,1156666,1,0,0:0:0:0:
448,192,1156734,1,0,0:0:0:0:
320,192,1156801,128,0,1156936:0:0:0:0:
192,192,1156936,128,0,1157071:0:0:0:0:
320,192,1157071,128,0,1157207:0:0:0:0:
64,192,1157207,128,0,1157342:0:0:0:0:
448,192,1157342,128,0,1157477:0:0:0:0:
192,192,1157477,128,0,1157612:0:0:0:0:
320,192,1157612,128,0,1157747:0:0:0:0:
64,192,1157747,1,0,0:0:0:0:
192,192,1157747,1,0,0:0:0:0:
448,192,1157747,128,0,1157882:0:0:0:0:
320,192,1157882,1,0,0:0:0:0:
192,192,1157950,1,0,0:0:0:0:
320,192,1158017,1,0,0:0:0:0:
192,192,1158085,1,0,0:0:0:0:
448,192,1158152,128,0,1158288:0:0:0:0:
64,192,1158288,1,0,0:0:0:0:
192,192,1158288,1,0,0:0:0:0:
320,192,1158355,1,0,0:0:0:0:
192,192,1158423,1,0,0:0:0:0:
320,192,1158490,1,0,0:0:0:0:
448,192,1158558,128,0,1158693:0:0:0:0:
320,192,1158693,1,0,0:0:0:0:
192,192,1158761,1,0,0:0:0:0:
64,192,1158828,1,0,0:0:0:0:
320,192,1158828,1,0,0:0:0:0:
192,192,1158896,1,0,0:0:0:0:
448,192,1158963,128,0,1159098:0:0:0:0:
320,192,1159098,128,0,1159234:0:0:0:0:
448,192,1159234,128,0,1159369:0:0:0:0:
320,192,1159369,1,0,0:0:0:0:
192,192,1159369,128,0,1159504:0:0:0:0:
64,192,1159504,128,0,1159639:0:0:0:0:
320,192,1159639,1,0,0:0:0:0:
192,192,1159673,1,0,0:0:0:0:
448,192,1159707,1,0,0:0:0:0:
64,192,1159740,1,0,0:0:0:0:
192,192,1159774,128,0,1159909:0:0:0:0:
320,192,1159774,128,0,1159909:0:0:0:0:
64,192,1159909,1,0,0:0:0:0:
448,192,1159909,1,0,0:0:0:0:
320,192,1159977,1,0,0:0:0:0:
192,192,1159977,1,0,0:0:0:0:
64,192,1160044,1,0,0:0:0:0:
448,192,1160078,1,0,0:0:0:0:
192,192,1160112,1,0,0:0:0:0:
320,192,1160146,1,0,0:0:0:0:
64,192,1160179,1,0,0:0:0:0:
448,192,1160179,1,0,0:0:0:0:
192,192,1160247,1,0,0:0:0:0:
448,192,1160315,1,0,0:0:0:0:
320,192,1160315,1,0,0:0:0:0:
64,192,1160382,1,0,0:0:0:0:
192,192,1160382,1,0,0:0:0:0:
448,192,1160450,1,0,0:0:0:0:
320,192,1160450,1,0,0:0:0:0:
64,192,1160517,1,0,0:0:0:0:
320,192,1160585,1,0,0:0:0:0:
192,192,1160585,1,0,0:0:0:0:
64,192,1160652,1,0,0:0:0:0:
448,192,1160652,1,0,0:0:0:0:
192,192,1160720,1,0,0:0:0:0:
320,192,1160754,1,0,0:0:0:0:
64,192,1160788,1,0,0:0:0:0:
448,192,1160821,1,0,0:0:0:0:
320,192,1160855,128,0,1160990:0:0:0:0:
192,192,1160855,128,0,1160990:0:0:0:0:
64,192,1161801,128,0,1161936:0:0:0:0:
192,192,1161869,128,0,1162004:0:0:0:0:
320,192,1161936,128,0,1162071:0:0:0:0:
448,192,1162004,128,0,1162071:0:0:0:0:
64,192,1162071,128,0,1162612:0:0:0:0:
192,192,1162071,1,0,0:0:0:0:
