osu file format v14

[General]
AudioFilename: audio.mp3
AudioLeadIn: 0
PreviewTime: 0
Countdown: 0
SampleSet: Drum
StackLeniency: 0.7
Mode: 3
LetterboxInBreaks: 0
SpecialStyle: 0
WidescreenStoryboard: 1

[Editor]
DistanceSpacing: 1.7
BeatDivisor: 4
GridSize: 16
TimelineZoom: 3.339998

[Metadata]
Title:chaotic solutions
TitleUnicode:chaotic solutions
Artist:Kobaryo
ArtistUnicode:Kobaryo
Creator:Worms
Version:03 - Evolution Canceler
Source:Psycho Filth Records
Tags:full album speedcore 紅燐。 game over!!!
BeatmapID:1450148
BeatmapSetID:685233

[Difficulty]
HPDrainRate:8.5
CircleSize:4
OverallDifficulty:9
ApproachRate:5
SliderMultiplier:1.4
SliderTickRate:1

[Events]
//Background and Video events
0,0,"chaotic solutions.png",0,0
//Break Periods
2,286687,296259
//Storyboard Layer 0 (Background)
//Storyboard Layer 1 (Fail)
//Storyboard Layer 2 (Pass)
//Storyboard Layer 3 (Foreground)
//Storyboard Layer 4 (Overlay)
//Storyboard Sound Samples

[TimingPoints]
286488,171.428571428571,4,3,0,20,1,0
330373,-100,4,3,0,20,0,1
341002,-100,4,3,0,20,0,0
341345,-100,4,3,0,20,0,1
351973,-100,4,3,0,20,0,0
352316,-100,4,3,0,20,0,1
362945,-100,4,3,0,20,0,0
363287,-100,4,3,0,20,0,1
374259,-100,4,3,0,20,0,0
396202,-100,4,3,0,20,0,1
406830,-100,4,3,0,20,0,0
407173,-100,4,3,0,20,0,1
417802,-100,4,3,0,20,0,0
440087,-100,4,3,0,20,0,1
450716,-100,4,3,0,20,0,0
451059,-100,4,3,0,20,0,1
461687,-100,4,3,0,20,0,0
462030,-100,4,3,0,20,0,1
472659,-100,4,3,0,20,0,0
473002,-100,4,3,0,20,0,1
483973,-100,4,3,0,20,0,0

[HitObjects]
192,192,286487,5,0,0:0:0:0:
320,192,286487,1,0,0:0:0:0:
64,192,286487,1,0,0:0:0:0:
448,192,286487,1,0,0:0:0:0:
192,192,297459,5,0,0:0:0:0:
64,192,297630,1,0,0:0:0:0:
448,192,297630,1,0,0:0:0:0:
320,192,297802,1,0,0:0:0:0:
192,192,297887,1,0,0:0:0:0:
64,192,297973,1,0,0:0:0:0:
320,192,298059,1,0,0:0:0:0:
448,192,298145,1,0,0:0:0:0:
192,192,298230,1,0,0:0:0:0:
320,192,298316,1,0,0:0:0:0:
64,192,298316,1,0,0:0:0:0:
192,192,298487,1,0,0:0:0:0:
448,192,298573,1,0,0:0:0:0:
320,192,298659,1,0,0:0:0:0:
192,192,298745,1,0,0:0:0:0:
64,192,298830,1,0,0:0:0:0:
448,192,298916,1,0,0:0:0:0:
192,192,299002,1,0,0:0:0:0:
320,192,299002,1,0,0:0:0:0:
64,192,299173,1,0,0:0:0:0:
320,192,299259,1,0,0:0:0:0:
192,192,299345,1,0,0:0:0:0:
64,192,299430,1,0,0:0:0:0:
448,192,299516,1,0,0:0:0:0:
192,192,299602,1,0,0:0:0:0:
64,192,299687,1,0,0:0:0:0:
320,192,299687,1,0,0:0:0:0:
448,192,299859,1,0,0:0:0:0:
64,192,299945,1,0,0:0:0:0:
320,192,300030,1,0,0:0:0:0:
448,192,300116,1,0,0:0:0:0:
192,192,300202,1,0,0:0:0:0:
320,192,300287,1,0,0:0:0:0:
448,192,300373,1,0,0:0:0:0:
64,192,300373,1,0,0:0:0:0:
320,192,300545,1,0,0:0:0:0:
64,192,300630,1,0,0:0:0:0:
448,192,300716,1,0,0:0:0:0:
320,192,300802,1,0,0:0:0:0:
192,192,300887,1,0,0:0:0:0:
64,192,300973,1,0,0:0:0:0:
448,192,301059,1,0,0:0:0:0:
320,192,301059,1,0,0:0:0:0:
192,192,301230,1,0,0:0:0:0:
448,192,301316,1,0,0:0:0:0:
320,192,301402,1,0,0:0:0:0:
192,192,301487,1,0,0:0:0:0:
448,192,301573,1,0,0:0:0:0:
64,192,301659,1,0,0:0:0:0:
192,192,301745,1,0,0:0:0:0:
320,192,301745,1,0,0:0:0:0:
64,192,301916,1,0,0:0:0:0:
320,192,302002,1,0,0:0:0:0:
192,192,302087,1,0,0:0:0:0:
64,192,302173,1,0,0:0:0:0:
320,192,302259,1,0,0:0:0:0:
192,192,302345,1,0,0:0:0:0:
64,192,302430,1,0,0:0:0:0:
448,192,302430,1,0,0:0:0:0:
192,192,302602,1,0,0:0:0:0:
448,192,302687,1,0,0:0:0:0:
320,192,302773,1,0,0:0:0:0:
64,192,302859,1,0,0:0:0:0:
448,192,302945,1,0,0:0:0:0:
320,192,303116,1,0,0:0:0:0:
64,192,303116,1,0,0:0:0:0:
192,192,303287,1,0,0:0:0:0:
320,192,303373,1,0,0:0:0:0:
192,192,303459,1,0,0:0:0:0:
64,192,303545,1,0,0:0:0:0:
448,192,303630,1,0,0:0:0:0:
192,192,303716,1,0,0:0:0:0:
448,192,303802,1,0,0:0:0:0:
320,192,303802,1,0,0:0:0:0:
64,192,303973,1,0,0:0:0:0:
320,192,304059,1,0,0:0:0:0:
64,192,304145,1,0,0:0:0:0:
448,192,304230,1,0,0:0:0:0:
192,192,304316,1,0,0:0:0:0:
320,192,304402,1,0,0:0:0:0:
64,192,304487,1,0,0:0:0:0:
192,192,304487,1,0,0:0:0:0:
448,192,304659,1,0,0:0:0:0:
192,192,304745,1,0,0:0:0:0:
448,192,304830,1,0,0:0:0:0:
320,192,304916,1,0,0:0:0:0:
64,192,305002,1,0,0:0:0:0:
448,192,305087,1,0,0:0:0:0:
192,192,305173,1,0,0:0:0:0:
64,192,305173,1,0,0:0:0:0:
320,192,305345,1,0,0:0:0:0:
448,192,305430,1,0,0:0:0:0:
320,192,305516,1,0,0:0:0:0:
64,192,305602,1,0,0:0:0:0:
192,192,305687,1,0,0:0:0:0:
448,192,305773,1,0,0:0:0:0:
192,192,305859,1,0,0:0:0:0:
320,192,305859,1,0,0:0:0:0:
448,192,306030,1,0,0:0:0:0:
64,192,306116,1,0,0:0:0:0:
448,192,306202,1,0,0:0:0:0:
192,192,306287,1,0,0:0:0:0:
320,192,306373,1,0,0:0:0:0:
64,192,306459,1,0,0:0:0:0:
448,192,306545,1,0,0:0:0:0:
320,192,306545,1,0,0:0:0:0:
192,192,306716,1,0,0:0:0:0:
448,192,306802,1,0,0:0:0:0:
192,192,306887,1,0,0:0:0:0:
64,192,306973,1,0,0:0:0:0:
320,192,307059,1,0,0:0:0:0:
448,192,307145,1,0,0:0:0:0:
64,192,307230,1,0,0:0:0:0:
320,192,307230,1,0,0:0:0:0:
448,192,307402,1,0,0:0:0:0:
64,192,307487,1,0,0:0:0:0:
448,192,307573,1,0,0:0:0:0:
192,192,307659,1,0,0:0:0:0:
320,192,307745,1,0,0:0:0:0:
64,192,307830,1,0,0:0:0:0:
192,192,307916,1,0,0:0:0:0:
320,192,307916,1,0,0:0:0:0:
448,192,308087,1,0,0:0:0:0:
320,192,308173,1,0,0:0:0:0:
448,192,308259,1,0,0:0:0:0:
64,192,308345,1,0,0:0:0:0:
192,192,308430,1,0,0:0:0:0:
320,192,308430,1,0,0:0:0:0:
448,192,308430,1,0,0:0:0:0:
64,192,308687,1,0,0:0:0:0:
320,192,308687,1,0,0:0:0:0:
64,192,308945,1,0,0:0:0:0:
192,192,308945,1,0,0:0:0:0:
448,192,309116,128,0,309459:0:0:0:0:
320,192,309116,1,0,0:0:0:0:
64,192,309459,1,0,0:0:0:0:
192,192,309502,1,0,0:0:0:0:
320,192,309545,1,0,0:0:0:0:
448,192,309587,1,0,0:0:0:0:
64,192,309630,1,0,0:0:0:0:
192,192,309673,1,0,0:0:0:0:
320,192,309716,1,0,0:0:0:0:
448,192,309759,1,0,0:0:0:0:
64,192,309802,128,0,310487:0:0:0:0:
192,192,310145,128,0,310487:0:0:0:0:
448,192,310316,128,0,310487:0:0:0:0:
320,192,310487,1,0,0:0:0:0:
448,192,310530,1,0,0:0:0:0:
192,192,310659,1,0,0:0:0:0:
64,192,310745,1,0,0:0:0:0:
192,192,310830,1,0,0:0:0:0:
64,192,310916,1,0,0:0:0:0:
192,192,311002,1,0,0:0:0:0:
448,192,311173,1,0,0:0:0:0:
64,192,311173,1,0,0:0:0:0:
320,192,311173,1,0,0:0:0:0:
448,192,311430,1,0,0:0:0:0:
192,192,311430,1,0,0:0:0:0:
448,192,311687,1,0,0:0:0:0:
320,192,311687,1,0,0:0:0:0:
64,192,311859,128,0,312545:0:0:0:0:
192,192,311859,1,0,0:0:0:0:
192,192,312545,1,0,0:0:0:0:
320,192,312716,1,0,0:0:0:0:
320,192,312802,1,0,0:0:0:0:
320,192,312887,1,0,0:0:0:0:
320,192,313059,1,0,0:0:0:0:
192,192,313230,1,0,0:0:0:0:
320,192,313316,1,0,0:0:0:0:
192,192,313402,1,0,0:0:0:0:
320,192,313487,1,0,0:0:0:0:
192,192,313573,1,0,0:0:0:0:
64,192,313916,1,0,0:0:0:0:
192,192,313916,1,0,0:0:0:0:
320,192,313916,1,0,0:0:0:0:
64,192,314173,1,0,0:0:0:0:
448,192,314173,1,0,0:0:0:0:
448,192,314430,1,0,0:0:0:0:
192,192,314430,1,0,0:0:0:0:
320,192,314602,128,0,314945:0:0:0:0:
64,192,314602,1,0,0:0:0:0:
192,192,314945,1,0,0:0:0:0:
64,192,314987,1,0,0:0:0:0:
320,192,315030,1,0,0:0:0:0:
448,192,315073,1,0,0:0:0:0:
192,192,315116,1,0,0:0:0:0:
64,192,315159,1,0,0:0:0:0:
320,192,315202,1,0,0:0:0:0:
448,192,315245,1,0,0:0:0:0:
192,192,315287,128,0,315973:0:0:0:0:
320,192,315630,128,0,315973:0:0:0:0:
64,192,315802,128,0,315973:0:0:0:0:
448,192,315973,1,0,0:0:0:0:
64,192,316016,1,0,0:0:0:0:
320,192,316145,1,0,0:0:0:0:
192,192,316230,1,0,0:0:0:0:
320,192,316316,1,0,0:0:0:0:
192,192,316402,1,0,0:0:0:0:
320,192,316487,1,0,0:0:0:0:
64,192,316659,1,0,0:0:0:0:
192,192,316659,1,0,0:0:0:0:
448,192,316659,1,0,0:0:0:0:
448,192,316916,1,0,0:0:0:0:
320,192,316916,1,0,0:0:0:0:
64,192,317173,1,0,0:0:0:0:
320,192,317173,1,0,0:0:0:0:
192,192,317345,128,0,318030:0:0:0:0:
448,192,317345,1,0,0:0:0:0:
64,192,318030,1,0,0:0:0:0:
64,192,318202,1,0,0:0:0:0:
64,192,318287,1,0,0:0:0:0:
64,192,318373,1,0,0:0:0:0:
64,192,318545,1,0,0:0:0:0:
192,192,318716,1,0,0:0:0:0:
320,192,318802,1,0,0:0:0:0:
192,192,318887,1,0,0:0:0:0:
320,192,318973,1,0,0:0:0:0:
192,192,319059,1,0,0:0:0:0:
192,192,319402,1,0,0:0:0:0:
320,192,319402,1,0,0:0:0:0:
448,192,319402,1,0,0:0:0:0:
192,192,319573,1,0,0:0:0:0:
64,192,319573,1,0,0:0:0:0:
192,192,319659,1,0,0:0:0:0:
320,192,319659,1,0,0:0:0:0:
448,192,319745,1,0,0:0:0:0:
64,192,319830,1,0,0:0:0:0:
448,192,319916,1,0,0:0:0:0:
192,192,319916,1,0,0:0:0:0:
320,192,320002,1,0,0:0:0:0:
64,192,320087,1,0,0:0:0:0:
192,192,320087,1,0,0:0:0:0:
448,192,320173,1,0,0:0:0:0:
320,192,320259,1,0,0:0:0:0:
64,192,320259,1,0,0:0:0:0:
192,192,320430,1,0,0:0:0:0:
448,192,320430,1,0,0:0:0:0:
320,192,320473,1,0,0:0:0:0:
64,192,320516,1,0,0:0:0:0:
192,192,320559,1,0,0:0:0:0:
448,192,320602,1,0,0:0:0:0:
320,192,320645,1,0,0:0:0:0:
64,192,320687,1,0,0:0:0:0:
192,192,320730,1,0,0:0:0:0:
320,192,320773,1,0,0:0:0:0:
448,192,320773,1,0,0:0:0:0:
64,192,320859,1,0,0:0:0:0:
192,192,320945,1,0,0:0:0:0:
448,192,320945,1,0,0:0:0:0:
320,192,321116,1,0,0:0:0:0:
64,192,321202,1,0,0:0:0:0:
192,192,321287,1,0,0:0:0:0:
448,192,321373,1,0,0:0:0:0:
64,192,321459,1,0,0:0:0:0:
320,192,321459,1,0,0:0:0:0:
192,192,321545,1,0,0:0:0:0:
448,192,321630,1,0,0:0:0:0:
320,192,321630,1,0,0:0:0:0:
448,192,321802,1,0,0:0:0:0:
64,192,321802,1,0,0:0:0:0:
320,192,321887,1,0,0:0:0:0:
64,192,321973,1,0,0:0:0:0:
320,192,322059,1,0,0:0:0:0:
448,192,322145,1,0,0:0:0:0:
64,192,322145,1,0,0:0:0:0:
192,192,322145,1,0,0:0:0:0:
320,192,322230,1,0,0:0:0:0:
448,192,322316,1,0,0:0:0:0:
192,192,322316,1,0,0:0:0:0:
448,192,322402,1,0,0:0:0:0:
64,192,322402,1,0,0:0:0:0:
320,192,322487,1,0,0:0:0:0:
192,192,322573,1,0,0:0:0:0:
64,192,322659,1,0,0:0:0:0:
448,192,322659,1,0,0:0:0:0:
320,192,322745,1,0,0:0:0:0:
64,192,322830,1,0,0:0:0:0:
192,192,322830,1,0,0:0:0:0:
448,192,322916,1,0,0:0:0:0:
320,192,323002,1,0,0:0:0:0:
192,192,323002,1,0,0:0:0:0:
64,192,323087,1,0,0:0:0:0:
320,192,323173,1,0,0:0:0:0:
448,192,323173,1,0,0:0:0:0:
192,192,323259,1,0,0:0:0:0:
448,192,323345,1,0,0:0:0:0:
320,192,323430,1,0,0:0:0:0:
192,192,323516,1,0,0:0:0:0:
64,192,323516,1,0,0:0:0:0:
320,192,323602,1,0,0:0:0:0:
64,192,323687,1,0,0:0:0:0:
448,192,323687,1,0,0:0:0:0:
448,192,323773,1,0,0:0:0:0:
192,192,323859,1,0,0:0:0:0:
448,192,323859,1,0,0:0:0:0:
320,192,323945,1,0,0:0:0:0:
64,192,324030,1,0,0:0:0:0:
448,192,324030,1,0,0:0:0:0:
192,192,324116,1,0,0:0:0:0:
64,192,324202,1,0,0:0:0:0:
448,192,324202,1,0,0:0:0:0:
320,192,324287,1,0,0:0:0:0:
192,192,324287,1,0,0:0:0:0:
64,192,324373,1,0,0:0:0:0:
448,192,324373,1,0,0:0:0:0:
320,192,324459,1,0,0:0:0:0:
192,192,324545,1,0,0:0:0:0:
64,192,324545,1,0,0:0:0:0:
448,192,324545,1,0,0:0:0:0:
320,192,324630,1,0,0:0:0:0:
192,192,324716,1,0,0:0:0:0:
64,192,324802,1,0,0:0:0:0:
320,192,324887,1,0,0:0:0:0:
192,192,324887,1,0,0:0:0:0:
448,192,324887,1,0,0:0:0:0:
448,192,325059,1,0,0:0:0:0:
64,192,325059,1,0,0:0:0:0:
64,192,325145,1,0,0:0:0:0:
320,192,325145,1,0,0:0:0:0:
192,192,325230,1,0,0:0:0:0:
448,192,325316,1,0,0:0:0:0:
192,192,325402,1,0,0:0:0:0:
320,192,325402,1,0,0:0:0:0:
64,192,325487,1,0,0:0:0:0:
320,192,325573,1,0,0:0:0:0:
448,192,325573,1,0,0:0:0:0:
192,192,325659,1,0,0:0:0:0:
448,192,325745,1,0,0:0:0:0:
64,192,325745,1,0,0:0:0:0:
192,192,325916,1,0,0:0:0:0:
320,192,325916,1,0,0:0:0:0:
448,192,325959,1,0,0:0:0:0:
64,192,326002,1,0,0:0:0:0:
192,192,326045,1,0,0:0:0:0:
320,192,326087,1,0,0:0:0:0:
448,192,326130,1,0,0:0:0:0:
192,192,326173,1,0,0:0:0:0:
64,192,326216,1,0,0:0:0:0:
448,192,326259,1,0,0:0:0:0:
320,192,326259,1,0,0:0:0:0:
192,192,326345,1,0,0:0:0:0:
64,192,326430,1,0,0:0:0:0:
320,192,326430,1,0,0:0:0:0:
64,192,326602,1,0,0:0:0:0:
192,192,326602,1,0,0:0:0:0:
448,192,326687,1,0,0:0:0:0:
192,192,326773,1,0,0:0:0:0:
320,192,326859,1,0,0:0:0:0:
64,192,326945,1,0,0:0:0:0:
448,192,326945,1,0,0:0:0:0:
192,192,327030,1,0,0:0:0:0:
320,192,327116,1,0,0:0:0:0:
448,192,327116,1,0,0:0:0:0:
320,192,327287,1,0,0:0:0:0:
64,192,327287,1,0,0:0:0:0:
192,192,327373,1,0,0:0:0:0:
320,192,327459,1,0,0:0:0:0:
192,192,327545,1,0,0:0:0:0:
64,192,327630,1,0,0:0:0:0:
320,192,327630,1,0,0:0:0:0:
448,192,327630,1,0,0:0:0:0:
192,192,327716,1,0,0:0:0:0:
64,192,327802,1,0,0:0:0:0:
448,192,327802,1,0,0:0:0:0:
448,192,327887,1,0,0:0:0:0:
320,192,327887,1,0,0:0:0:0:
192,192,327973,1,0,0:0:0:0:
64,192,328059,1,0,0:0:0:0:
320,192,328145,1,0,0:0:0:0:
192,192,328145,1,0,0:0:0:0:
448,192,328230,1,0,0:0:0:0:
64,192,328316,1,0,0:0:0:0:
320,192,328316,1,0,0:0:0:0:
192,192,328402,1,0,0:0:0:0:
64,192,328487,1,0,0:0:0:0:
448,192,328487,1,0,0:0:0:0:
192,192,328659,1,0,0:0:0:0:
320,192,328659,1,0,0:0:0:0:
448,192,328745,1,0,0:0:0:0:
64,192,328830,1,0,0:0:0:0:
320,192,328830,1,0,0:0:0:0:
192,192,328916,1,0,0:0:0:0:
64,192,329002,1,0,0:0:0:0:
448,192,329002,1,0,0:0:0:0:
192,192,330030,1,0,0:0:0:0:
64,192,330030,1,0,0:0:0:0:
448,192,330030,1,0,0:0:0:0:
320,192,330030,1,0,0:0:0:0:
64,192,330373,1,0,0:0:0:0:
320,192,330373,1,0,0:0:0:0:
448,192,330373,1,0,0:0:0:0:
192,192,330459,1,0,0:0:0:0:
64,192,330545,1,0,0:0:0:0:
448,192,330545,1,0,0:0:0:0:
320,192,330630,1,0,0:0:0:0:
64,192,330716,1,0,0:0:0:0:
192,192,330716,1,0,0:0:0:0:
320,192,330802,1,0,0:0:0:0:
192,192,330887,1,0,0:0:0:0:
448,192,330887,1,0,0:0:0:0:
64,192,330973,1,0,0:0:0:0:
320,192,331059,1,0,0:0:0:0:
448,192,331059,1,0,0:0:0:0:
192,192,331145,1,0,0:0:0:0:
64,192,331230,1,0,0:0:0:0:
320,192,331230,1,0,0:0:0:0:
192,192,331316,1,0,0:0:0:0:
448,192,331402,1,0,0:0:0:0:
64,192,331402,1,0,0:0:0:0:
320,192,331487,1,0,0:0:0:0:
448,192,331573,1,0,0:0:0:0:
192,192,331573,1,0,0:0:0:0:
64,192,331659,1,0,0:0:0:0:
192,192,331745,1,0,0:0:0:0:
320,192,331745,1,0,0:0:0:0:
448,192,331830,1,0,0:0:0:0:
64,192,331916,1,0,0:0:0:0:
320,192,331916,1,0,0:0:0:0:
192,192,332002,1,0,0:0:0:0:
64,192,332087,1,0,0:0:0:0:
448,192,332087,1,0,0:0:0:0:
320,192,332173,1,0,0:0:0:0:
448,192,332259,1,0,0:0:0:0:
192,192,332259,1,0,0:0:0:0:
64,192,332345,1,0,0:0:0:0:
192,192,332430,1,0,0:0:0:0:
320,192,332430,1,0,0:0:0:0:
64,192,332516,1,0,0:0:0:0:
320,192,332602,1,0,0:0:0:0:
448,192,332602,1,0,0:0:0:0:
192,192,332687,1,0,0:0:0:0:
448,192,332773,128,0,333116:0:0:0:0:
64,192,332773,1,0,0:0:0:0:
320,192,332859,1,0,0:0:0:0:
192,192,332945,1,0,0:0:0:0:
64,192,333030,1,0,0:0:0:0:
192,192,333116,1,0,0:0:0:0:
320,192,333116,1,0,0:0:0:0:
64,192,333202,1,0,0:0:0:0:
320,192,333287,1,0,0:0:0:0:
448,192,333287,1,0,0:0:0:0:
192,192,333373,1,0,0:0:0:0:
448,192,333459,1,0,0:0:0:0:
64,192,333459,1,0,0:0:0:0:
192,192,333545,1,0,0:0:0:0:
64,192,333630,1,0,0:0:0:0:
320,192,333630,1,0,0:0:0:0:
448,192,333716,1,0,0:0:0:0:
320,192,333802,1,0,0:0:0:0:
192,192,333802,1,0,0:0:0:0:
64,192,333887,1,0,0:0:0:0:
192,192,333973,1,0,0:0:0:0:
448,192,333973,1,0,0:0:0:0:
320,192,334059,1,0,0:0:0:0:
448,192,334145,1,0,0:0:0:0:
64,192,334145,1,0,0:0:0:0:
192,192,334230,1,0,0:0:0:0:
320,192,334316,1,0,0:0:0:0:
64,192,334316,1,0,0:0:0:0:
192,192,334402,1,0,0:0:0:0:
320,192,334487,1,0,0:0:0:0:
448,192,334487,1,0,0:0:0:0:
64,192,334573,1,0,0:0:0:0:
448,192,334659,1,0,0:0:0:0:
192,192,334659,1,0,0:0:0:0:
320,192,334745,1,0,0:0:0:0:
64,192,334830,1,0,0:0:0:0:
192,192,334830,1,0,0:0:0:0:
448,192,334916,1,0,0:0:0:0:
320,192,335002,1,0,0:0:0:0:
64,192,335002,1,0,0:0:0:0:
448,192,335087,1,0,0:0:0:0:
320,192,335173,1,0,0:0:0:0:
192,192,335173,1,0,0:0:0:0:
64,192,335259,1,0,0:0:0:0:
448,192,335259,1,0,0:0:0:0:
320,192,335345,1,0,0:0:0:0:
192,192,335345,1,0,0:0:0:0:
64,192,335430,1,0,0:0:0:0:
320,192,335516,1,0,0:0:0:0:
64,192,335516,1,0,0:0:0:0:
192,192,335516,1,0,0:0:0:0:
448,192,335516,1,0,0:0:0:0:
320,192,335602,1,0,0:0:0:0:
448,192,335687,1,0,0:0:0:0:
192,192,335773,1,0,0:0:0:0:
320,192,335859,1,0,0:0:0:0:
64,192,335859,1,0,0:0:0:0:
448,192,335945,1,0,0:0:0:0:
192,192,336030,1,0,0:0:0:0:
320,192,336030,1,0,0:0:0:0:
64,192,336116,1,0,0:0:0:0:
448,192,336202,1,0,0:0:0:0:
320,192,336202,1,0,0:0:0:0:
192,192,336287,1,0,0:0:0:0:
64,192,336373,1,0,0:0:0:0:
448,192,336373,1,0,0:0:0:0:
320,192,336459,1,0,0:0:0:0:
64,192,336545,1,0,0:0:0:0:
192,192,336545,1,0,0:0:0:0:
320,192,336630,1,0,0:0:0:0:
192,192,336716,1,0,0:0:0:0:
448,192,336716,1,0,0:0:0:0:
64,192,336802,1,0,0:0:0:0:
448,192,336887,1,0,0:0:0:0:
320,192,336887,1,0,0:0:0:0:
192,192,336973,1,0,0:0:0:0:
64,192,337059,1,0,0:0:0:0:
320,192,337059,1,0,0:0:0:0:
448,192,337145,1,0,0:0:0:0:
192,192,337230,1,0,0:0:0:0:
64,192,337230,1,0,0:0:0:0:
320,192,337316,1,0,0:0:0:0:
448,192,337402,1,0,0:0:0:0:
192,192,337402,1,0,0:0:0:0:
320,192,337487,1,0,0:0:0:0:
64,192,337573,1,0,0:0:0:0:
448,192,337573,1,0,0:0:0:0:
192,192,337659,1,0,0:0:0:0:
64,192,337745,1,0,0:0:0:0:
320,192,337745,1,0,0:0:0:0:
448,192,337830,1,0,0:0:0:0:
192,192,337916,1,0,0:0:0:0:
320,192,337916,1,0,0:0:0:0:
64,192,338002,1,0,0:0:0:0:
448,192,338087,1,0,0:0:0:0:
192,192,338087,1,0,0:0:0:0:
320,192,338173,1,0,0:0:0:0:
64,192,338259,128,0,338602:0:0:0:0:
448,192,338259,1,0,0:0:0:0:
192,192,338345,1,0,0:0:0:0:
320,192,338430,1,0,0:0:0:0:
192,192,338516,1,0,0:0:0:0:
448,192,338602,128,0,338687:0:0:0:0:
320,192,338602,1,0,0:0:0:0:
64,192,338687,1,0,0:0:0:0:
320,192,338773,1,0,0:0:0:0:
192,192,338773,1,0,0:0:0:0:
448,192,338859,1,0,0:0:0:0:
320,192,338945,1,0,0:0:0:0:
64,192,338945,1,0,0:0:0:0:
192,192,339030,1,0,0:0:0:0:
448,192,339116,1,0,0:0:0:0:
64,192,339116,1,0,0:0:0:0:
320,192,339202,1,0,0:0:0:0:
192,192,339287,1,0,0:0:0:0:
448,192,339287,1,0,0:0:0:0:
64,192,339373,1,0,0:0:0:0:
320,192,339459,1,0,0:0:0:0:
192,192,339459,1,0,0:0:0:0:
448,192,339545,1,0,0:0:0:0:
64,192,339630,128,0,339716:0:0:0:0:
320,192,339630,1,0,0:0:0:0:
192,192,339716,1,0,0:0:0:0:
64,192,339802,1,0,0:0:0:0:
448,192,339802,1,0,0:0:0:0:
192,192,339887,1,0,0:0:0:0:
320,192,339973,1,0,0:0:0:0:
448,192,339973,1,0,0:0:0:0:
64,192,340059,1,0,0:0:0:0:
320,192,340145,1,0,0:0:0:0:
192,192,340145,1,0,0:0:0:0:
448,192,340230,1,0,0:0:0:0:
320,192,340316,1,0,0:0:0:0:
64,192,340316,1,0,0:0:0:0:
192,192,340316,1,0,0:0:0:0:
448,192,340402,1,0,0:0:0:0:
64,192,340487,1,0,0:0:0:0:
192,192,340487,1,0,0:0:0:0:
320,192,340573,1,0,0:0:0:0:
64,192,340659,1,0,0:0:0:0:
448,192,340659,1,0,0:0:0:0:
448,192,340745,1,0,0:0:0:0:
64,192,340745,1,0,0:0:0:0:
320,192,340830,1,0,0:0:0:0:
192,192,340830,1,0,0:0:0:0:
64,192,340916,1,0,0:0:0:0:
448,192,340916,1,0,0:0:0:0:
448,192,341002,1,0,0:0:0:0:
192,192,341002,1,0,0:0:0:0:
320,192,341002,1,0,0:0:0:0:
64,192,341002,1,0,0:0:0:0:
192,192,341345,1,0,0:0:0:0:
448,192,341345,1,0,0:0:0:0:
320,192,341345,1,0,0:0:0:0:
64,192,341430,1,0,0:0:0:0:
448,192,341516,1,0,0:0:0:0:
320,192,341516,1,0,0:0:0:0:
192,192,341602,1,0,0:0:0:0:
320,192,341687,1,0,0:0:0:0:
64,192,341687,1,0,0:0:0:0:
192,192,341773,1,0,0:0:0:0:
64,192,341859,1,0,0:0:0:0:
448,192,341859,1,0,0:0:0:0:
320,192,341945,1,0,0:0:0:0:
448,192,342030,1,0,0:0:0:0:
192,192,342030,1,0,0:0:0:0:
64,192,342116,1,0,0:0:0:0:
192,192,342202,1,0,0:0:0:0:
320,192,342202,1,0,0:0:0:0:
448,192,342287,1,0,0:0:0:0:
320,192,342373,1,0,0:0:0:0:
64,192,342373,1,0,0:0:0:0:
448,192,342459,1,0,0:0:0:0:
64,192,342545,1,0,0:0:0:0:
192,192,342545,1,0,0:0:0:0:
320,192,342630,1,0,0:0:0:0:
448,192,342716,1,0,0:0:0:0:
192,192,342716,1,0,0:0:0:0:
64,192,342802,1,0,0:0:0:0:
448,192,342887,1,0,0:0:0:0:
320,192,342887,1,0,0:0:0:0:
192,192,342973,1,0,0:0:0:0:
64,192,343059,1,0,0:0:0:0:
320,192,343059,1,0,0:0:0:0:
192,192,343145,1,0,0:0:0:0:
64,192,343230,1,0,0:0:0:0:
448,192,343230,1,0,0:0:0:0:
192,192,343316,1,0,0:0:0:0:
320,192,343316,1,0,0:0:0:0:
64,192,343402,1,0,0:0:0:0:
448,192,343402,1,0,0:0:0:0:
320,192,343487,1,0,0:0:0:0:
192,192,343573,1,0,0:0:0:0:
64,192,343659,1,0,0:0:0:0:
448,192,343745,1,0,0:0:0:0:
64,192,343745,1,0,0:0:0:0:
320,192,343745,1,0,0:0:0:0:
192,192,343745,1,0,0:0:0:0:
448,192,343830,1,0,0:0:0:0:
320,192,343916,1,0,0:0:0:0:
192,192,344002,1,0,0:0:0:0:
64,192,344087,1,0,0:0:0:0:
448,192,344087,1,0,0:0:0:0:
320,192,344173,1,0,0:0:0:0:
448,192,344259,1,0,0:0:0:0:
192,192,344259,1,0,0:0:0:0:
64,192,344345,1,0,0:0:0:0:
192,192,344430,1,0,0:0:0:0:
320,192,344430,1,0,0:0:0:0:
448,192,344516,1,0,0:0:0:0:
64,192,344602,1,0,0:0:0:0:
320,192,344602,1,0,0:0:0:0:
192,192,344687,1,0,0:0:0:0:
64,192,344773,1,0,0:0:0:0:
448,192,344773,1,0,0:0:0:0:
320,192,344859,1,0,0:0:0:0:
448,192,344945,1,0,0:0:0:0:
192,192,344945,1,0,0:0:0:0:
320,192,345030,1,0,0:0:0:0:
64,192,345116,1,0,0:0:0:0:
192,192,345116,1,0,0:0:0:0:
448,192,345202,1,0,0:0:0:0:
64,192,345287,1,0,0:0:0:0:
320,192,345287,1,0,0:0:0:0:
192,192,345373,1,0,0:0:0:0:
448,192,345459,1,0,0:0:0:0:
320,192,345459,1,0,0:0:0:0:
64,192,345545,1,0,0:0:0:0:
448,192,345630,1,0,0:0:0:0:
192,192,345630,1,0,0:0:0:0:
320,192,345716,1,0,0:0:0:0:
64,192,345802,1,0,0:0:0:0:
192,192,345802,1,0,0:0:0:0:
448,192,345887,1,0,0:0:0:0:
320,192,345887,1,0,0:0:0:0:
64,192,345973,1,0,0:0:0:0:
192,192,345973,1,0,0:0:0:0:
448,192,346059,1,0,0:0:0:0:
64,192,346145,1,0,0:0:0:0:
192,192,346145,1,0,0:0:0:0:
320,192,346145,1,0,0:0:0:0:
448,192,346230,1,0,0:0:0:0:
192,192,346316,1,0,0:0:0:0:
320,192,346316,1,0,0:0:0:0:
64,192,346402,1,0,0:0:0:0:
192,192,346487,1,0,0:0:0:0:
64,192,346487,1,0,0:0:0:0:
320,192,346487,1,0,0:0:0:0:
448,192,346487,1,0,0:0:0:0:
448,192,346573,1,0,0:0:0:0:
192,192,346659,1,0,0:0:0:0:
320,192,346745,1,0,0:0:0:0:
64,192,346830,1,0,0:0:0:0:
192,192,346830,1,0,0:0:0:0:
448,192,346916,1,0,0:0:0:0:
64,192,347002,1,0,0:0:0:0:
320,192,347002,1,0,0:0:0:0:
192,192,347087,1,0,0:0:0:0:
448,192,347173,1,0,0:0:0:0:
320,192,347173,1,0,0:0:0:0:
64,192,347259,1,0,0:0:0:0:
192,192,347345,1,0,0:0:0:0:
448,192,347345,1,0,0:0:0:0:
320,192,347430,1,0,0:0:0:0:
64,192,347516,1,0,0:0:0:0:
192,192,347516,1,0,0:0:0:0:
320,192,347602,1,0,0:0:0:0:
64,192,347687,1,0,0:0:0:0:
448,192,347687,1,0,0:0:0:0:
192,192,347773,1,0,0:0:0:0:
448,192,347859,1,0,0:0:0:0:
320,192,347859,1,0,0:0:0:0:
64,192,347945,1,0,0:0:0:0:
320,192,348030,1,0,0:0:0:0:
192,192,348030,1,0,0:0:0:0:
448,192,348116,1,0,0:0:0:0:
64,192,348202,1,0,0:0:0:0:
192,192,348202,1,0,0:0:0:0:
320,192,348287,1,0,0:0:0:0:
64,192,348373,1,0,0:0:0:0:
448,192,348373,1,0,0:0:0:0:
192,192,348459,1,0,0:0:0:0:
448,192,348545,1,0,0:0:0:0:
320,192,348545,1,0,0:0:0:0:
192,192,348630,1,0,0:0:0:0:
64,192,348630,1,0,0:0:0:0:
448,192,348716,1,0,0:0:0:0:
320,192,348716,1,0,0:0:0:0:
192,192,348802,1,0,0:0:0:0:
64,192,348802,1,0,0:0:0:0:
448,192,348887,1,0,0:0:0:0:
320,192,348887,1,0,0:0:0:0:
64,192,348973,1,0,0:0:0:0:
320,192,349059,1,0,0:0:0:0:
448,192,349145,1,0,0:0:0:0:
320,192,349230,1,0,0:0:0:0:
448,192,349230,1,0,0:0:0:0:
192,192,349230,1,0,0:0:0:0:
64,192,349230,1,0,0:0:0:0:
192,192,349316,1,0,0:0:0:0:
64,192,349402,1,0,0:0:0:0:
320,192,349487,1,0,0:0:0:0:
448,192,349573,128,0,349659:0:0:0:0:
192,192,349573,1,0,0:0:0:0:
64,192,349659,1,0,0:0:0:0:
192,192,349745,1,0,0:0:0:0:
320,192,349745,1,0,0:0:0:0:
448,192,349830,1,0,0:0:0:0:
64,192,349916,1,0,0:0:0:0:
192,192,349916,1,0,0:0:0:0:
320,192,349916,1,0,0:0:0:0:
448,192,350002,1,0,0:0:0:0:
320,192,350087,1,0,0:0:0:0:
64,192,350087,1,0,0:0:0:0:
192,192,350173,1,0,0:0:0:0:
320,192,350259,1,0,0:0:0:0:
64,192,350259,1,0,0:0:0:0:
448,192,350259,1,0,0:0:0:0:
192,192,350345,1,0,0:0:0:0:
448,192,350430,1,0,0:0:0:0:
64,192,350430,1,0,0:0:0:0:
320,192,350516,1,0,0:0:0:0:
64,192,350602,1,0,0:0:0:0:
192,192,350602,1,0,0:0:0:0:
64,192,350687,1,0,0:0:0:0:
192,192,350687,1,0,0:0:0:0:
448,192,350773,1,0,0:0:0:0:
320,192,350773,1,0,0:0:0:0:
64,192,350859,1,0,0:0:0:0:
192,192,350859,1,0,0:0:0:0:
64,192,350945,1,0,0:0:0:0:
448,192,350945,1,0,0:0:0:0:
320,192,350945,1,0,0:0:0:0:
192,192,351030,1,0,0:0:0:0:
448,192,351116,128,0,351202:0:0:0:0:
320,192,351116,1,0,0:0:0:0:
64,192,351202,1,0,0:0:0:0:
320,192,351287,128,0,351373:0:0:0:0:
192,192,351287,1,0,0:0:0:0:
448,192,351287,1,0,0:0:0:0:
64,192,351373,1,0,0:0:0:0:
192,192,351459,128,0,351545:0:0:0:0:
64,192,351630,1,0,0:0:0:0:
320,192,351630,1,0,0:0:0:0:
64,192,351716,1,0,0:0:0:0:
320,192,351716,1,0,0:0:0:0:
448,192,351802,1,0,0:0:0:0:
192,192,351802,1,0,0:0:0:0:
64,192,351887,1,0,0:0:0:0:
320,192,351887,1,0,0:0:0:0:
64,192,351973,1,0,0:0:0:0:
448,192,351973,1,0,0:0:0:0:
192,192,351973,1,0,0:0:0:0:
320,192,351973,1,0,0:0:0:0:
64,192,352316,1,0,0:0:0:0:
320,192,352316,1,0,0:0:0:0:
448,192,352316,1,0,0:0:0:0:
192,192,352402,1,0,0:0:0:0:
320,192,352487,1,0,0:0:0:0:
448,192,352487,1,0,0:0:0:0:
64,192,352573,1,0,0:0:0:0:
320,192,352659,1,0,0:0:0:0:
192,192,352659,1,0,0:0:0:0:
448,192,352659,1,0,0:0:0:0:
64,192,352745,1,0,0:0:0:0:
320,192,352830,1,0,0:0:0:0:
192,192,352830,1,0,0:0:0:0:
448,192,352916,1,0,0:0:0:0:
64,192,353002,1,0,0:0:0:0:
192,192,353002,1,0,0:0:0:0:
448,192,353087,1,0,0:0:0:0:
320,192,353087,1,0,0:0:0:0:
64,192,353173,1,0,0:0:0:0:
192,192,353173,1,0,0:0:0:0:
320,192,353259,1,0,0:0:0:0:
64,192,353345,1,0,0:0:0:0:
192,192,353345,1,0,0:0:0:0:
448,192,353345,1,0,0:0:0:0:
320,192,353430,1,0,0:0:0:0:
64,192,353516,1,0,0:0:0:0:
448,192,353516,1,0,0:0:0:0:
192,192,353602,1,0,0:0:0:0:
448,192,353687,1,0,0:0:0:0:
320,192,353687,1,0,0:0:0:0:
192,192,353773,1,0,0:0:0:0:
320,192,353859,1,0,0:0:0:0:
64,192,353859,1,0,0:0:0:0:
448,192,353945,1,0,0:0:0:0:
320,192,354030,1,0,0:0:0:0:
64,192,354030,1,0,0:0:0:0:
192,192,354030,1,0,0:0:0:0:
448,192,354116,1,0,0:0:0:0:
64,192,354202,1,0,0:0:0:0:
192,192,354202,1,0,0:0:0:0:
320,192,354287,1,0,0:0:0:0:
192,192,354373,1,0,0:0:0:0:
448,192,354373,1,0,0:0:0:0:
64,192,354459,1,0,0:0:0:0:
320,192,354545,1,0,0:0:0:0:
448,192,354545,1,0,0:0:0:0:
64,192,354630,1,0,0:0:0:0:
192,192,354630,1,0,0:0:0:0:
320,192,354716,1,0,0:0:0:0:
448,192,354716,1,0,0:0:0:0:
192,192,354716,1,0,0:0:0:0:
64,192,354802,1,0,0:0:0:0:
320,192,354887,1,0,0:0:0:0:
192,192,354887,1,0,0:0:0:0:
448,192,354973,1,0,0:0:0:0:
192,192,355059,1,0,0:0:0:0:
64,192,355059,1,0,0:0:0:0:
320,192,355145,1,0,0:0:0:0:
64,192,355230,1,0,0:0:0:0:
448,192,355230,1,0,0:0:0:0:
320,192,355316,1,0,0:0:0:0:
192,192,355402,1,0,0:0:0:0:
64,192,355402,1,0,0:0:0:0:
448,192,355402,1,0,0:0:0:0:
320,192,355487,1,0,0:0:0:0:
192,192,355573,1,0,0:0:0:0:
448,192,355573,1,0,0:0:0:0:
64,192,355659,1,0,0:0:0:0:
320,192,355745,1,0,0:0:0:0:
192,192,355745,1,0,0:0:0:0:
64,192,355830,1,0,0:0:0:0:
448,192,355830,1,0,0:0:0:0:
320,192,355916,1,0,0:0:0:0:
192,192,355916,1,0,0:0:0:0:
448,192,356002,1,0,0:0:0:0:
192,192,356087,1,0,0:0:0:0:
64,192,356087,1,0,0:0:0:0:
320,192,356087,1,0,0:0:0:0:
448,192,356173,1,0,0:0:0:0:
320,192,356259,1,0,0:0:0:0:
64,192,356259,1,0,0:0:0:0:
192,192,356345,1,0,0:0:0:0:
64,192,356430,1,0,0:0:0:0:
448,192,356430,1,0,0:0:0:0:
320,192,356516,1,0,0:0:0:0:
448,192,356602,1,0,0:0:0:0:
192,192,356602,1,0,0:0:0:0:
64,192,356687,1,0,0:0:0:0:
448,192,356773,1,0,0:0:0:0:
320,192,356773,1,0,0:0:0:0:
192,192,356773,1,0,0:0:0:0:
64,192,356859,1,0,0:0:0:0:
192,192,356945,1,0,0:0:0:0:
320,192,356945,1,0,0:0:0:0:
448,192,357030,1,0,0:0:0:0:
64,192,357116,1,0,0:0:0:0:
320,192,357116,1,0,0:0:0:0:
192,192,357202,1,0,0:0:0:0:
448,192,357287,1,0,0:0:0:0:
320,192,357373,1,0,0:0:0:0:
448,192,357459,1,0,0:0:0:0:
64,192,357459,1,0,0:0:0:0:
192,192,357459,1,0,0:0:0:0:
320,192,357459,1,0,0:0:0:0:
64,192,357545,1,0,0:0:0:0:
320,192,357630,1,0,0:0:0:0:
448,192,357716,1,0,0:0:0:0:
64,192,357802,1,0,0:0:0:0:
192,192,357802,1,0,0:0:0:0:
448,192,357887,1,0,0:0:0:0:
192,192,357973,1,0,0:0:0:0:
320,192,357973,1,0,0:0:0:0:
64,192,358059,1,0,0:0:0:0:
192,192,358145,1,0,0:0:0:0:
320,192,358145,1,0,0:0:0:0:
448,192,358145,1,0,0:0:0:0:
64,192,358230,1,0,0:0:0:0:
320,192,358316,1,0,0:0:0:0:
448,192,358316,1,0,0:0:0:0:
192,192,358402,1,0,0:0:0:0:
64,192,358487,1,0,0:0:0:0:
448,192,358487,1,0,0:0:0:0:
320,192,358573,1,0,0:0:0:0:
192,192,358573,1,0,0:0:0:0:
448,192,358659,1,0,0:0:0:0:
64,192,358659,1,0,0:0:0:0:
320,192,358745,1,0,0:0:0:0:
448,192,358830,1,0,0:0:0:0:
64,192,358830,1,0,0:0:0:0:
192,192,358830,1,0,0:0:0:0:
320,192,358916,1,0,0:0:0:0:
64,192,359002,1,0,0:0:0:0:
192,192,359002,1,0,0:0:0:0:
448,192,359087,1,0,0:0:0:0:
192,192,359173,1,0,0:0:0:0:
320,192,359173,1,0,0:0:0:0:
64,192,359259,1,0,0:0:0:0:
448,192,359345,1,0,0:0:0:0:
320,192,359345,1,0,0:0:0:0:
64,192,359430,1,0,0:0:0:0:
448,192,359516,1,0,0:0:0:0:
320,192,359516,1,0,0:0:0:0:
192,192,359516,1,0,0:0:0:0:
64,192,359602,1,0,0:0:0:0:
192,192,359687,1,0,0:0:0:0:
448,192,359687,1,0,0:0:0:0:
320,192,359773,1,0,0:0:0:0:
64,192,359859,1,0,0:0:0:0:
192,192,359859,1,0,0:0:0:0:
320,192,359945,1,0,0:0:0:0:
64,192,360030,1,0,0:0:0:0:
448,192,360030,1,0,0:0:0:0:
320,192,360116,1,0,0:0:0:0:
192,192,360116,1,0,0:0:0:0:
64,192,360202,1,0,0:0:0:0:
448,192,360202,1,0,0:0:0:0:
320,192,360202,1,0,0:0:0:0:
192,192,360287,1,0,0:0:0:0:
64,192,360373,1,0,0:0:0:0:
448,192,360373,1,0,0:0:0:0:
320,192,360459,1,0,0:0:0:0:
192,192,360545,128,0,360630:0:0:0:0:
64,192,360545,1,0,0:0:0:0:
448,192,360630,1,0,0:0:0:0:
192,192,360716,1,0,0:0:0:0:
320,192,360716,1,0,0:0:0:0:
448,192,360802,1,0,0:0:0:0:
64,192,360887,1,0,0:0:0:0:
192,192,360887,1,0,0:0:0:0:
320,192,360887,1,0,0:0:0:0:
448,192,360973,1,0,0:0:0:0:
320,192,361059,1,0,0:0:0:0:
64,192,361059,1,0,0:0:0:0:
192,192,361145,1,0,0:0:0:0:
448,192,361230,1,0,0:0:0:0:
64,192,361230,1,0,0:0:0:0:
192,192,361316,1,0,0:0:0:0:
320,192,361316,1,0,0:0:0:0:
448,192,361402,1,0,0:0:0:0:
64,192,361402,1,0,0:0:0:0:
320,192,361487,1,0,0:0:0:0:
192,192,361573,128,0,361659:0:0:0:0:
448,192,361573,1,0,0:0:0:0:
64,192,361573,1,0,0:0:0:0:
320,192,361659,1,0,0:0:0:0:
192,192,361745,1,0,0:0:0:0:
448,192,361745,1,0,0:0:0:0:
64,192,361830,1,0,0:0:0:0:
192,192,361916,1,0,0:0:0:0:
320,192,361916,1,0,0:0:0:0:
448,192,362002,1,0,0:0:0:0:
320,192,362087,1,0,0:0:0:0:
192,192,362087,1,0,0:0:0:0:
64,192,362173,1,0,0:0:0:0:
320,192,362259,1,0,0:0:0:0:
448,192,362259,1,0,0:0:0:0:
192,192,362259,1,0,0:0:0:0:
64,192,362345,1,0,0:0:0:0:
192,192,362430,1,0,0:0:0:0:
320,192,362430,1,0,0:0:0:0:
448,192,362516,1,0,0:0:0:0:
64,192,362602,1,0,0:0:0:0:
192,192,362602,1,0,0:0:0:0:
64,192,362687,1,0,0:0:0:0:
192,192,362687,1,0,0:0:0:0:
448,192,362773,1,0,0:0:0:0:
320,192,362773,1,0,0:0:0:0:
64,192,362859,1,0,0:0:0:0:
192,192,362859,1,0,0:0:0:0:
192,192,362945,1,0,0:0:0:0:
64,192,362945,1,0,0:0:0:0:
448,192,362945,1,0,0:0:0:0:
320,192,362945,1,0,0:0:0:0:
320,192,363287,1,0,0:0:0:0:
192,192,363287,1,0,0:0:0:0:
448,192,363287,1,0,0:0:0:0:
64,192,363373,1,0,0:0:0:0:
192,192,363459,1,0,0:0:0:0:
448,192,363459,1,0,0:0:0:0:
320,192,363545,1,0,0:0:0:0:
448,192,363630,1,0,0:0:0:0:
64,192,363630,1,0,0:0:0:0:
192,192,363630,1,0,0:0:0:0:
320,192,363716,1,0,0:0:0:0:
448,192,363802,1,0,0:0:0:0:
64,192,363802,1,0,0:0:0:0:
192,192,363887,1,0,0:0:0:0:
64,192,363973,1,0,0:0:0:0:
320,192,363973,1,0,0:0:0:0:
448,192,364059,1,0,0:0:0:0:
192,192,364059,1,0,0:0:0:0:
64,192,364145,1,0,0:0:0:0:
320,192,364145,1,0,0:0:0:0:
448,192,364230,1,0,0:0:0:0:
64,192,364316,1,0,0:0:0:0:
320,192,364316,1,0,0:0:0:0:
192,192,364316,1,0,0:0:0:0:
448,192,364402,1,0,0:0:0:0:
320,192,364487,1,0,0:0:0:0:
192,192,364487,1,0,0:0:0:0:
64,192,364573,1,0,0:0:0:0:
448,192,364659,1,0,0:0:0:0:
192,192,364659,1,0,0:0:0:0:
320,192,364745,1,0,0:0:0:0:
64,192,364830,1,0,0:0:0:0:
448,192,364830,1,0,0:0:0:0:
192,192,364916,1,0,0:0:0:0:
64,192,365002,1,0,0:0:0:0:
448,192,365002,1,0,0:0:0:0:
320,192,365002,1,0,0:0:0:0:
192,192,365087,1,0,0:0:0:0:
448,192,365173,1,0,0:0:0:0:
320,192,365173,1,0,0:0:0:0:
64,192,365259,1,0,0:0:0:0:
192,192,365345,1,0,0:0:0:0:
320,192,365345,1,0,0:0:0:0:
448,192,365430,1,0,0:0:0:0:
64,192,365516,1,0,0:0:0:0:
192,192,365516,1,0,0:0:0:0:
448,192,365602,1,0,0:0:0:0:
320,192,365602,1,0,0:0:0:0:
64,192,365687,1,0,0:0:0:0:
320,192,365687,1,0,0:0:0:0:
448,192,365687,1,0,0:0:0:0:
192,192,365687,1,0,0:0:0:0:
64,192,365773,1,0,0:0:0:0:
192,192,365859,1,0,0:0:0:0:
448,192,365945,1,0,0:0:0:0:
320,192,366030,1,0,0:0:0:0:
64,192,366030,1,0,0:0:0:0:
192,192,366116,1,0,0:0:0:0:
448,192,366202,1,0,0:0:0:0:
64,192,366202,1,0,0:0:0:0:
320,192,366287,1,0,0:0:0:0:
64,192,366373,1,0,0:0:0:0:
192,192,366373,1,0,0:0:0:0:
448,192,366373,1,0,0:0:0:0:
320,192,366459,1,0,0:0:0:0:
448,192,366545,1,0,0:0:0:0:
192,192,366545,1,0,0:0:0:0:
64,192,366630,1,0,0:0:0:0:
320,192,366716,1,0,0:0:0:0:
192,192,366716,1,0,0:0:0:0:
64,192,366802,1,0,0:0:0:0:
448,192,366802,1,0,0:0:0:0:
192,192,366887,1,0,0:0:0:0:
320,192,366887,1,0,0:0:0:0:
448,192,366973,1,0,0:0:0:0:
64,192,367059,1,0,0:0:0:0:
192,192,367059,1,0,0:0:0:0:
320,192,367059,1,0,0:0:0:0:
448,192,367145,1,0,0:0:0:0:
320,192,367230,1,0,0:0:0:0:
64,192,367230,1,0,0:0:0:0:
192,192,367316,1,0,0:0:0:0:
64,192,367402,1,0,0:0:0:0:
448,192,367402,1,0,0:0:0:0:
192,192,367487,1,0,0:0:0:0:
320,192,367573,1,0,0:0:0:0:
448,192,367573,1,0,0:0:0:0:
64,192,367659,1,0,0:0:0:0:
320,192,367745,1,0,0:0:0:0:
448,192,367745,1,0,0:0:0:0:
192,192,367745,1,0,0:0:0:0:
64,192,367830,1,0,0:0:0:0:
192,192,367916,1,0,0:0:0:0:
320,192,367916,1,0,0:0:0:0:
448,192,368002,1,0,0:0:0:0:
64,192,368087,128,0,368430:0:0:0:0:
320,192,368087,1,0,0:0:0:0:
192,192,368087,1,0,0:0:0:0:
448,192,368173,1,0,0:0:0:0:
192,192,368259,1,0,0:0:0:0:
320,192,368345,1,0,0:0:0:0:
320,192,368430,1,0,0:0:0:0:
448,192,368430,1,0,0:0:0:0:
192,192,368430,1,0,0:0:0:0:
64,192,368516,1,0,0:0:0:0:
448,192,368602,1,0,0:0:0:0:
192,192,368687,1,0,0:0:0:0:
320,192,368773,1,0,0:0:0:0:
64,192,368773,1,0,0:0:0:0:
448,192,368859,1,0,0:0:0:0:
320,192,368945,1,0,0:0:0:0:
192,192,368945,1,0,0:0:0:0:
448,192,369030,1,0,0:0:0:0:
320,192,369116,1,0,0:0:0:0:
64,192,369116,1,0,0:0:0:0:
192,192,369116,1,0,0:0:0:0:
448,192,369202,1,0,0:0:0:0:
192,192,369287,1,0,0:0:0:0:
64,192,369287,1,0,0:0:0:0:
320,192,369373,1,0,0:0:0:0:
448,192,369459,1,0,0:0:0:0:
64,192,369459,1,0,0:0:0:0:
320,192,369545,1,0,0:0:0:0:
192,192,369545,1,0,0:0:0:0:
64,192,369630,1,0,0:0:0:0:
448,192,369630,1,0,0:0:0:0:
192,192,369716,1,0,0:0:0:0:
64,192,369802,1,0,0:0:0:0:
448,192,369802,1,0,0:0:0:0:
320,192,369802,1,0,0:0:0:0:
192,192,369887,1,0,0:0:0:0:
448,192,369973,1,0,0:0:0:0:
320,192,369973,1,0,0:0:0:0:
64,192,370059,1,0,0:0:0:0:
192,192,370145,1,0,0:0:0:0:
320,192,370145,1,0,0:0:0:0:
64,192,370230,1,0,0:0:0:0:
192,192,370316,1,0,0:0:0:0:
448,192,370316,1,0,0:0:0:0:
320,192,370402,1,0,0:0:0:0:
64,192,370487,1,0,0:0:0:0:
192,192,370487,1,0,0:0:0:0:
448,192,370487,1,0,0:0:0:0:
320,192,370573,1,0,0:0:0:0:
64,192,370659,1,0,0:0:0:0:
448,192,370659,1,0,0:0:0:0:
192,192,370745,1,0,0:0:0:0:
64,192,370830,1,0,0:0:0:0:
320,192,370830,1,0,0:0:0:0:
448,192,370916,1,0,0:0:0:0:
320,192,371002,1,0,0:0:0:0:
192,192,371002,1,0,0:0:0:0:
448,192,371087,1,0,0:0:0:0:
64,192,371087,1,0,0:0:0:0:
64,192,371173,1,0,0:0:0:0:
448,192,371173,1,0,0:0:0:0:
320,192,371173,1,0,0:0:0:0:
192,192,371173,1,0,0:0:0:0:
320,192,371259,1,0,0:0:0:0:
192,192,371345,1,0,0:0:0:0:
448,192,371430,1,0,0:0:0:0:
320,192,371516,1,0,0:0:0:0:
64,192,371516,128,0,371602:0:0:0:0:
192,192,371602,1,0,0:0:0:0:
448,192,371687,1,0,0:0:0:0:
320,192,371687,1,0,0:0:0:0:
192,192,371773,1,0,0:0:0:0:
448,192,371859,1,0,0:0:0:0:
320,192,371859,1,0,0:0:0:0:
64,192,371859,1,0,0:0:0:0:
192,192,371945,1,0,0:0:0:0:
64,192,372030,1,0,0:0:0:0:
320,192,372030,1,0,0:0:0:0:
448,192,372116,1,0,0:0:0:0:
320,192,372202,1,0,0:0:0:0:
64,192,372202,1,0,0:0:0:0:
192,192,372202,1,0,0:0:0:0:
448,192,372287,1,0,0:0:0:0:
64,192,372373,1,0,0:0:0:0:
192,192,372373,1,0,0:0:0:0:
320,192,372459,1,0,0:0:0:0:
64,192,372545,1,0,0:0:0:0:
448,192,372545,1,0,0:0:0:0:
64,192,372630,1,0,0:0:0:0:
448,192,372630,1,0,0:0:0:0:
192,192,372716,1,0,0:0:0:0:
320,192,372716,1,0,0:0:0:0:
64,192,372802,1,0,0:0:0:0:
448,192,372802,1,0,0:0:0:0:
192,192,372887,1,0,0:0:0:0:
320,192,372887,1,0,0:0:0:0:
64,192,372973,1,0,0:0:0:0:
448,192,372973,1,0,0:0:0:0:
192,192,372973,1,0,0:0:0:0:
64,192,373059,1,0,0:0:0:0:
320,192,373059,1,0,0:0:0:0:
192,192,373145,1,0,0:0:0:0:
448,192,373145,1,0,0:0:0:0:
320,192,373230,1,0,0:0:0:0:
192,192,373230,1,0,0:0:0:0:
64,192,373230,1,0,0:0:0:0:
320,192,373316,1,0,0:0:0:0:
448,192,373316,1,0,0:0:0:0:
192,192,373402,1,0,0:0:0:0:
64,192,373402,1,0,0:0:0:0:
320,192,373487,1,0,0:0:0:0:
448,192,373487,1,0,0:0:0:0:
448,192,373573,1,0,0:0:0:0:
320,192,373573,1,0,0:0:0:0:
448,192,373659,1,0,0:0:0:0:
320,192,373659,1,0,0:0:0:0:
64,192,373745,1,0,0:0:0:0:
192,192,373745,1,0,0:0:0:0:
448,192,373830,1,0,0:0:0:0:
320,192,373830,1,0,0:0:0:0:
192,192,373916,1,0,0:0:0:0:
64,192,373916,1,0,0:0:0:0:
320,192,373916,1,0,0:0:0:0:
448,192,373916,1,0,0:0:0:0:
64,192,374259,1,0,0:0:0:0:
192,192,374259,1,0,0:0:0:0:
448,192,374259,1,0,0:0:0:0:
320,192,374259,1,0,0:0:0:0:
192,192,374516,1,0,0:0:0:0:
320,192,374516,1,0,0:0:0:0:
448,192,374602,1,0,0:0:0:0:
64,192,374687,1,0,0:0:0:0:
448,192,374859,1,0,0:0:0:0:
192,192,374859,1,0,0:0:0:0:
64,192,374945,1,0,0:0:0:0:
320,192,374945,1,0,0:0:0:0:
192,192,375030,1,0,0:0:0:0:
448,192,375116,1,0,0:0:0:0:
320,192,375202,1,0,0:0:0:0:
64,192,375287,1,0,0:0:0:0:
64,192,376316,1,0,0:0:0:0:
448,192,376316,1,0,0:0:0:0:
320,192,376402,1,0,0:0:0:0:
192,192,376487,1,0,0:0:0:0:
320,192,376573,1,0,0:0:0:0:
448,192,376573,1,0,0:0:0:0:
64,192,376659,1,0,0:0:0:0:
320,192,376830,1,0,0:0:0:0:
192,192,376830,1,0,0:0:0:0:
64,192,377002,1,0,0:0:0:0:
320,192,377002,1,0,0:0:0:0:
448,192,377002,1,0,0:0:0:0:
192,192,377173,1,0,0:0:0:0:
448,192,377173,1,0,0:0:0:0:
64,192,377259,1,0,0:0:0:0:
320,192,377259,1,0,0:0:0:0:
192,192,377430,1,0,0:0:0:0:
320,192,377602,1,0,0:0:0:0:
448,192,377602,1,0,0:0:0:0:
64,192,377687,1,0,0:0:0:0:
192,192,377687,1,0,0:0:0:0:
448,192,377859,1,0,0:0:0:0:
192,192,377945,1,0,0:0:0:0:
320,192,378030,1,0,0:0:0:0:
64,192,378116,1,0,0:0:0:0:
192,192,378202,1,0,0:0:0:0:
320,192,378545,1,0,0:0:0:0:
192,192,378630,1,0,0:0:0:0:
320,192,378716,1,0,0:0:0:0:
192,192,378802,1,0,0:0:0:0:
64,192,378887,1,0,0:0:0:0:
448,192,378887,1,0,0:0:0:0:
320,192,378973,1,0,0:0:0:0:
64,192,379059,128,0,379145:0:0:0:0:
192,192,379145,1,0,0:0:0:0:
320,192,379230,128,0,379316:0:0:0:0:
448,192,379316,1,0,0:0:0:0:
64,192,379402,1,0,0:0:0:0:
192,192,379402,128,0,379487:0:0:0:0:
320,192,379487,1,0,0:0:0:0:
192,192,379573,1,0,0:0:0:0:
448,192,379573,128,0,379659:0:0:0:0:
64,192,379659,1,0,0:0:0:0:
448,192,379745,1,0,0:0:0:0:
320,192,379745,1,0,0:0:0:0:
192,192,379745,1,0,0:0:0:0:
64,192,379916,1,0,0:0:0:0:
448,192,380002,1,0,0:0:0:0:
320,192,380002,1,0,0:0:0:0:
192,192,380087,1,0,0:0:0:0:
64,192,380173,1,0,0:0:0:0:
192,192,380345,1,0,0:0:0:0:
320,192,380345,1,0,0:0:0:0:
64,192,380430,1,0,0:0:0:0:
448,192,380430,1,0,0:0:0:0:
320,192,380516,1,0,0:0:0:0:
192,192,380602,1,0,0:0:0:0:
448,192,380687,1,0,0:0:0:0:
64,192,380773,1,0,0:0:0:0:
320,192,380859,1,0,0:0:0:0:
192,192,380945,1,0,0:0:0:0:
448,192,381030,1,0,0:0:0:0:
448,192,381802,1,0,0:0:0:0:
64,192,381802,1,0,0:0:0:0:
320,192,381887,1,0,0:0:0:0:
192,192,381973,1,0,0:0:0:0:
64,192,382059,1,0,0:0:0:0:
448,192,382059,1,0,0:0:0:0:
192,192,382145,1,0,0:0:0:0:
320,192,382145,1,0,0:0:0:0:
64,192,382316,1,0,0:0:0:0:
448,192,382316,1,0,0:0:0:0:
192,192,382487,1,0,0:0:0:0:
64,192,382487,1,0,0:0:0:0:
320,192,382487,1,0,0:0:0:0:
448,192,382659,1,0,0:0:0:0:
192,192,382745,1,0,0:0:0:0:
64,192,382745,1,0,0:0:0:0:
320,192,382916,1,0,0:0:0:0:
448,192,383087,1,0,0:0:0:0:
64,192,383173,1,0,0:0:0:0:
320,192,383173,1,0,0:0:0:0:
192,192,383173,1,0,0:0:0:0:
448,192,383516,1,0,0:0:0:0:
64,192,383859,1,0,0:0:0:0:
192,192,383945,1,0,0:0:0:0:
320,192,384030,1,0,0:0:0:0:
64,192,384116,1,0,0:0:0:0:
448,192,384202,1,0,0:0:0:0:
320,192,384287,1,0,0:0:0:0:
192,192,384373,1,0,0:0:0:0:
448,192,384459,1,0,0:0:0:0:
320,192,384545,1,0,0:0:0:0:
192,192,384630,1,0,0:0:0:0:
320,192,384716,1,0,0:0:0:0:
192,192,384802,1,0,0:0:0:0:
64,192,384887,1,0,0:0:0:0:
448,192,384973,1,0,0:0:0:0:
64,192,385059,1,0,0:0:0:0:
448,192,385145,1,0,0:0:0:0:
192,192,385230,128,0,385573:0:0:0:0:
64,192,385230,1,0,0:0:0:0:
320,192,385230,1,0,0:0:0:0:
448,192,385573,1,0,0:0:0:0:
320,192,385573,128,0,385916:0:0:0:0:
192,192,385916,1,0,0:0:0:0:
64,192,385916,128,0,386259:0:0:0:0:
320,192,386259,1,0,0:0:0:0:
448,192,386259,128,0,386602:0:0:0:0:
320,192,386602,1,0,0:0:0:0:
64,192,386602,128,0,386945:0:0:0:0:
448,192,386945,1,0,0:0:0:0:
192,192,386945,128,0,387287:0:0:0:0:
64,192,387287,1,0,0:0:0:0:
448,192,387287,128,0,387630:0:0:0:0:
192,192,387630,1,0,0:0:0:0:
320,192,387630,128,0,387973:0:0:0:0:
448,192,387973,1,0,0:0:0:0:
64,192,387973,128,0,388316:0:0:0:0:
320,192,388316,1,0,0:0:0:0:
192,192,388316,128,0,388659:0:0:0:0:
320,192,388659,1,0,0:0:0:0:
448,192,388659,128,0,389002:0:0:0:0:
64,192,389002,1,0,0:0:0:0:
320,192,389002,128,0,389345:0:0:0:0:
448,192,389345,1,0,0:0:0:0:
192,192,389345,128,0,389687:0:0:0:0:
64,192,389687,1,0,0:0:0:0:
320,192,389687,128,0,390030:0:0:0:0:
192,192,390030,1,0,0:0:0:0:
64,192,390030,128,0,390373:0:0:0:0:
192,192,390373,1,0,0:0:0:0:
448,192,390373,128,0,390716:0:0:0:0:
192,192,390716,1,0,0:0:0:0:
64,192,390716,1,0,0:0:0:0:
320,192,390716,128,0,391059:0:0:0:0:
64,192,391059,1,0,0:0:0:0:
448,192,391059,1,0,0:0:0:0:
192,192,391059,128,0,391402:0:0:0:0:
64,192,391402,1,0,0:0:0:0:
320,192,391402,1,0,0:0:0:0:
448,192,391402,128,0,391745:0:0:0:0:
320,192,391745,1,0,0:0:0:0:
192,192,391745,1,0,0:0:0:0:
64,192,391745,128,0,392087:0:0:0:0:
192,192,392087,128,0,392430:0:0:0:0:
448,192,392087,1,0,0:0:0:0:
320,192,392087,1,0,0:0:0:0:
64,192,392430,1,0,0:0:0:0:
448,192,392430,1,0,0:0:0:0:
320,192,392430,128,0,392773:0:0:0:0:
64,192,392773,1,0,0:0:0:0:
192,192,392773,1,0,0:0:0:0:
448,192,392773,128,0,393116:0:0:0:0:
64,192,393116,1,0,0:0:0:0:
320,192,393116,1,0,0:0:0:0:
192,192,393116,128,0,393459:0:0:0:0:
64,192,393459,1,0,0:0:0:0:
448,192,393459,1,0,0:0:0:0:
320,192,393459,128,0,393802:0:0:0:0:
448,192,393802,1,0,0:0:0:0:
192,192,393802,1,0,0:0:0:0:
64,192,393802,128,0,394145:0:0:0:0:
320,192,394145,128,0,394487:0:0:0:0:
448,192,394145,128,0,394830:0:0:0:0:
192,192,394145,1,0,0:0:0:0:
192,192,394487,128,0,394830:0:0:0:0:
64,192,394487,1,0,0:0:0:0:
192,192,395859,1,0,0:0:0:0:
64,192,395859,1,0,0:0:0:0:
448,192,395859,1,0,0:0:0:0:
320,192,395859,1,0,0:0:0:0:
448,192,396202,1,0,0:0:0:0:
64,192,396202,1,0,0:0:0:0:
192,192,396202,1,0,0:0:0:0:
320,192,396259,1,0,0:0:0:0:
64,192,396316,1,0,0:0:0:0:
192,192,396316,1,0,0:0:0:0:
448,192,396430,1,0,0:0:0:0:
320,192,396430,1,0,0:0:0:0:
448,192,396545,1,0,0:0:0:0:
192,192,396545,1,0,0:0:0:0:
64,192,396602,1,0,0:0:0:0:
320,192,396602,1,0,0:0:0:0:
448,192,396659,1,0,0:0:0:0:
192,192,396659,1,0,0:0:0:0:
64,192,396773,1,0,0:0:0:0:
320,192,396773,1,0,0:0:0:0:
64,192,396887,1,0,0:0:0:0:
448,192,396887,1,0,0:0:0:0:
320,192,396945,1,0,0:0:0:0:
192,192,396945,1,0,0:0:0:0:
448,192,397002,1,0,0:0:0:0:
64,192,397002,1,0,0:0:0:0:
192,192,397116,1,0,0:0:0:0:
320,192,397116,1,0,0:0:0:0:
64,192,397230,1,0,0:0:0:0:
192,192,397230,1,0,0:0:0:0:
448,192,397230,1,0,0:0:0:0:
320,192,397345,1,0,0:0:0:0:
64,192,397345,1,0,0:0:0:0:
448,192,397459,1,0,0:0:0:0:
192,192,397459,1,0,0:0:0:0:
192,192,397573,1,0,0:0:0:0:
320,192,397573,1,0,0:0:0:0:
448,192,397630,1,0,0:0:0:0:
64,192,397630,1,0,0:0:0:0:
320,192,397687,1,0,0:0:0:0:
192,192,397687,1,0,0:0:0:0:
448,192,397802,1,0,0:0:0:0:
64,192,397802,1,0,0:0:0:0:
192,192,397916,1,0,0:0:0:0:
64,192,397945,1,0,0:0:0:0:
320,192,397973,1,0,0:0:0:0:
448,192,398002,1,0,0:0:0:0:
192,192,398030,1,0,0:0:0:0:
64,192,398059,1,0,0:0:0:0:
448,192,398145,1,0,0:0:0:0:
320,192,398145,1,0,0:0:0:0:
192,192,398259,1,0,0:0:0:0:
320,192,398259,1,0,0:0:0:0:
448,192,398373,1,0,0:0:0:0:
64,192,398373,1,0,0:0:0:0:
192,192,398487,1,0,0:0:0:0:
320,192,398487,1,0,0:0:0:0:
448,192,398602,1,0,0:0:0:0:
64,192,398602,1,0,0:0:0:0:
192,192,398602,1,0,0:0:0:0:
448,192,398716,1,0,0:0:0:0:
320,192,398716,1,0,0:0:0:0:
192,192,398830,1,0,0:0:0:0:
64,192,398830,1,0,0:0:0:0:
64,192,398945,1,0,0:0:0:0:
448,192,398945,1,0,0:0:0:0:
320,192,399002,1,0,0:0:0:0:
192,192,399002,1,0,0:0:0:0:
64,192,399059,1,0,0:0:0:0:
448,192,399059,1,0,0:0:0:0:
192,192,399173,1,0,0:0:0:0:
320,192,399173,1,0,0:0:0:0:
320,192,399287,1,0,0:0:0:0:
64,192,399287,1,0,0:0:0:0:
448,192,399345,1,0,0:0:0:0:
192,192,399345,1,0,0:0:0:0:
64,192,399402,1,0,0:0:0:0:
320,192,399402,1,0,0:0:0:0:
448,192,399516,1,0,0:0:0:0:
192,192,399516,1,0,0:0:0:0:
192,192,399630,1,0,0:0:0:0:
320,192,399630,1,0,0:0:0:0:
64,192,399745,1,0,0:0:0:0:
448,192,399745,1,0,0:0:0:0:
192,192,399859,1,0,0:0:0:0:
320,192,399859,1,0,0:0:0:0:
192,192,399973,1,0,0:0:0:0:
448,192,399973,1,0,0:0:0:0:
64,192,399973,1,0,0:0:0:0:
64,192,400087,1,0,0:0:0:0:
320,192,400087,1,0,0:0:0:0:
448,192,400202,1,0,0:0:0:0:
192,192,400202,1,0,0:0:0:0:
64,192,400316,1,0,0:0:0:0:
320,192,400316,1,0,0:0:0:0:
448,192,400373,1,0,0:0:0:0:
192,192,400373,1,0,0:0:0:0:
320,192,400430,1,0,0:0:0:0:
64,192,400430,1,0,0:0:0:0:
448,192,400545,1,0,0:0:0:0:
192,192,400545,1,0,0:0:0:0:
64,192,400659,1,0,0:0:0:0:
192,192,400687,1,0,0:0:0:0:
320,192,400716,1,0,0:0:0:0:
448,192,400745,1,0,0:0:0:0:
64,192,400773,1,0,0:0:0:0:
192,192,400802,1,0,0:0:0:0:
448,192,400887,1,0,0:0:0:0:
320,192,400887,1,0,0:0:0:0:
192,192,401002,1,0,0:0:0:0:
320,192,401030,1,0,0:0:0:0:
448,192,401059,1,0,0:0:0:0:
64,192,401087,1,0,0:0:0:0:
192,192,401116,1,0,0:0:0:0:
320,192,401145,1,0,0:0:0:0:
64,192,401230,1,0,0:0:0:0:
448,192,401230,1,0,0:0:0:0:
448,192,401345,1,0,0:0:0:0:
64,192,401345,1,0,0:0:0:0:
192,192,401345,1,0,0:0:0:0:
320,192,401345,1,0,0:0:0:0:
320,192,401687,1,0,0:0:0:0:
448,192,401687,1,0,0:0:0:0:
64,192,401745,1,0,0:0:0:0:
192,192,401745,1,0,0:0:0:0:
448,192,401802,1,0,0:0:0:0:
320,192,401802,1,0,0:0:0:0:
64,192,401916,1,0,0:0:0:0:
192,192,401916,1,0,0:0:0:0:
448,192,402030,1,0,0:0:0:0:
64,192,402030,1,0,0:0:0:0:
192,192,402087,1,0,0:0:0:0:
320,192,402087,1,0,0:0:0:0:
448,192,402145,1,0,0:0:0:0:
64,192,402145,1,0,0:0:0:0:
320,192,402259,1,0,0:0:0:0:
192,192,402259,1,0,0:0:0:0:
64,192,402373,1,0,0:0:0:0:
320,192,402373,1,0,0:0:0:0:
448,192,402430,1,0,0:0:0:0:
192,192,402430,1,0,0:0:0:0:
64,192,402487,1,0,0:0:0:0:
320,192,402487,1,0,0:0:0:0:
448,192,402602,1,0,0:0:0:0:
192,192,402602,1,0,0:0:0:0:
64,192,402716,1,0,0:0:0:0:
192,192,402716,1,0,0:0:0:0:
320,192,402716,1,0,0:0:0:0:
320,192,402830,1,0,0:0:0:0:
448,192,402830,1,0,0:0:0:0:
192,192,402945,1,0,0:0:0:0:
64,192,402945,1,0,0:0:0:0:
320,192,403059,1,0,0:0:0:0:
64,192,403059,1,0,0:0:0:0:
192,192,403116,1,0,0:0:0:0:
448,192,403116,1,0,0:0:0:0:
64,192,403173,1,0,0:0:0:0:
320,192,403173,1,0,0:0:0:0:
192,192,403287,1,0,0:0:0:0:
448,192,403287,1,0,0:0:0:0:
448,192,403402,1,0,0:0:0:0:
64,192,403430,1,0,0:0:0:0:
320,192,403459,1,0,0:0:0:0:
192,192,403487,1,0,0:0:0:0:
448,192,403516,1,0,0:0:0:0:
64,192,403545,1,0,0:0:0:0:
320,192,403630,1,0,0:0:0:0:
192,192,403630,1,0,0:0:0:0:
64,192,403745,1,0,0:0:0:0:
320,192,403745,1,0,0:0:0:0:
448,192,403859,1,0,0:0:0:0:
192,192,403859,1,0,0:0:0:0:
64,192,403973,1,0,0:0:0:0:
320,192,403973,1,0,0:0:0:0:
64,192,404087,1,0,0:0:0:0:
448,192,404087,1,0,0:0:0:0:
192,192,404087,1,0,0:0:0:0:
448,192,404202,1,0,0:0:0:0:
320,192,404202,1,0,0:0:0:0:
64,192,404316,1,0,0:0:0:0:
192,192,404316,1,0,0:0:0:0:
320,192,404430,1,0,0:0:0:0:
192,192,404430,1,0,0:0:0:0:
64,192,404487,1,0,0:0:0:0:
448,192,404487,1,0,0:0:0:0:
192,192,404545,1,0,0:0:0:0:
320,192,404545,1,0,0:0:0:0:
64,192,404659,1,0,0:0:0:0:
448,192,404659,1,0,0:0:0:0:
64,192,404773,1,0,0:0:0:0:
192,192,404773,1,0,0:0:0:0:
448,192,404830,1,0,0:0:0:0:
320,192,404830,1,0,0:0:0:0:
192,192,404887,1,0,0:0:0:0:
64,192,404887,1,0,0:0:0:0:
448,192,405002,1,0,0:0:0:0:
320,192,405002,1,0,0:0:0:0:
64,192,405116,1,0,0:0:0:0:
320,192,405116,1,0,0:0:0:0:
192,192,405173,1,0,0:0:0:0:
448,192,405173,1,0,0:0:0:0:
64,192,405230,1,0,0:0:0:0:
320,192,405230,1,0,0:0:0:0:
448,192,405345,1,0,0:0:0:0:
192,192,405345,1,0,0:0:0:0:
64,192,405459,1,0,0:0:0:0:
192,192,405459,1,0,0:0:0:0:
320,192,405459,1,0,0:0:0:0:
448,192,405573,1,0,0:0:0:0:
64,192,405573,1,0,0:0:0:0:
192,192,405687,1,0,0:0:0:0:
320,192,405687,1,0,0:0:0:0:
64,192,405802,128,0,405916:0:0:0:0:
192,192,405916,128,0,406030:0:0:0:0:
320,192,406030,128,0,406145:0:0:0:0:
192,192,406145,128,0,406259:0:0:0:0:
320,192,406259,128,0,406373:0:0:0:0:
448,192,406373,128,0,406487:0:0:0:0:
64,192,406487,1,0,0:0:0:0:
192,192,406516,1,0,0:0:0:0:
448,192,406545,1,0,0:0:0:0:
320,192,406573,1,0,0:0:0:0:
64,192,406602,1,0,0:0:0:0:
192,192,406630,1,0,0:0:0:0:
448,192,406659,1,0,0:0:0:0:
320,192,406687,1,0,0:0:0:0:
64,192,406716,1,0,0:0:0:0:
192,192,406745,1,0,0:0:0:0:
64,192,406830,1,0,0:0:0:0:
192,192,406830,1,0,0:0:0:0:
320,192,406830,1,0,0:0:0:0:
448,192,406830,1,0,0:0:0:0:
192,192,407173,1,0,0:0:0:0:
448,192,407173,1,0,0:0:0:0:
64,192,407230,1,0,0:0:0:0:
320,192,407230,1,0,0:0:0:0:
448,192,407287,1,0,0:0:0:0:
192,192,407287,1,0,0:0:0:0:
64,192,407402,1,0,0:0:0:0:
320,192,407402,1,0,0:0:0:0:
192,192,407516,1,0,0:0:0:0:
448,192,407516,128,0,407745:0:0:0:0:
320,192,407516,1,0,0:0:0:0:
64,192,407745,1,0,0:0:0:0:
192,192,407745,1,0,0:0:0:0:
192,192,407859,1,0,0:0:0:0:
320,192,407859,1,0,0:0:0:0:
64,192,407973,1,0,0:0:0:0:
448,192,407973,1,0,0:0:0:0:
320,192,408087,1,0,0:0:0:0:
192,192,408087,1,0,0:0:0:0:
64,192,408202,1,0,0:0:0:0:
448,192,408202,1,0,0:0:0:0:
192,192,408202,1,0,0:0:0:0:
448,192,408316,1,0,0:0:0:0:
320,192,408316,1,0,0:0:0:0:
64,192,408430,1,0,0:0:0:0:
192,192,408430,1,0,0:0:0:0:
64,192,408545,1,0,0:0:0:0:
448,192,408545,1,0,0:0:0:0:
320,192,408602,1,0,0:0:0:0:
192,192,408602,1,0,0:0:0:0:
64,192,408659,1,0,0:0:0:0:
448,192,408659,1,0,0:0:0:0:
192,192,408773,1,0,0:0:0:0:
320,192,408773,1,0,0:0:0:0:
64,192,408887,128,0,409116:0:0:0:0:
448,192,408887,1,0,0:0:0:0:
192,192,408887,1,0,0:0:0:0:
448,192,409116,1,0,0:0:0:0:
320,192,409116,1,0,0:0:0:0:
64,192,409230,1,0,0:0:0:0:
320,192,409230,1,0,0:0:0:0:
448,192,409345,1,0,0:0:0:0:
192,192,409345,1,0,0:0:0:0:
64,192,409459,1,0,0:0:0:0:
320,192,409459,1,0,0:0:0:0:
64,192,409573,1,0,0:0:0:0:
448,192,409573,1,0,0:0:0:0:
192,192,409573,1,0,0:0:0:0:
192,192,409687,1,0,0:0:0:0:
320,192,409687,1,0,0:0:0:0:
448,192,409802,1,0,0:0:0:0:
64,192,409802,1,0,0:0:0:0:
448,192,409916,1,0,0:0:0:0:
320,192,409916,1,0,0:0:0:0:
64,192,409973,1,0,0:0:0:0:
192,192,409973,1,0,0:0:0:0:
448,192,410030,1,0,0:0:0:0:
320,192,410030,1,0,0:0:0:0:
64,192,410145,1,0,0:0:0:0:
192,192,410145,1,0,0:0:0:0:
320,192,410259,128,0,410487:0:0:0:0:
64,192,410259,1,0,0:0:0:0:
448,192,410259,1,0,0:0:0:0:
448,192,410487,1,0,0:0:0:0:
192,192,410487,1,0,0:0:0:0:
192,192,410602,1,0,0:0:0:0:
320,192,410602,1,0,0:0:0:0:
64,192,410716,1,0,0:0:0:0:
448,192,410716,1,0,0:0:0:0:
320,192,410830,1,0,0:0:0:0:
192,192,410830,1,0,0:0:0:0:
64,192,410945,1,0,0:0:0:0:
448,192,410945,1,0,0:0:0:0:
320,192,410945,1,0,0:0:0:0:
448,192,411059,1,0,0:0:0:0:
192,192,411059,1,0,0:0:0:0:
64,192,411173,1,0,0:0:0:0:
320,192,411173,1,0,0:0:0:0:
64,192,411287,1,0,0:0:0:0:
192,192,411287,1,0,0:0:0:0:
448,192,411345,1,0,0:0:0:0:
320,192,411345,1,0,0:0:0:0:
64,192,411402,1,0,0:0:0:0:
192,192,411402,1,0,0:0:0:0:
448,192,411516,1,0,0:0:0:0:
320,192,411516,1,0,0:0:0:0:
448,192,411630,1,0,0:0:0:0:
64,192,411630,1,0,0:0:0:0:
192,192,411630,1,0,0:0:0:0:
64,192,411745,1,0,0:0:0:0:
320,192,411745,1,0,0:0:0:0:
448,192,411859,1,0,0:0:0:0:
192,192,411859,1,0,0:0:0:0:
320,192,411973,1,0,0:0:0:0:
448,192,412002,1,0,0:0:0:0:
192,192,412030,1,0,0:0:0:0:
64,192,412059,1,0,0:0:0:0:
320,192,412087,1,0,0:0:0:0:
448,192,412116,1,0,0:0:0:0:
64,192,412202,1,0,0:0:0:0:
192,192,412202,1,0,0:0:0:0:
192,192,412316,1,0,0:0:0:0:
64,192,412316,1,0,0:0:0:0:
320,192,412316,1,0,0:0:0:0:
448,192,412316,1,0,0:0:0:0:
192,192,412659,1,0,0:0:0:0:
320,192,412659,1,0,0:0:0:0:
448,192,412716,1,0,0:0:0:0:
64,192,412716,1,0,0:0:0:0:
320,192,412773,1,0,0:0:0:0:
192,192,412773,1,0,0:0:0:0:
64,192,412887,1,0,0:0:0:0:
448,192,412887,1,0,0:0:0:0:
320,192,413002,128,0,413230:0:0:0:0:
448,192,413002,1,0,0:0:0:0:
192,192,413002,1,0,0:0:0:0:
192,192,413230,1,0,0:0:0:0:
64,192,413230,1,0,0:0:0:0:
64,192,413345,1,0,0:0:0:0:
448,192,413345,1,0,0:0:0:0:
320,192,413459,1,0,0:0:0:0:
192,192,413459,1,0,0:0:0:0:
64,192,413573,1,0,0:0:0:0:
448,192,413573,1,0,0:0:0:0:
448,192,413687,1,0,0:0:0:0:
320,192,413687,1,0,0:0:0:0:
192,192,413687,1,0,0:0:0:0:
64,192,413802,1,0,0:0:0:0:
320,192,413802,1,0,0:0:0:0:
448,192,413916,1,0,0:0:0:0:
192,192,413916,1,0,0:0:0:0:
320,192,414030,1,0,0:0:0:0:
448,192,414030,1,0,0:0:0:0:
64,192,414087,1,0,0:0:0:0:
192,192,414087,1,0,0:0:0:0:
448,192,414145,1,0,0:0:0:0:
320,192,414145,1,0,0:0:0:0:
64,192,414259,1,0,0:0:0:0:
192,192,414259,1,0,0:0:0:0:
64,192,414373,1,0,0:0:0:0:
320,192,414373,128,0,414602:0:0:0:0:
448,192,414373,1,0,0:0:0:0:
192,192,414602,1,0,0:0:0:0:
448,192,414602,1,0,0:0:0:0:
192,192,414716,1,0,0:0:0:0:
64,192,414716,1,0,0:0:0:0:
320,192,414830,1,0,0:0:0:0:
448,192,414830,1,0,0:0:0:0:
192,192,414945,1,0,0:0:0:0:
64,192,414945,1,0,0:0:0:0:
64,192,415059,1,0,0:0:0:0:
448,192,415059,1,0,0:0:0:0:
320,192,415059,1,0,0:0:0:0:
320,192,415173,1,0,0:0:0:0:
192,192,415173,1,0,0:0:0:0:
64,192,415287,1,0,0:0:0:0:
448,192,415287,1,0,0:0:0:0:
448,192,415402,128,0,415745:0:0:0:0:
192,192,415402,1,0,0:0:0:0:
320,192,415745,128,0,415973:0:0:0:0:
192,192,415745,1,0,0:0:0:0:
64,192,415745,1,0,0:0:0:0:
64,192,415973,1,0,0:0:0:0:
448,192,415973,1,0,0:0:0:0:
192,192,416087,128,0,416430:0:0:0:0:
448,192,416087,1,0,0:0:0:0:
64,192,416430,1,0,0:0:0:0:
448,192,416430,1,0,0:0:0:0:
320,192,416430,1,0,0:0:0:0:
192,192,416545,1,0,0:0:0:0:
320,192,416545,1,0,0:0:0:0:
448,192,416659,1,0,0:0:0:0:
64,192,416659,1,0,0:0:0:0:
64,192,416773,1,0,0:0:0:0:
320,192,416773,128,0,417716:0:0:0:0:
192,192,417116,128,0,417716:0:0:0:0:
64,192,417116,1,0,0:0:0:0:
448,192,417116,1,0,0:0:0:0:
448,192,417345,1,0,0:0:0:0:
448,192,417459,128,0,417716:0:0:0:0:
64,192,417716,1,0,0:0:0:0:
320,192,417802,1,0,0:0:0:0:
448,192,417802,1,0,0:0:0:0:
64,192,417802,1,0,0:0:0:0:
192,192,417802,1,0,0:0:0:0:
320,192,418145,1,0,0:0:0:0:
64,192,418145,1,0,0:0:0:0:
448,192,418145,1,0,0:0:0:0:
192,192,418145,1,0,0:0:0:0:
64,192,418402,1,0,0:0:0:0:
320,192,418402,1,0,0:0:0:0:
448,192,418487,1,0,0:0:0:0:
192,192,418573,1,0,0:0:0:0:
320,192,418745,1,0,0:0:0:0:
192,192,418830,1,0,0:0:0:0:
64,192,418830,1,0,0:0:0:0:
64,192,420202,1,0,0:0:0:0:
448,192,420202,1,0,0:0:0:0:
192,192,420287,1,0,0:0:0:0:
320,192,420373,1,0,0:0:0:0:
64,192,420459,1,0,0:0:0:0:
320,192,420545,1,0,0:0:0:0:
192,192,420545,1,0,0:0:0:0:
64,192,420716,1,0,0:0:0:0:
448,192,420716,1,0,0:0:0:0:
320,192,420887,1,0,0:0:0:0:
192,192,421059,1,0,0:0:0:0:
320,192,421145,1,0,0:0:0:0:
448,192,421145,1,0,0:0:0:0:
64,192,421316,1,0,0:0:0:0:
320,192,421487,1,0,0:0:0:0:
192,192,421573,1,0,0:0:0:0:
64,192,421573,1,0,0:0:0:0:
448,192,421573,1,0,0:0:0:0:
64,192,422773,1,0,0:0:0:0:
320,192,422773,1,0,0:0:0:0:
320,192,423287,1,0,0:0:0:0:
192,192,423287,1,0,0:0:0:0:
320,192,423459,1,0,0:0:0:0:
448,192,423459,1,0,0:0:0:0:
64,192,423630,1,0,0:0:0:0:
192,192,423630,1,0,0:0:0:0:
448,192,423630,1,0,0:0:0:0:
320,192,423802,1,0,0:0:0:0:
64,192,423887,1,0,0:0:0:0:
192,192,423887,1,0,0:0:0:0:
448,192,423973,1,0,0:0:0:0:
64,192,424059,1,0,0:0:0:0:
192,192,424145,1,0,0:0:0:0:
320,192,424230,1,0,0:0:0:0:
448,192,424316,1,0,0:0:0:0:
64,192,424316,1,0,0:0:0:0:
192,192,424402,1,0,0:0:0:0:
320,192,424402,1,0,0:0:0:0:
64,192,424487,1,0,0:0:0:0:
448,192,424573,1,0,0:0:0:0:
192,192,424659,1,0,0:0:0:0:
320,192,424659,1,0,0:0:0:0:
64,192,424745,1,0,0:0:0:0:
320,192,424830,1,0,0:0:0:0:
192,192,424916,1,0,0:0:0:0:
64,192,425002,1,0,0:0:0:0:
448,192,425002,1,0,0:0:0:0:
320,192,425087,1,0,0:0:0:0:
192,192,425173,1,0,0:0:0:0:
448,192,425173,1,0,0:0:0:0:
64,192,425259,1,0,0:0:0:0:
320,192,425345,1,0,0:0:0:0:
448,192,425430,1,0,0:0:0:0:
192,192,425516,1,0,0:0:0:0:
320,192,425602,1,0,0:0:0:0:
64,192,425687,1,0,0:0:0:0:
448,192,425687,1,0,0:0:0:0:
320,192,425773,1,0,0:0:0:0:
192,192,425773,1,0,0:0:0:0:
448,192,425859,1,0,0:0:0:0:
64,192,425945,1,0,0:0:0:0:
192,192,426030,1,0,0:0:0:0:
320,192,426030,1,0,0:0:0:0:
64,192,426116,1,0,0:0:0:0:
448,192,426202,1,0,0:0:0:0:
320,192,426287,1,0,0:0:0:0:
64,192,426373,1,0,0:0:0:0:
192,192,426373,1,0,0:0:0:0:
448,192,426459,1,0,0:0:0:0:
64,192,426545,1,0,0:0:0:0:
320,192,426545,1,0,0:0:0:0:
192,192,426630,1,0,0:0:0:0:
448,192,426716,1,0,0:0:0:0:
192,192,426802,1,0,0:0:0:0:
320,192,426802,1,0,0:0:0:0:
64,192,426887,1,0,0:0:0:0:
320,192,426973,1,0,0:0:0:0:
64,192,427059,1,0,0:0:0:0:
192,192,427059,1,0,0:0:0:0:
448,192,427059,1,0,0:0:0:0:
320,192,427145,1,0,0:0:0:0:
192,192,427230,1,0,0:0:0:0:
64,192,427316,1,0,0:0:0:0:
448,192,427402,1,0,0:0:0:0:
320,192,427402,1,0,0:0:0:0:
192,192,427487,1,0,0:0:0:0:
320,192,427573,1,0,0:0:0:0:
64,192,427659,1,0,0:0:0:0:
448,192,427745,1,0,0:0:0:0:
192,192,427830,1,0,0:0:0:0:
64,192,427916,1,0,0:0:0:0:
320,192,427916,1,0,0:0:0:0:
192,192,428002,1,0,0:0:0:0:
448,192,428087,1,0,0:0:0:0:
320,192,428173,1,0,0:0:0:0:
64,192,428259,1,0,0:0:0:0:
192,192,428259,1,0,0:0:0:0:
448,192,428345,1,0,0:0:0:0:
64,192,428430,1,0,0:0:0:0:
320,192,428516,1,0,0:0:0:0:
448,192,428602,1,0,0:0:0:0:
192,192,428602,1,0,0:0:0:0:
320,192,428687,1,0,0:0:0:0:
192,192,428773,1,0,0:0:0:0:
64,192,428773,1,0,0:0:0:0:
448,192,428859,1,0,0:0:0:0:
64,192,428945,1,0,0:0:0:0:
320,192,428945,1,0,0:0:0:0:
192,192,429030,1,0,0:0:0:0:
64,192,429116,1,0,0:0:0:0:
320,192,429116,1,0,0:0:0:0:
448,192,429116,1,0,0:0:0:0:
192,192,429202,1,0,0:0:0:0:
320,192,429287,1,0,0:0:0:0:
448,192,429287,1,0,0:0:0:0:
64,192,429373,1,0,0:0:0:0:
448,192,429459,1,0,0:0:0:0:
192,192,429459,1,0,0:0:0:0:
320,192,429545,1,0,0:0:0:0:
64,192,429630,1,0,0:0:0:0:
192,192,429630,1,0,0:0:0:0:
320,192,429716,1,0,0:0:0:0:
192,192,429802,1,0,0:0:0:0:
64,192,429802,1,0,0:0:0:0:
448,192,429802,1,0,0:0:0:0:
320,192,429887,1,0,0:0:0:0:
64,192,429973,1,0,0:0:0:0:
448,192,429973,1,0,0:0:0:0:
320,192,430059,1,0,0:0:0:0:
192,192,430059,1,0,0:0:0:0:
64,192,430145,1,0,0:0:0:0:
448,192,430145,1,0,0:0:0:0:
320,192,430230,1,0,0:0:0:0:
192,192,430230,1,0,0:0:0:0:
448,192,430316,1,0,0:0:0:0:
192,192,430316,1,0,0:0:0:0:
64,192,430316,1,0,0:0:0:0:
320,192,430402,1,0,0:0:0:0:
64,192,430487,1,0,0:0:0:0:
192,192,430487,1,0,0:0:0:0:
448,192,430573,1,0,0:0:0:0:
320,192,430573,1,0,0:0:0:0:
64,192,430659,1,0,0:0:0:0:
192,192,430659,1,0,0:0:0:0:
448,192,430745,1,0,0:0:0:0:
320,192,430745,1,0,0:0:0:0:
64,192,430830,1,0,0:0:0:0:
192,192,430830,1,0,0:0:0:0:
320,192,430830,1,0,0:0:0:0:
448,192,430916,1,0,0:0:0:0:
320,192,431002,1,0,0:0:0:0:
192,192,431002,1,0,0:0:0:0:
448,192,431087,1,0,0:0:0:0:
64,192,431087,1,0,0:0:0:0:
192,192,431173,1,0,0:0:0:0:
320,192,431173,1,0,0:0:0:0:
448,192,431259,1,0,0:0:0:0:
64,192,431259,1,0,0:0:0:0:
448,192,431345,1,0,0:0:0:0:
192,192,431345,1,0,0:0:0:0:
320,192,431345,1,0,0:0:0:0:
64,192,431430,1,0,0:0:0:0:
448,192,431516,1,0,0:0:0:0:
320,192,431516,1,0,0:0:0:0:
64,192,431602,1,0,0:0:0:0:
192,192,431602,1,0,0:0:0:0:
64,192,431687,1,0,0:0:0:0:
448,192,431687,1,0,0:0:0:0:
320,192,431687,1,0,0:0:0:0:
192,192,431773,1,0,0:0:0:0:
64,192,431859,1,0,0:0:0:0:
320,192,431859,1,0,0:0:0:0:
448,192,431945,1,0,0:0:0:0:
192,192,431945,1,0,0:0:0:0:
320,192,432030,1,0,0:0:0:0:
448,192,432073,1,0,0:0:0:0:
64,192,432116,1,0,0:0:0:0:
192,192,432159,1,0,0:0:0:0:
448,192,432202,1,0,0:0:0:0:
320,192,432202,1,0,0:0:0:0:
64,192,432287,1,0,0:0:0:0:
192,192,432287,1,0,0:0:0:0:
64,192,432373,1,0,0:0:0:0:
448,192,432373,1,0,0:0:0:0:
320,192,432373,1,0,0:0:0:0:
192,192,432459,1,0,0:0:0:0:
64,192,432545,1,0,0:0:0:0:
448,192,432545,1,0,0:0:0:0:
320,192,432545,1,0,0:0:0:0:
192,192,432630,1,0,0:0:0:0:
64,192,432716,1,0,0:0:0:0:
448,192,432716,1,0,0:0:0:0:
192,192,432802,1,0,0:0:0:0:
320,192,432802,1,0,0:0:0:0:
64,192,432887,1,0,0:0:0:0:
320,192,432973,1,0,0:0:0:0:
448,192,432973,1,0,0:0:0:0:
192,192,433059,1,0,0:0:0:0:
64,192,433059,1,0,0:0:0:0:
320,192,433059,1,0,0:0:0:0:
448,192,433145,1,0,0:0:0:0:
320,192,433230,1,0,0:0:0:0:
192,192,433230,1,0,0:0:0:0:
64,192,433316,1,0,0:0:0:0:
448,192,433402,1,0,0:0:0:0:
320,192,433402,1,0,0:0:0:0:
192,192,433402,1,0,0:0:0:0:
448,192,433487,1,0,0:0:0:0:
64,192,433487,1,0,0:0:0:0:
320,192,433573,1,0,0:0:0:0:
448,192,433659,1,0,0:0:0:0:
192,192,433659,1,0,0:0:0:0:
192,192,433745,1,0,0:0:0:0:
64,192,433745,1,0,0:0:0:0:
320,192,433745,1,0,0:0:0:0:
448,192,433830,1,0,0:0:0:0:
64,192,433916,1,0,0:0:0:0:
192,192,433916,1,0,0:0:0:0:
64,192,434002,1,0,0:0:0:0:
448,192,434002,1,0,0:0:0:0:
320,192,434002,1,0,0:0:0:0:
320,192,434087,1,0,0:0:0:0:
192,192,434087,1,0,0:0:0:0:
64,192,434173,1,0,0:0:0:0:
448,192,434173,1,0,0:0:0:0:
64,192,434259,1,0,0:0:0:0:
448,192,434259,1,0,0:0:0:0:
320,192,434259,1,0,0:0:0:0:
192,192,434259,1,0,0:0:0:0:
192,192,434602,1,0,0:0:0:0:
320,192,434602,1,0,0:0:0:0:
64,192,434687,1,0,0:0:0:0:
448,192,434687,1,0,0:0:0:0:
320,192,434773,1,0,0:0:0:0:
192,192,434773,1,0,0:0:0:0:
64,192,434859,1,0,0:0:0:0:
448,192,434859,1,0,0:0:0:0:
320,192,434945,1,0,0:0:0:0:
192,192,434945,1,0,0:0:0:0:
64,192,435030,1,0,0:0:0:0:
448,192,435030,1,0,0:0:0:0:
320,192,435116,1,0,0:0:0:0:
192,192,435116,1,0,0:0:0:0:
64,192,435202,1,0,0:0:0:0:
448,192,435202,1,0,0:0:0:0:
64,192,435287,1,0,0:0:0:0:
320,192,435287,1,0,0:0:0:0:
192,192,435287,1,0,0:0:0:0:
448,192,435373,1,0,0:0:0:0:
320,192,435459,1,0,0:0:0:0:
192,192,435459,1,0,0:0:0:0:
192,192,435545,1,0,0:0:0:0:
64,192,435545,1,0,0:0:0:0:
448,192,435545,1,0,0:0:0:0:
320,192,435630,1,0,0:0:0:0:
448,192,435716,1,0,0:0:0:0:
64,192,435716,1,0,0:0:0:0:
64,192,435802,1,0,0:0:0:0:
192,192,435802,1,0,0:0:0:0:
320,192,435802,1,0,0:0:0:0:
448,192,435887,1,0,0:0:0:0:
64,192,435973,1,0,0:0:0:0:
192,192,435973,1,0,0:0:0:0:
192,192,436059,1,0,0:0:0:0:
448,192,436059,1,0,0:0:0:0:
320,192,436059,1,0,0:0:0:0:
64,192,436145,1,0,0:0:0:0:
192,192,436230,1,0,0:0:0:0:
448,192,436230,1,0,0:0:0:0:
64,192,436316,1,0,0:0:0:0:
448,192,436316,1,0,0:0:0:0:
320,192,436316,1,0,0:0:0:0:
192,192,436402,1,0,0:0:0:0:
64,192,436487,1,0,0:0:0:0:
320,192,436487,1,0,0:0:0:0:
64,192,436573,1,0,0:0:0:0:
192,192,436573,1,0,0:0:0:0:
448,192,436573,1,0,0:0:0:0:
320,192,436659,1,0,0:0:0:0:
64,192,436745,1,0,0:0:0:0:
448,192,436745,1,0,0:0:0:0:
64,192,436830,1,0,0:0:0:0:
320,192,436830,1,0,0:0:0:0:
192,192,436830,1,0,0:0:0:0:
448,192,436916,1,0,0:0:0:0:
192,192,437002,1,0,0:0:0:0:
320,192,437002,1,0,0:0:0:0:
448,192,437087,1,0,0:0:0:0:
64,192,437087,1,0,0:0:0:0:
448,192,437173,1,0,0:0:0:0:
320,192,437173,1,0,0:0:0:0:
192,192,437173,1,0,0:0:0:0:
192,192,437345,1,0,0:0:0:0:
64,192,437345,1,0,0:0:0:0:
64,192,437430,1,0,0:0:0:0:
192,192,437430,1,0,0:0:0:0:
448,192,437516,1,0,0:0:0:0:
320,192,437516,1,0,0:0:0:0:
320,192,437602,1,0,0:0:0:0:
448,192,437602,1,0,0:0:0:0:
64,192,437687,1,0,0:0:0:0:
192,192,437730,1,0,0:0:0:0:
320,192,437773,1,0,0:0:0:0:
64,192,437816,1,0,0:0:0:0:
448,192,437859,1,0,0:0:0:0:
192,192,437902,1,0,0:0:0:0:
320,192,437945,1,0,0:0:0:0:
64,192,437987,1,0,0:0:0:0:
448,192,438030,1,0,0:0:0:0:
320,192,438052,1,0,0:0:0:0:
192,192,438073,1,0,0:0:0:0:
64,192,438095,1,0,0:0:0:0:
448,192,438116,1,0,0:0:0:0:
320,192,438137,1,0,0:0:0:0:
192,192,438159,1,0,0:0:0:0:
64,192,438180,1,0,0:0:0:0:
448,192,438202,1,0,0:0:0:0:
320,192,438245,1,0,0:0:0:0:
64,192,438287,1,0,0:0:0:0:
192,192,438330,1,0,0:0:0:0:
320,192,438373,1,0,0:0:0:0:
448,192,438395,1,0,0:0:0:0:
64,192,438416,1,0,0:0:0:0:
192,192,438437,1,0,0:0:0:0:
320,192,438459,1,0,0:0:0:0:
448,192,438480,1,0,0:0:0:0:
64,192,438502,1,0,0:0:0:0:
192,192,438523,1,0,0:0:0:0:
320,192,438545,1,0,0:0:0:0:
448,192,438587,1,0,0:0:0:0:
192,192,438630,1,0,0:0:0:0:
64,192,438673,1,0,0:0:0:0:
448,192,438716,1,0,0:0:0:0:
320,192,438716,1,0,0:0:0:0:
192,192,439745,1,0,0:0:0:0:
64,192,439745,1,0,0:0:0:0:
448,192,439745,1,0,0:0:0:0:
320,192,439745,1,0,0:0:0:0:
320,192,440087,1,0,0:0:0:0:
448,192,440087,1,0,0:0:0:0:
64,192,440130,1,0,0:0:0:0:
192,192,440173,1,0,0:0:0:0:
64,192,440259,1,0,0:0:0:0:
448,192,440259,1,0,0:0:0:0:
192,192,440345,1,0,0:0:0:0:
320,192,440345,1,0,0:0:0:0:
64,192,440430,1,0,0:0:0:0:
448,192,440430,1,0,0:0:0:0:
320,192,440473,1,0,0:0:0:0:
192,192,440516,1,0,0:0:0:0:
320,192,440602,1,0,0:0:0:0:
448,192,440602,1,0,0:0:0:0:
192,192,440687,1,0,0:0:0:0:
64,192,440687,1,0,0:0:0:0:
320,192,440773,1,0,0:0:0:0:
448,192,440773,1,0,0:0:0:0:
192,192,440816,1,0,0:0:0:0:
64,192,440859,1,0,0:0:0:0:
192,192,440945,1,0,0:0:0:0:
448,192,440945,1,0,0:0:0:0:
64,192,441030,1,0,0:0:0:0:
320,192,441030,1,0,0:0:0:0:
64,192,441116,1,0,0:0:0:0:
448,192,441116,1,0,0:0:0:0:
192,192,441116,1,0,0:0:0:0:
320,192,441202,1,0,0:0:0:0:
64,192,441287,1,0,0:0:0:0:
192,192,441287,1,0,0:0:0:0:
448,192,441373,1,0,0:0:0:0:
320,192,441373,1,0,0:0:0:0:
64,192,441459,1,0,0:0:0:0:
192,192,441480,1,0,0:0:0:0:
320,192,441502,1,0,0:0:0:0:
448,192,441523,1,0,0:0:0:0:
192,192,441545,1,0,0:0:0:0:
64,192,441545,1,0,0:0:0:0:
448,192,441630,1,0,0:0:0:0:
320,192,441630,1,0,0:0:0:0:
64,192,441716,1,0,0:0:0:0:
192,192,441716,1,0,0:0:0:0:
320,192,441802,1,0,0:0:0:0:
448,192,441802,1,0,0:0:0:0:
192,192,441845,1,0,0:0:0:0:
64,192,441887,1,0,0:0:0:0:
192,192,441973,1,0,0:0:0:0:
320,192,441973,1,0,0:0:0:0:
448,192,442016,1,0,0:0:0:0:
64,192,442059,1,0,0:0:0:0:
448,192,442145,1,0,0:0:0:0:
192,192,442145,1,0,0:0:0:0:
320,192,442187,1,0,0:0:0:0:
64,192,442230,1,0,0:0:0:0:
320,192,442316,1,0,0:0:0:0:
448,192,442316,1,0,0:0:0:0:
64,192,442402,1,0,0:0:0:0:
192,192,442402,1,0,0:0:0:0:
448,192,442487,1,0,0:0:0:0:
320,192,442487,1,0,0:0:0:0:
64,192,442487,1,0,0:0:0:0:
192,192,442573,1,0,0:0:0:0:
448,192,442659,1,0,0:0:0:0:
320,192,442680,1,0,0:0:0:0:
192,192,442702,1,0,0:0:0:0:
64,192,442723,1,0,0:0:0:0:
448,192,442745,1,0,0:0:0:0:
320,192,442766,1,0,0:0:0:0:
192,192,442787,1,0,0:0:0:0:
64,192,442809,1,0,0:0:0:0:
448,192,442830,1,0,0:0:0:0:
320,192,442830,1,0,0:0:0:0:
192,192,442873,1,0,0:0:0:0:
64,192,442916,1,0,0:0:0:0:
192,192,443002,1,0,0:0:0:0:
320,192,443002,1,0,0:0:0:0:
64,192,443087,1,0,0:0:0:0:
448,192,443087,1,0,0:0:0:0:
320,192,443173,1,0,0:0:0:0:
192,192,443173,1,0,0:0:0:0:
64,192,443216,1,0,0:0:0:0:
448,192,443259,1,0,0:0:0:0:
64,192,443345,1,0,0:0:0:0:
320,192,443345,1,0,0:0:0:0:
448,192,443430,1,0,0:0:0:0:
192,192,443430,1,0,0:0:0:0:
64,192,443516,1,0,0:0:0:0:
320,192,443516,1,0,0:0:0:0:
448,192,443559,1,0,0:0:0:0:
192,192,443602,1,0,0:0:0:0:
448,192,443687,1,0,0:0:0:0:
64,192,443687,1,0,0:0:0:0:
320,192,443773,1,0,0:0:0:0:
192,192,443773,1,0,0:0:0:0:
64,192,443859,1,0,0:0:0:0:
448,192,443859,1,0,0:0:0:0:
320,192,443859,1,0,0:0:0:0:
192,192,443945,1,0,0:0:0:0:
320,192,444030,1,0,0:0:0:0:
448,192,444030,1,0,0:0:0:0:
64,192,444116,1,0,0:0:0:0:
192,192,444116,1,0,0:0:0:0:
448,192,444202,1,0,0:0:0:0:
320,192,444223,1,0,0:0:0:0:
192,192,444245,1,0,0:0:0:0:
64,192,444266,1,0,0:0:0:0:
448,192,444287,1,0,0:0:0:0:
320,192,444287,1,0,0:0:0:0:
64,192,444373,1,0,0:0:0:0:
192,192,444373,1,0,0:0:0:0:
448,192,444459,1,0,0:0:0:0:
320,192,444459,1,0,0:0:0:0:
64,192,444545,1,0,0:0:0:0:
192,192,444545,1,0,0:0:0:0:
448,192,444587,1,0,0:0:0:0:
320,192,444630,1,0,0:0:0:0:
448,192,444716,1,0,0:0:0:0:
192,192,444716,1,0,0:0:0:0:
64,192,444759,1,0,0:0:0:0:
320,192,444802,1,0,0:0:0:0:
64,192,444887,1,0,0:0:0:0:
192,192,444887,1,0,0:0:0:0:
320,192,444973,1,0,0:0:0:0:
448,192,444973,1,0,0:0:0:0:
192,192,445059,128,0,445145:0:0:0:0:
64,192,445145,128,0,445230:0:0:0:0:
448,192,445145,1,0,0:0:0:0:
192,192,445230,1,0,0:0:0:0:
320,192,445230,1,0,0:0:0:0:
448,192,445316,1,0,0:0:0:0:
64,192,445316,1,0,0:0:0:0:
64,192,445402,1,0,0:0:0:0:
192,192,445402,1,0,0:0:0:0:
320,192,445402,1,0,0:0:0:0:
192,192,445573,1,0,0:0:0:0:
448,192,445573,1,0,0:0:0:0:
320,192,445616,1,0,0:0:0:0:
64,192,445659,1,0,0:0:0:0:
320,192,445745,1,0,0:0:0:0:
448,192,445745,1,0,0:0:0:0:
64,192,445830,1,0,0:0:0:0:
192,192,445830,1,0,0:0:0:0:
448,192,445916,1,0,0:0:0:0:
320,192,445916,1,0,0:0:0:0:
64,192,445959,1,0,0:0:0:0:
192,192,446002,1,0,0:0:0:0:
448,192,446087,1,0,0:0:0:0:
64,192,446087,1,0,0:0:0:0:
192,192,446173,1,0,0:0:0:0:
320,192,446173,1,0,0:0:0:0:
64,192,446259,1,0,0:0:0:0:
448,192,446259,1,0,0:0:0:0:
320,192,446302,1,0,0:0:0:0:
192,192,446345,1,0,0:0:0:0:
320,192,446430,1,0,0:0:0:0:
64,192,446430,1,0,0:0:0:0:
192,192,446516,1,0,0:0:0:0:
448,192,446516,1,0,0:0:0:0:
320,192,446602,1,0,0:0:0:0:
64,192,446602,1,0,0:0:0:0:
192,192,446602,1,0,0:0:0:0:
448,192,446687,1,0,0:0:0:0:
64,192,446773,1,0,0:0:0:0:
192,192,446773,1,0,0:0:0:0:
448,192,446859,1,0,0:0:0:0:
320,192,446859,1,0,0:0:0:0:
192,192,446945,1,0,0:0:0:0:
64,192,446966,1,0,0:0:0:0:
448,192,446987,1,0,0:0:0:0:
320,192,447009,1,0,0:0:0:0:
192,192,447030,1,0,0:0:0:0:
64,192,447030,1,0,0:0:0:0:
320,192,447116,1,0,0:0:0:0:
448,192,447116,1,0,0:0:0:0:
64,192,447202,1,0,0:0:0:0:
192,192,447202,1,0,0:0:0:0:
448,192,447287,1,0,0:0:0:0:
320,192,447287,1,0,0:0:0:0:
64,192,447330,1,0,0:0:0:0:
192,192,447373,1,0,0:0:0:0:
64,192,447459,1,0,0:0:0:0:
448,192,447459,1,0,0:0:0:0:
192,192,447502,1,0,0:0:0:0:
320,192,447545,1,0,0:0:0:0:
192,192,447630,1,0,0:0:0:0:
64,192,447630,1,0,0:0:0:0:
448,192,447673,1,0,0:0:0:0:
320,192,447716,1,0,0:0:0:0:
448,192,447802,1,0,0:0:0:0:
192,192,447802,1,0,0:0:0:0:
320,192,447887,1,0,0:0:0:0:
64,192,447887,1,0,0:0:0:0:
448,192,447973,1,0,0:0:0:0:
64,192,447973,1,0,0:0:0:0:
192,192,447973,1,0,0:0:0:0:
320,192,448059,1,0,0:0:0:0:
192,192,448145,1,0,0:0:0:0:
64,192,448166,1,0,0:0:0:0:
320,192,448187,1,0,0:0:0:0:
448,192,448209,1,0,0:0:0:0:
192,192,448230,1,0,0:0:0:0:
64,192,448252,1,0,0:0:0:0:
320,192,448273,1,0,0:0:0:0:
448,192,448295,1,0,0:0:0:0:
64,192,448316,1,0,0:0:0:0:
192,192,448316,1,0,0:0:0:0:
320,192,448359,1,0,0:0:0:0:
448,192,448402,1,0,0:0:0:0:
192,192,448487,1,0,0:0:0:0:
320,192,448487,1,0,0:0:0:0:
448,192,448573,1,0,0:0:0:0:
64,192,448573,1,0,0:0:0:0:
320,192,448659,1,0,0:0:0:0:
192,192,448659,1,0,0:0:0:0:
64,192,448702,1,0,0:0:0:0:
448,192,448745,1,0,0:0:0:0:
64,192,448830,1,0,0:0:0:0:
320,192,448830,1,0,0:0:0:0:
448,192,448916,1,0,0:0:0:0:
192,192,448916,1,0,0:0:0:0:
64,192,449002,1,0,0:0:0:0:
320,192,449002,1,0,0:0:0:0:
448,192,449045,1,0,0:0:0:0:
192,192,449087,1,0,0:0:0:0:
64,192,449173,1,0,0:0:0:0:
448,192,449173,1,0,0:0:0:0:
320,192,449259,1,0,0:0:0:0:
192,192,449259,1,0,0:0:0:0:
64,192,449345,1,0,0:0:0:0:
448,192,449345,1,0,0:0:0:0:
320,192,449345,1,0,0:0:0:0:
192,192,449430,1,0,0:0:0:0:
320,192,449516,1,0,0:0:0:0:
448,192,449516,1,0,0:0:0:0:
192,192,449602,1,0,0:0:0:0:
64,192,449602,1,0,0:0:0:0:
448,192,449687,1,0,0:0:0:0:
320,192,449709,1,0,0:0:0:0:
192,192,449730,1,0,0:0:0:0:
64,192,449752,1,0,0:0:0:0:
320,192,449773,1,0,0:0:0:0:
448,192,449773,1,0,0:0:0:0:
64,192,449859,1,0,0:0:0:0:
192,192,449880,1,0,0:0:0:0:
320,192,449902,1,0,0:0:0:0:
448,192,449923,1,0,0:0:0:0:
64,192,449945,1,0,0:0:0:0:
192,192,449945,1,0,0:0:0:0:
64,192,450030,1,0,0:0:0:0:
448,192,450030,1,0,0:0:0:0:
320,192,450030,1,0,0:0:0:0:
192,192,450116,128,0,450287:0:0:0:0:
320,192,450202,128,0,450373:0:0:0:0:
448,192,450287,128,0,450373:0:0:0:0:
192,192,450373,1,0,0:0:0:0:
64,192,450373,1,0,0:0:0:0:
64,192,450459,1,0,0:0:0:0:
192,192,450459,1,0,0:0:0:0:
448,192,450545,1,0,0:0:0:0:
320,192,450545,1,0,0:0:0:0:
64,192,450630,1,0,0:0:0:0:
192,192,450630,1,0,0:0:0:0:
320,192,450716,1,0,0:0:0:0:
448,192,450716,1,0,0:0:0:0:
64,192,450716,1,0,0:0:0:0:
192,192,450716,1,0,0:0:0:0:
192,192,451059,1,0,0:0:0:0:
448,192,451059,1,0,0:0:0:0:
64,192,451102,1,0,0:0:0:0:
320,192,451145,1,0,0:0:0:0:
192,192,451230,1,0,0:0:0:0:
64,192,451230,1,0,0:0:0:0:
448,192,451316,1,0,0:0:0:0:
320,192,451316,1,0,0:0:0:0:
192,192,451402,1,0,0:0:0:0:
64,192,451402,1,0,0:0:0:0:
448,192,451402,1,0,0:0:0:0:
320,192,451487,1,0,0:0:0:0:
64,192,451573,1,0,0:0:0:0:
448,192,451573,1,0,0:0:0:0:
320,192,451659,1,0,0:0:0:0:
192,192,451659,1,0,0:0:0:0:
448,192,451745,1,0,0:0:0:0:
64,192,451745,1,0,0:0:0:0:
192,192,451787,1,0,0:0:0:0:
320,192,451830,1,0,0:0:0:0:
64,192,451916,1,0,0:0:0:0:
192,192,451916,1,0,0:0:0:0:
448,192,452002,1,0,0:0:0:0:
320,192,452002,1,0,0:0:0:0:
192,192,452087,1,0,0:0:0:0:
448,192,452087,1,0,0:0:0:0:
64,192,452087,1,0,0:0:0:0:
320,192,452173,1,0,0:0:0:0:
192,192,452259,1,0,0:0:0:0:
64,192,452259,1,0,0:0:0:0:
320,192,452345,1,0,0:0:0:0:
448,192,452345,1,0,0:0:0:0:
192,192,452430,1,0,0:0:0:0:
64,192,452452,1,0,0:0:0:0:
320,192,452473,1,0,0:0:0:0:
448,192,452495,1,0,0:0:0:0:
64,192,452516,1,0,0:0:0:0:
192,192,452516,1,0,0:0:0:0:
448,192,452602,1,0,0:0:0:0:
320,192,452602,1,0,0:0:0:0:
64,192,452687,1,0,0:0:0:0:
192,192,452687,1,0,0:0:0:0:
192,192,452773,1,0,0:0:0:0:
448,192,452773,1,0,0:0:0:0:
320,192,452773,1,0,0:0:0:0:
64,192,452859,1,0,0:0:0:0:
192,192,452945,1,0,0:0:0:0:
448,192,452945,1,0,0:0:0:0:
320,192,452987,1,0,0:0:0:0:
64,192,453030,1,0,0:0:0:0:
192,192,453116,1,0,0:0:0:0:
320,192,453116,1,0,0:0:0:0:
448,192,453159,1,0,0:0:0:0:
64,192,453202,1,0,0:0:0:0:
448,192,453287,1,0,0:0:0:0:
192,192,453287,1,0,0:0:0:0:
64,192,453373,1,0,0:0:0:0:
320,192,453373,1,0,0:0:0:0:
448,192,453459,1,0,0:0:0:0:
192,192,453459,1,0,0:0:0:0:
64,192,453545,1,0,0:0:0:0:
320,192,453545,1,0,0:0:0:0:
448,192,453630,1,0,0:0:0:0:
320,192,453630,1,0,0:0:0:0:
192,192,453630,1,0,0:0:0:0:
192,192,453802,1,0,0:0:0:0:
64,192,453802,1,0,0:0:0:0:
448,192,453845,1,0,0:0:0:0:
320,192,453887,1,0,0:0:0:0:
448,192,453973,1,0,0:0:0:0:
192,192,453973,1,0,0:0:0:0:
64,192,454059,1,0,0:0:0:0:
320,192,454059,1,0,0:0:0:0:
448,192,454145,1,0,0:0:0:0:
64,192,454145,1,0,0:0:0:0:
192,192,454145,1,0,0:0:0:0:
320,192,454230,1,0,0:0:0:0:
448,192,454316,1,0,0:0:0:0:
64,192,454316,1,0,0:0:0:0:
192,192,454402,1,0,0:0:0:0:
320,192,454402,1,0,0:0:0:0:
448,192,454487,1,0,0:0:0:0:
64,192,454487,1,0,0:0:0:0:
320,192,454530,1,0,0:0:0:0:
192,192,454573,1,0,0:0:0:0:
320,192,454659,1,0,0:0:0:0:
448,192,454659,1,0,0:0:0:0:
64,192,454745,1,0,0:0:0:0:
192,192,454745,1,0,0:0:0:0:
448,192,454830,1,0,0:0:0:0:
320,192,454830,1,0,0:0:0:0:
64,192,454830,1,0,0:0:0:0:
192,192,454916,1,0,0:0:0:0:
320,192,455002,1,0,0:0:0:0:
448,192,455002,1,0,0:0:0:0:
64,192,455087,1,0,0:0:0:0:
192,192,455087,1,0,0:0:0:0:
448,192,455173,1,0,0:0:0:0:
320,192,455195,1,0,0:0:0:0:
192,192,455216,1,0,0:0:0:0:
64,192,455237,1,0,0:0:0:0:
448,192,455259,1,0,0:0:0:0:
320,192,455259,1,0,0:0:0:0:
64,192,455345,1,0,0:0:0:0:
192,192,455345,1,0,0:0:0:0:
448,192,455430,1,0,0:0:0:0:
320,192,455430,1,0,0:0:0:0:
320,192,455516,1,0,0:0:0:0:
64,192,455516,1,0,0:0:0:0:
192,192,455516,1,0,0:0:0:0:
448,192,455602,1,0,0:0:0:0:
320,192,455687,1,0,0:0:0:0:
192,192,455687,1,0,0:0:0:0:
64,192,455730,1,0,0:0:0:0:
448,192,455773,1,0,0:0:0:0:
192,192,455859,1,0,0:0:0:0:
64,192,455859,1,0,0:0:0:0:
320,192,455945,1,0,0:0:0:0:
448,192,455945,1,0,0:0:0:0:
192,192,456030,1,0,0:0:0:0:
64,192,456030,1,0,0:0:0:0:
320,192,456116,1,0,0:0:0:0:
448,192,456116,1,0,0:0:0:0:
64,192,456202,1,0,0:0:0:0:
448,192,456202,1,0,0:0:0:0:
320,192,456202,1,0,0:0:0:0:
192,192,456202,1,0,0:0:0:0:
64,192,456545,1,0,0:0:0:0:
320,192,456545,1,0,0:0:0:0:
192,192,456587,1,0,0:0:0:0:
448,192,456630,1,0,0:0:0:0:
192,192,456716,1,0,0:0:0:0:
320,192,456716,1,0,0:0:0:0:
448,192,456802,1,0,0:0:0:0:
64,192,456802,1,0,0:0:0:0:
448,192,456887,1,0,0:0:0:0:
192,192,456887,1,0,0:0:0:0:
320,192,456887,1,0,0:0:0:0:
64,192,456973,1,0,0:0:0:0:
448,192,457059,1,0,0:0:0:0:
320,192,457059,1,0,0:0:0:0:
64,192,457145,1,0,0:0:0:0:
192,192,457145,1,0,0:0:0:0:
448,192,457230,1,0,0:0:0:0:
320,192,457230,1,0,0:0:0:0:
192,192,457273,1,0,0:0:0:0:
64,192,457316,1,0,0:0:0:0:
448,192,457402,1,0,0:0:0:0:
192,192,457402,1,0,0:0:0:0:
64,192,457487,1,0,0:0:0:0:
320,192,457487,1,0,0:0:0:0:
448,192,457573,1,0,0:0:0:0:
64,192,457573,1,0,0:0:0:0:
192,192,457573,1,0,0:0:0:0:
320,192,457659,1,0,0:0:0:0:
64,192,457745,1,0,0:0:0:0:
192,192,457745,1,0,0:0:0:0:
448,192,457830,1,0,0:0:0:0:
320,192,457830,1,0,0:0:0:0:
192,192,457916,1,0,0:0:0:0:
64,192,457937,1,0,0:0:0:0:
448,192,457959,1,0,0:0:0:0:
320,192,457980,1,0,0:0:0:0:
64,192,458002,1,0,0:0:0:0:
192,192,458002,1,0,0:0:0:0:
320,192,458087,1,0,0:0:0:0:
448,192,458087,1,0,0:0:0:0:
192,192,458173,1,0,0:0:0:0:
64,192,458173,1,0,0:0:0:0:
64,192,458259,1,0,0:0:0:0:
448,192,458259,1,0,0:0:0:0:
320,192,458259,1,0,0:0:0:0:
192,192,458345,1,0,0:0:0:0:
64,192,458430,1,0,0:0:0:0:
448,192,458430,1,0,0:0:0:0:
320,192,458473,1,0,0:0:0:0:
192,192,458516,1,0,0:0:0:0:
64,192,458602,1,0,0:0:0:0:
320,192,458602,1,0,0:0:0:0:
448,192,458645,1,0,0:0:0:0:
192,192,458687,1,0,0:0:0:0:
320,192,458773,1,0,0:0:0:0:
448,192,458773,1,0,0:0:0:0:
64,192,458859,1,0,0:0:0:0:
192,192,458859,1,0,0:0:0:0:
448,192,458945,1,0,0:0:0:0:
320,192,458945,1,0,0:0:0:0:
192,192,459030,1,0,0:0:0:0:
64,192,459030,1,0,0:0:0:0:
320,192,459073,1,0,0:0:0:0:
192,192,459116,1,0,0:0:0:0:
448,192,459116,1,0,0:0:0:0:
64,192,459116,1,0,0:0:0:0:
192,192,459287,1,0,0:0:0:0:
448,192,459287,1,0,0:0:0:0:
64,192,459330,1,0,0:0:0:0:
320,192,459373,1,0,0:0:0:0:
192,192,459459,1,0,0:0:0:0:
64,192,459459,1,0,0:0:0:0:
448,192,459545,1,0,0:0:0:0:
320,192,459545,1,0,0:0:0:0:
64,192,459630,1,0,0:0:0:0:
448,192,459630,1,0,0:0:0:0:
192,192,459630,1,0,0:0:0:0:
320,192,459716,1,0,0:0:0:0:
448,192,459802,1,0,0:0:0:0:
192,192,459802,1,0,0:0:0:0:
64,192,459887,1,0,0:0:0:0:
320,192,459887,1,0,0:0:0:0:
448,192,459973,1,0,0:0:0:0:
320,192,459973,1,0,0:0:0:0:
192,192,459973,1,0,0:0:0:0:
64,192,460059,1,0,0:0:0:0:
320,192,460145,1,0,0:0:0:0:
192,192,460145,1,0,0:0:0:0:
448,192,460187,1,0,0:0:0:0:
64,192,460230,1,0,0:0:0:0:
448,192,460316,1,0,0:0:0:0:
320,192,460316,1,0,0:0:0:0:
320,192,460402,1,0,0:0:0:0:
448,192,460402,1,0,0:0:0:0:
64,192,460487,1,0,0:0:0:0:
192,192,460487,1,0,0:0:0:0:
448,192,460573,1,0,0:0:0:0:
320,192,460573,1,0,0:0:0:0:
192,192,460659,128,0,460787:0:0:0:0:
448,192,460787,1,0,0:0:0:0:
64,192,460830,1,0,0:0:0:0:
192,192,460852,1,0,0:0:0:0:
320,192,460873,1,0,0:0:0:0:
448,192,460895,1,0,0:0:0:0:
192,192,460916,1,0,0:0:0:0:
64,192,460916,1,0,0:0:0:0:
64,192,461002,1,0,0:0:0:0:
448,192,461002,128,0,461087:0:0:0:0:
320,192,461002,1,0,0:0:0:0:
192,192,461087,128,0,461173:0:0:0:0:
64,192,461173,1,0,0:0:0:0:
448,192,461173,1,0,0:0:0:0:
320,192,461216,1,0,0:0:0:0:
192,192,461259,1,0,0:0:0:0:
64,192,461345,1,0,0:0:0:0:
448,192,461345,1,0,0:0:0:0:
64,192,461430,1,0,0:0:0:0:
448,192,461430,1,0,0:0:0:0:
192,192,461516,1,0,0:0:0:0:
320,192,461602,1,0,0:0:0:0:
64,192,461687,1,0,0:0:0:0:
320,192,461687,1,0,0:0:0:0:
448,192,461687,1,0,0:0:0:0:
192,192,461687,1,0,0:0:0:0:
64,192,462030,1,0,0:0:0:0:
448,192,462030,1,0,0:0:0:0:
192,192,462073,1,0,0:0:0:0:
320,192,462116,1,0,0:0:0:0:
448,192,462202,1,0,0:0:0:0:
192,192,462202,1,0,0:0:0:0:
64,192,462287,1,0,0:0:0:0:
320,192,462287,1,0,0:0:0:0:
448,192,462373,1,0,0:0:0:0:
192,192,462373,1,0,0:0:0:0:
64,192,462416,1,0,0:0:0:0:
320,192,462459,1,0,0:0:0:0:
64,192,462545,1,0,0:0:0:0:
192,192,462545,1,0,0:0:0:0:
448,192,462630,1,0,0:0:0:0:
320,192,462630,1,0,0:0:0:0:
64,192,462716,1,0,0:0:0:0:
192,192,462716,1,0,0:0:0:0:
320,192,462759,1,0,0:0:0:0:
448,192,462802,1,0,0:0:0:0:
192,192,462887,1,0,0:0:0:0:
320,192,462887,1,0,0:0:0:0:
448,192,462973,1,0,0:0:0:0:
64,192,462973,1,0,0:0:0:0:
192,192,463059,1,0,0:0:0:0:
64,192,463059,1,0,0:0:0:0:
320,192,463059,1,0,0:0:0:0:
448,192,463145,1,0,0:0:0:0:
192,192,463230,1,0,0:0:0:0:
64,192,463230,1,0,0:0:0:0:
320,192,463316,1,0,0:0:0:0:
448,192,463316,1,0,0:0:0:0:
64,192,463402,1,0,0:0:0:0:
192,192,463423,1,0,0:0:0:0:
448,192,463445,1,0,0:0:0:0:
320,192,463466,1,0,0:0:0:0:
64,192,463487,1,0,0:0:0:0:
192,192,463487,1,0,0:0:0:0:
320,192,463573,1,0,0:0:0:0:
448,192,463573,1,0,0:0:0:0:
64,192,463659,1,0,0:0:0:0:
192,192,463659,1,0,0:0:0:0:
448,192,463745,1,0,0:0:0:0:
320,192,463745,1,0,0:0:0:0:
192,192,463787,1,0,0:0:0:0:
64,192,463830,1,0,0:0:0:0:
320,192,463916,1,0,0:0:0:0:
192,192,463916,1,0,0:0:0:0:
448,192,463959,1,0,0:0:0:0:
64,192,464002,1,0,0:0:0:0:
448,192,464087,1,0,0:0:0:0:
192,192,464087,1,0,0:0:0:0:
64,192,464130,1,0,0:0:0:0:
320,192,464173,1,0,0:0:0:0:
64,192,464259,1,0,0:0:0:0:
448,192,464259,1,0,0:0:0:0:
320,192,464345,1,0,0:0:0:0:
192,192,464345,1,0,0:0:0:0:
320,192,464430,1,0,0:0:0:0:
448,192,464430,1,0,0:0:0:0:
64,192,464430,1,0,0:0:0:0:
192,192,464516,1,0,0:0:0:0:
448,192,464602,1,0,0:0:0:0:
320,192,464623,1,0,0:0:0:0:
192,192,464645,1,0,0:0:0:0:
64,192,464666,1,0,0:0:0:0:
448,192,464687,1,0,0:0:0:0:
320,192,464709,1,0,0:0:0:0:
192,192,464730,1,0,0:0:0:0:
64,192,464752,1,0,0:0:0:0:
448,192,464773,1,0,0:0:0:0:
320,192,464773,1,0,0:0:0:0:
192,192,464816,1,0,0:0:0:0:
64,192,464859,1,0,0:0:0:0:
192,192,464945,1,0,0:0:0:0:
320,192,464945,1,0,0:0:0:0:
64,192,465030,1,0,0:0:0:0:
448,192,465030,1,0,0:0:0:0:
192,192,465116,1,0,0:0:0:0:
320,192,465116,1,0,0:0:0:0:
448,192,465159,1,0,0:0:0:0:
64,192,465202,1,0,0:0:0:0:
448,192,465287,1,0,0:0:0:0:
192,192,465287,1,0,0:0:0:0:
64,192,465373,1,0,0:0:0:0:
320,192,465373,1,0,0:0:0:0:
448,192,465459,1,0,0:0:0:0:
192,192,465459,1,0,0:0:0:0:
64,192,465502,1,0,0:0:0:0:
320,192,465545,1,0,0:0:0:0:
448,192,465630,1,0,0:0:0:0:
64,192,465630,1,0,0:0:0:0:
192,192,465716,1,0,0:0:0:0:
320,192,465716,1,0,0:0:0:0:
320,192,465802,1,0,0:0:0:0:
64,192,465802,1,0,0:0:0:0:
448,192,465802,1,0,0:0:0:0:
192,192,465887,1,0,0:0:0:0:
320,192,465973,1,0,0:0:0:0:
448,192,465973,1,0,0:0:0:0:
192,192,466059,1,0,0:0:0:0:
64,192,466059,1,0,0:0:0:0:
448,192,466145,1,0,0:0:0:0:
320,192,466166,1,0,0:0:0:0:
192,192,466187,1,0,0:0:0:0:
64,192,466209,1,0,0:0:0:0:
448,192,466230,1,0,0:0:0:0:
320,192,466230,1,0,0:0:0:0:
64,192,466316,1,0,0:0:0:0:
192,192,466316,1,0,0:0:0:0:
448,192,466402,1,0,0:0:0:0:
320,192,466402,1,0,0:0:0:0:
64,192,466487,1,0,0:0:0:0:
192,192,466487,1,0,0:0:0:0:
448,192,466530,1,0,0:0:0:0:
320,192,466573,1,0,0:0:0:0:
448,192,466659,1,0,0:0:0:0:
192,192,466659,1,0,0:0:0:0:
64,192,466702,1,0,0:0:0:0:
320,192,466745,1,0,0:0:0:0:
448,192,466830,1,0,0:0:0:0:
64,192,466830,1,0,0:0:0:0:
192,192,466916,1,0,0:0:0:0:
320,192,466916,1,0,0:0:0:0:
448,192,467002,1,0,0:0:0:0:
64,192,467002,1,0,0:0:0:0:
320,192,467087,1,0,0:0:0:0:
64,192,467087,1,0,0:0:0:0:
448,192,467173,1,0,0:0:0:0:
192,192,467173,1,0,0:0:0:0:
64,192,467259,1,0,0:0:0:0:
320,192,467259,1,0,0:0:0:0:
320,192,467345,1,0,0:0:0:0:
448,192,467345,1,0,0:0:0:0:
192,192,467345,1,0,0:0:0:0:
192,192,467516,1,0,0:0:0:0:
64,192,467516,1,0,0:0:0:0:
448,192,467559,1,0,0:0:0:0:
320,192,467602,1,0,0:0:0:0:
448,192,467687,1,0,0:0:0:0:
64,192,467687,1,0,0:0:0:0:
192,192,467773,1,0,0:0:0:0:
320,192,467773,1,0,0:0:0:0:
448,192,467859,1,0,0:0:0:0:
64,192,467859,1,0,0:0:0:0:
320,192,467902,1,0,0:0:0:0:
192,192,467945,1,0,0:0:0:0:
64,192,468030,1,0,0:0:0:0:
320,192,468030,1,0,0:0:0:0:
192,192,468116,1,0,0:0:0:0:
448,192,468116,1,0,0:0:0:0:
64,192,468202,1,0,0:0:0:0:
320,192,468202,1,0,0:0:0:0:
448,192,468245,1,0,0:0:0:0:
192,192,468287,1,0,0:0:0:0:
448,192,468373,1,0,0:0:0:0:
320,192,468373,1,0,0:0:0:0:
64,192,468459,1,0,0:0:0:0:
192,192,468459,1,0,0:0:0:0:
320,192,468545,1,0,0:0:0:0:
448,192,468545,1,0,0:0:0:0:
192,192,468545,1,0,0:0:0:0:
64,192,468630,1,0,0:0:0:0:
448,192,468716,1,0,0:0:0:0:
320,192,468716,1,0,0:0:0:0:
64,192,468802,1,0,0:0:0:0:
192,192,468802,1,0,0:0:0:0:
320,192,468887,1,0,0:0:0:0:
448,192,468909,1,0,0:0:0:0:
192,192,468930,1,0,0:0:0:0:
64,192,468952,1,0,0:0:0:0:
448,192,468973,1,0,0:0:0:0:
320,192,468973,1,0,0:0:0:0:
64,192,469059,1,0,0:0:0:0:
192,192,469059,1,0,0:0:0:0:
448,192,469145,1,0,0:0:0:0:
320,192,469145,1,0,0:0:0:0:
64,192,469230,1,0,0:0:0:0:
192,192,469230,1,0,0:0:0:0:
448,192,469273,1,0,0:0:0:0:
320,192,469316,1,0,0:0:0:0:
448,192,469402,1,0,0:0:0:0:
192,192,469402,1,0,0:0:0:0:
64,192,469445,1,0,0:0:0:0:
320,192,469487,1,0,0:0:0:0:
448,192,469573,1,0,0:0:0:0:
64,192,469573,1,0,0:0:0:0:
192,192,469616,1,0,0:0:0:0:
320,192,469659,1,0,0:0:0:0:
192,192,469745,1,0,0:0:0:0:
64,192,469745,1,0,0:0:0:0:
320,192,469830,1,0,0:0:0:0:
448,192,469830,1,0,0:0:0:0:
64,192,469916,1,0,0:0:0:0:
320,192,469916,1,0,0:0:0:0:
192,192,469916,1,0,0:0:0:0:
448,192,470002,1,0,0:0:0:0:
192,192,470087,1,0,0:0:0:0:
64,192,470109,1,0,0:0:0:0:
320,192,470130,1,0,0:0:0:0:
448,192,470152,1,0,0:0:0:0:
192,192,470173,1,0,0:0:0:0:
64,192,470195,1,0,0:0:0:0:
320,192,470216,1,0,0:0:0:0:
448,192,470237,1,0,0:0:0:0:
64,192,470259,1,0,0:0:0:0:
192,192,470259,1,0,0:0:0:0:
320,192,470302,1,0,0:0:0:0:
448,192,470345,1,0,0:0:0:0:
320,192,470430,1,0,0:0:0:0:
192,192,470430,1,0,0:0:0:0:
448,192,470516,1,0,0:0:0:0:
64,192,470516,1,0,0:0:0:0:
192,192,470602,1,0,0:0:0:0:
320,192,470602,1,0,0:0:0:0:
448,192,470645,1,0,0:0:0:0:
64,192,470687,1,0,0:0:0:0:
192,192,470773,1,0,0:0:0:0:
448,192,470773,1,0,0:0:0:0:
320,192,470859,1,0,0:0:0:0:
64,192,470859,1,0,0:0:0:0:
192,192,470945,1,0,0:0:0:0:
448,192,470945,1,0,0:0:0:0:
64,192,470987,1,0,0:0:0:0:
320,192,471030,1,0,0:0:0:0:
448,192,471116,1,0,0:0:0:0:
64,192,471116,1,0,0:0:0:0:
320,192,471202,1,0,0:0:0:0:
192,192,471202,1,0,0:0:0:0:
192,192,471287,1,0,0:0:0:0:
64,192,471287,1,0,0:0:0:0:
448,192,471287,1,0,0:0:0:0:
320,192,471373,1,0,0:0:0:0:
192,192,471459,1,0,0:0:0:0:
64,192,471459,1,0,0:0:0:0:
320,192,471545,1,0,0:0:0:0:
448,192,471545,1,0,0:0:0:0:
192,192,471630,1,0,0:0:0:0:
64,192,471652,1,0,0:0:0:0:
320,192,471673,1,0,0:0:0:0:
448,192,471695,1,0,0:0:0:0:
192,192,471716,1,0,0:0:0:0:
64,192,471716,1,0,0:0:0:0:
320,192,471802,1,0,0:0:0:0:
448,192,471823,1,0,0:0:0:0:
192,192,471845,1,0,0:0:0:0:
64,192,471866,1,0,0:0:0:0:
448,192,471887,1,0,0:0:0:0:
320,192,471887,1,0,0:0:0:0:
320,192,471973,1,0,0:0:0:0:
64,192,471973,1,0,0:0:0:0:
192,192,471973,1,0,0:0:0:0:
448,192,472059,128,0,472230:0:0:0:0:
64,192,472145,128,0,472316:0:0:0:0:
320,192,472230,128,0,472316:0:0:0:0:
192,192,472316,1,0,0:0:0:0:
448,192,472316,1,0,0:0:0:0:
448,192,472402,1,0,0:0:0:0:
192,192,472402,1,0,0:0:0:0:
64,192,472487,1,0,0:0:0:0:
320,192,472487,1,0,0:0:0:0:
448,192,472573,1,0,0:0:0:0:
192,192,472573,1,0,0:0:0:0:
192,192,472659,1,0,0:0:0:0:
64,192,472659,1,0,0:0:0:0:
448,192,472659,1,0,0:0:0:0:
320,192,472659,1,0,0:0:0:0:
320,192,473002,1,0,0:0:0:0:
448,192,473002,1,0,0:0:0:0:
64,192,473045,1,0,0:0:0:0:
192,192,473087,1,0,0:0:0:0:
64,192,473173,1,0,0:0:0:0:
320,192,473173,1,0,0:0:0:0:
448,192,473259,1,0,0:0:0:0:
192,192,473259,1,0,0:0:0:0:
64,192,473345,1,0,0:0:0:0:
320,192,473345,1,0,0:0:0:0:
448,192,473345,1,0,0:0:0:0:
192,192,473430,1,0,0:0:0:0:
64,192,473516,1,0,0:0:0:0:
448,192,473516,1,0,0:0:0:0:
192,192,473602,1,0,0:0:0:0:
320,192,473602,1,0,0:0:0:0:
64,192,473687,1,0,0:0:0:0:
448,192,473687,1,0,0:0:0:0:
320,192,473730,1,0,0:0:0:0:
192,192,473773,1,0,0:0:0:0:
64,192,473859,1,0,0:0:0:0:
320,192,473859,1,0,0:0:0:0:
448,192,473945,1,0,0:0:0:0:
192,192,473945,1,0,0:0:0:0:
64,192,474030,1,0,0:0:0:0:
320,192,474030,1,0,0:0:0:0:
448,192,474030,1,0,0:0:0:0:
192,192,474116,1,0,0:0:0:0:
448,192,474202,1,0,0:0:0:0:
320,192,474202,1,0,0:0:0:0:
192,192,474287,1,0,0:0:0:0:
64,192,474287,1,0,0:0:0:0:
320,192,474373,1,0,0:0:0:0:
448,192,474395,1,0,0:0:0:0:
192,192,474416,1,0,0:0:0:0:
64,192,474437,1,0,0:0:0:0:
448,192,474459,1,0,0:0:0:0:
320,192,474459,1,0,0:0:0:0:
64,192,474545,1,0,0:0:0:0:
192,192,474545,1,0,0:0:0:0:
320,192,474630,1,0,0:0:0:0:
448,192,474630,1,0,0:0:0:0:
64,192,474716,1,0,0:0:0:0:
448,192,474716,1,0,0:0:0:0:
192,192,474716,1,0,0:0:0:0:
320,192,474802,1,0,0:0:0:0:
64,192,474887,1,0,0:0:0:0:
448,192,474887,1,0,0:0:0:0:
192,192,474930,1,0,0:0:0:0:
320,192,474973,1,0,0:0:0:0:
64,192,475059,1,0,0:0:0:0:
192,192,475059,1,0,0:0:0:0:
448,192,475102,1,0,0:0:0:0:
320,192,475145,1,0,0:0:0:0:
448,192,475230,1,0,0:0:0:0:
64,192,475230,1,0,0:0:0:0:
192,192,475316,1,0,0:0:0:0:
320,192,475316,1,0,0:0:0:0:
448,192,475402,1,0,0:0:0:0:
64,192,475402,1,0,0:0:0:0:
320,192,475487,1,0,0:0:0:0:
192,192,475487,1,0,0:0:0:0:
448,192,475573,1,0,0:0:0:0:
192,192,475573,1,0,0:0:0:0:
64,192,475573,1,0,0:0:0:0:
64,192,475745,1,0,0:0:0:0:
320,192,475745,1,0,0:0:0:0:
448,192,475787,1,0,0:0:0:0:
192,192,475830,1,0,0:0:0:0:
448,192,475916,1,0,0:0:0:0:
320,192,475916,1,0,0:0:0:0:
64,192,476002,1,0,0:0:0:0:
192,192,476002,1,0,0:0:0:0:
64,192,476087,1,0,0:0:0:0:
448,192,476087,1,0,0:0:0:0:
320,192,476087,1,0,0:0:0:0:
192,192,476173,1,0,0:0:0:0:
64,192,476259,1,0,0:0:0:0:
448,192,476259,1,0,0:0:0:0:
320,192,476345,1,0,0:0:0:0:
192,192,476345,1,0,0:0:0:0:
64,192,476430,1,0,0:0:0:0:
448,192,476430,1,0,0:0:0:0:
192,192,476473,1,0,0:0:0:0:
320,192,476516,1,0,0:0:0:0:
192,192,476602,1,0,0:0:0:0:
448,192,476602,1,0,0:0:0:0:
64,192,476687,1,0,0:0:0:0:
320,192,476687,1,0,0:0:0:0:
64,192,476773,1,0,0:0:0:0:
448,192,476773,1,0,0:0:0:0:
192,192,476773,1,0,0:0:0:0:
320,192,476859,1,0,0:0:0:0:
192,192,476945,1,0,0:0:0:0:
64,192,476945,1,0,0:0:0:0:
448,192,477030,1,0,0:0:0:0:
320,192,477030,1,0,0:0:0:0:
64,192,477116,1,0,0:0:0:0:
192,192,477137,1,0,0:0:0:0:
320,192,477159,1,0,0:0:0:0:
448,192,477180,1,0,0:0:0:0:
64,192,477202,1,0,0:0:0:0:
192,192,477202,1,0,0:0:0:0:
448,192,477287,1,0,0:0:0:0:
320,192,477287,1,0,0:0:0:0:
64,192,477373,1,0,0:0:0:0:
192,192,477373,1,0,0:0:0:0:
448,192,477459,1,0,0:0:0:0:
192,192,477459,1,0,0:0:0:0:
320,192,477459,1,0,0:0:0:0:
64,192,477545,1,0,0:0:0:0:
192,192,477630,1,0,0:0:0:0:
320,192,477630,1,0,0:0:0:0:
64,192,477673,1,0,0:0:0:0:
448,192,477716,1,0,0:0:0:0:
64,192,477802,1,0,0:0:0:0:
320,192,477802,1,0,0:0:0:0:
192,192,477887,1,0,0:0:0:0:
448,192,477887,1,0,0:0:0:0:
64,192,477973,1,0,0:0:0:0:
320,192,477973,1,0,0:0:0:0:
192,192,478059,1,0,0:0:0:0:
448,192,478059,1,0,0:0:0:0:
448,192,478145,1,0,0:0:0:0:
64,192,478145,1,0,0:0:0:0:
192,192,478145,1,0,0:0:0:0:
320,192,478145,1,0,0:0:0:0:
64,192,478487,1,0,0:0:0:0:
192,192,478487,1,0,0:0:0:0:
320,192,478530,1,0,0:0:0:0:
448,192,478573,1,0,0:0:0:0:
320,192,478659,1,0,0:0:0:0:
192,192,478659,1,0,0:0:0:0:
64,192,478745,1,0,0:0:0:0:
448,192,478745,1,0,0:0:0:0:
448,192,478830,1,0,0:0:0:0:
320,192,478830,1,0,0:0:0:0:
192,192,478830,1,0,0:0:0:0:
64,192,478916,1,0,0:0:0:0:
448,192,479002,1,0,0:0:0:0:
192,192,479002,1,0,0:0:0:0:
64,192,479087,1,0,0:0:0:0:
320,192,479087,1,0,0:0:0:0:
448,192,479173,1,0,0:0:0:0:
192,192,479173,1,0,0:0:0:0:
320,192,479216,1,0,0:0:0:0:
64,192,479259,1,0,0:0:0:0:
448,192,479345,1,0,0:0:0:0:
192,192,479345,1,0,0:0:0:0:
64,192,479430,1,0,0:0:0:0:
320,192,479430,1,0,0:0:0:0:
192,192,479516,1,0,0:0:0:0:
448,192,479516,1,0,0:0:0:0:
320,192,479516,1,0,0:0:0:0:
64,192,479602,1,0,0:0:0:0:
448,192,479687,1,0,0:0:0:0:
320,192,479687,1,0,0:0:0:0:
64,192,479773,1,0,0:0:0:0:
192,192,479773,1,0,0:0:0:0:
320,192,479859,1,0,0:0:0:0:
448,192,479880,1,0,0:0:0:0:
192,192,479902,1,0,0:0:0:0:
64,192,479923,1,0,0:0:0:0:
448,192,479945,1,0,0:0:0:0:
320,192,479945,1,0,0:0:0:0:
192,192,480030,1,0,0:0:0:0:
64,192,480030,1,0,0:0:0:0:
448,192,480116,1,0,0:0:0:0:
320,192,480116,1,0,0:0:0:0:
64,192,480202,1,0,0:0:0:0:
448,192,480202,1,0,0:0:0:0:
192,192,480202,1,0,0:0:0:0:
320,192,480287,1,0,0:0:0:0:
64,192,480373,1,0,0:0:0:0:
448,192,480373,1,0,0:0:0:0:
192,192,480416,1,0,0:0:0:0:
320,192,480459,1,0,0:0:0:0:
64,192,480545,1,0,0:0:0:0:
192,192,480545,1,0,0:0:0:0:
448,192,480587,1,0,0:0:0:0:
320,192,480630,1,0,0:0:0:0:
192,192,480716,1,0,0:0:0:0:
448,192,480716,1,0,0:0:0:0:
64,192,480802,1,0,0:0:0:0:
320,192,480802,1,0,0:0:0:0:
448,192,480887,1,0,0:0:0:0:
192,192,480887,1,0,0:0:0:0:
64,192,480973,1,0,0:0:0:0:
320,192,480973,1,0,0:0:0:0:
192,192,481016,1,0,0:0:0:0:
64,192,481059,1,0,0:0:0:0:
320,192,481059,1,0,0:0:0:0:
448,192,481059,1,0,0:0:0:0:
320,192,481230,1,0,0:0:0:0:
448,192,481230,1,0,0:0:0:0:
64,192,481273,1,0,0:0:0:0:
192,192,481316,1,0,0:0:0:0:
64,192,481402,1,0,0:0:0:0:
320,192,481402,1,0,0:0:0:0:
448,192,481487,1,0,0:0:0:0:
192,192,481487,1,0,0:0:0:0:
64,192,481573,1,0,0:0:0:0:
448,192,481573,1,0,0:0:0:0:
320,192,481573,1,0,0:0:0:0:
192,192,481659,1,0,0:0:0:0:
448,192,481745,1,0,0:0:0:0:
320,192,481745,1,0,0:0:0:0:
64,192,481830,1,0,0:0:0:0:
192,192,481830,1,0,0:0:0:0:
448,192,481916,1,0,0:0:0:0:
192,192,481916,1,0,0:0:0:0:
320,192,481916,1,0,0:0:0:0:
64,192,482002,1,0,0:0:0:0:
192,192,482087,1,0,0:0:0:0:
320,192,482087,1,0,0:0:0:0:
448,192,482130,1,0,0:0:0:0:
64,192,482173,1,0,0:0:0:0:
448,192,482259,1,0,0:0:0:0:
192,192,482259,1,0,0:0:0:0:
192,192,482345,1,0,0:0:0:0:
448,192,482345,1,0,0:0:0:0:
64,192,482430,1,0,0:0:0:0:
320,192,482430,1,0,0:0:0:0:
448,192,482516,1,0,0:0:0:0:
192,192,482516,1,0,0:0:0:0:
320,192,482602,128,0,482730:0:0:0:0:
448,192,482730,1,0,0:0:0:0:
64,192,482773,1,0,0:0:0:0:
192,192,482795,1,0,0:0:0:0:
320,192,482816,1,0,0:0:0:0:
448,192,482837,1,0,0:0:0:0:
64,192,482859,1,0,0:0:0:0:
192,192,482859,1,0,0:0:0:0:
64,192,482945,1,0,0:0:0:0:
448,192,482945,128,0,483030:0:0:0:0:
320,192,482945,1,0,0:0:0:0:
192,192,483030,128,0,483116:0:0:0:0:
64,192,483116,1,0,0:0:0:0:
448,192,483116,1,0,0:0:0:0:
320,192,483159,1,0,0:0:0:0:
192,192,483202,1,0,0:0:0:0:
64,192,483287,1,0,0:0:0:0:
448,192,483287,1,0,0:0:0:0:
64,192,483373,1,0,0:0:0:0:
448,192,483373,1,0,0:0:0:0:
192,192,483459,1,0,0:0:0:0:
320,192,483545,1,0,0:0:0:0:
192,192,483630,1,0,0:0:0:0:
64,192,483630,1,0,0:0:0:0:
448,192,483630,1,0,0:0:0:0:
320,192,483630,1,0,0:0:0:0:
64,192,483973,1,0,0:0:0:0:
192,192,483973,1,0,0:0:0:0:
320,192,483973,1,0,0:0:0:0:
