osu file format v14

[General]
AudioFilename: audio.mp3
AudioLeadIn: 0
PreviewTime: 149135
Countdown: 0
SampleSet: Soft
StackLeniency: 0.7
Mode: 2
LetterboxInBreaks: 0
WidescreenStoryboard: 1

[Editor]
DistanceSpacing: 0.7
BeatDivisor: 3
GridSize: 16
TimelineZoom: 5.299998

[Metadata]
Title:Villain Virus [feat. Camellia]
TitleUnicode:Villain Virus [feat. かめりあ]
Artist:Kobaryo
ArtistUnicode:Kobaryo
Creator:x_angelkawaii_x
Version:Dyspnea
Source:
Tags:Instrumental Electronic Speedcore Hardcore jcore J-core MIXPEED ACTION Psycho Filth Records gabba gabber Japan stream featured artist fa cametek kamelcamellia rocma jemzuu ajamez mg mpg mappers' guild
BeatmapID:3495604
BeatmapSetID:1689443

[Difficulty]
HPDrainRate:3
CircleSize:4.3
OverallDifficulty:10
ApproachRate:10
SliderMultiplier:1.75
SliderTickRate:2

[Events]
//Background and Video events
0,0,"bg.png",0,0
//Break Periods
//Storyboard Layer 0 (Background)
//Storyboard Layer 1 (Fail)
//Storyboard Layer 2 (Pass)
//Storyboard Layer 3 (Foreground)
//Storyboard Layer 4 (Overlay)
//Storyboard Sound Samples

[TimingPoints]
1962,230.769230769231,4,2,2,40,1,0
20423,-100,4,2,2,60,0,0
34731,-100,4,1,2,70,0,0
49962,-83.3333333333333,4,1,2,80,0,0
65423,-34.4827586206897,4,1,2,80,0,0
65885,-83.3333333333333,4,1,2,80,0,0
66115,-34.4827586206897,4,1,2,80,0,0
66346,-83.3333333333333,4,1,2,80,0,0
67269,-34.4827586206897,4,1,2,80,0,0
67731,-83.3333333333333,4,1,2,80,0,0
72808,-34.4827586206897,4,1,2,80,0,0
73269,-83.3333333333333,4,1,2,80,0,0
73500,-34.4827586206897,4,1,2,80,0,0
73731,-83.3333333333333,4,1,2,80,0,0
74654,-34.4827586206897,4,1,2,80,0,0
75115,-83.3333333333333,4,1,2,80,0,0
79500,-100,4,1,2,50,0,0
83192,-100,4,1,2,70,0,0
86885,-83.3333333333333,4,1,2,60,0,0
94038,-83.3333333333333,4,1,5,60,0,0
94096,-83.3333333333333,4,1,2,60,0,0
97962,-12.5,4,1,2,60,0,0
98077,-12.5,4,1,6,60,0,0
98091,-12.5,4,1,2,60,0,0
98308,-12.5,4,1,6,60,0,0
98322,-12.5,4,1,2,60,0,0
98538,-12.5,4,1,6,60,0,0
98552,-12.5,4,1,2,60,0,0
98654,-83.3333333333333,4,1,2,60,0,0
98885,-12.5,4,1,2,60,0,0
99000,-12.5,4,1,6,60,0,0
99014,-12.5,4,1,2,60,0,0
99231,-12.5,4,1,6,60,0,0
99245,-12.5,4,1,2,60,0,0
99462,-12.5,4,1,6,60,0,0
99476,-12.5,4,1,2,60,0,0
99577,-83.3333333333333,4,1,2,60,0,0
100731,-100,4,1,2,60,0,0
101077,-35.7142857142857,4,1,2,60,0,0
101192,-35.7142857142857,4,1,6,60,0,0
101206,-35.7142857142857,4,1,2,60,0,0
101423,-35.7142857142857,4,1,6,60,0,0
101437,-35.7142857142857,4,1,2,60,0,0
101654,-100,4,1,2,60,0,0
102808,-76.9230769230769,4,1,2,60,0,0
103038,-76.9230769230769,4,1,6,60,0,0
103096,-76.9230769230769,4,1,2,60,0,0
103269,-76.9230769230769,4,1,6,60,0,0
103327,-76.9230769230769,4,1,2,60,0,0
103731,-100,4,1,2,60,0,0
105346,-83.3333333333333,4,1,2,80,0,0
107192,-83.3333333333333,4,1,2,80,0,0
109038,-100,4,1,2,60,0,0
110192,-76.9230769230769,4,1,2,60,0,0
110423,-76.9230769230769,4,1,6,60,0,0
110481,-76.9230769230769,4,1,2,60,0,0
110654,-76.9230769230769,4,1,6,60,0,0
110712,-76.9230769230769,4,1,2,60,0,0
112731,-83.3333333333333,4,1,2,80,0,0
116423,-100,4,1,2,40,0,0
119654,-100,4,1,2,70,0,0
133962,-83.3333333333333,4,1,2,60,0,0
134885,-83.3333333333333,4,3,3,80,0,0
140423,-83.3333333333333,4,3,3,80,0,0
142269,-83.3333333333333,4,1,2,80,0,0
149077,-40,4,1,2,60,0,0
149192,-40,4,1,6,60,0,0
149538,-40,4,1,2,60,0,0
149654,-40,4,1,2,80,0,1
149885,-40,4,1,5,80,0,1
149942,-40,4,1,2,80,0,1
150577,-83.3333333333333,4,1,2,80,0,1
151500,-40,4,1,2,80,0,1
151731,-40,4,1,5,80,0,1
151788,-40,4,1,2,80,0,1
152192,-40,4,1,5,80,0,1
152249,-40,4,1,2,80,0,1
152423,-83.3333333333333,4,1,2,80,0,1
153346,-40,4,1,2,80,0,1
153577,-40,4,1,5,80,0,1
153634,-40,4,1,2,80,0,1
154038,-40,4,1,5,80,0,1
154095,-40,4,1,2,80,0,1
154500,-40,4,1,5,80,0,1
154557,-40,4,1,2,80,0,1
154962,-40,4,1,5,80,0,1
155019,-40,4,1,2,80,0,1
155192,-83.3333333333333,4,1,2,70,0,0
157038,-40,4,1,2,80,0,1
157269,-40,4,1,5,80,0,1
157326,-40,4,1,2,80,0,1
157731,-40,4,1,5,80,0,1
157788,-40,4,1,2,80,0,1
157962,-83.3333333333333,4,1,2,80,0,1
158885,-40,4,1,2,80,0,1
159115,-40,4,1,5,80,0,1
159172,-40,4,1,2,80,0,1
159577,-40,4,1,5,80,0,1
159634,-40,4,1,2,80,0,1
159808,-83.3333333333333,4,1,2,80,0,1
160731,-40,4,1,2,80,0,1
160962,-40,4,1,5,80,0,1
161019,-40,4,1,2,80,0,1
161423,-40,4,1,5,80,0,1
161480,-40,4,1,2,80,0,1
161654,-83.3333333333333,4,1,2,80,0,1
163962,-83.3333333333333,4,1,2,60,0,0
171808,-125,4,2,2,50,0,0
179192,-109.375001708984,4,2,2,50,0,0
193962,-100,4,2,2,60,0,0
208731,-100,4,1,2,60,0,0
216115,-83.3333333333333,4,1,2,70,0,0
218885,-33.3333333333333,4,1,2,70,0,0
219808,-83.3333333333333,4,1,2,70,0,0
223500,-100,4,1,2,60,0,0
225346,-83.3333333333333,4,1,2,80,0,1
228115,-33.3333333333333,4,1,2,80,0,1
229038,-83.3333333333333,4,1,2,80,0,1
239192,-33.3333333333333,4,1,2,80,0,1
240115,-33.3333333333333,4,1,2,60,0,0
241962,-100,4,1,2,60,0,0
243808,-100,4,1,2,70,0,0
246577,-83.3333333333333,4,1,2,60,0,0
247500,-100,4,1,2,60,0,0
248423,-62.5,4,1,2,60,0,0
249346,-83.3333333333333,4,1,2,80,0,1
263654,-62.5,4,1,2,60,0,0

[Colours]
Combo1 : 230,230,0
Combo2 : 255,133,106

[HitObjects]
256,192,346,12,0,1731,0:0:0:0:
294,251,1962,6,0,L|403:250,1,87.5,2|0,0:0|0:0,0:0:0:0:
209,176,2308,1,0,0:0:0:0:
385,103,2538,2,0,L|276:105,2,87.5,0|0|0,0:0|0:0|0:0,0:0:0:0:
279,237,2885,2,0,L|277:138,1,87.5,0|0,0:0|0:0,0:0:0:0:
184,128,3115,1,0,0:0:0:0:
275,103,3231,1,0,0:0:0:0:
258,246,3462,1,0,0:0:0:0:
350,233,3578,1,0,0:0:0:0:
188,250,3808,6,0,L|79:249,1,87.5,2|0,0:0|0:0,0:0:0:0:
270,165,4154,1,0,0:0:0:0:
97,102,4384,2,0,L|-20:102,2,87.5,0|0|0,0:0|0:0|0:0,0:0:0:0:
219,239,4731,2,0,L|221:132,1,87.5,0|0,0:0|0:0,0:0:0:0:
128,133,4962,1,0,0:0:0:0:
228,102,5077,1,0,0:0:0:0:
366,53,5308,1,0,0:0:0:0:
271,36,5424,1,0,0:0:0:0:
437,252,5654,6,0,L|319:249,1,87.5,2|0,0:0|0:0,0:0:0:0:
195,240,6000,1,0,0:0:0:0:
369,187,6231,2,0,L|251:178,1,87.5,0|0,0:0|0:0,0:0:0:0:
185,174,6462,1,0,0:0:0:0:
296,140,6577,2,0,L|303:20,1,87.5,0|0,0:0|0:0,0:0:0:0:
397,47,6808,1,0,0:0:0:0:
302,18,6923,1,0,0:0:0:0:
173,181,7154,1,0,0:0:0:0:
269,157,7269,1,0,0:0:0:0:
86,246,7500,6,0,L|80:149,1,87.5,2|0,0:0|0:0,0:0:0:0:
170,129,7731,1,0,0:0:0:0:
78,97,7846,1,0,0:0:0:0:
289,68,7962,5,0,0:0:0:0:
201,107,8077,2,0,L|199:210,1,87.5,0|0,0:0|0:0,0:0:0:0:
290,216,8308,1,0,0:0:0:0:
112,298,8423,6,0,L|13:301,1,87.5,0|0,0:0|0:0,0:0:0:0:
128,247,8654,1,0,0:0:0:0:
328,175,8769,2,0,L|141:173,1,175,0|0,0:0|0:0,0:0:0:0:
246,246,9115,2,0,L|349:246,1,87.5,0|0,0:0|0:0,0:0:0:0:
149,320,9346,6,0,L|40:319,1,87.5,2|0,0:0|0:0,0:0:0:0:
239,232,9692,1,0,0:0:0:0:
406,143,9923,2,0,L|297:145,2,87.5,0|0|0,0:0|0:0|0:0,0:0:0:0:
321,237,10269,2,0,L|319:138,1,87.5,0|0,0:0|0:0,0:0:0:0:
214,127,10499,1,0,0:0:0:0:
322,104,10615,1,0,0:0:0:0:
274,249,10846,1,0,0:0:0:0:
369,231,10962,1,0,0:0:0:0:
188,250,11192,6,0,L|79:249,1,87.5,2|0,0:0|0:0,0:0:0:0:
279,165,11538,1,0,0:0:0:0:
97,102,11769,2,0,L|-20:102,2,87.5,0|0|0,0:0|0:0|0:0,0:0:0:0:
231,240,12115,2,0,L|233:133,1,87.5,0|0,0:0|0:0,0:0:0:0:
138,131,12346,1,0,0:0:0:0:
234,99,12461,1,0,0:0:0:0:
129,34,12692,1,0,0:0:0:0:
230,7,12808,1,0,0:0:0:0:
409,214,13038,6,0,L|308:214,2,87.5,2|0|0,0:0|0:0|0:0,0:0:0:0:
318,279,13385,2,0,L|138:278,1,175,0|0,0:0|0:0,0:0:0:0:
232,209,13731,2,0,L|343:205,1,87.5,0|0,0:0|0:0,0:0:0:0:
204,150,13962,6,0,L|78:158,1,87.5,0|0,0:0|0:0,0:0:0:0:
275,77,14308,1,0,0:0:0:0:
99,330,14538,2,0,L|90:228,1,87.5,0|0,0:0|0:0,0:0:0:0:
180,216,14769,1,0,0:0:0:0:
288,162,14885,6,0,L|194:162,3,87.5,2|0|0|0,0:0|0:0|0:0|0:0,0:0:0:0:
401,95,15462,2,0,L|293:93,1,87.5,0|0,0:0|0:0,0:0:0:0:
219,89,15692,1,0,0:0:0:0:
329,169,15808,6,0,L|434:171,2,87.5,0|0|0,0:0|0:0|0:0,0:0:0:0:
237,241,16154,2,0,L|445:245,1,175,0|0,0:0|0:0,0:0:0:0:
329,255,16500,1,0,0:0:0:0:
154,319,16731,5,2,0:0:0:0:
250,296,16846,2,0,L|244:192,1,87.5,0|0,0:0|0:0,0:0:0:0:
142,216,17077,1,0,0:0:0:0:
331,118,17307,1,0,0:0:0:0:
417,122,17423,2,0,L|419:217,1,87.5,0|0,0:0|0:0,0:0:0:0:
316,292,17769,6,0,L|217:292,2,87.5,0|0|0,0:0|0:0|0:0,0:0:0:0:
199,234,18115,2,0,L|93:235,1,87.5,0|0,0:0|0:0,0:0:0:0:
236,161,18346,2,0,L|339:158,1,87.5,0|0,0:0|0:0,0:0:0:0:
127,308,18577,5,2,0:0:0:0:
16,285,18692,2,0,L|16:174,1,87.5,0|0,0:0|0:0,0:0:0:0:
113,185,18923,1,0,0:0:0:0:
284,172,19154,1,0,0:0:0:0:
73,110,19269,2,0,L|184:106,1,87.5,0|0,0:0|0:0,0:0:0:0:
355,178,19615,5,0,0:0:0:0:
158,273,19730,2,0,L|71:276,1,87.5,0|0,0:0|0:0,0:0:0:0:
255,234,19961,2,0,L|364:236,1,87.5,0|0,0:0|0:0,0:0:0:0:
211,170,20192,2,0,L|103:170,1,87.5,0|0,0:0|0:0,0:0:0:0:
480,336,20423,5,4,0:0:0:0:
480,248,20538,1,0,0:0:0:0:
393,247,20653,1,0,0:0:0:0:
379,332,20769,1,0,0:0:0:0:
291,332,20884,1,0,0:0:0:0:
276,249,20999,1,0,0:0:0:0:
188,248,21115,1,0,0:0:0:0:
153,328,21230,1,0,0:0:0:0:
480,336,21346,5,0,0:0:0:0:
480,248,21461,1,0,0:0:0:0:
393,247,21576,1,0,0:0:0:0:
379,332,21692,1,0,0:0:0:0:
291,332,21807,1,0,0:0:0:0:
276,249,21922,1,0,0:0:0:0:
188,248,22038,1,0,0:0:0:0:
153,328,22153,1,0,0:0:0:0:
480,336,22269,6,0,B|480:248|480:248|392:247|392:247|380:332|380:332|291:333|291:333|279:250|279:250|189:248|189:248|149:337,1,612.5,0|0,0:0|0:0,0:0:0:0:
480,336,23192,6,0,B|480:248|480:248|392:247|392:247|380:332|380:332|291:333|291:333|279:250|279:250|189:248|189:248|149:337,1,612.5,0|0,0:0|0:0,0:0:0:0:
480,336,24115,5,4,0:0:0:0:
480,248,24230,1,0,0:0:0:0:
393,247,24345,1,0,0:0:0:0:
379,332,24461,1,0,0:0:0:0:
480,336,24577,5,0,0:0:0:0:
480,248,24692,1,0,0:0:0:0:
393,247,24807,1,0,0:0:0:0:
480,336,24923,5,4,0:0:0:0:
480,248,25038,1,0,0:0:0:0:
393,247,25153,1,0,0:0:0:0:
379,332,25269,1,0,0:0:0:0:
291,332,25384,1,0,0:0:0:0:
276,249,25499,1,0,0:0:0:0:
188,248,25615,1,0,0:0:0:0:
153,328,25730,1,0,0:0:0:0:
64,330,25846,1,0,0:0:0:0:
480,336,25962,6,0,B|480:248|480:248|392:247|392:247|380:332|380:332|291:333|291:333|279:250|279:250|189:248|189:248|149:337,1,612.5,0|0,0:0|0:0,0:0:0:0:
480,336,26885,6,0,B|480:248|480:248|392:247|392:247|380:332|380:332|291:333|291:333|279:250|279:250|189:248|189:248|149:337,1,612.5,0|0,0:0|0:0,0:0:0:0:
480,336,27808,6,0,L|479:63,1,262.5,2|0,0:0|0:0,0:0:0:0:
344,78,28269,2,0,L|156:79,1,175,0|0,0:0|0:0,0:0:0:0:
31,370,28615,6,0,B|34:18|34:18|33:134,1,437.5,0|0,0:0|0:0,0:0:0:0:
256,192,31500,5,2,0:0:0:0:
256,192,31962,5,0,0:0:0:0:
256,16,32308,2,0,B|256:384|256:384|256:48,1,700,0|0,0:0|0:0,0:0:0:0:
256,192,33346,12,0,34269,0:0:0:0:
369,292,34731,6,0,L|489:291,1,87.5,2|0,0:0|0:0,0:0:0:0:
267,206,34962,2,0,L|377:204,1,87.5,2|0,0:0|0:0,0:0:0:0:
89,325,35192,6,0,P|40:275|112:197,1,175,2|0,0:0|0:0,0:0:0:0:
171,192,35538,1,0,0:0:0:0:
286,154,35654,1,2,0:0:0:0:
196,217,35769,2,0,P|147:167|219:89,1,175,0|2,0:0|0:0,0:0:0:0:
374,185,36231,2,0,P|423:135|351:57,1,175,0|2,0:0|0:0,0:0:0:0:
196,217,36692,2,0,P|147:167|219:89,1,175,2|0,0:0|0:0,0:0:0:0:
423,325,37038,6,0,P|472:275|400:197,1,175,2|0,0:0|0:0,0:0:0:0:
341,192,37384,1,0,0:0:0:0:
465,141,37500,1,2,0:0:0:0:
373,140,37615,2,0,P|324:90|396:12,1,175,0|2,0:0|0:0,0:0:0:0:
243,71,38077,2,0,L|148:72,2,87.5,0|0|2,0:0|0:0|0:0,0:0:0:0:
261,169,38423,1,0,0:0:0:0:
284,271,38538,2,0,L|379:272,2,87.5,2|0|0,0:0|0:0|0:0,0:0:0:0:
52,335,38885,6,0,P|84:251|178:226,1,175,2|0,0:0|0:0,0:0:0:0:
251,227,39231,1,0,0:0:0:0:
130,146,39346,1,2,0:0:0:0:
227,145,39462,2,0,P|305:113|333:33,1,175,0|2,0:0|0:0,0:0:0:0:
135,230,39923,2,0,P|57:198|29:118,1,175,0|2,0:0|0:0,0:0:0:0:
218,141,40385,2,0,P|190:60|112:28,1,175,2|0,0:0|0:0,0:0:0:0:
371,154,40731,6,0,P|449:185|477:265,1,175,2|0,0:0|0:0,0:0:0:0:
390,289,41077,1,0,0:0:0:0:
276,301,41192,1,2,0:0:0:0:
360,277,41308,2,0,P|331:196|253:165,1,175,0|0,0:0|0:0,0:0:0:0:
93,165,41769,5,2,0:0:0:0:
195,168,41885,2,0,L|202:226,2,43.75,8|0|0,0:0|0:0|0:0,0:0:0:0:
93,165,42115,1,2,0:0:0:0:
207,118,42231,2,0,L|316:116,2,87.5,0|8|0,0:0|0:0|0:0,0:0:0:0:
418,316,42577,5,2,0:0:0:0:
243,286,42692,2,0,L|234:179,1,87.5,2|0,0:0|0:0,0:0:0:0:
109,184,42923,1,8,0:0:0:0:
201,163,43038,2,0,L|205:68,1,87.5,2|0,0:0|0:0,0:0:0:0:
483,227,43269,5,2,0:0:0:0:
308,159,43385,2,0,L|396:158,1,87.5,2|0,0:0|0:0,0:0:0:0:
218,160,43615,1,2,0:0:0:0:
398,94,43731,2,0,L|399:201,1,87.5,8|0,0:0|0:0,0:0:0:0:
172,235,43962,5,2,0:0:0:0:
397,295,44077,2,0,L|505:294,1,87.5,2|8,0:0|0:0,0:0:0:0:
94,316,44423,5,2,0:0:0:0:
269,286,44538,2,0,L|278:179,1,87.5,2|0,0:0|0:0,0:0:0:0:
403,184,44769,1,8,0:0:0:0:
311,163,44884,2,0,L|307:68,1,87.5,2|0,0:0|0:0,0:0:0:0:
29,227,45115,5,2,0:0:0:0:
204,159,45231,2,0,L|116:158,1,87.5,2|0,0:0|0:0,0:0:0:0:
294,160,45461,1,2,0:0:0:0:
113,91,45577,2,0,L|201:90,1,87.5,8|0,0:0|0:0,0:0:0:0:
438,212,45808,5,2,0:0:0:0:
244,292,45923,2,0,L|239:190,1,87.5,2|8,0:0|0:0,0:0:0:0:
429,299,46154,1,0,0:0:0:0:
191,205,46269,6,0,L|97:205,1,87.5,2|0,0:0|0:0,0:0:0:0:
321,205,46500,2,0,L|415:205,1,87.5,2|0,0:0|0:0,0:0:0:0:
82,113,46731,2,0,L|200:113,1,87.5,2|0,0:0|0:0,0:0:0:0:
430,113,46962,2,0,L|312:113,1,87.5,2|0,0:0|0:0,0:0:0:0:
113,312,47192,5,2,0:0:0:0:
77,289,47249,1,0,0:0:0:0:
73,247,47307,1,0,0:0:0:0:
105,220,47365,1,0,0:0:0:0:
298,191,47423,2,0,L|360:190,1,43.75,2|0,0:0|0:0,0:0:0:0:
214,191,47538,2,0,L|152:190,1,43.75,0|0,0:0|0:0,0:0:0:0:
435,269,47654,5,2,0:0:0:0:
471,246,47711,1,0,0:0:0:0:
475,204,47769,1,2,0:0:0:0:
443,177,47827,1,0,0:0:0:0:
134,147,47885,2,0,L|178:148,1,43.75,2|0,0:0|0:0,0:0:0:0:
377,147,48000,2,0,L|334:148,1,43.75,2|2,0:0|0:0,0:0:0:0:
101,230,48115,5,2,0:0:0:0:
323,336,48231,2,0,B|411:337|411:337|323:336|323:336|410:337|410:337|323:338|323:338,1,350,0|2,0:0|0:0,0:0:0:0:
200,315,48808,1,0,0:0:0:0:
328,278,48923,1,0,0:0:0:0:
85,258,49038,6,0,L|98:192,3,43.75,2|0|0|0,0:0|0:0|0:0|0:0,0:0:0:0:
164,194,49269,2,0,L|218:193,1,43.75,8|0,0:0|0:0,0:0:0:0:
282,191,49385,2,0,L|295:125,1,43.75,0|0,0:0|0:0,0:0:0:0:
475,186,49500,6,0,L|462:120,3,43.75,2|0|2|0,0:0|0:0|0:0|0:0,0:0:0:0:
396,122,49731,2,0,L|342:121,1,43.75,8|0,0:0|0:0,0:0:0:0:
200,117,49847,2,0,L|187:51,1,43.75,0|0,0:0|0:0,0:0:0:0:
417,342,49962,5,2,0:0:0:0:
207,324,50077,2,0,L|197:202,1,104.999996795654,0|8,0:0|0:0,0:0:0:0:
399,175,50308,1,0,0:0:0:0:
122,104,50423,6,0,L|3:107,1,104.999996795654,0|2,0:0|0:0,0:0:0:0:
243,128,50654,2,0,L|299:126,1,52.4999983978272,8|0,0:0|0:0,0:0:0:0:
463,117,50769,1,0,0:0:0:0:
271,228,50885,6,0,L|133:232,1,104.999996795654,2|0,0:0|0:0,0:0:0:0:
216,228,51058,1,0,0:0:0:0:
58,239,51115,2,0,L|50:99,1,104.999996795654,8|0,0:0|0:0,0:0:0:0:
283,128,51346,2,0,L|288:199,1,52.4999983978272,2|0,0:0|0:0,0:0:0:0:
449,130,51462,2,0,L|455:261,1,104.999996795654,2|8,0:0|0:0,0:0:0:0:
240,286,51692,1,0,0:0:0:0:
456,351,51808,6,0,L|321:356,1,104.999996795654,2|0,0:0|0:0,0:0:0:0:
114,323,52038,1,8,0:0:0:0:
316,250,52154,1,0,0:0:0:0:
44,220,52269,6,0,L|36:91,1,104.999996795654,0|2,0:0|0:0,0:0:0:0:
262,95,52500,2,0,L|198:95,1,52.4999983978272,8|0,0:0|0:0,0:0:0:0:
32,103,52615,1,0,0:0:0:0:
284,186,52731,6,0,L|411:184,1,104.999996795654,2|0,0:0|0:0,0:0:0:0:
340,187,52904,1,0,0:0:0:0:
195,279,52962,1,8,0:0:0:0:
429,329,53077,1,0,0:0:0:0:
151,353,53192,6,0,L|78:354,1,52.4999983978272,2|0,0:0|0:0,0:0:0:0:
293,226,53308,2,0,L|337:211,2,26.2499991989136,2|0|0,0:0|0:0|0:0,0:0:0:0:
123,167,53423,2,0,L|102:163,4,13.1249995994568,8|0|0|0|0,0:0|0:0|0:0|0:0|0:0,0:0:0:0:
271,121,53538,2,0,L|292:117,4,13.1249995994568,0|0|0|0|0,0:0|0:0|0:0|0:0|0:0,0:0:0:0:
75,309,53654,5,2,0:0:0:0:
287,291,53769,2,0,L|427:291,1,104.999996795654,0|8,0:0|0:0,0:0:0:0:
160,317,54000,1,0,0:0:0:0:
413,234,54115,6,0,L|418:110,1,104.999996795654,0|2,0:0|0:0,0:0:0:0:
184,107,54346,2,0,L|182:177,1,52.4999983978272,8|0,0:0|0:0,0:0:0:0:
338,178,54462,1,0,0:0:0:0:
134,268,54577,6,0,L|10:266,1,104.999996795654,2|0,0:0|0:0,0:0:0:0:
80,266,54750,1,0,0:0:0:0:
289,216,54808,2,0,L|170:211,1,104.999996795654,8|0,0:0|0:0,0:0:0:0:
438,177,55038,2,0,L|440:90,1,52.4999983978272,0|0,0:0|0:0,0:0:0:0:
267,147,55154,2,0,L|264:18,1,104.999996795654,2|8,0:0|0:0,0:0:0:0:
460,33,55385,1,0,0:0:0:0:
233,298,55500,5,2,0:0:0:0:
43,274,55615,1,4,0:2:0:0:
99,256,55673,1,0,0:0:0:0:
265,213,55731,1,8,0:0:0:0:
209,195,55789,1,0,0:0:0:0:
265,213,55846,1,0,0:0:0:0:
473,179,55962,5,4,0:2:0:0:
417,161,56020,1,0,0:0:0:0:
251,118,56078,1,0,0:0:0:0:
307,100,56136,1,0,0:0:0:0:
251,118,56193,1,8,0:0:0:0:
37,155,56308,1,0,0:0:0:0:
267,349,56423,6,0,L|265:225,1,104.999996795654,4|0,0:2|0:0,0:0:0:0:
497,352,56654,2,0,L|494:247,1,104.999996795654,8|0,0:0|0:0,0:0:0:0:
267,354,56885,2,0,L|266:194,1,157.499995193482,4|0,0:2|0:0,0:0:0:0:
472,70,57115,2,0,L|485:96,6,26.2499991989136,8|0|0|0|0|0|0,0:0|0:0|0:0|0:0|0:0|0:0|0:0,0:0:0:0:
272,334,57346,5,2,0:0:0:0:
66,317,57462,2,0,L|62:170,1,104.999996795654,0|8,0:0|0:0,0:0:0:0:
265,187,57692,1,0,0:0:0:0:
483,146,57808,2,0,L|362:147,1,104.999996795654,0|2,0:0|0:0,0:0:0:0:
124,224,58038,2,0,L|224:222,1,52.4999983978272,8|0,0:0|0:0,0:0:0:0:
354,220,58154,1,0,0:0:0:0:
107,161,58269,6,0,L|99:18,1,104.999996795654,2|0,0:0|0:0,0:0:0:0:
160,52,58442,1,0,0:0:0:0:
333,124,58500,2,0,L|341:-19,1,104.999996795654,8|0,0:0|0:0,0:0:0:0:
105,270,58731,2,0,L|167:268,1,52.4999983978272,4|0,0:2|0:0,0:0:0:0:
289,268,58846,2,0,L|351:266,1,52.4999983978272,2|0,0:0|0:0,0:0:0:0:
148,357,58962,2,0,P|102:307|179:256,1,157.499995193482,8|0,0:0|0:0,0:0:0:0:
341,223,59192,6,0,L|477:224,1,104.999996795654,2|0,0:0|0:0,0:0:0:0:
244,156,59423,1,8,0:0:0:0:
459,86,59538,1,0,0:0:0:0:
242,349,59654,2,0,L|241:217,1,104.999996795654,0|2,0:0|0:0,0:0:0:0:
13,196,59885,2,0,L|74:192,1,52.4999983978272,8|0,0:0|0:0,0:0:0:0:
238,161,60000,1,0,0:0:0:0:
64,114,60115,6,0,L|4:115,1,52.4999983978272,2|0,0:0|0:0,0:0:0:0:
238,81,60231,1,0,0:0:0:0:
499,196,60346,2,0,L|438:192,1,52.4999983978272,8|0,0:0|0:0,0:0:0:0:
274,161,60461,1,0,0:0:0:0:
73,307,60577,2,0,L|-11:309,3,52.4999983978272,4|0|0|0,0:2|0:0|0:0|0:0,0:0:0:0:
202,208,60808,2,0,L|286:210,3,52.4999983978272,4|0|0|0,0:2|0:0|0:0|0:0,0:0:0:0:
455,316,61038,6,0,L|455:245,1,52.4999983978272,2|0,0:0|0:0,0:0:0:0:
256,253,61154,1,0,0:0:0:0:
461,190,61269,2,0,L|462:63,1,104.999996795654,8|0,0:0|0:0,0:0:0:0:
255,63,61500,1,0,0:0:0:0:
458,60,61615,1,2,0:0:0:0:
213,203,61731,2,0,L|186:202,1,26.2499991989136,4|0,0:2|0:0,0:0:0:0:
200,303,61846,2,0,L|169:302,1,26.2499991989136,4|0,0:2|0:0,0:0:0:0:
368,339,61962,5,2,0:0:0:0:
153,273,62077,2,0,L|77:271,1,52.4999983978272,0|0,0:0|0:0,0:0:0:0:
271,214,62192,1,8,0:0:0:0:
491,198,62308,1,0,0:0:0:0:
432,192,62365,1,0,0:0:0:0:
216,87,62423,6,0,P|157:114|129:198,1,157.499995193482,4|0,0:2|0:0,0:0:0:0:
284,189,62654,2,0,P|333:250|274:288,1,157.499995193482,8|0,0:0|0:0,0:0:0:0:
128,227,62885,5,2,0:0:0:0:
391,215,63000,1,2,0:0:0:0:
126,343,63115,2,0,P|77:306|132:250,1,157.499995193482,8|0,0:0|0:0,0:0:0:0:
309,255,63346,2,0,L|245:254,1,52.4999983978272,2|0,0:0|0:0,0:0:0:0:
431,216,63462,2,0,L|495:215,1,52.4999983978272,2|0,0:0|0:0,0:0:0:0:
300,164,63577,2,0,P|247:111|309:69,1,157.499995193482,8|0,0:0|0:0,0:0:0:0:
469,285,63808,6,0,B|470:181|470:181|365:182|365:182|365:74,1,314.999990386963,4|0,0:2|0:0,0:0:0:0:
480,65,64269,1,2,0:0:0:0:
242,67,64385,2,0,L|134:71,2,104.999996795654,0|8|0,0:0|0:0|0:0,0:0:0:0:
491,295,64731,5,2,0:0:0:0:
256,160,64846,1,0,0:0:0:0:
491,147,64962,1,8,0:0:0:0:
390,121,65077,1,0,0:0:0:0:
138,142,65192,1,2,0:0:0:0:
239,116,65307,1,2,0:0:0:0:
488,262,65423,6,0,B|2:43,2,507.500015487671,8|2|8,0:0|0:0|0:0,0:0:0:0:
390,121,66000,1,2,0:0:0:0:
488,262,66115,6,0,B|2:43,1,507.500015487671,2|8,0:0|0:0,0:0:0:0:
125,103,66461,1,2,0:0:0:0:
21,295,66577,5,2,0:0:0:0:
256,160,66692,1,0,0:0:0:0:
21,147,66808,1,8,0:0:0:0:
122,121,66923,1,0,0:0:0:0:
374,142,67038,1,2,0:0:0:0:
273,116,67153,1,2,0:0:0:0:
24,262,67269,6,0,B|510:43,2,507.500015487671,8|2|8,0:0|0:0|0:0,0:0:0:0:
122,121,67846,1,2,0:0:0:0:
363,287,67962,6,0,L|368:127,1,157.499995193482,4|0,0:2|0:0,0:0:0:0:
149,288,68192,2,0,L|144:128,1,157.499995193482,8|0,0:0|0:0,0:0:0:0:
318,101,68423,5,2,0:0:0:0:
422,120,68538,1,0,0:0:0:0:
422,220,68654,1,0,0:0:0:0:
422,324,68769,1,0,0:0:0:0:
198,339,68885,1,8,0:0:0:0:
422,356,69000,1,0,0:0:0:0:
330,334,69115,1,0,0:0:0:0:
237,313,69231,1,0,0:0:0:0:
32,285,69346,6,0,L|154:280,1,104.999996795654,2|0,0:0|0:0,0:0:0:0:
365,254,69577,1,8,0:0:0:0:
35,187,69808,2,0,L|157:187,2,104.999996795654,2|0|0,0:0|0:0|0:0,0:0:0:0:
147,120,70154,1,0,0:0:0:0:
354,286,70269,6,0,L|363:162,1,104.999996795654,2|0,0:0|0:0,0:0:0:0:
158,286,70500,2,0,L|149:162,1,104.999996795654,8|0,0:0|0:0,0:0:0:0:
417,105,70731,2,0,L|306:106,1,104.999996795654,0|2,0:0|0:0,0:0:0:0:
95,105,70962,2,0,L|206:106,1,104.999996795654,8|0,0:0|0:0,0:0:0:0:
429,256,71192,5,2,0:0:0:0:
256,192,71308,1,0,0:0:0:0:
83,256,71423,1,8,0:0:0:0:
282,344,71654,2,0,B|371:287|371:287|324:177,2,209.999993591309,4|0|2,0:2|0:0|0:0,0:0:0:0:
39,297,72231,5,0,0:0:0:0:
283,266,72346,1,8,0:0:0:0:
389,237,72462,1,0,0:0:0:0:
152,177,72577,1,2,0:0:0:0:
256,151,72693,1,2,0:0:0:0:
488,262,72808,6,0,B|2:43,2,507.500015487671,8|2|8,0:0|0:0|0:0,0:0:0:0:
375,218,73385,1,2,0:0:0:0:
488,262,73500,2,0,B|2:43,1,507.500015487671,2|8,0:0|0:0,0:0:0:0:
133,162,73846,1,0,0:0:0:0:
241,346,73962,5,2,0:0:0:0:
473,297,74077,5,0,0:0:0:0:
229,266,74192,1,8,0:0:0:0:
123,237,74308,1,0,0:0:0:0:
360,177,74423,1,2,0:0:0:0:
256,151,74539,1,2,0:0:0:0:
24,262,74654,6,0,B|510:43,2,507.500015487671,8|2|8,0:0|0:0|0:0,0:0:0:0:
132,212,75231,1,2,0:0:0:0:
363,283,75346,6,0,L|370:111,1,157.499995193482,8|0,0:0|0:0,0:0:0:0:
224,144,75577,2,0,L|162:149,3,52.4999983978272
367,70,75808,6,0,L|490:66,1,104.999996795654,2|0,0:0|0:0,0:0:0:0:
291,155,76038,2,0,L|168:151,1,104.999996795654,8|0,0:0|0:0,0:0:0:0:
471,256,76269,1,2,0:0:0:0:
206,310,76385,2,0,L|201:175,1,104.999996795654,8|0,0:0|0:0,0:0:0:0:
467,120,76615,1,2,0:0:0:0:
195,114,76731,6,0,L|62:117,1,104.999996795654,8|0,0:0|0:0,0:0:0:0:
316,199,76962,1,2,0:0:0:0:
89,290,77077,2,0,L|239:289,1,104.999996795654,8|0,0:0|0:0,0:0:0:0:
423,290,77308,2,0,L|273:289,2,104.999996795654,8|0|2,0:0|0:0|0:0,0:0:0:0:
473,288,77596,1,0,0:0:0:0:
296,194,77654,6,0,L|168:197,1,104.999996795654,0|8,0:0|0:0,0:0:0:0:
432,109,77885,1,2,0:0:0:0:
216,194,78000,2,0,L|344:197,1,104.999996795654,0|8,0:0|0:0,0:0:0:0:
80,109,78231,1,2,0:0:0:0:
296,194,78346,2,0,L|168:197,1,104.999996795654,0|8,0:0|0:0,0:0:0:0:
457,348,78577,5,2,0:0:0:0:
434,300,78634,1,0,0:0:0:0:
455,345,78692,1,0,0:0:0:0:
435,303,78750,1,0,0:0:0:0:
454,341,78807,1,0,0:0:0:0:
342,353,78923,1,0,0:0:0:0:
99,313,79038,5,2,0:0:0:0:
304,245,79154,1,0,0:0:0:0:
206,236,79269,2,0,P|182:161|221:79,1,157.499995193482,8|0,0:0|0:0,0:0:0:0:
481,94,79500,5,2,0:0:0:0:
256,192,79615,12,0,82269,0:0:0:0:
258,275,82500,6,0,L|252:220,2,43.75,0|0|0,0:0|0:0|0:0,0:0:0:0:
360,269,82731,2,0,L|365:174,1,87.5,0|0,0:0|0:0,0:0:0:0:
261,129,82962,1,0,0:0:0:0:
363,107,83077,1,0,0:0:0:0:
124,342,83192,6,0,L|121:150,1,175,2|0,0:0|0:0,0:0:0:0:
12,137,83538,1,0,0:0:0:0:
122,113,83654,1,0,0:0:0:0:
160,217,83769,1,0,0:0:0:0:
122,113,83885,1,0,0:0:0:0:
12,137,84001,1,0,0:0:0:0:
388,342,84115,6,0,L|391:150,1,175,2|0,0:0|0:0,0:0:0:0:
500,137,84461,1,0,0:0:0:0:
390,113,84577,1,0,0:0:0:0:
352,217,84692,1,0,0:0:0:0:
390,113,84808,1,0,0:0:0:0:
500,137,84924,1,0,0:0:0:0:
302,315,85038,6,0,L|301:256,1,43.75,2|0,0:0|0:0,0:0:0:0:
437,284,85154,2,0,L|438:176,1,87.5,0|2,0:0|0:0,0:0:0:0:
210,315,85385,2,0,L|211:256,1,43.75,2|0,0:0|0:0,0:0:0:0:
75,284,85501,2,0,L|74:176,1,87.5,0|2,0:0|0:0,0:0:0:0:
315,155,85731,2,0,L|373:152,1,43.75,2|0,0:0|0:0,0:0:0:0:
197,155,85846,2,0,L|139:152,1,43.75,0|0,0:0|0:0,0:0:0:0:
349,256,85962,6,0,L|441:254,1,87.5,2|0,0:0|0:0,0:0:0:0:
217,314,86192,2,0,L|214:154,1,131.25,8|0,0:0|0:0,0:0:0:0:
295,314,86423,2,0,L|298:154,1,131.25,2|0,0:0|0:0,0:0:0:0:
92,214,86654,2,0,P|51:169|119:139,1,131.25,2|0,0:0|0:0,0:0:0:0:
315,120,86885,6,0,L|452:115,1,104.999996795654,2|0,0:0|0:0,0:0:0:0:
197,120,87115,2,0,L|60:115,1,104.999996795654,8|0,0:0|0:0,0:0:0:0:
335,214,87346,5,0,0:0:0:0:
89,292,87462,1,2,0:0:0:0:
198,281,87577,2,0,L|201:170,1,104.999996795654,8|0,0:0|0:0,0:0:0:0:
443,283,87808,6,0,L|316:283,1,104.999996795654,2|0,0:0|0:0,0:0:0:0:
127,243,88038,1,8,0:0:0:0:
328,203,88154,1,0,0:0:0:0:
125,168,88269,2,0,L|127:55,1,104.999996795654,4|4,0:2|0:2,0:0:0:0:
331,123,88500,2,0,L|329:7,1,104.999996795654,8|0,0:0|0:0,0:0:0:0:
29,269,88731,6,0,L|24:122,1,104.999996795654,2|0,0:0|0:0,0:0:0:0:
250,245,88962,2,0,L|255:98,1,104.999996795654,8|0,0:0|0:0,0:0:0:0:
493,142,89192,1,0,0:0:0:0:
251,68,89308,1,2,0:0:0:0:
361,122,89423,2,0,L|364:235,1,104.999996795654,8|0,0:0|0:0,0:0:0:0:
110,314,89654,6,0,L|24:316,2,52.4999983978272,2|0|0,0:0|0:0|0:0,0:0:0:0:
320,262,89885,2,0,L|256:263,1,52.4999983978272,8|0,0:0|0:0,0:0:0:0:
57,215,90000,2,0,L|120:215,1,52.4999983978272,0|0,0:0|0:0,0:0:0:0:
291,192,90115,6,0,L|297:112,1,52.4999983978272,2|0,0:0|0:0,0:0:0:0:
448,137,90231,2,0,L|454:57,1,52.4999983978272,2|0,0:0|0:0,0:0:0:0:
268,134,90346,2,0,L|262:54,1,52.4999983978272,8|0,0:0|0:0,0:0:0:0:
111,79,90462,2,0,L|105:-1,1,52.4999983978272,0|0,0:0|0:0,0:0:0:0:
322,223,90577,6,0,L|391:227,2,52.4999983978272,2|0|0,0:0|0:0|0:0,0:0:0:0:
84,266,90808,2,0,L|211:265,1,104.999996795654,8|0,0:0|0:0,0:0:0:0:
402,224,91038,1,0,0:0:0:0:
188,163,91154,1,2,0:0:0:0:
300,133,91269,2,0,L|297:16,1,104.999996795654,8|0,0:0|0:0,0:0:0:0:
44,298,91500,6,0,L|176:299,1,104.999996795654,2|0,0:0|0:0,0:0:0:0:
344,258,91731,1,8,0:0:0:0:
156,201,91846,1,0,0:0:0:0:
344,133,91962,2,0,L|456:133,1,104.999996795654,2|2,0:0|0:0,0:0:0:0:
212,74,92192,2,0,L|337:73,1,104.999996795654,8|0,0:0|0:0,0:0:0:0:
55,324,92423,6,0,L|49:193,1,104.999996795654,2|0,0:0|0:0,0:0:0:0:
276,171,92654,2,0,L|145:179,1,104.999996795654,8|0,0:0|0:0,0:0:0:0:
420,316,92885,6,0,L|475:318,3,52.4999983978272,4|0|0|0,0:2|0:0|0:0|0:0,0:0:0:0:
267,263,93115,2,0,L|212:265,3,52.4999983978272,8|0|0|0,0:0|0:0|0:0|0:0,0:0:0:0:
428,225,93346,6,0,L|431:95,1,104.999996795654,2|0,0:0|0:0,0:0:0:0:
233,152,93519,2,0,L|230:22,1,104.999996795654,2|0,0:0|0:0,0:0:0:0:
51,203,93692,1,8,0:0:0:0:
282,293,93808,6,0,B|386:292|386:292|281:290|281:290|392:289,1,314.999990386963,2|0,0:0|0:0,0:0:0:0:
36,200,94269,5,2,0:0:0:0:
142,182,94385,1,4,0:2:0:0:
244,174,94399,1,0,0:0:0:0:
476,200,94500,1,0,0:0:0:0:
370,182,94616,1,4,0:2:0:0:
268,174,94630,1,0,0:0:0:0:
36,200,94731,5,0,0:0:0:0:
142,182,94847,1,4,0:2:0:0:
244,174,94861,1,0,0:0:0:0:
476,200,94962,1,0,0:0:0:0:
370,182,95078,1,4,0:2:0:0:
268,174,95092,1,0,0:0:0:0:
41,337,95192,5,0,0:0:0:0:
53,190,95308,1,4,0:2:0:0:
198,166,95322,1,0,0:0:0:0:
414,234,95423,1,0,0:0:0:0:
402,87,95539,1,4,0:2:0:0:
257,63,95553,1,0,0:0:0:0:
49,72,95654,6,0,L|159:72,2,104.999996795654,2|2|8,0:0|0:0|0:0,0:0:0:0:
246,147,96000,2,0,L|327:148,1,52.4999983978272,0|0,0:0|0:0,0:0:0:0:
476,200,96115,5,2,0:0:0:0:
370,182,96231,1,4,0:2:0:0:
268,174,96245,1,0,0:0:0:0:
36,200,96346,1,0,0:0:0:0:
142,182,96462,1,4,0:2:0:0:
244,174,96476,1,0,0:0:0:0:
476,200,96577,5,0,0:0:0:0:
370,182,96693,1,4,0:2:0:0:
268,174,96707,1,0,0:0:0:0:
36,200,96808,1,0,0:0:0:0:
142,182,96924,1,4,0:2:0:0:
244,174,96938,1,0,0:0:0:0:
471,337,97038,5,0,0:0:0:0:
493,264,97096,1,0,0:0:0:0:
459,190,97154,1,4,0:2:0:0:
314,166,97168,1,0,0:0:0:0:
98,234,97269,1,0,0:0:0:0:
110,87,97385,1,4,0:2:0:0:
255,63,97399,1,0,0:0:0:0:
469,270,97500,6,0,B|361:271|361:271|423:268,1,157.499995193482,2|2,0:0|0:0,0:0:0:0:
240,268,97731,2,0,L|232:130,1,104.999996795654,8|0,0:0|0:0,0:0:0:0:
473,334,97962,6,0,B|418:8|418:8|382:334|382:334|374:294|374:294|257:293,1,787.5,2|0,0:0|0:0,0:0:0:0:
39,334,98192,2,0,B|94:8|94:8|130:334|130:334|138:294|138:294|255:293,1,787.5,0|0,0:0|0:0,0:0:0:0:
473,334,98423,6,0,B|418:8|418:8|382:334|382:334|374:294|374:294|257:293,1,787.5,0|0,0:0|0:0,0:0:0:0:
27,181,98654,2,0,L|105:179,1,52.4999983978272,2|0,0:0|0:0,0:0:0:0:
251,161,98769,2,0,L|167:159,1,52.4999983978272,2|0,0:0|0:0,0:0:0:0:
39,334,98885,6,0,B|94:8|94:8|130:334|130:334|138:294|138:294|255:293,1,787.5,2|0,0:0|0:0,0:0:0:0:
473,334,99115,2,0,B|418:8|418:8|382:334|382:334|374:294|374:294|257:293,1,787.5,0|0,0:0|0:0,0:0:0:0:
39,334,99346,6,0,B|94:8|94:8|130:334|130:334|138:294|138:294|255:293,1,787.5,0|0,0:0|0:0,0:0:0:0:
482,203,99577,2,0,L|414:203,1,52.4999983978272,2|0,0:0|0:0,0:0:0:0:
247,188,99692,2,0,L|240:112,1,52.4999983978272,2|0,0:0|0:0,0:0:0:0:
483,126,99808,6,0,L|487:57,1,52.4999983978272,2|0,0:0|0:0,0:0:0:0:
332,120,99923,2,0,L|328:51,1,52.4999983978272,2|0,0:0|0:0,0:0:0:0:
183,67,100038,2,0,L|180:120,1,52.4999983978272,8|0,0:0|0:0,0:0:0:0:
255,117,100154,2,0,L|259:170,1,52.4999983978272,0|0,0:0|0:0,0:0:0:0:
29,126,100269,6,0,L|25:57,1,52.4999983978272,2|0,0:0|0:0,0:0:0:0:
180,120,100384,2,0,L|184:51,1,52.4999983978272,2|0,0:0|0:0,0:0:0:0:
338,228,100500,2,0,L|342:159,1,52.4999983978272,8|0,0:0|0:0,0:0:0:0:
187,222,100615,2,0,L|183:153,1,52.4999983978272,8|8,0:0|0:0,0:0:0:0:
357,354,100731,6,0,L|464:350,1,87.5,4|0,0:2|0:0,0:0:0:0:
338,309,100962,1,0,0:0:0:0:
241,297,101077,2,0,B|486:294|486:294|435:54|435:54|486:297|486:297|435:56|435:56|173:60,1,1224.99996261597,0|4,0:0|0:2,0:0:0:0:
244,211,101962,5,4,0:2:0:0:
302,211,102038,1,0,0:0:0:0:
360,212,102115,1,0,0:2:0:0:
374,343,102423,1,4,0:2:0:0:
316,343,102499,1,0,0:0:0:0:
258,344,102576,1,0,0:0:0:0:
27,263,102808,2,0,B|254:265|254:265|137:265|137:265|252:264|252:264|138:261,1,568.749973964692,4|0,0:2|0:0,0:0:0:0:
391,263,103500,5,4,0:2:0:0:
205,195,103808,2,0,L|113:198,2,58.3333333333333,4|0|0,0:2|0:0|0:0,0:0:0:0:
343,165,104269,2,0,L|401:166,2,58.3333333333333,4|0|0,0:2|0:0|0:0,0:0:0:0:
222,270,104654,1,2,0:0:0:0:
441,145,104885,1,8,0:0:0:0:
240,170,105000,1,0,0:0:0:0:
227,72,105115,1,8,0:0:0:0:
24,85,105231,1,0,0:0:0:0:
356,308,105346,6,0,L|425:310,2,52.4999983978272,2|0|0,0:0|0:0|0:0,0:0:0:0:
155,302,105577,2,0,L|148:193,1,69.9999978637696,0|0,0:0|0:0,0:0:0:0:
276,214,105692,1,8,0:0:0:0:
396,197,105731,2,0,L|403:88,1,69.9999978637696,0|2,0:0|0:0,0:0:0:0:
269,237,105865,1,0,0:0:0:0:
397,232,105923,1,0,0:0:0:0:
287,157,106038,1,2,0:0:0:0:
281,49,106115,1,0,0:0:0:0:
143,46,106154,2,0,L|97:49,2,34.9999989318848,8|0|0,0:0|0:0|0:0,0:0:0:0:
360,220,106269,5,2,0:0:0:0:
384,211,106297,1,0,0:0:0:0:
401,192,106326,1,0,0:0:0:0:
408,167,106355,1,0,0:0:0:0:
401,141,106384,1,0,0:0:0:0:
384,122,106413,1,0,0:0:0:0:
359,114,106442,1,0,0:0:0:0:
224,202,106500,6,0,L|217:93,1,69.9999978637696,0|0,0:0|0:0,0:0:0:0:
345,114,106615,1,8,0:0:0:0:
465,97,106654,2,0,L|472:-12,1,69.9999978637696,0|2,0:0|0:0,0:0:0:0:
212,54,106846,1,0,0:0:0:0:
412,272,106962,1,2,0:0:0:0:
445,247,106990,1,0,0:0:0:0:
412,272,107019,1,0,0:0:0:0:
257,308,107077,1,8,0:0:0:0:
101,330,107135,1,0,0:0:0:0:
265,261,107192,6,0,L|348:260,3,52.4999983978272,2|0|0|0,0:0|0:0|0:0|0:0,0:0:0:0:
150,205,107423,1,8,0:0:0:0:
18,160,107481,1,0,0:0:0:0:
150,205,107538,1,0,0:0:0:0:
282,160,107596,1,0,0:0:0:0:
124,67,107654,6,0,L|-7:69,1,104.999996795654,2|2,0:0|0:0,0:0:0:0:
73,67,107827,1,0,0:0:0:0:
236,71,107885,1,8,0:0:0:0:
158,145,108000,1,0,0:0:0:0:
309,202,108058,1,0,0:0:0:0:
159,262,108115,6,0,L|83:262,1,52.4999983978272,2|0,0:0|0:0,0:0:0:0:
263,207,108231,1,0,0:0:0:0:
492,137,108346,2,0,L|438:139,1,52.4999983978272,8|0,0:0|0:0,0:0:0:0:
224,126,108462,2,0,L|302:127,1,52.4999983978272,0|0,0:0|0:0,0:0:0:0:
492,218,108577,1,2,0:0:0:0:
281,232,108692,2,0,L|227:234,1,52.4999983978272,2|0,0:0|0:0,0:0:0:0:
13,221,108808,2,0,L|91:222,1,52.4999983978272,8|0,0:0|0:0,0:0:0:0:
281,313,108923,1,0,0:0:0:0:
36,349,109038,5,4,0:2:0:0:
246,169,109346,1,4,0:2:0:0:
187,169,109422,1,0,0:0:0:0:
129,169,109499,1,0,0:0:0:0:
122,331,109808,1,4,0:2:0:0:
180,331,109884,1,0,0:0:0:0:
238,331,109961,1,0,0:0:0:0:
398,232,110192,2,0,B|171:234|171:234|288:234|288:234|173:233|173:233|287:230,1,568.749973964692,0|0,0:0|0:0,0:0:0:0:
59,251,110884,5,4,0:2:0:0:
229,182,111192,2,0,L|314:179,2,75.833329861959,4|0|0,0:2|0:0|0:0,0:0:0:0:
422,98,111654,2,0,L|337:95,2,75.833329861959,4|0|0,0:2|0:0|0:0,0:0:0:0:
226,136,112038,1,2,0:0:0:0:
71,145,112269,1,8,0:0:0:0:
272,170,112384,1,0,0:0:0:0:
186,104,112499,1,8,0:0:0:0:
388,130,112615,1,0,0:0:0:0:
143,341,112731,6,0,L|116:341,2,26.2499991989136,2|0|0,0:0|0:0|0:0,0:0:0:0:
369,341,112846,2,0,L|396:341,2,26.2499991989136,0|0|0,0:0|0:0|0:0,0:0:0:0:
256,336,112933,1,0,0:0:0:0:
143,341,112962,2,0,L|116:341,2,26.2499991989136,8|0|0,0:0|0:0|0:0,0:0:0:0:
277,296,113038,2,0,L|282:221,1,69.9999978637696,4|4,0:2|0:2,0:0:0:0:
109,195,113192,6,0,L|12:192,1,52.4999983978272,2|0,0:0|0:0,0:0:0:0:
218,135,113308,2,0,L|295:132,1,52.4999983978272,0|0,0:0|0:0,0:0:0:0:
100,68,113423,2,0,B|30:68|30:68,1,69.9999978637696,8|0,0:0|0:0,0:0:0:0:
216,66,113577,2,0,L|273:66,1,34.9999989318848,0|0,0:0|0:0,0:0:0:0:
39,335,113654,6,0,L|31:235,1,69.9999978637696,2|0,0:0|0:0,0:0:0:0:
147,233,113769,1,0,0:0:0:0:
261,212,113808,2,0,L|269:112,1,69.9999978637696,4|0,0:2|0:0,0:0:0:0:
378,127,113923,1,0,0:0:0:0:
490,130,113962,2,0,L|498:30,1,69.9999978637696,8|0,0:0|0:0,0:0:0:0:
264,318,114115,6,0,L|256:218,1,69.9999978637696,4|0,0:2|0:0,0:0:0:0:
69,226,114269,2,0,L|61:126,1,69.9999978637696,4|0,0:2|0:0,0:0:0:0:
259,145,114423,2,0,L|267:45,1,69.9999978637696,8|0,0:0|0:0,0:0:0:0:
468,320,114577,6,0,L|470:242,1,52.4999983978272,2|0,0:0|0:0,0:0:0:0:
320,246,114692,2,0,L|318:207,1,26.2499991989136,0|0,0:0|0:0,0:0:0:0:
423,193,114750,2,0,L|425:154,1,26.2499991989136,0|0,0:0|0:0,0:0:0:0:
290,99,114808,2,0,L|127:104,1,104.999996795654,8|0,0:0|0:0,0:0:0:0:
379,189,115038,2,0,L|542:194,1,104.999996795654,4|2,0:2|0:0,0:0:0:0:
136,289,115269,1,8,0:0:0:0:
322,260,115346,1,4,0:2:0:0:
330,170,115423,1,4,0:2:0:0:
141,118,115500,5,2,0:0:0:0:
115,118,115529,2,0,L|159:119,3,26.2499991989136,0|0|0|0,0:0|0:0|0:0|0:0,0:0:0:0:
289,85,115673,1,0,0:0:0:0:
444,152,115731,2,0,B|471:155|471:155|445:154|445:154|471:154|471:154|444:154,1,104.999996795654,8|0,0:0|0:0,0:0:0:0:
287,159,115904,1,0,0:0:0:0:
31,310,115962,6,0,L|27:247,1,52.4999983978272,4|0,0:2|0:0,0:0:0:0:
177,269,116077,2,0,L|181:206,1,52.4999983978272,4|0,0:2|0:0,0:0:0:0:
331,216,116192,2,0,L|335:269,1,52.4999983978272,8|0,0:0|0:0,0:0:0:0:
484,257,116307,2,0,L|481:310,1,52.4999983978272,0|0,0:0|0:0,0:0:0:0:
243,350,116423,5,2,0:0:0:0:
256,192,116538,12,0,119192,0:0:0:0:
471,267,119654,5,2,0:0:0:0:
359,261,119769,1,0,0:0:0:0:
246,253,119885,1,2,0:0:0:0:
134,247,120000,1,0,0:0:0:0:
423,325,120115,6,0,P|472:275|400:197,1,175,2|0,0:0|0:0,0:0:0:0:
341,192,120461,1,0,0:0:0:0:
226,154,120577,1,2,0:0:0:0:
316,217,120692,2,0,P|365:167|293:89,1,175,0|2,0:0|0:0,0:0:0:0:
138,185,121154,2,0,P|89:135|161:57,1,175,0|2,0:0|0:0,0:0:0:0:
316,217,121615,2,0,P|365:167|293:89,1,175,2|0,0:0|0:0,0:0:0:0:
89,325,121961,6,0,P|40:275|112:197,1,175,2|0,0:0|0:0,0:0:0:0:
171,192,122307,1,0,0:0:0:0:
47,141,122423,1,2,0:0:0:0:
139,140,122538,2,0,P|188:90|116:12,1,175,0|2,0:0|0:0,0:0:0:0:
269,71,123000,2,0,L|364:72,2,87.5,0|0|2,0:0|0:0|0:0,0:0:0:0:
251,169,123346,1,0,0:0:0:0:
228,271,123461,2,0,L|133:272,2,87.5,2|0|0,0:0|0:0|0:0,0:0:0:0:
460,335,123808,6,0,P|428:251|334:226,1,175,2|0,0:0|0:0,0:0:0:0:
261,227,124154,1,0,0:0:0:0:
382,146,124269,1,2,0:0:0:0:
285,145,124385,2,0,P|207:113|179:33,1,175,0|2,0:0|0:0,0:0:0:0:
377,230,124846,2,0,P|455:198|483:118,1,175,0|2,0:0|0:0,0:0:0:0:
294,141,125308,2,0,P|322:60|400:28,1,175,2|0,0:0|0:0,0:0:0:0:
141,154,125654,6,0,P|63:185|35:265,1,175,2|0,0:0|0:0,0:0:0:0:
122,289,126000,1,0,0:0:0:0:
236,301,126115,1,2,0:0:0:0:
152,277,126231,2,0,P|181:196|259:165,1,175,0|0,0:0|0:0,0:0:0:0:
419,165,126692,5,2,0:0:0:0:
317,168,126808,2,0,L|310:226,2,43.75,8|0|0,0:0|0:0|0:0,0:0:0:0:
419,165,127038,1,2,0:0:0:0:
305,118,127154,2,0,L|196:116,2,87.5,0|8|0,0:0|0:0|0:0,0:0:0:0:
94,316,127500,5,2,0:0:0:0:
269,286,127615,2,0,L|278:179,1,87.5,2|0,0:0|0:0,0:0:0:0:
403,184,127846,1,8,0:0:0:0:
311,163,127961,2,0,L|307:68,1,87.5,2|0,0:0|0:0,0:0:0:0:
29,227,128192,5,2,0:0:0:0:
204,159,128308,2,0,L|116:158,1,87.5,2|0,0:0|0:0,0:0:0:0:
294,160,128538,1,2,0:0:0:0:
114,94,128654,2,0,L|113:201,1,87.5,8|0,0:0|0:0,0:0:0:0:
340,235,128885,5,2,0:0:0:0:
115,295,129000,2,0,L|7:294,1,87.5,2|8,0:0|0:0,0:0:0:0:
418,316,129346,5,2,0:0:0:0:
243,286,129461,2,0,L|234:179,1,87.5,2|0,0:0|0:0,0:0:0:0:
109,184,129692,1,8,0:0:0:0:
201,163,129807,2,0,L|205:68,1,87.5,2|0,0:0|0:0,0:0:0:0:
483,227,130038,5,2,0:0:0:0:
308,159,130154,2,0,L|396:158,1,87.5,2|0,0:0|0:0,0:0:0:0:
218,160,130384,1,2,0:0:0:0:
399,91,130500,2,0,L|311:90,1,87.5,8|0,0:0|0:0,0:0:0:0:
74,212,130731,5,2,0:0:0:0:
268,292,130846,2,0,L|273:190,1,87.5,2|8,0:0|0:0,0:0:0:0:
83,299,131077,1,0,0:0:0:0:
418,222,131192,6,0,L|501:221,2,58.3333333333333,2|0|0,0:0|0:0|0:0,0:0:0:0:
257,205,131423,2,0,L|245:119,2,58.3333333333333,2|0|0,0:0|0:0|0:0,0:0:0:0:
94,222,131654,6,0,L|11:221,2,58.3333333333333,2|0|0,0:0|0:0|0:0,0:0:0:0:
255,205,131885,2,0,L|267:119,1,58.3333333333333,2|0,0:0|0:0,0:0:0:0:
109,125,132038,1,0,0:0:0:0:
270,101,132115,6,0,L|387:102,1,87.5,2|0,0:0|0:0,0:0:0:0:
242,101,132269,2,0,L|125:102,1,87.5,8|0,0:0|0:0,0:0:0:0:
304,170,132423,2,0,L|421:171,1,87.5,8|0,0:0|0:0,0:0:0:0:
208,170,132577,2,0,L|91:171,1,87.5,2|0,0:0|0:0,0:0:0:0:
336,249,132731,2,0,L|453:250,1,87.5,8|0,0:0|0:0,0:0:0:0:
176,249,132885,2,0,L|59:250,1,87.5,8|0,0:0|0:0,0:0:0:0:
302,186,133038,5,2,0:0:0:0:
403,176,133154,2,0,B|491:177|491:177|403:176|403:176|490:177|490:177|403:178|403:178,1,350,0|2,0:0|0:0,0:0:0:0:
304,242,133731,1,0,0:0:0:0:
414,286,133846,1,0,0:0:0:0:
192,345,133962,5,2,0:0:0:0:
155,309,134019,1,0,0:0:0:0:
161,259,134077,1,0,0:0:0:0:
204,232,134135,1,0,0:0:0:0:
347,212,134192,2,0,L|416:208,3,52.4999983978272,8|0|0|0,0:0|0:0|0:0|0:0,0:0:0:0:
217,183,134423,5,2,0:0:0:0:
180,147,134480,1,0,0:0:0:0:
186,97,134538,1,2,0:0:0:0:
229,70,134596,1,0,0:0:0:0:
372,50,134653,2,0,L|441:46,3,52.4999983978272,8|0|0|0,0:0|0:0|0:0|0:0,0:0:0:0:
252,122,134885,5,2,0:0:0:0:
78,212,134962,2,0,L|176:211,1,69.9999978637696,0|0,0:0|0:0,0:0:0:0:
321,121,135115,1,8,0:0:0:0:
147,211,135192,2,0,L|77:211,1,69.9999978637696,0|0,0:0|0:0,0:0:0:0:
260,122,135346,5,0,0:0:0:0:
434,212,135423,2,0,L|336:211,1,69.9999978637696,0|0,0:0|0:0,0:0:0:0:
191,121,135576,1,8,0:0:0:0:
365,211,135654,2,0,L|434:211,1,69.9999978637696,0|0,0:0|0:0,0:0:0:0:
214,321,135808,6,0,L|135:319,2,69.9999978637696,0|0|0,0:0|0:0|0:0,0:0:0:0:
58,272,136038,2,0,L|58:192,1,69.9999978637696,8|0,0:0|0:0,0:0:0:0:
211,181,136192,1,0,0:0:0:0:
427,194,136269,6,0,L|348:192,2,69.9999978637696,0|0|0,0:0|0:0|0:0,0:0:0:0:
233,259,136500,2,0,L|68:258,1,140,8|0,0:0|0:0,0:0:0:0:
260,122,136731,5,2,0:0:0:0:
434,212,136808,2,0,L|336:211,1,69.9999978637696,0|0,0:0|0:0,0:0:0:0:
191,121,136961,1,8,0:0:0:0:
365,211,137038,2,0,L|435:211,1,69.9999978637696,0|0,0:0|0:0,0:0:0:0:
252,122,137192,5,0,0:0:0:0:
78,212,137269,2,0,L|176:211,1,69.9999978637696,0|0,0:0|0:0,0:0:0:0:
321,121,137422,1,8,0:0:0:0:
147,211,137500,2,0,L|78:211,1,69.9999978637696,0|0,0:0|0:0,0:0:0:0:
298,321,137654,6,0,L|377:319,2,69.9999978637696,0|0|0,0:0|0:0|0:0,0:0:0:0:
454,272,137885,2,0,L|454:192,1,69.9999978637696,8|0,0:0|0:0,0:0:0:0:
301,181,138038,1,0,0:0:0:0:
85,194,138115,6,0,L|84:165,1,17.4999994659424,0|0,0:0|0:0,0:0:0:0:
159,153,138192,2,0,L|158:124,1,17.4999994659424,0|0,0:0|0:0,0:0:0:0:
235,184,138269,2,0,L|234:155,1,17.4999994659424,0|0,0:0|0:0,0:0:0:0:
421,165,138346,2,0,B|493:168|493:168|422:168,1,140,8|0,0:0|0:0,0:0:0:0:
222,258,138577,5,2,0:0:0:0:
390,240,138654,2,0,L|396:136,1,69.9999978637696,0|0,0:0|0:0,0:0:0:0:
223,208,138808,1,8,0:0:0:0:
55,190,138885,2,0,L|49:86,1,69.9999978637696,0|0,0:0|0:0,0:0:0:0:
286,261,139038,5,0,0:0:0:0:
118,243,139115,2,0,L|112:139,1,69.9999978637696,0|0,0:0|0:0,0:0:0:0:
285,211,139269,1,8,0:0:0:0:
453,193,139346,2,0,L|459:89,1,69.9999978637696,0|0,0:0|0:0,0:0:0:0:
243,94,139500,5,0,0:0:0:0:
312,93,139576,1,0,0:0:0:0:
382,93,139653,1,0,0:0:0:0:
226,165,139731,2,0,L|297:165,1,69.9999978637696,8|0,0:0|0:0,0:0:0:0:
451,165,139885,1,0,0:0:0:0:
213,261,139962,2,0,L|213:337,1,69.9999978637696,0|0,0:0|0:0,0:0:0:0:
375,331,140115,2,0,P|430:287|367:182,1,209.999993591309,0|0,0:0|0:0,0:0:0:0:
193,242,140423,6,0,L|123:240,2,69.9999978637696,2|0|0,0:0|0:0|0:0,0:0:0:0:
382,179,140654,1,8,0:0:0:0:
184,115,140731,2,0,L|80:114,1,70.5833313408534,0|0,0:0|0:0,0:0:0:0:
306,179,140885,1,0,0:0:0:0:
488,132,140962,6,0,L|482:46,1,70.5833313408534,0|0,0:0|0:0,0:0:0:0:
306,115,141116,1,8,0:0:0:0:
108,51,141193,2,0,L|203:49,1,69.9999978637696,0|0,0:0|0:0,0:0:0:0:
367,299,141346,6,0,L|370:179,1,105.87499701128,2|0,0:0|0:0,0:0:0:0:
214,255,141500,2,0,L|211:135,1,105.87499701128,8|0,0:0|0:0,0:0:0:0:
55,224,141654,2,0,L|52:104,1,105.87499701128,8|0,0:0|0:0,0:0:0:0:
309,321,141808,2,0,P|367:282|309:78,1,314.999990386963,2|0,0:0|0:0,0:0:0:0:
38,112,142269,6,0,L|163:112,1,105.87499701128,2|0,0:0|0:0,0:0:0:0:
356,195,142500,1,8,0:0:0:0:
156,195,142615,1,0,0:0:0:0:
368,112,142731,2,0,L|474:112,1,105.87499701128,0|2,0:0|0:0,0:0:0:0:
240,221,142962,2,0,L|164:223,1,52.9374985056401,8|0,0:0|0:0,0:0:0:0:
346,283,143077,2,0,L|422:281,1,52.9374985056401,0|0,0:0|0:0,0:0:0:0:
167,333,143192,5,2,0:0:0:0:
56,299,143308,2,0,L|136:295,1,52.4999983978272,0|0,0:0|0:0,0:0:0:0:
295,238,143423,2,0,L|158:235,1,104.999996795654,8|0,0:0|0:0,0:0:0:0:
410,185,143654,6,0,L|486:184,1,52.4999983978272,2|0,0:0|0:0,0:0:0:0:
289,148,143769,2,0,L|148:150,1,104.999996795654,8|8,0:0|0:0,0:0:0:0:
388,80,144000,1,0,0:0:0:0:
165,305,144115,6,0,L|60:308,1,104.999996795654,2|0,0:0|0:0,0:0:0:0:
280,240,144346,1,8,0:0:0:0:
56,187,144462,1,0,0:0:0:0:
273,117,144577,2,0,L|277:11,1,104.999996795654,0|2,0:0|0:0,0:0:0:0:
490,67,144808,2,0,L|433:66,1,52.4999983978272,8|0,0:0|0:0,0:0:0:0:
259,88,144923,2,0,L|340:87,1,52.4999983978272,0|0,0:0|0:0,0:0:0:0:
488,242,145038,6,0,L|376:244,1,104.999996795654,2|0,0:0|0:0,0:0:0:0:
327,249,145212,1,0,0:0:0:0:
152,319,145269,1,8,0:0:0:0:
370,345,145385,1,0,0:0:0:0:
140,247,145500,6,0,L|131:169,1,52.4999983978272,0|0,0:0|0:0,0:0:0:0:
279,137,145615,2,0,L|320:138,2,26.2499991989136,4|0|0,0:2|0:0|0:0,0:0:0:0:
129,123,145731,2,0,L|68:128,1,52.4999983978272,0|0,0:0|0:0,0:0:0:0:
216,54,145846,1,4,0:2:0:0:
242,56,145874,1,0,0:0:0:0:
268,58,145903,1,0,0:0:0:0:
474,112,145962,6,0,L|349:112,1,105.87499701128,2|0,0:0|0:0,0:0:0:0:
156,195,146193,1,8,0:0:0:0:
356,195,146308,1,0,0:0:0:0:
144,112,146423,2,0,L|38:112,1,105.87499701128,0|2,0:0|0:0,0:0:0:0:
272,221,146655,2,0,L|348:223,1,52.9374985056401,8|0,0:0|0:0,0:0:0:0:
166,283,146770,2,0,L|90:281,1,52.9374985056401,0|0,0:0|0:0,0:0:0:0:
345,333,146885,5,2,0:0:0:0:
456,299,147001,2,0,L|376:295,1,52.4999983978272,0|0,0:0|0:0,0:0:0:0:
217,238,147116,2,0,L|354:235,1,104.999996795654,8|0,0:0|0:0,0:0:0:0:
102,185,147347,6,0,L|26:184,1,52.4999983978272,0|0,0:0|0:0,0:0:0:0:
223,148,147462,2,0,L|364:150,1,104.999996795654,2|8,0:0|0:0,0:0:0:0:
124,80,147693,1,0,0:0:0:0:
347,305,147808,6,0,L|452:308,1,104.999996795654,2|0,0:0|0:0,0:0:0:0:
232,240,148039,1,8,0:0:0:0:
456,187,148155,1,0,0:0:0:0:
204,334,148269,6,0,L|99:337,1,104.999996795654,0|2,0:0|0:0,0:0:0:0:
319,269,148500,2,0,L|400:272,1,52.4999983978272,8|0,0:0|0:0,0:0:0:0:
229,187,148615,2,0,L|158:186,1,52.4999983978272,0|0,0:0|0:0,0:0:0:0:
428,186,148731,6,0,B|466:150|466:150|427:186|427:186|464:150|464:150|426:186,1,209.999993591309,4|0,0:2|0:0,0:0:0:0:
331,199,149077,6,0,B|111:201|111:201|220:13|220:13|111:203|111:203|221:12|221:12,1,875,0|0,0:0|0:0,0:0:0:0:
475,333,149654,6,0,B|38:333|38:333|214:332,1,583.333333333333,2|0,0:0|0:0,0:0:0:0:
328,332,150038,1,0,0:0:0:0:
475,333,150115,6,0,B|38:333|38:333|46:328,1,437.5,2|8,0:0|0:0,0:0:0:0:
184,293,150404,1,0,0:0:0:0:
327,283,150462,1,0,0:0:0:0:
467,271,150519,1,0,0:0:0:0:
248,206,150577,6,0,L|141:211,1,104.999996795654,2|0,0:0|0:0,0:0:0:0:
329,145,150808,2,0,L|436:150,1,104.999996795654,8|0,0:0|0:0,0:0:0:0:
178,83,151038,1,2,0:0:0:0:
428,45,151154,2,0,L|434:170,1,104.999996795654,2|8,0:0|0:0,0:0:0:0:
102,238,151385,1,0,0:0:0:0:
475,333,151500,6,0,B|38:333|38:333|214:332,1,583.333333333333,2|0,0:0|0:0,0:0:0:0:
328,332,151884,1,0,0:0:0:0:
475,333,151962,6,0,B|38:333|38:333|214:332,1,583.333333333333,2|0,0:0|0:0,0:0:0:0:
328,332,152346,1,0,0:0:0:0:
473,262,152423,6,0,L|470:146,1,104.999996795654,2|0,0:0|0:0,0:0:0:0:
253,177,152654,2,0,L|250:61,1,104.999996795654,8|0,0:0|0:0,0:0:0:0:
464,110,152885,1,2,0:0:0:0:
209,276,153000,2,0,L|68:280,1,104.999996795654,2|8,0:0|0:0,0:0:0:0:
346,190,153231,1,0,0:0:0:0:
37,333,153346,6,0,B|474:333|474:333|298:332,1,583.333333333333,2|0,0:0|0:0,0:0:0:0:
184,332,153730,1,0,0:0:0:0:
37,333,153808,6,0,B|474:333|474:333|298:332,1,583.333333333333,2|0,0:0|0:0,0:0:0:0:
184,332,154192,1,0,0:0:0:0:
471,244,154269,6,0,B|34:244|34:244|210:243,1,583.333333333333,2|0,0:0|0:0,0:0:0:0:
324,243,154653,1,0,0:0:0:0:
471,244,154731,6,0,B|34:244|34:244|266:244,1,656.25,2|0,0:0|0:0,0:0:0:0:
41,227,155192,6,0,L|37:89,1,104.999996795654,2|2,0:0|0:0,0:0:0:0:
441,269,155538,5,2,0:0:0:0:
189,184,155654,2,0,L|182:70,1,104.999996795654,8|0,0:0|0:0,0:0:0:0:
432,162,155885,2,0,L|439:48,1,104.999996795654,2|2,0:0|0:0,0:0:0:0:
56,272,156115,5,0,0:0:0:0:
254,259,156231,2,0,L|258:134,1,104.999996795654,2|2,0:0|0:0,0:0:0:0:
472,234,156462,2,0,L|468:109,1,104.999996795654,0|2,0:0|0:0,0:0:0:0:
260,94,156692,2,0,L|241:95,1,13.1249995994568,4|0,0:2|0:0,0:0:0:0:
469,136,156808,2,0,L|450:137,1,13.1249995994568,4|0,0:2|0:0,0:0:0:0:
260,94,156923,2,0,L|241:95,1,13.1249995994568,4|0,0:2|0:0,0:0:0:0:
37,333,157038,6,0,B|474:333|474:333|210:334,1,656.25,2|0,0:0|0:0,0:0:0:0:
37,333,157499,6,0,B|474:333|474:333|241:334,1,656.25,2|0,0:0|0:0,0:0:0:0:
37,212,157962,6,0,L|141:207,1,104.999996795654,2|0,0:0|0:0,0:0:0:0:
350,146,158192,2,0,L|243:151,1,104.999996795654,8|0,0:0|0:0,0:0:0:0:
463,83,158422,1,2,0:0:0:0:
205,70,158538,2,0,L|80:71,1,104.999996795654,2|8,0:0|0:0,0:0:0:0:
366,227,158769,1,0,0:0:0:0:
37,333,158885,6,0,B|474:333|474:333|298:332,1,583.333333333333,2|0,0:0|0:0,0:0:0:0:
184,332,159269,1,0,0:0:0:0:
37,333,159346,6,0,B|474:333|474:333|241:334,1,656.25,2|0,0:0|0:0,0:0:0:0:
37,245,159808,6,0,L|40:129,1,104.999996795654,2|0,0:0|0:0,0:0:0:0:
144,179,160038,2,0,L|147:63,1,104.999996795654,8|0,0:0|0:0,0:0:0:0:
369,166,160269,1,2,0:0:0:0:
137,252,160384,2,0,L|20:248,1,104.999996795654,2|8,0:0|0:0,0:0:0:0:
380,232,160615,1,0,0:0:0:0:
37,333,160731,6,0,B|474:333|474:333|298:332,1,583.333333333333,2|0,0:0|0:0,0:0:0:0:
184,332,161115,1,0,0:0:0:0:
37,333,161192,6,0,B|474:333|474:333|298:332,1,583.333333333333,2|0,0:0|0:0,0:0:0:0:
184,332,161576,1,0,0:0:0:0:
461,255,161654,6,0,L|467:139,1,69.9999978637696,2|0,0:0|0:0,0:0:0:0:
256,256,161808,2,0,L|256:160,1,69.9999978637696,2|0,0:0|0:0,0:0:0:0:
51,255,161962,2,0,L|45:139,1,69.9999978637696,8|0,0:0|0:0,0:0:0:0:
374,166,162115,2,0,L|296:167,1,69.9999978637696,2|0,0:0|0:0,0:0:0:0:
138,166,162269,2,0,L|216:167,1,69.9999978637696,8|0,0:0|0:0,0:0:0:0:
374,166,162423,2,0,L|296:167,1,69.9999978637696,8|0,0:0|0:0,0:0:0:0:
80,267,162577,6,0,L|196:268,1,104.999996795654,2|0,0:0|0:0,0:0:0:0:
421,267,162808,2,0,L|305:268,1,104.999996795654,8|0,0:0|0:0,0:0:0:0:
71,326,163038,2,0,P|35:297|90:208,1,157.499995193482,2|0,0:0|0:0,0:0:0:0:
256,192,163269,1,4,0:2:0:0:
423,163,163346,1,0,0:0:0:0:
256,192,163423,1,0,0:0:0:0:
89,163,163500,5,2,0:0:0:0:
179,195,163615,1,0,0:0:0:0:
269,226,163731,1,8,0:0:0:0:
352,253,163846,1,0,0:0:0:0:
102,268,163962,5,4,0:2:0:0:
192,299,164078,1,0,0:0:0:0:
275,326,164193,1,4,0:2:0:0:
451,297,164308,1,0,0:0:0:0:
241,245,164423,5,2,0:0:0:0:
256,192,164538,12,0,171577,0:0:0:0:
231,261,171808,6,0,L|84:259,1,140,4|0,0:0|0:0,0:0:0:0:
281,261,172269,2,0,L|428:259,1,140,0|0,0:0|0:0,0:0:0:0:
253,195,172731,2,0,L|249:56,1,140,2|0,0:0|0:0,0:0:0:0:
431,195,173192,2,0,L|435:56,1,140,0|0,0:0|0:0,0:0:0:0:
281,261,173654,6,0,L|428:259,1,140,2|0,0:0|0:0,0:0:0:0:
231,261,174115,2,0,L|84:259,1,140,0|0,0:0|0:0,0:0:0:0:
259,195,174577,2,0,L|263:56,1,140,2|0,0:0|0:0,0:0:0:0:
81,195,175038,2,0,L|77:56,1,140,0|0,0:0|0:0,0:0:0:0:
268,294,175500,6,0,L|349:292,2,70,4|0|0,0:0|0:0|0:0,0:0:0:0:
256,192,175846,1,0,0:0:0:0:
244,294,175962,6,0,L|163:292,2,70,2|0|0,0:0|0:0|0:0,0:0:0:0:
256,192,176308,1,0,0:0:0:0:
308,259,176423,6,0,L|376:302,2,70,4|0|0,0:0|0:0|0:0,0:0:0:0:
256,192,176769,1,0,0:0:0:0:
204,259,176885,2,0,L|136:302,2,70,2|0|0,0:0|0:0|0:0,0:0:0:0:
256,192,177231,1,0,0:0:0:0:
371,203,177346,6,0,L|382:117,2,70,4|0|0,0:0|0:0|0:0,0:0:0:0:
256,192,177692,1,0,0:0:0:0:
141,203,177808,6,0,L|130:117,2,70,2|0|0,0:0|0:0|0:0,0:0:0:0:
256,192,178154,1,0,0:0:0:0:
383,289,178269,6,0,P|447:233|363:159,1,210,4|0,0:0|0:0,0:0:0:0:
129,289,178731,2,0,P|65:233|149:159,1,210,4|0,0:0|0:0,0:0:0:0:
400,320,179192,6,0,L|480:320,1,80,4|0,0:0|0:0,0:0:0:0:
400,224,179538,1,0,0:0:0:0:
480,128,179769,2,0,L|400:128,2,80,0|0|0,0:0|0:0|0:0,0:0:0:0:
400,320,180115,1,0,0:0:0:0:
320,272,180231,1,0,0:0:0:0:
285,175,180346,1,0,0:0:0:0:
320,80,180462,1,0,0:0:0:0:
400,320,180692,2,0,L|512:320,1,80,0|0,0:0|0:0,0:0:0:0:
112,320,181038,6,0,L|32:320,1,80,4|0,0:0|0:0,0:0:0:0:
192,224,181384,1,0,0:0:0:0:
32,128,181615,2,0,L|112:128,2,80,0|0|0,0:0|0:0|0:0,0:0:0:0:
160,320,181961,1,0,0:0:0:0:
240,272,182077,1,0,0:0:0:0:
275,175,182192,1,0,0:0:0:0:
240,80,182308,1,0,0:0:0:0:
32,320,182538,2,0,L|112:320,1,80,0|0,0:0|0:0,0:0:0:0:
480,320,182885,6,0,L|400:320,1,80,4|0,0:0|0:0,0:0:0:0:
480,224,183231,1,0,0:0:0:0:
400,128,183462,2,0,L|480:128,2,80,0|0|0,0:0|0:0|0:0,0:0:0:0:
320,80,183808,1,0,0:0:0:0:
285,175,183924,1,0,0:0:0:0:
320,272,184039,1,0,0:0:0:0:
400,320,184155,1,0,0:0:0:0:
480,320,184385,2,0,L|400:320,1,80,0|0,0:0|0:0,0:0:0:0:
310,324,184615,1,0,0:0:0:0:
32,320,184731,6,0,L|112:320,1,80,4|0,0:0|0:0,0:0:0:0:
272,224,185077,1,0,0:0:0:0:
112,128,185308,2,0,L|32:128,2,80,0|0|0,0:0|0:0|0:0,0:0:0:0:
240,80,185654,1,0,0:0:0:0:
275,175,185770,1,0,0:0:0:0:
240,272,185885,1,0,0:0:0:0:
160,320,186001,1,0,0:0:0:0:
272,80,186115,1,0,0:0:0:0:
237,175,186231,1,0,0:0:0:0:
272,272,186346,1,0,0:0:0:0:
352,320,186462,1,0,0:0:0:0:
96,336,186577,6,0,L|-16:336,1,80,4|0,0:0|0:0,0:0:0:0:
176,240,186923,1,0,0:0:0:0:
16,144,187154,2,0,L|112:144,2,80,0|0|0,0:0|0:0|0:0,0:0:0:0:
128,112,187500,2,0,L|224:112,3,80,2|0|0|0,0:0|0:0|0:0|0:0,0:0:0:0:
304,112,187962,2,0,L|400:112,3,80,2|0|0|0,0:0|0:0|0:0|0:0,0:0:0:0:
208,208,188423,6,0,L|128:208,3,80,4|0|0|0,0:0|0:0|0:0|0:0,0:0:0:0:
304,208,188885,2,0,L|384:208,2,80,2|0|0,0:0|0:0|0:0,0:0:0:0:
128,208,189231,1,0,0:0:0:0:
304,336,189346,6,0,P|384:304|291:150,1,320,4|0,0:0|0:0,0:0:0:0:
144,192,190038,1,0,0:0:0:0:
256,160,190154,1,0,0:0:0:0:
32,336,190269,6,0,L|32:64,1,240,4|0,0:0|0:0,0:0:0:0:
112,96,190673,1,0,0:0:0:0:
192,16,190731,2,0,L|192:336,1,320,0|0,0:0|0:0,0:0:0:0:
362,307,191423,1,0,0:0:0:0:
168,207,191654,1,0,0:0:0:0:
373,161,191885,1,0,0:0:0:0:
16,192,192115,6,0,P|48:96|240:16,1,320,4|0,0:0|0:0,0:0:0:0:
448,80,192808,1,0,0:0:0:0:
224,32,193038,6,0,L|224:368,1,320,0|2,0:0|0:0,0:0:0:0:
304,336,193577,2,0,L|304:256,1,53.3333333333333,2|2,0:0|0:0,0:0:0:0:
384,272,193731,2,0,L|384:336,1,53.3333333333333,2|2,0:0|0:0,0:0:0:0:
464,352,193885,1,2,0:0:0:0:
218,251,193962,6,0,L|109:250,1,87.5,4|0,0:2|0:0,0:0:0:0:
303,176,194308,1,0,0:0:0:0:
127,103,194538,2,0,L|236:105,2,87.5,0|0|0,0:0|0:0|0:0,0:0:0:0:
233,237,194885,2,0,L|235:138,1,87.5,0|0,0:0|0:0,0:0:0:0:
328,128,195115,1,0,0:0:0:0:
237,103,195231,1,0,0:0:0:0:
254,246,195462,1,0,0:0:0:0:
162,233,195578,1,0,0:0:0:0:
324,250,195808,6,0,L|433:249,1,87.5,4|0,0:2|0:0,0:0:0:0:
242,165,196154,1,0,0:0:0:0:
415,102,196384,2,0,L|532:102,2,87.5,0|0|0,0:0|0:0|0:0,0:0:0:0:
293,239,196731,2,0,L|291:132,1,87.5,0|0,0:0|0:0,0:0:0:0:
384,133,196962,1,0,0:0:0:0:
284,102,197077,1,0,0:0:0:0:
146,53,197308,1,0,0:0:0:0:
241,36,197424,1,0,0:0:0:0:
75,252,197654,6,0,L|193:249,1,87.5,4|0,0:2|0:0,0:0:0:0:
317,240,198000,1,0,0:0:0:0:
143,187,198231,2,0,L|261:178,1,87.5,0|0,0:0|0:0,0:0:0:0:
327,174,198462,1,0,0:0:0:0:
216,140,198577,2,0,L|209:20,1,87.5,0|0,0:0|0:0,0:0:0:0:
115,47,198808,1,0,0:0:0:0:
210,18,198923,1,0,0:0:0:0:
339,181,199154,1,0,0:0:0:0:
243,157,199269,1,0,0:0:0:0:
426,246,199500,6,0,L|432:149,1,87.5,4|0,0:2|0:0,0:0:0:0:
342,129,199731,1,0,0:0:0:0:
434,97,199846,1,0,0:0:0:0:
223,68,199962,5,4,0:2:0:0:
311,107,200077,2,0,L|313:210,1,87.5,0|0,0:0|0:0,0:0:0:0:
222,216,200308,1,0,0:0:0:0:
400,298,200423,6,0,L|499:301,1,87.5,4|0,0:2|0:0,0:0:0:0:
384,247,200654,1,0,0:0:0:0:
184,175,200769,2,0,L|371:173,1,175,0|0,0:0|0:0,0:0:0:0:
266,246,201115,2,0,L|163:246,1,87.5,0|0,0:0|0:0,0:0:0:0:
363,320,201346,6,0,L|472:319,1,87.5,4|0,0:2|0:0,0:0:0:0:
273,232,201692,1,0,0:0:0:0:
106,143,201923,2,0,L|215:145,2,87.5,0|0|0,0:0|0:0|0:0,0:0:0:0:
191,237,202269,2,0,L|193:138,1,87.5,0|0,0:0|0:0,0:0:0:0:
298,127,202499,1,0,0:0:0:0:
190,104,202615,1,0,0:0:0:0:
238,249,202846,1,0,0:0:0:0:
143,231,202962,1,0,0:0:0:0:
324,250,203192,6,0,L|433:249,1,87.5,4|0,0:2|0:0,0:0:0:0:
233,165,203538,1,0,0:0:0:0:
415,102,203769,2,0,L|532:102,2,87.5,0|0|0,0:0|0:0|0:0,0:0:0:0:
281,240,204115,2,0,L|279:133,1,87.5,0|0,0:0|0:0,0:0:0:0:
374,131,204346,1,0,0:0:0:0:
278,99,204461,1,0,0:0:0:0:
383,34,204692,1,0,0:0:0:0:
282,7,204808,1,0,0:0:0:0:
103,214,205038,6,0,L|204:214,2,87.5,4|0|0,0:2|0:0|0:0,0:0:0:0:
194,279,205385,2,0,L|374:278,1,175,0|0,0:0|0:0,0:0:0:0:
280,209,205731,2,0,L|169:205,1,87.5,0|0,0:0|0:0,0:0:0:0:
308,150,205962,6,0,L|434:158,1,87.5,0|0,0:0|0:0,0:0:0:0:
237,77,206308,1,0,0:0:0:0:
413,330,206538,2,0,L|422:228,1,87.5,0|0,0:0|0:0,0:0:0:0:
332,216,206769,1,0,0:0:0:0:
123,167,206885,6,0,L|23:161,2,87.5,4|0|0,0:2|0:0|0:0,0:0:0:0:
328,123,207231,2,0,L|117:115,1,175,0|0,0:0|0:0,0:0:0:0:
344,83,207577,2,0,L|469:90,1,87.5,0|0,0:0|0:0,0:0:0:0:
160,256,207808,6,0,L|-7:249,2,131.25,4|0|0,0:2|0:0|0:0,0:0:0:0:
352,256,208269,2,0,B|439:251|439:251|364:231,1,131.25,4|0,0:2|0:0,0:0:0:0:
444,199,208500,1,2,0:0:0:0:
348,167,208615,1,8,0:0:0:0:
82,230,208731,5,2,0:0:0:0:
260,194,208846,2,0,L|271:3,1,175,4|0,0:2|0:0,0:0:0:0:
76,99,209308,2,0,L|72:-6,1,87.5,4|0,0:2|0:0,0:0:0:0:
175,12,209538,1,0,0:0:0:0:
391,128,209654,6,0,L|275:124,1,87.5,4|0,0:2|0:0,0:0:0:0:
301,275,209885,1,0,0:0:0:0:
393,271,210000,2,0,P|447:227|373:161,1,175,4|0,0:2|0:0,0:0:0:0:
277,143,210346,2,0,L|177:139,1,87.5,4|0,0:2|0:0,0:0:0:0:
234,128,210519,1,0,0:0:0:0:
430,230,210577,5,2,0:0:0:0:
252,194,210692,2,0,L|241:3,1,175,4|0,0:2|0:0,0:0:0:0:
436,99,211154,2,0,L|329:95,2,87.5,4|0|0,0:2|0:0|0:0,0:0:0:0:
231,128,211500,6,0,L|91:130,2,131.25,4|0|0,0:2|0:0|0:0,0:0:0:0:
449,227,211962,2,0,L|309:229,1,131.25,4|0,0:2|0:0,0:0:0:0:
165,245,212308,1,4,0:2:0:0:
430,230,212423,5,2,0:0:0:0:
252,194,212538,2,0,L|241:3,1,175,4|0,0:2|0:0,0:0:0:0:
436,99,213000,2,0,L|440:-6,1,87.5,4|0,0:2|0:0,0:0:0:0:
337,12,213230,1,0,0:0:0:0:
121,128,213346,6,0,L|237:124,1,87.5,4|0,0:2|0:0,0:0:0:0:
211,275,213577,1,0,0:0:0:0:
119,271,213692,2,0,P|65:227|139:161,1,175,4|0,0:2|0:0,0:0:0:0:
235,143,214038,2,0,L|335:139,1,87.5,4|0,0:2|0:0,0:0:0:0:
278,128,214211,1,0,0:0:0:0:
82,230,214269,5,2,0:0:0:0:
179,201,214385,2,0,L|182:92,1,87.5,0|4,0:0|0:2,0:0:0:0:
398,224,214615,2,0,L|387:29,1,175,0|0,0:0|0:0,0:0:0:0:
181,53,214962,1,4,0:2:0:0:
287,103,215077,2,0,L|330:103,1,43.75,0|0,0:0|0:0,0:0:0:0:
161,167,215192,6,0,L|31:165,2,87.5,4|0|0,0:2|0:0|0:0,0:0:0:0:
344,179,215538,2,0,L|459:177,1,87.5,0|4,0:2|0:2,0:0:0:0:
311,267,215769,2,0,L|212:274,2,87.5,0|4|0,0:0|0:2|0:0,0:0:0:0:
32,240,216115,6,0,L|168:229,1,104.999996795654,2|0,0:0|0:0,0:0:0:0:
359,191,216346,2,0,L|223:180,1,104.999996795654,8|0,0:0|0:0,0:0:0:0:
486,139,216577,1,0,0:0:0:0:
261,97,216692,2,0,L|146:94,2,104.999996795654,0|8|0,0:0|0:0|0:0,0:0:0:0:
489,316,217038,6,0,L|345:314,1,104.999996795654,2|0,0:0|0:0,0:0:0:0:
178,308,217269,2,0,L|34:306,1,104.999996795654,8|0,0:0|0:0,0:0:0:0:
274,226,217500,2,0,B|327:229|327:229|266:227,1,104.999996795654,2|2,0:0|0:0,0:0:0:0:
382,204,217731,2,0,L|452:207,1,52.4999983978272,8|0,0:0|0:0,0:0:0:0:
263,133,217846,2,0,L|201:127,1,52.4999983978272,0|0,0:0|0:0,0:0:0:0:
430,70,217962,6,0,B|484:70|484:70|422:67,1,104.999996795654,2|0,0:0|0:0,0:0:0:0:
208,72,218192,2,0,L|351:70,1,104.999996795654,8|0,0:0|0:0,0:0:0:0:
122,206,218423,1,0,0:0:0:0:
322,289,218538,2,0,L|199:291,2,104.999996795654,2|8|0,0:0|0:0|0:0,0:0:0:0:
57,328,218885,6,0,B|69:194|69:194|111:72|111:72|267:76,1,393.750015020371,2|4,0:0|0:2,0:0:0:0:
98,250,219231,1,4,0:2:0:0:
335,298,219346,6,0,B|323:164|323:164|281:42|281:42|125:46,1,393.750015020371,2|4,0:0|0:2,0:0:0:0:
294,220,219692,1,4,0:2:0:0:
476,202,219808,6,0,L|476:135,1,52.4999983978272,2|0,0:0|0:0,0:0:0:0:
322,170,219923,2,0,L|321:50,1,104.999996795654,0|8,0:0|0:0,0:0:0:0:
124,202,220154,2,0,L|64:203,1,52.4999983978272,2|0,0:0|0:0,0:0:0:0:
266,304,220269,5,0,0:0:0:0:
314,290,220326,1,0,0:0:0:0:
330,242,220384,1,2,0:0:0:0:
299,203,220442,1,0,0:0:0:0:
140,152,220500,2,0,L|78:148,1,52.4999983978272,8|0,0:0|0:0,0:0:0:0:
241,80,220615,2,0,L|303:76,1,52.4999983978272,2|0,0:0|0:0,0:0:0:0:
105,314,220731,6,0,L|100:232,1,52.4999983978272,2|0,0:0|0:0,0:0:0:0:
249,231,220846,2,0,L|254:149,1,52.4999983978272,0|0,0:0|0:0,0:0:0:0:
407,314,220962,2,0,L|412:232,1,52.4999983978272,8|0,0:0|0:0,0:0:0:0:
263,231,221077,2,0,L|258:149,1,52.4999983978272,0|0,0:0|0:0,0:0:0:0:
97,168,221192,6,0,L|42:170,1,52.4999983978272,2|0,0:0|0:0,0:0:0:0:
198,119,221308,2,0,L|275:121,1,52.4999983978272,0|0,0:0|0:0,0:0:0:0:
415,168,221423,2,0,L|470:170,1,52.4999983978272,8|0,0:0|0:0,0:0:0:0:
314,119,221538,2,0,L|237:121,1,52.4999983978272,8|0,0:0|0:0,0:0:0:0:
51,276,221654,6,0,L|107:279,1,52.4999983978272,2|0,0:0|0:0,0:0:0:0:
281,278,221769,2,0,L|204:282,1,52.4999983978272,0|0,0:0|0:0,0:0:0:0:
408,278,221885,2,0,L|461:276,1,52.4999983978272,8|0,0:0|0:0,0:0:0:0:
281,278,222000,2,0,L|204:282,1,52.4999983978272,2|0,0:0|0:0,0:0:0:0:
429,162,222115,6,0,L|496:162,3,52.4999983978272,0|0|2|0,0:0|0:0|0:0|0:0,0:0:0:0:
283,162,222346,2,0,L|216:162,1,52.4999983978272,8|0,0:0|0:0,0:0:0:0:
35,158,222462,2,0,L|102:158,1,52.4999983978272,0|0,0:0|0:0,0:0:0:0:
316,251,222577,6,0,L|386:248,2,52.4999983978272,2|0|0,0:0|0:0|0:0,0:0:0:0:
196,251,222750,2,0,L|126:248,2,52.4999983978272,4|0|0,0:2|0:0|0:0,0:0:0:0:
351,316,222923,2,0,L|412:316,1,52.4999983978272,4|0,0:2|0:0,0:0:0:0:
94,328,223038,6,0,L|29:330,2,52.4999983978272,2|0|0,0:0|0:0|0:0,0:0:0:0:
265,330,223212,2,0,L|200:332,2,52.4999983978272,4|0|0,0:2|0:0|0:0,0:0:0:0:
434,328,223385,2,0,L|507:328,1,52.4999983978272,4|0,0:2|0:0,0:0:0:0:
311,259,223500,5,2,0:0:0:0:
412,184,223615,2,0,B|324:185|324:185|412:184|412:184|325:185|325:185|412:186|412:186,1,350,0|2,0:0|0:0,0:0:0:0:
214,241,224192,1,0,0:0:0:0:
211,320,224308,1,0,0:0:0:0:
460,265,224423,6,0,L|464:197,1,43.75,2|0,0:0|0:0,0:0:0:0:
313,225,224538,2,0,L|309:163,1,43.75,0|0,0:0|0:0,0:0:0:0:
224,163,224654,2,0,L|175:166,1,43.75,8|0,0:0|0:0,0:0:0:0:
265,114,224769,2,0,L|314:117,1,43.75,0|0,0:0|0:0,0:0:0:0:
100,323,224885,6,0,L|96:255,1,43.75,2|0,0:0|0:0,0:0:0:0:
247,283,225000,2,0,L|251:221,1,43.75,2|0,0:0|0:0,0:0:0:0:
74,218,225115,2,0,P|38:159|77:122,1,131.25,8|0,0:0|0:0,0:0:0:0:
261,101,225346,6,0,L|116:107,1,104.999996795654,2|0,0:0|0:0,0:0:0:0:
385,172,225577,1,8,0:0:0:0:
164,256,225692,1,0,0:0:0:0:
393,336,225808,2,0,L|395:225,1,104.999996795654,0|2,0:0|0:0,0:0:0:0:
236,196,225981,1,0,0:0:0:0:
80,182,226038,2,0,L|78:71,1,104.999996795654,8|0,0:0|0:0,0:0:0:0:
316,71,226269,5,2,0:0:0:0:
137,144,226385,1,0,0:0:0:0:
236,168,226500,2,0,L|242:281,1,104.999996795654,8|0,0:0|0:0,0:0:0:0:
458,327,226731,2,0,L|322:329,1,104.999996795654,2|2,0:0|0:0,0:0:0:0:
111,335,226962,2,0,L|233:338,1,104.999996795654,8|0,0:0|0:0,0:0:0:0:
164,335,227135,1,0,0:0:0:0:
372,279,227192,6,0,L|375:155,1,104.999996795654,2|0,0:0|0:0,0:0:0:0:
152,139,227423,1,8,0:0:0:0:
378,79,227538,1,0,0:0:0:0:
151,219,227654,2,0,L|33:218,1,104.999996795654,0|2,0:0|0:0,0:0:0:0:
193,213,227827,1,0,0:0:0:0:
345,199,227885,1,8,0:0:0:0:
113,135,228000,1,0,0:0:0:0:
348,104,228115,6,0,B|395:228|395:228|347:102|347:102|214:103,1,393.750015020371,2|8,0:0|0:0,0:0:0:0:
392,283,228346,1,0,0:0:0:0:
490,294,228462,1,8,0:0:0:0:
164,104,228577,6,0,B|117:228|117:228|165:102|165:102|298:103,1,393.750015020371,2|2,0:0|0:0,0:0:0:0:
159,304,228808,2,0,L|117:166,1,131.25000500679,0|0,0:0|0:0,0:0:0:0:
309,229,228923,2,0,L|351:91,1,131.25000500679,8|0,0:0|0:0,0:0:0:0:
135,55,229038,6,0,L|-10:61,1,104.999996795654,2|0,0:0|0:0,0:0:0:0:
224,151,229269,1,8,0:0:0:0:
32,209,229384,1,0,0:0:0:0:
235,331,229500,2,0,L|233:220,1,104.999996795654,0|2,0:0|0:0,0:0:0:0:
358,197,229673,1,0,0:0:0:0:
494,172,229730,2,0,L|496:61,1,104.999996795654,8|0,0:0|0:0,0:0:0:0:
210,83,229961,5,2,0:0:0:0:
405,162,230077,1,0,0:0:0:0:
303,187,230192,2,0,L|297:300,1,104.999996795654,8|0,0:0|0:0,0:0:0:0:
89,328,230423,2,0,L|225:330,1,104.999996795654,2|2,0:0|0:0,0:0:0:0:
401,335,230654,2,0,L|279:338,1,104.999996795654,8|0,0:0|0:0,0:0:0:0:
348,335,230827,1,0,0:0:0:0:
129,225,230885,6,0,L|70:228,1,52.4999983978272,2|0,0:0|0:0,0:0:0:0:
227,157,231000,2,0,L|285:153,1,52.4999983978272,0|0,0:0|0:0,0:0:0:0:
92,134,231115,2,0,B|40:132|40:132|92:131,1,104.999996795654,4|2,0:2|0:0,0:0:0:0:
235,96,231288,1,0,0:0:0:0:
383,111,231346,6,0,L|473:110,1,52.4999983978272,0|0,0:0|0:0,0:0:0:0:
252,174,231462,1,4,0:2:0:0:
80,213,231577,2,0,L|10:215,2,52.4999983978272,4|0|0,0:2|0:0|0:0,0:0:0:0:
247,228,231750,1,0,0:0:0:0:
451,283,231808,6,0,L|382:286,1,52.4999983978272,4|0,0:2|0:0,0:0:0:0:
208,336,231923,2,0,L|277:331,1,52.4999983978272,4|0,0:2|0:0,0:0:0:0:
208,336,232038,2,0,L|141:334,1,52.4999983978272
308,248,232154,2,0,L|308:185,1,52.4999983978272,2|0,0:0|0:0,0:0:0:0:
460,182,232269,2,0,L|460:119,1,52.4999983978272,4|0,0:2|0:0,0:0:0:0:
293,158,232385,2,0,L|293:95,1,52.4999983978272,0|0,0:0|0:0,0:0:0:0:
141,92,232500,2,0,L|107:92,2,26.2499991989136,8|0|0,0:0|0:0|0:0,0:0:0:0:
259,81,232587,1,0,0:0:0:0:
377,92,232615,2,0,L|411:92,2,26.2499991989136,0|0|0,0:0|0:0|0:0,0:0:0:0:
259,81,232702,1,0,0:0:0:0:
73,269,232731,6,0,L|72:217,1,52.4999983978272,2|0,0:0|0:0,0:0:0:0:
202,259,232846,1,4,0:2:0:0:
314,259,232861,1,0,0:0:0:0:
439,269,232962,2,0,L|440:217,1,52.4999983978272,0|0,0:0|0:0,0:0:0:0:
310,259,233077,1,4,0:2:0:0:
198,259,233092,1,0,0:0:0:0:
73,269,233192,6,0,L|72:217,1,52.4999983978272,0|0,0:0|0:0,0:0:0:0:
202,259,233307,1,4,0:2:0:0:
314,259,233322,1,0,0:0:0:0:
439,269,233423,2,0,L|440:217,1,52.4999983978272,2|0,0:0|0:0,0:0:0:0:
310,259,233538,1,4,0:2:0:0:
198,259,233553,1,0,0:0:0:0:
75,315,233654,6,0,L|14:315,1,52.4999983978272,2|0,0:0|0:0,0:0:0:0:
146,196,233769,1,4,0:2:0:0:
258,196,233784,1,0,0:0:0:0:
437,315,233885,2,0,L|498:315,1,52.4999983978272,0|0,0:0|0:0,0:0:0:0:
366,196,234000,1,4,0:2:0:0:
254,196,234015,1,0,0:0:0:0:
75,315,234115,6,0,L|14:315,1,52.4999983978272,0|0,0:0|0:0,0:0:0:0:
209,178,234231,2,0,L|276:178,1,52.4999983978272,2|0,0:0|0:0,0:0:0:0:
437,315,234346,6,0,L|498:315,1,52.4999983978272,8|0,0:0|0:0,0:0:0:0:
286,272,234462,1,4,0:2:0:0:
259,272,234490,1,0,0:0:0:0:
233,272,234519,1,0,0:0:0:0:
439,271,234577,6,0,L|440:219,1,52.4999983978272,2|0,0:0|0:0,0:0:0:0:
310,259,234692,1,4,0:2:0:0:
198,259,234707,1,0,0:0:0:0:
73,271,234808,2,0,L|72:219,1,52.4999983978272,0|0,0:0|0:0,0:0:0:0:
202,259,234923,1,4,0:2:0:0:
314,259,234938,1,0,0:0:0:0:
439,271,235038,6,0,L|440:219,1,52.4999983978272,0|0,0:0|0:0,0:0:0:0:
310,259,235153,1,4,0:2:0:0:
198,259,235168,1,0,0:0:0:0:
73,271,235269,2,0,L|72:219,1,52.4999983978272,2|0,0:0|0:0,0:0:0:0:
202,259,235384,1,4,0:2:0:0:
314,259,235399,1,0,0:0:0:0:
439,318,235500,6,0,L|500:318,1,52.4999983978272,2|0,0:0|0:0,0:0:0:0:
366,196,235615,1,4,0:2:0:0:
254,196,235630,1,0,0:0:0:0:
58,268,235673,1,8,0:0:0:0:
5,268,235731,2,0,L|58:268,1,52.4999983978272,0|0,0:0|0:0,0:0:0:0:
195,201,235846,1,8,0:0:0:0:
307,201,235861,1,0,0:0:0:0:
493,286,235962,6,0,L|491:205,1,52.4999983978272,2|0,0:0|0:0,0:0:0:0:
327,245,236077,2,0,L|323:180,1,52.4999983978272,4|0,0:2|0:0,0:0:0:0:
129,157,236192,2,0,L|94:157,2,26.2499991989136,0|0|0,0:0|0:0|0:0,0:0:0:0:
254,127,236279,1,0,0:0:0:0:
379,157,236308,2,0,L|414:157,2,26.2499991989136,4|0|0,0:2|0:0|0:0,0:0:0:0:
254,127,236395,1,0,0:0:0:0:
58,268,236423,6,0,L|-3:268,1,52.4999983978272,2|0,0:0|0:0,0:0:0:0:
146,196,236538,1,4,0:2:0:0:
258,196,236553,1,0,0:0:0:0:
454,268,236654,2,0,L|515:268,1,52.4999983978272,0|0,0:0|0:0,0:0:0:0:
366,196,236769,1,4,0:2:0:0:
254,196,236784,1,0,0:0:0:0:
58,268,236885,6,0,L|-3:268,1,52.4999983978272,0|0,0:0|0:0,0:0:0:0:
146,196,237000,1,0,0:2:0:0:
258,196,237015,1,0,0:0:0:0:
454,268,237116,2,0,L|515:268,1,52.4999983978272,2|0,0:0|0:0,0:0:0:0:
366,196,237231,1,4,0:2:0:0:
254,196,237246,1,0,0:0:0:0:
119,277,237288,1,0,0:0:0:0:
255,245,237346,5,2,0:0:0:0:
473,178,237462,2,0,L|477:101,1,52.4999983978272,4|0,0:2|0:0,0:0:0:0:
316,140,237577,2,0,L|313:68,1,52.4999983978272,8|0,0:0|0:0,0:0:0:0:
164,109,237692,2,0,L|161:37,1,52.4999983978272,0|0,0:0|0:0,0:0:0:0:
363,276,237808,6,0,L|433:274,2,52.4999983978272,2|0|0,0:0|0:0|0:0,0:0:0:0:
149,276,237981,2,0,L|79:274,2,52.4999983978272,8|0|0,0:0|0:0|0:0,0:0:0:0:
326,223,238154,1,8,0:0:0:0:
186,223,238212,1,0,0:0:0:0:
392,175,238269,6,0,L|508:176,1,104.999996795654,2|0,0:0|0:0,0:0:0:0:
256,104,238500,1,8,0:0:0:0:
63,112,238615,2,0,L|65:57,1,52.4999983978272,2|0,0:0|0:0,0:0:0:0:
222,31,238731,2,0,L|223:99,1,52.4999983978272,0|0,0:0|0:0,0:0:0:0:
396,89,238846,2,0,L|464:90,1,52.4999983978272,2|0,0:0|0:0,0:0:0:0:
223,190,238962,2,0,L|127:192,1,52.4999983978272,8|0,0:0|0:0,0:0:0:0:
425,264,239077,2,0,L|493:265,1,52.4999983978272,0|0,0:0|0:0,0:0:0:0:
192,326,239192,6,0,B|61:324|61:324|19:193,1,262.500010013581,2|0,0:0|0:0,0:0:0:0:
320,326,239365,2,0,B|451:324|451:324|493:193,1,262.500010013581,8|0,0:0|0:0,0:0:0:0:
308,186,239538,2,0,L|137:184,1,131.25000500679,8|0,0:0|0:0,0:0:0:0:
390,160,239654,5,2,0:0:0:0:
458,148,239712,1,0,0:0:0:0:
256,128,239769,1,0,0:0:0:0:
54,148,239827,1,8,0:0:0:0:
256,64,239885,1,0,0:0:0:0:
402,70,239913,2,0,L|422:150,2,65.6250025033952,0|0|0,0:0|0:0|0:0,0:0:0:0:
256,64,240000,1,8,0:0:0:0:
110,70,240029,2,0,L|90:150,2,65.6250025033952,0|0|0,0:0|0:0|0:0,0:0:0:0:
441,239,240115,5,2,0:0:0:0:
256,192,240231,12,0,241731,0:0:0:0:
202,297,241962,6,0,B|187:279|187:279|205:267|205:267|190:250|190:250|209:238|209:238|198:219|198:219|218:211|218:211|211:188|211:188|225:176|225:176,7,175,0|0|0|0|0|0|0|0,0:0|0:0|0:0|0:0|0:0|0:0|0:0|0:0,0:0:0:0:
361,300,243808,5,2,0:0:0:0:
168,302,243923,2,0,L|160:113,1,175,0|0,0:0|0:0,0:0:0:0:
398,163,244269,2,0,L|400:54,1,87.5,0|0,0:0|0:0,0:0:0:0:
306,39,244500,2,0,L|414:37,1,87.5,0|0,0:0|0:0,0:0:0:0:
194,258,244731,6,0,L|-11:250,1,175,2|0,0:0|0:0,0:0:0:0:
229,193,245077,1,0,0:0:0:0:
469,284,245192,2,0,B|384:261|384:261|478:252,1,175,0|0,0:0|0:0,0:0:0:0:
162,272,245654,5,2,0:0:0:0:
350,272,245769,1,0,0:0:0:0:
141,183,245885,1,2,0:0:0:0:
371,183,246000,1,0,0:0:0:0:
49,124,246115,1,2,0:0:0:0:
256,96,246231,1,0,0:0:0:0:
463,124,246346,1,2,0:0:0:0:
256,96,246462,1,0,0:0:0:0:
75,295,246577,6,0,L|18:297,1,52.4999983978272,2|0,0:0|0:0,0:0:0:0:
190,276,246692,2,0,L|247:278,1,52.4999983978272,0|0,0:0|0:0,0:0:0:0:
437,295,246808,2,0,L|494:297,1,52.4999983978272,8|0,0:0|0:0,0:0:0:0:
322,276,246923,2,0,L|265:278,1,52.4999983978272,0|0,0:0|0:0,0:0:0:0:
102,221,247038,6,0,L|91:183,2,26.2499991989136,2|0|0,0:0|0:0|0:0,0:0:0:0:
256,192,247125,1,0,0:0:0:0:
410,221,247154,2,0,L|421:183,2,26.2499991989136,2|0|0,0:0|0:0|0:0,0:0:0:0:
256,192,247241,1,0,0:0:0:0:
96,345,247269,6,0,L|54:346,2,26.2499991989136,8|0|0,0:0|0:0|0:0,0:0:0:0:
256,336,247356,1,0,0:0:0:0:
416,345,247385,2,0,L|458:346,2,26.2499991989136,0|0|0,0:0|0:0|0:0,0:0:0:0:
256,336,247472,1,0,0:0:0:0:
96,345,247500,5,2,0:0:0:0:
161,296,247587,2,0,B|249:297|249:297|161:296|161:296|248:297|248:297|161:298|161:298,1,350,0|0,0:0|0:0,0:0:0:0:
87,310,248192,1,0,0:0:0:0:
345,301,248308,1,0,0:0:0:0:
16,351,248423,6,0,B|16:-1|16:-1|16:368|16:368|16:240,1,840,0|0,0:0|0:0,0:0:0:0:
484,330,249346,6,0,L|487:258,1,52.4999983978272,2|0,0:0|0:0,0:0:0:0:
331,304,249462,2,0,L|328:232,1,52.4999983978272,0|0,0:0|0:0,0:0:0:0:
183,251,249577,2,0,L|181:304,1,52.4999983978272,8|0,0:0|0:0,0:0:0:0:
25,277,249692,2,0,L|28:330,1,52.4999983978272,0|0,0:0|0:0,0:0:0:0:
484,330,249808,6,0,L|487:258,1,52.4999983978272,0|0,0:0|0:0,0:0:0:0:
331,304,249924,2,0,L|328:232,1,52.4999983978272,2|0,0:0|0:0,0:0:0:0:
183,251,250039,2,0,L|181:304,1,52.4999983978272,8|0,0:0|0:0,0:0:0:0:
25,277,250154,2,0,L|28:330,1,52.4999983978272,0|0,0:0|0:0,0:0:0:0:
484,330,250269,6,0,L|487:258,1,52.4999983978272,2|0,0:0|0:0,0:0:0:0:
331,304,250385,2,0,L|328:232,1,52.4999983978272,0|0,0:0|0:0,0:0:0:0:
147,209,250500,2,0,L|85:209,1,52.4999983978272,8|0,0:0|0:0,0:0:0:0:
258,128,250615,2,0,L|322:127,1,52.4999983978272,0|0,0:0|0:0,0:0:0:0:
28,330,250731,6,0,L|25:258,1,52.4999983978272,2|0,0:0|0:0,0:0:0:0:
181,304,250847,2,0,L|184:232,1,52.4999983978272,2|0,0:0|0:0,0:0:0:0:
365,209,250962,2,0,L|427:209,1,52.4999983978272,8|0,0:0|0:0,0:0:0:0:
254,128,251077,2,0,L|190:127,1,52.4999983978272,0|0,0:0|0:0,0:0:0:0:
28,330,251192,6,0,L|25:258,1,52.4999983978272,2|0,0:0|0:0,0:0:0:0:
181,304,251308,2,0,L|184:232,1,52.4999983978272,0|0,0:0|0:0,0:0:0:0:
329,251,251423,2,0,L|331:304,1,52.4999983978272,8|0,0:0|0:0,0:0:0:0:
487,277,251538,2,0,L|484:330,1,52.4999983978272,0|0,0:0|0:0,0:0:0:0:
28,330,251654,6,0,L|25:258,1,52.4999983978272,0|0,0:0|0:0,0:0:0:0:
181,304,251770,2,0,L|184:232,1,52.4999983978272,2|0,0:0|0:0,0:0:0:0:
329,251,251885,2,0,L|331:304,1,52.4999983978272,8|0,0:0|0:0,0:0:0:0:
487,277,252000,2,0,L|484:330,1,52.4999983978272,0|0,0:0|0:0,0:0:0:0:
28,330,252115,6,0,L|25:258,1,52.4999983978272,2|0,0:0|0:0,0:0:0:0:
181,304,252231,2,0,L|184:232,1,52.4999983978272,0|0,0:0|0:0,0:0:0:0:
365,209,252346,2,0,L|427:209,1,52.4999983978272,8|0,0:0|0:0,0:0:0:0:
254,128,252461,2,0,L|190:127,1,52.4999983978272,0|0,0:0|0:0,0:0:0:0:
484,330,252577,6,0,L|487:258,1,52.4999983978272,2|0,0:0|0:0,0:0:0:0:
331,304,252693,2,0,L|328:232,1,52.4999983978272,2|0,0:0|0:0,0:0:0:0:
481,185,252808,2,0,L|423:184,1,52.4999983978272,8|0,0:0|0:0,0:0:0:0:
267,178,252923,2,0,L|331:177,1,52.4999983978272,4|0,0:2|0:0,0:0:0:0:
130,189,253038,6,0,L|126:113,1,52.4999983978272,2|0,0:0|0:0,0:0:0:0:
289,115,253154,2,0,L|295:47,1,52.4999983978272
472,189,253269,2,0,L|476:113,1,52.4999983978272,8|0,0:0|0:0,0:0:0:0:
313,115,253385,2,0,L|307:47,1,52.4999983978272
52,63,253500,6,0,L|48:116,1,52.4999983978272
208,139,253616,2,0,L|210:192,1,52.4999983978272,2|0,0:0|0:0,0:0:0:0:
371,223,253731,2,0,L|376:276,1,52.4999983978272,8|0,0:0|0:0,0:0:0:0:
210,273,253847,2,0,L|207:326,1,52.4999983978272
474,335,253962,6,0,L|472:272,1,52.4999983978272,2|0,0:0|0:0,0:0:0:0:
297,279,254077,2,0,L|295:216,1,52.4999983978272,0|0,0:0|0:0,0:0:0:0:
86,202,254192,2,0,L|148:200,1,52.4999983978272,8|0,0:0|0:0,0:0:0:0:
363,179,254308,2,0,L|465:173,1,52.4999983978272,0|0,0:0|0:0,0:0:0:0:
156,65,254423,6,0,B|129:65|129:65|155:65,1,52.4999983978272,2|0,0:0|0:0,0:0:0:0:
356,65,254538,2,0,B|383:65|383:65|357:65,1,52.4999983978272,2|0,0:0|0:0,0:0:0:0:
156,165,254654,2,0,L|104:166,1,52.4999983978272,8|0,0:0|0:0,0:0:0:0:
279,252,254769,2,0,L|208:252,1,52.4999983978272,0|0,0:0|0:0,0:0:0:0:
399,336,254885,5,2,0:0:0:0:
446,319,254942,1,0,0:0:0:0:
450,275,255000,1,0,0:0:0:0:
409,244,255058,1,0,0:0:0:0:
233,204,255115,2,0,L|184:205,4,26.2499991989136,8|0|0|0|0,0:0|0:0|0:0|0:0|0:0,0:0:0:0:
402,159,255288,1,0,0:0:0:0:
226,101,255346,6,0,L|170:102,1,52.4999983978272,2|0,0:0|0:0,0:0:0:0:
344,42,255462,2,0,L|393:43,4,26.2499991989136,4|0|0|0|0,0:2|0:0|0:0|0:0|0:0,0:0:0:0:
186,42,255635,1,0,0:0:0:0:
43,49,255692,2,0,L|-6:50,2,26.2499991989136,4|0|0,0:2|0:0|0:0,0:0:0:0:
256,219,255808,5,2,0:0:0:0:
484,187,255923,1,2,0:0:0:0:
258,353,256038,2,0,L|256:158,1,157.499995193482,8|0,0:0|0:0,0:0:0:0:
56,259,256269,2,0,L|55:91,1,157.499995193482,2|0,0:0|0:0,0:0:0:0:
258,99,256500,1,4,0:2:0:0:
283,105,256528,1,0,0:0:0:0:
301,123,256557,1,0,0:0:0:0:
308,148,256586,1,0,0:0:0:0:
300,173,256615,1,0,0:0:0:0:
281,190,256644,1,0,0:0:0:0:
255,195,256673,1,0,0:0:0:0:
80,285,256731,6,0,L|24:285,1,52.4999983978272,2|0,0:0|0:0,0:0:0:0:
200,259,256846,2,0,L|239:259,1,26.2499991989136,0|0,0:0|0:0,0:0:0:0:
108,200,256904,2,0,L|69:201,1,26.2499991989136,0|0,0:0|0:0,0:0:0:0:
219,136,256962,2,0,L|319:132,1,52.4999983978272,8|0,0:0|0:0,0:0:0:0:
407,121,257077,2,0,L|469:116,1,52.4999983978272,0|0,0:0|0:0,0:0:0:0:
258,271,257192,6,0,L|258:209,1,52.4999983978272,2|0,0:0|0:0,0:0:0:0:
83,169,257308,2,0,L|55:168,1,26.2499991989136,8|0,0:0|0:0,0:0:0:0:
195,111,257365,2,0,L|229:107,1,26.2499991989136,0|0,0:0|0:0,0:0:0:0:
420,238,257423,6,0,L|420:176,1,52.4999983978272,0|0,0:0|0:0,0:0:0:0:
245,136,257539,2,0,L|217:135,1,26.2499991989136,2|0,0:0|0:0,0:0:0:0:
357,78,257596,2,0,L|391:74,1,26.2499991989136,0|0,0:0|0:0,0:0:0:0:
210,227,257654,6,0,L|144:227,1,52.4999983978272,0|0,0:0|0:0,0:0:0:0:
19,297,257769,2,0,L|89:298,1,52.4999983978272,2|0,0:0|0:0,0:0:0:0:
247,311,257885,2,0,L|274:312,1,26.2499991989136,8|0,0:0|0:0,0:0:0:0:
155,276,257942,2,0,L|117:274,1,26.2499991989136,0|0,0:0|0:0,0:0:0:0:
269,225,258000,2,0,L|331:227,1,52.4999983978272,0|0,0:0|0:0,0:0:0:0:
134,156,258115,6,0,L|89:157,2,26.2499991989136,2|0|0,0:0|0:0|0:0,0:0:0:0:
256,160,258202,1,0,0:0:0:0:
378,156,258231,2,0,L|423:157,2,26.2499991989136,0|0|0,0:0|0:0|0:0,0:0:0:0:
163,255,258346,2,0,P|118:208|174:141,1,157.499995193482,4|0,0:2|0:0,0:0:0:0:
382,83,258577,6,0,L|443:83,1,52.4999983978272,2|0,0:0|0:0,0:0:0:0:
194,176,258692,2,0,L|153:177,2,26.2499991989136,0|0|0,0:0|0:0|0:0,0:0:0:0:
305,165,258779,1,0,0:0:0:0:
416,176,258808,2,0,L|457:177,2,26.2499991989136,8|0|0,0:0|0:0|0:0,0:0:0:0:
305,165,258894,1,0,0:0:0:0:
130,83,258923,6,0,L|69:83,1,52.4999983978272,0|0,0:0|0:0,0:0:0:0:
318,176,259038,2,0,L|359:177,2,26.2499991989136,0|0|0,0:0|0:0|0:0,0:0:0:0:
207,165,259125,1,0,0:0:0:0:
96,176,259154,2,0,L|55:177,2,26.2499991989136,2|0|0,0:0|0:0|0:0,0:0:0:0:
207,165,259240,1,0,0:0:0:0:
402,248,259269,6,0,L|406:319,1,52.4999983978272,8|0,0:0|0:0,0:0:0:0:
229,338,259385,2,0,L|227:300,1,26.2499991989136,0|0,0:0|0:0,0:0:0:0:
356,300,259442,2,0,L|358:262,1,26.2499991989136,0|0,0:0|0:0,0:0:0:0:
211,238,259500,1,2,0:0:0:0:
70,225,259529,2,0,L|67:190,2,26.2499991989136,0|0|0,0:0|0:0|0:0,0:0:0:0:
243,173,259615,6,0,L|325:167,1,52.4999983978272,0|0,0:0|0:0,0:0:0:0:
140,121,259731,2,0,L|129:82,2,26.2499991989136,8|0|0,0:0|0:0|0:0,0:0:0:0:
305,105,259846,2,0,L|363:102,1,52.4999983978272,0|0,0:0|0:0,0:0:0:0:
189,279,259962,1,2,0:0:0:0:
103,246,260077,2,0,B|101:141|101:141|259:138,1,262.499991989136,4|0,0:2|0:0,0:0:0:0:
126,279,260423,5,2,0:0:0:0:
109,263,260452,1,0,0:0:0:0:
126,279,260481,1,0,0:0:0:0:
256,271,260538,1,0,0:0:0:0:
392,251,260596,1,0,0:0:0:0:
214,189,260654,2,0,L|179:192,2,26.2499991989136,8|0|0,0:0|0:0|0:0,0:0:0:0:
390,126,260769,2,0,B|416:122|416:122|385:124,1,52.4999983978272,0|0,0:0|0:0,0:0:0:0:
130,111,260885,6,0,L|89:112,1,26.2499991989136,2|0,0:0|0:0,0:0:0:0:
220,60,260942,2,0,L|261:61,1,26.2499991989136,0|0,0:0|0:0,0:0:0:0:
382,111,261000,2,0,L|423:112,1,26.2499991989136,8|0,0:0|0:0,0:0:0:0:
292,60,261058,2,0,L|251:61,1,26.2499991989136,0|0,0:0|0:0,0:0:0:0:
27,285,261115,2,0,L|22:221,1,52.4999983978272,4|0,0:2|0:0,0:0:0:0:
485,285,261231,2,0,L|490:221,1,52.4999983978272,4|0,0:2|0:0,0:0:0:0:
225,268,261346,6,0,L|170:266,1,52.4999983978272,2|0,0:0|0:0,0:0:0:0:
339,219,261462,2,0,L|394:217,1,52.4999983978272,0|0,0:0|0:0,0:0:0:0:
222,165,261577,2,0,L|189:169,1,26.2499991989136,8|0,0:0|0:0,0:0:0:0:
300,110,261635,2,0,L|335:105,1,26.2499991989136,0|0,0:0|0:0,0:0:0:0:
170,68,261692,2,0,L|115:66,1,52.4999983978272,0|0,0:0|0:0,0:0:0:0:
441,323,261808,6,0,P|474:302|430:207,1,157.499995193482,4|0,0:2|0:0,0:0:0:0:
24,308,262038,2,0,L|24:144,1,157.499995193482,4|0,0:2|0:0,0:0:0:0:
319,196,262269,6,0,L|392:193,1,52.4999983978272,2|0,0:0|0:0,0:0:0:0:
193,196,262385,2,0,L|120:193,1,52.4999983978272,2|0,0:0|0:0,0:0:0:0:
319,144,262500,1,8,0:0:0:0:
473,127,262558,1,0,0:0:0:0:
313,86,262615,2,0,L|249:86,1,52.4999983978272,0|0,0:0|0:0,0:0:0:0:
28,283,262731,6,0,L|27:212,1,52.4999983978272,2|0,0:0|0:0,0:0:0:0:
232,261,262846,2,0,L|233:194,1,52.4999983978272,2|0,0:0|0:0,0:0:0:0:
37,151,262962,2,0,L|19:151,4,13.1249995994568,8|0|0|0|0,0:0|0:0|0:0|0:0|0:0,0:0:0:0:
150,146,263034,1,0,0:0:0:0:
256,144,263048,1,0,0:0:0:0:
362,146,263062,1,0,0:0:0:0:
475,151,263077,2,0,L|493:151,4,13.1249995994568,0|0|0|0|0,0:0|0:0|0:0|0:0|0:0,0:0:0:0:
210,335,263192,5,2,0:0:0:0:
181,321,263221,1,0,0:0:0:0:
171,296,263249,1,0,0:0:0:0:
181,321,263278,1,0,0:0:0:0:
310,282,263308,1,0,0:0:0:0:
339,268,263336,1,0,0:0:0:0:
349,243,263365,1,0,0:0:0:0:
339,268,263394,1,0,0:0:0:0:
160,223,263423,6,0,L|157:136,1,52.4999983978272,2|0,0:0|0:0,0:0:0:0:
352,223,263538,2,0,L|355:136,1,52.4999983978272,0|0,0:0|0:0,0:0:0:0:
141,257,263654,5,2,0:0:0:0:
110,240,263682,1,0,0:0:0:0:
89,213,263711,1,0,0:0:0:0:
81,179,263740,1,0,0:0:0:0:
88,145,263769,1,2,0:0:0:0:
108,117,263798,1,0,0:0:0:0:
139,100,263827,1,0,0:0:0:0:
371,257,263885,1,2,0:0:0:0:
401,240,263913,1,0,0:0:0:0:
422,213,263942,1,0,0:0:0:0:
430,179,263971,1,0,0:0:0:0:
423,145,264000,1,0,0:0:0:0:
403,117,264029,1,0,0:0:0:0:
372,100,264058,1,0,0:0:0:0:
133,48,264115,5,2,0:0:0:0:
22,110,264231,1,0,0:0:0:0:
236,158,264346,2,0,L|287:234,1,70,0|0,0:0|0:0,0:0:0:0:
112,352,264462,6,0,B|112:48|112:48|112:368|112:368|112:32|112:32|112:336|112:336|112:0|112:0|112:384|112:384|112:16|112:16|112:320|112:320|112:64|112:64|112:96,1,2940,0|0,0:0|0:0,0:0:0:0:
