osu file format v14

[General]
AudioFilename: audio.mp3
AudioLeadIn: 0
PreviewTime: 148677
Countdown: 1
SampleSet: Soft
StackLeniency: 0.7
Mode: 3
LetterboxInBreaks: 0
SpecialStyle: 0
WidescreenStoryboard: 1

[Editor]
Bookmarks: 20369,42523,49908,57292,64677,72061,75754,79446,86831,100677,112677,116369,134831,164369,171754,193908,208677,223446,244677,264004,264061
DistanceSpacing: 0.8
BeatDivisor: 4
GridSize: 4
TimelineZoom: 2.599999

[Metadata]
Title:Villain Virus [feat. Camellia]
TitleUnicode:Villain Virus [feat. かめりあ]
Artist:Kobaryo
ArtistUnicode:Kobaryo
Creator:FelixSpade
Version:eZmmR's INANIMATE+
Source:
Tags:mixpeed action cryochan ezmmr
BeatmapID:1713579
BeatmapSetID:816364

[Difficulty]
HPDrainRate:8.4
CircleSize:4
OverallDifficulty:7.8
ApproachRate:5
SliderMultiplier:1.4
SliderTickRate:1

[Events]
//Background and Video events
0,0,"bgezmmr.jpg",0,0
//Break Periods
2,20569,33015
2,79646,81246
2,208877,214861
//Storyboard Layer 0 (Background)
//Storyboard Layer 1 (Fail)
//Storyboard Layer 2 (Pass)
//Storyboard Layer 3 (Foreground)
//Storyboard Sound Samples

[TimingPoints]
1908,230.769230769231,4,2,0,0,1,0
20369,-133.333333333333,4,2,0,0,0,0
27754,-200,4,2,0,0,0,0
34215,-166.666666666667,4,2,0,0,0,0
34331,-142.857142857143,4,2,0,0,0,0
34446,-125,4,2,0,0,0,0
34561,-111.111111111111,4,2,0,0,0,0
34677,-100,4,2,0,0,0,0
49677,-66.6666666666667,4,2,0,0,0,0
49792,-100,4,2,0,0,0,0
49908,-100,4,2,0,0,0,1
64677,-100,4,2,0,0,0,0
86600,-12.5,4,2,0,0,0,0
86629,-250,4,2,0,0,0,0
86744,-100,4,2,0,0,0,0
86821,-25,4,2,0,0,0,0
86831,-100,4,2,0,0,0,0
93754,-14.2857142857143,4,2,0,0,0,0
93811,-285.714285714286,4,2,0,0,0,0
93898,-100,4,2,0,0,0,0
94100,-100,4,2,0,0,0,0
94215,-100,4,2,0,0,0,0
116369,-200,4,2,0,0,0,0
119138,-166.666666666667,4,2,0,0,0,0
119254,-142.857142857143,4,2,0,0,0,0
119369,-125,4,2,0,0,0,0
119484,-111.111111111111,4,2,0,0,0,0
119600,-100,4,2,0,0,0,0
134831,-100,4,2,0,0,0,0
141754,-14.2857142857143,4,2,0,0,0,0
141811,-285.714285714286,4,2,0,0,0,0
142013,-142.857142857143,4,2,0,0,0,0
142215,-100,4,2,0,0,0,0
149600,-100,4,2,0,0,0,1
164369,-250,4,2,0,0,0,0
175561,-250,4,2,0,0,0,0
175561,-250,4,2,0,0,0,0
175570.290909091,-249.029754204398,4,2,0,0,0,0
175579.581818182,-248.067010309278,4,2,0,0,0,0
175588.872727273,-247.111681643132,4,2,0,0,0,0
175598.163636364,-246.16368286445,4,2,0,0,0,0
175607.454545455,-245.222929936306,4,2,0,0,0,0
175616.745454545,-244.289340101523,4,2,0,0,0,0
175626.036363636,-243.362831858407,4,2,0,0,0,0
175635.327272727,-242.443324937028,4,2,0,0,0,0
175644.618181818,-241.530740276035,4,2,0,0,0,0
175653.909090909,-240.625,4,2,0,0,0,0
175663.2,-239.72602739726,4,2,0,0,0,0
175672.490909091,-238.833746898263,4,2,0,0,0,0
175681.781818182,-237.948084054388,4,2,0,0,0,0
175691.072727273,-237.068965517241,4,2,0,0,0,0
175700.363636364,-236.196319018405,4,2,0,0,0,0
175709.654545455,-235.330073349633,4,2,0,0,0,0
175718.945454545,-234.470158343484,4,2,0,0,0,0
175728.236363636,-233.616504854369,4,2,0,0,0,0
175737.527272727,-232.769044740024,4,2,0,0,0,0
175746.818181818,-231.927710843373,4,2,0,0,0,0
175756.109090909,-231.09243697479,4,2,0,0,0,0
175765.4,-230.263157894737,4,2,0,0,0,0
175774.690909091,-229.439809296782,4,2,0,0,0,0
175783.981818182,-228.622327790974,4,2,0,0,0,0
175793.272727273,-227.810650887574,4,2,0,0,0,0
175802.563636364,-227.004716981132,4,2,0,0,0,0
175811.854545455,-226.2044653349,4,2,0,0,0,0
175821.145454545,-225.409836065574,4,2,0,0,0,0
175830.436363636,-224.620770128355,4,2,0,0,0,0
175839.727272727,-223.837209302326,4,2,0,0,0,0
175849.018181818,-223.05909617613,4,2,0,0,0,0
175858.309090909,-222.286374133949,4,2,0,0,0,0
175867.6,-221.518987341772,4,2,0,0,0,0
175876.890909091,-220.756880733945,4,2,0,0,0,0
175886.181818182,-220,4,2,0,0,0,0
175895.472727273,-219.248291571754,4,2,0,0,0,0
175904.763636364,-218.50170261067,4,2,0,0,0,0
175914.054545455,-217.760180995475,4,2,0,0,0,0
175923.345454545,-217.023675310034,4,2,0,0,0,0
175932.636363636,-216.292134831461,4,2,0,0,0,0
175941.927272727,-215.565509518477,4,2,0,0,0,0
175951.218181818,-214.84375,4,2,0,0,0,0
175960.509090909,-214.12680756396,4,2,0,0,0,0
175969.8,-213.414634146341,4,2,0,0,0,0
175979.090909091,-212.707182320442,4,2,0,0,0,0
175988.381818182,-212.004405286344,4,2,0,0,0,0
175997.672727273,-211.306256860593,4,2,0,0,0,0
176006.963636364,-210.612691466083,4,2,0,0,0,0
176016.254545455,-209.923664122137,4,2,0,0,0,0
176025.545454545,-209.239130434783,4,2,0,0,0,0
176034.836363636,-208.559046587216,4,2,0,0,0,0
176044.127272727,-207.883369330454,4,2,0,0,0,0
176053.418181818,-207.212055974166,4,2,0,0,0,0
176062.709090909,-206.545064377682,4,2,0,0,0,0
176072,-205.882352941176,4,2,0,0,0,0
176081.290909091,-205.223880597015,4,2,0,0,0,0
176090.581818182,-204.569606801275,4,2,0,0,0,0
176099.872727273,-203.919491525424,4,2,0,0,0,0
176109.163636364,-203.273495248152,4,2,0,0,0,0
176118.454545455,-202.631578947368,4,2,0,0,0,0
176127.745454545,-201.99370409234,4,2,0,0,0,0
176137.036363636,-201.359832635983,4,2,0,0,0,0
176146.327272727,-200.729927007299,4,2,0,0,0,0
176155.618181818,-200.10395010395,4,2,0,0,0,0
176164.909090909,-199.481865284974,4,2,0,0,0,0
176174.2,-198.863636363636,4,2,0,0,0,0
176183.490909091,-198.249227600412,4,2,0,0,0,0
176192.781818182,-197.638603696099,4,2,0,0,0,0
176202.072727273,-197.031729785056,4,2,0,0,0,0
176211.363636364,-196.428571428571,4,2,0,0,0,0
176220.654545455,-195.829094608342,4,2,0,0,0,0
176229.945454545,-195.233265720081,4,2,0,0,0,0
176239.236363636,-194.64105156724,4,2,0,0,0,0
176248.527272727,-194.052419354839,4,2,0,0,0,0
176257.818181818,-193.467336683417,4,2,0,0,0,0
176267.109090909,-192.885771543086,4,2,0,0,0,0
176276.4,-192.307692307692,4,2,0,0,0,0
176285.690909091,-191.733067729084,4,2,0,0,0,0
176294.981818182,-191.16186693148,4,2,0,0,0,0
176304.272727273,-190.594059405941,4,2,0,0,0,0
176313.563636364,-190.029615004936,4,2,0,0,0,0
176322.854545455,-189.468503937008,4,2,0,0,0,0
176332.145454545,-188.910696761531,4,2,0,0,0,0
176341.436363636,-188.356164383562,4,2,0,0,0,0
176350.727272727,-187.80487804878,4,2,0,0,0,0
176360.018181818,-187.256809338521,4,2,0,0,0,0
176369.309090909,-186.711930164888,4,2,0,0,0,0
176378.6,-186.170212765957,4,2,0,0,0,0
176387.890909091,-185.631629701061,4,2,0,0,0,0
176397.181818182,-185.096153846154,4,2,0,0,0,0
176406.472727273,-184.563758389262,4,2,0,0,0,0
176415.763636364,-184.034416826004,4,2,0,0,0,0
176425.054545455,-183.508102955195,4,2,0,0,0,0
176434.345454545,-182.984790874525,4,2,0,0,0,0
176443.636363636,-182.464454976303,4,2,0,0,0,0
176452.927272727,-181.947069943289,4,2,0,0,0,0
176462.218181818,-181.432610744581,4,2,0,0,0,0
176471.509090909,-180.921052631579,4,2,0,0,0,0
176480.8,-180.412371134021,4,2,0,0,0,0
176490.090909091,-179.906542056075,4,2,0,0,0,0
176499.381818182,-179.403541472507,4,2,0,0,0,0
176508.672727273,-178.903345724907,4,2,0,0,0,0
176517.963636364,-178.40593141798,4,2,0,0,0,0
176527.254545455,-177.911275415896,4,2,0,0,0,0
176536.545454545,-177.41935483871,4,2,0,0,0,0
176545.836363636,-176.930147058824,4,2,0,0,0,0
176555.127272727,-176.443629697525,4,2,0,0,0,0
176564.418181818,-175.959780621572,4,2,0,0,0,0
176573.709090909,-175.478577939836,4,2,0,0,0,0
176583,-175,4,2,0,0,0,0
176592.290909091,-174.524025385313,4,2,0,0,0,0
176601.581818182,-174.050632911392,4,2,0,0,0,0
176610.872727273,-173.579801623084,4,2,0,0,0,0
176620.163636364,-173.111510791367,4,2,0,0,0,0
176629.454545455,-172.645739910314,4,2,0,0,0,0
176638.745454545,-172.182468694097,4,2,0,0,0,0
176648.036363636,-171.721677074041,4,2,0,0,0,0
176657.327272727,-171.26334519573,4,2,0,0,0,0
176666.618181818,-170.807453416149,4,2,0,0,0,0
176675.909090909,-170.353982300885,4,2,0,0,0,0
176685.2,-169.902912621359,4,2,0,0,0,0
176694.490909091,-169.454225352113,4,2,0,0,0,0
176703.781818182,-169.00790166813,4,2,0,0,0,0
176713.072727273,-168.563922942207,4,2,0,0,0,0
176722.363636364,-168.122270742358,4,2,0,0,0,0
176731.654545455,-167.682926829268,4,2,0,0,0,0
176740.945454545,-167.245873153779,4,2,0,0,0,0
176750.236363636,-166.811091854419,4,2,0,0,0,0
176759.527272727,-166.37856525497,4,2,0,0,0,0
176768.818181818,-165.948275862069,4,2,0,0,0,0
176778.109090909,-165.520206362855,4,2,0,0,0,0
176787.4,-165.094339622641,4,2,0,0,0,0
176796.690909091,-164.670658682635,4,2,0,0,0,0
176805.981818182,-164.249146757679,4,2,0,0,0,0
176815.272727273,-163.829787234043,4,2,0,0,0,0
176824.563636364,-163.412563667233,4,2,0,0,0,0
176833.854545455,-162.997459779848,4,2,0,0,0,0
176843.145454545,-162.584459459459,4,2,0,0,0,0
176852.436363636,-162.173546756529,4,2,0,0,0,0
176861.727272727,-161.764705882353,4,2,0,0,0,0
176871.018181818,-161.357921207041,4,2,0,0,0,0
176880.309090909,-160.953177257525,4,2,0,0,0,0
176889.6,-160.550458715596,4,2,0,0,0,0
176898.890909091,-160.149750415973,4,2,0,0,0,0
176908.181818182,-159.751037344398,4,2,0,0,0,0
176917.472727273,-159.354304635762,4,2,0,0,0,0
176926.763636364,-158.959537572254,4,2,0,0,0,0
176936.054545455,-158.566721581549,4,2,0,0,0,0
176945.345454545,-158.175842235004,4,2,0,0,0,0
176954.636363636,-157.786885245902,4,2,0,0,0,0
176963.927272727,-157.399836467702,4,2,0,0,0,0
176973.218181818,-157.014681892333,4,2,0,0,0,0
176982.509090909,-156.631407648495,4,2,0,0,0,0
176991.8,-156.25,4,2,0,0,0,0
177001.090909091,-155.87044534413,4,2,0,0,0,0
177010.381818182,-155.492730210016,4,2,0,0,0,0
177019.672727273,-155.116841257051,4,2,0,0,0,0
177028.963636364,-154.742765273312,4,2,0,0,0,0
177038.254545455,-154.370489174018,4,2,0,0,0,0
177047.545454545,-154,4,2,0,0,0,0
177056.836363636,-153.631284916201,4,2,0,0,0,0
177066.127272727,-153.264331210191,4,2,0,0,0,0
177075.418181818,-152.899126290707,4,2,0,0,0,0
177084.709090909,-152.535657686212,4,2,0,0,0,0
177094,-152.173913043478,4,2,0,0,0,0
177103.290909091,-151.813880126183,4,2,0,0,0,0
177112.581818182,-151.455546813533,4,2,0,0,0,0
177121.872727273,-151.098901098901,4,2,0,0,0,0
177131.163636364,-150.743931088489,4,2,0,0,0,0
177140.454545455,-150.390625,4,2,0,0,0,0
177149.745454545,-150.038971161341,4,2,0,0,0,0
177159.036363636,-149.688958009331,4,2,0,0,0,0
177168.327272727,-149.340574088441,4,2,0,0,0,0
177177.618181818,-148.993808049536,4,2,0,0,0,0
177186.909090909,-148.648648648649,4,2,0,0,0,0
177196.2,-148.305084745763,4,2,0,0,0,0
177205.490909091,-147.963105303613,4,2,0,0,0,0
177214.781818182,-147.622699386503,4,2,0,0,0,0
177224.072727273,-147.283856159143,4,2,0,0,0,0
177233.363636364,-146.946564885496,4,2,0,0,0,0
177242.654545455,-146.610814927647,4,2,0,0,0,0
177251.945454545,-146.276595744681,4,2,0,0,0,0
177261.236363636,-145.943896891585,4,2,0,0,0,0
177270.527272727,-145.612708018154,4,2,0,0,0,0
177279.818181818,-145.283018867925,4,2,0,0,0,0
177289.109090909,-144.954819277108,4,2,0,0,0,0
177298.4,-144.628099173554,4,2,0,0,0,0
177307.690909091,-144.302848575712,4,2,0,0,0,0
177316.981818182,-143.979057591623,4,2,0,0,0,0
177326.272727273,-143.65671641791,4,2,0,0,0,0
177335.563636364,-143.335815338794,4,2,0,0,0,0
177344.854545455,-143.016344725111,4,2,0,0,0,0
177354.145454545,-142.698295033358,4,2,0,0,0,0
177363.436363636,-142.381656804734,4,2,0,0,0,0
177372.727272727,-142.066420664207,4,2,0,0,0,0
177382.018181818,-141.752577319588,4,2,0,0,0,0
177391.309090909,-141.440117560617,4,2,0,0,0,0
177400.6,-141.129032258065,4,2,0,0,0,0
177409.890909091,-140.819312362838,4,2,0,0,0,0
177419.181818182,-140.510948905109,4,2,0,0,0,0
177428.472727273,-140.203932993445,4,2,0,0,0,0
177437.763636364,-139.898255813953,4,2,0,0,0,0
177447.054545455,-139.593908629442,4,2,0,0,0,0
177456.345454545,-139.290882778582,4,2,0,0,0,0
177465.636363636,-138.98916967509,4,2,0,0,0,0
177474.927272727,-138.688760806916,4,2,0,0,0,0
177484.218181818,-138.389647735442,4,2,0,0,0,0
177493.509090909,-138.091822094692,4,2,0,0,0,0
177502.8,-137.795275590551,4,2,0,0,0,0
177512.090909091,-137.5,4,2,0,0,0,0
177521.381818182,-137.205987170349,4,2,0,0,0,0
177530.672727273,-136.913229018492,4,2,0,0,0,0
177539.963636364,-136.621717530163,4,2,0,0,0,0
177549.254545455,-136.331444759207,4,2,0,0,0,0
177558.545454545,-136.042402826855,4,2,0,0,0,0
177567.836363636,-135.754583921016,4,2,0,0,0,0
177577.127272727,-135.467980295567,4,2,0,0,0,0
177586.418181818,-135.182584269663,4,2,0,0,0,0
177595.709090909,-134.89838822705,4,2,0,0,0,0
177605,-134.615384615385,4,2,0,0,0,0
177614.290909091,-134.333565945569,4,2,0,0,0,0
177623.581818182,-134.052924791086,4,2,0,0,0,0
177632.872727273,-133.773453787352,4,2,0,0,0,0
177642.163636364,-133.495145631068,4,2,0,0,0,0
177651.454545455,-133.217993079585,4,2,0,0,0,0
177660.745454545,-132.941988950276,4,2,0,0,0,0
177670.036363636,-132.667126119917,4,2,0,0,0,0
177679.327272727,-132.393397524072,4,2,0,0,0,0
177688.618181818,-132.120796156486,4,2,0,0,0,0
177697.909090909,-131.849315068493,4,2,0,0,0,0
177707.2,-131.578947368421,4,2,0,0,0,0
177716.490909091,-131.30968622101,4,2,0,0,0,0
177725.781818182,-131.041524846835,4,2,0,0,0,0
177735.072727273,-130.774456521739,4,2,0,0,0,0
177744.363636364,-130.508474576271,4,2,0,0,0,0
177753.654545455,-130.243572395129,4,2,0,0,0,0
177762.945454545,-129.97974341661,4,2,0,0,0,0
177772.236363636,-129.716981132075,4,2,0,0,0,0
177781.527272727,-129.455279085407,4,2,0,0,0,0
177790.818181818,-129.194630872483,4,2,0,0,0,0
177800.109090909,-128.935030140656,4,2,0,0,0,0
177809.4,-128.676470588235,4,2,0,0,0,0
177818.690909091,-128.418945963976,4,2,0,0,0,0
177827.981818182,-128.162450066578,4,2,0,0,0,0
177837.272727273,-127.906976744186,4,2,0,0,0,0
177846.563636364,-127.652519893899,4,2,0,0,0,0
177855.854545455,-127.399073461284,4,2,0,0,0,0
177865.145454545,-127.146631439894,4,2,0,0,0,0
177874.436363636,-126.895187870798,4,2,0,0,0,0
177883.727272727,-126.644736842105,4,2,0,0,0,0
177893.018181818,-126.39527248851,4,2,0,0,0,0
177902.309090909,-126.146788990826,4,2,0,0,0,0
177911.6,-125.89928057554,4,2,0,0,0,0
177920.890909091,-125.65274151436,4,2,0,0,0,0
177930.181818182,-125.407166123778,4,2,0,0,0,0
177939.472727273,-125.162548764629,4,2,0,0,0,0
177948.763636364,-124.918883841661,4,2,0,0,0,0
177958.054545455,-124.676165803109,4,2,0,0,0,0
177967.345454545,-124.434389140271,4,2,0,0,0,0
177976.636363636,-124.193548387097,4,2,0,0,0,0
177985.927272727,-123.953638119768,4,2,0,0,0,0
177995.218181818,-123.714652956298,4,2,0,0,0,0
178004.509090909,-123.476587556126,4,2,0,0,0,0
178013.8,-123.239436619718,4,2,0,0,0,0
178023.090909091,-123.003194888179,4,2,0,0,0,0
178032.381818182,-122.767857142857,4,2,0,0,0,0
178041.672727273,-122.533418204965,4,2,0,0,0,0
178050.963636364,-122.299872935197,4,2,0,0,0,0
178060.254545455,-122.067216233354,4,2,0,0,0,0
178069.545454545,-121.835443037975,4,2,0,0,0,0
178078.836363636,-121.604548325963,4,2,0,0,0,0
178088.127272727,-121.374527112232,4,2,0,0,0,0
178097.418181818,-121.145374449339,4,2,0,0,0,0
178106.709090909,-120.917085427136,4,2,0,0,0,0
178116,-120.689655172414,4,2,0,0,0,0
178125.290909091,-120.463078848561,4,2,0,0,0,0
178134.581818182,-120.237351655215,4,2,0,0,0,0
178143.872727273,-120.01246882793,4,2,0,0,0,0
178153.163636364,-119.788425637834,4,2,0,0,0,0
178162.454545455,-119.565217391304,4,2,0,0,0,0
178171.745454545,-119.342839429634,4,2,0,0,0,0
178181.036363636,-119.121287128713,4,2,0,0,0,0
178190.327272727,-118.900555898703,4,2,0,0,0,0
178199.618181818,-118.680641183724,4,2,0,0,0,0
178208.909090909,-118.461538461538,4,2,0,0,0,0
178218.2,-118.243243243243,4,2,0,0,0,0
178227.490909091,-118.025751072961,4,2,0,0,0,0
178236.781818182,-117.80905752754,4,2,0,0,0,0
178246.072727273,-117.593158216249,4,2,0,0,0,0
178255.363636364,-117.378048780488,4,2,0,0,0,0
178264.654545455,-117.163724893488,4,2,0,0,0,0
178273.945454545,-116.950182260024,4,2,0,0,0,0
178283.236363636,-116.737416616131,4,2,0,0,0,0
178292.527272727,-116.525423728814,4,2,0,0,0,0
178301.818181818,-116.31419939577,4,2,0,0,0,0
178311.109090909,-116.103739445115,4,2,0,0,0,0
178320.4,-115.894039735099,4,2,0,0,0,0
178329.690909091,-115.685096153846,4,2,0,0,0,0
178338.981818182,-115.476904619076,4,2,0,0,0,0
178348.272727273,-115.269461077844,4,2,0,0,0,0
178357.563636364,-115.062761506276,4,2,0,0,0,0
178366.854545455,-114.856801909308,4,2,0,0,0,0
178376.145454545,-114.651578320429,4,2,0,0,0,0
178385.436363636,-114.447086801427,4,2,0,0,0,0
178394.727272727,-114.243323442137,4,2,0,0,0,0
178404.018181818,-114.04028436019,4,2,0,0,0,0
178413.309090909,-113.837965700769,4,2,0,0,0,0
178422.6,-113.636363636364,4,2,0,0,0,0
178431.890909091,-113.435474366529,4,2,0,0,0,0
178441.181818182,-113.235294117647,4,2,0,0,0,0
178450.472727273,-113.035819142689,4,2,0,0,0,0
178459.763636364,-112.837045720985,4,2,0,0,0,0
178469.054545455,-112.638970157987,4,2,0,0,0,0
178478.345454545,-112.441588785047,4,2,0,0,0,0
178487.636363636,-112.244897959184,4,2,0,0,0,0
178496.927272727,-112.048894062864,4,2,0,0,0,0
178506.218181818,-111.853573503777,4,2,0,0,0,0
178515.509090909,-111.658932714617,4,2,0,0,0,0
178524.8,-111.464968152866,4,2,0,0,0,0
178534.090909091,-111.271676300578,4,2,0,0,0,0
178543.381818182,-111.079053664166,4,2,0,0,0,0
178552.672727273,-110.887096774194,4,2,0,0,0,0
178561.963636364,-110.695802185164,4,2,0,0,0,0
178571.254545455,-110.505166475316,4,2,0,0,0,0
178580.545454545,-110.315186246418,4,2,0,0,0,0
178589.836363636,-110.12585812357,4,2,0,0,0,0
178599.127272727,-109.937178754997,4,2,0,0,0,0
178608.418181818,-109.749144811859,4,2,0,0,0,0
178617.709090909,-109.561752988048,4,2,0,0,0,0
178627,-109.375,4,2,0,0,0,0
178636.290909091,-109.1888825865,4,2,0,0,0,0
178645.581818182,-109.003397508494,4,2,0,0,0,0
178654.872727273,-108.818541548898,4,2,0,0,0,0
178664.163636364,-108.634311512415,4,2,0,0,0,0
178673.454545455,-108.450704225352,4,2,0,0,0,0
178682.745454545,-108.267716535433,4,2,0,0,0,0
178692.036363636,-108.085345311623,4,2,0,0,0,0
178701.327272727,-107.903587443946,4,2,0,0,0,0
178710.618181818,-107.722439843313,4,2,0,0,0,0
178719.909090909,-107.541899441341,4,2,0,0,0,0
178729.2,-107.361963190184,4,2,0,0,0,0
178738.490909091,-107.182628062361,4,2,0,0,0,0
178747.781818182,-107.003891050584,4,2,0,0,0,0
178757.072727273,-106.825749167592,4,2,0,0,0,0
178766.363636364,-106.648199445983,4,2,0,0,0,0
178775.654545455,-106.471238938053,4,2,0,0,0,0
178784.945454545,-106.294864715627,4,2,0,0,0,0
178794.236363636,-106.119073869901,4,2,0,0,0,0
178803.527272727,-105.943863511282,4,2,0,0,0,0
178812.818181818,-105.769230769231,4,2,0,0,0,0
178822.109090909,-105.595172792101,4,2,0,0,0,0
178831.4,-105.421686746988,4,2,0,0,0,0
178840.690909091,-105.248769819574,4,2,0,0,0,0
178849.981818182,-105.076419213974,4,2,0,0,0,0
178859.272727273,-104.904632152589,4,2,0,0,0,0
178868.563636364,-104.733405875952,4,2,0,0,0,0
178877.854545455,-104.562737642586,4,2,0,0,0,0
178887.145454545,-104.39262472885,4,2,0,0,0,0
178896.436363636,-104.223064428803,4,2,0,0,0,0
178905.727272727,-104.054054054054,4,2,0,0,0,0
178915.018181818,-103.885590933621,4,2,0,0,0,0
178924.309090909,-103.717672413793,4,2,0,0,0,0
178933.6,-103.550295857988,4,2,0,0,0,0
178942.890909091,-103.383458646617,4,2,0,0,0,0
178952.181818182,-103.217158176944,4,2,0,0,0,0
178961.472727273,-103.051391862955,4,2,0,0,0,0
178970.763636364,-102.886157135222,4,2,0,0,0,0
178980.054545455,-102.721451440768,4,2,0,0,0,0
178989.345454545,-102.557272242941,4,2,0,0,0,0
178998.636363636,-102.393617021277,4,2,0,0,0,0
179007.927272727,-102.230483271375,4,2,0,0,0,0
179017.218181818,-102.067868504772,4,2,0,0,0,0
179026.509090909,-101.905770248809,4,2,0,0,0,0
179035.8,-101.744186046512,4,2,0,0,0,0
179045.090909091,-101.583113456464,4,2,0,0,0,0
179054.381818182,-101.422550052687,4,2,0,0,0,0
179063.672727273,-101.262493424513,4,2,0,0,0,0
179072.963636364,-101.102941176471,4,2,0,0,0,0
179082.254545455,-100.943890928159,4,2,0,0,0,0
179091.545454545,-100.785340314136,4,2,0,0,0,0
179100.836363636,-100.627286983795,4,2,0,0,0,0
179110.127272727,-100.469728601253,4,2,0,0,0,0
179119.418181818,-100.312662845232,4,2,0,0,0,0
179128.709090909,-100.156087408949,4,2,0,0,0,0
179138,-100,4,2,0,0,0,0
225292,-100,4,2,0,0,0,1
240061,-100,4,2,0,0,0,0
249061,230.769230769231,4,2,0,0,1,0
249292,230.769230769231,4,2,0,0,1,1
266715,230.769230769231,4,2,0,0,1,0

[HitObjects]
64,192,1908,128,0,2023:0:0:0:0:
448,192,1908,128,0,2023:0:0:0:0:
192,192,1908,128,0,2023:0:0:0:0:
320,192,2023,128,0,2138:0:0:0:0:
320,192,2254,128,0,2369:0:0:0:0:
64,192,2484,128,0,2600:0:0:0:0:
192,192,2484,128,0,2600:0:0:0:0:
448,192,2600,128,0,2715:0:0:0:0:
64,192,2715,128,0,2831:0:0:0:0:
320,192,2831,128,0,2946:0:0:0:0:
448,192,2831,128,0,2946:0:0:0:0:
192,192,2946,128,0,3061:0:0:0:0:
448,192,3061,128,0,3177:0:0:0:0:
64,192,3177,128,0,3292:0:0:0:0:
320,192,3177,128,0,3292:0:0:0:0:
448,192,3408,128,0,3523:0:0:0:0:
320,192,3408,128,0,3523:0:0:0:0:
192,192,3523,128,0,3638:0:0:0:0:
64,192,3523,128,0,3638:0:0:0:0:
64,192,3754,128,0,3869:0:0:0:0:
192,192,3754,128,0,3869:0:0:0:0:
320,192,3869,128,0,3984:0:0:0:0:
448,192,3869,128,0,3984:0:0:0:0:
64,192,4100,128,0,4215:0:0:0:0:
448,192,4100,128,0,4215:0:0:0:0:
192,192,4100,128,0,4215:0:0:0:0:
192,192,4331,128,0,4446:0:0:0:0:
320,192,4331,128,0,4446:0:0:0:0:
448,192,4446,128,0,4561:0:0:0:0:
64,192,4446,128,0,4561:0:0:0:0:
320,192,4561,128,0,4677:0:0:0:0:
64,192,4677,128,0,4792:0:0:0:0:
448,192,4677,128,0,4792:0:0:0:0:
192,192,4792,128,0,4908:0:0:0:0:
448,192,4908,128,0,5023:0:0:0:0:
64,192,4908,128,0,5023:0:0:0:0:
320,192,5023,128,0,5138:0:0:0:0:
192,192,5023,128,0,5138:0:0:0:0:
192,192,5254,128,0,5369:0:0:0:0:
64,192,5254,128,0,5369:0:0:0:0:
448,192,5369,128,0,5484:0:0:0:0:
320,192,5369,128,0,5484:0:0:0:0:
320,192,5600,128,0,5715:0:0:0:0:
448,192,5600,128,0,5715:0:0:0:0:
64,192,5715,128,0,5831:0:0:0:0:
192,192,5715,128,0,5831:0:0:0:0:
448,192,5946,128,0,6061:0:0:0:0:
64,192,5946,128,0,6061:0:0:0:0:
192,192,5946,128,0,6061:0:0:0:0:
320,192,6177,128,0,6292:0:0:0:0:
192,192,6292,128,0,6408:0:0:0:0:
448,192,6292,128,0,6408:0:0:0:0:
320,192,6408,128,0,6523:0:0:0:0:
448,192,6523,128,0,6638:0:0:0:0:
64,192,6523,128,0,6638:0:0:0:0:
320,192,6638,128,0,6754:0:0:0:0:
192,192,6638,128,0,6754:0:0:0:0:
448,192,6754,128,0,6869:0:0:0:0:
64,192,6869,128,0,6984:0:0:0:0:
192,192,6869,128,0,6984:0:0:0:0:
320,192,6869,128,0,6984:0:0:0:0:
448,192,7100,128,0,7215:0:0:0:0:
192,192,7100,128,0,7215:0:0:0:0:
64,192,7215,128,0,7331:0:0:0:0:
320,192,7215,128,0,7331:0:0:0:0:
64,192,7446,128,0,7561:0:0:0:0:
320,192,7446,128,0,7561:0:0:0:0:
192,192,7561,128,0,7677:0:0:0:0:
448,192,7561,128,0,7677:0:0:0:0:
320,192,7677,128,0,7792:0:0:0:0:
64,192,7677,128,0,7792:0:0:0:0:
192,192,7792,128,0,7908:0:0:0:0:
64,192,7908,128,0,8023:0:0:0:0:
448,192,7908,128,0,8023:0:0:0:0:
320,192,8023,128,0,8138:0:0:0:0:
64,192,8138,128,0,8254:0:0:0:0:
448,192,8138,128,0,8254:0:0:0:0:
192,192,8254,128,0,8369:0:0:0:0:
448,192,8369,128,0,8484:0:0:0:0:
64,192,8369,128,0,8484:0:0:0:0:
320,192,8484,128,0,8600:0:0:0:0:
64,192,8600,128,0,8715:0:0:0:0:
448,192,8600,128,0,8715:0:0:0:0:
192,192,8715,128,0,8831:0:0:0:0:
320,192,8715,128,0,8831:0:0:0:0:
320,192,8946,128,0,9061:0:0:0:0:
64,192,9061,128,0,9177:0:0:0:0:
448,192,9177,128,0,9292:0:0:0:0:
192,192,9177,128,0,9292:0:0:0:0:
320,192,9177,128,0,9292:0:0:0:0:
64,192,9292,128,0,9408:0:0:0:0:
320,192,9408,128,0,9523:0:0:0:0:
448,192,9408,128,0,9523:0:0:0:0:
448,192,9638,128,0,9754:0:0:0:0:
192,192,9638,128,0,9754:0:0:0:0:
192,192,9869,128,0,9984:0:0:0:0:
448,192,9984,128,0,10100:0:0:0:0:
320,192,9984,128,0,10100:0:0:0:0:
64,192,9984,128,0,10100:0:0:0:0:
192,192,10100,128,0,10215:0:0:0:0:
448,192,10215,128,0,10331:0:0:0:0:
64,192,10215,128,0,10331:0:0:0:0:
320,192,10331,128,0,10446:0:0:0:0:
192,192,10446,128,0,10561:0:0:0:0:
320,192,10561,128,0,10677:0:0:0:0:
448,192,10561,128,0,10677:0:0:0:0:
64,192,10561,128,0,10677:0:0:0:0:
192,192,10792,128,0,10908:0:0:0:0:
64,192,10792,128,0,10908:0:0:0:0:
448,192,10908,128,0,11023:0:0:0:0:
320,192,10908,128,0,11023:0:0:0:0:
320,192,11138,128,0,11254:0:0:0:0:
448,192,11138,128,0,11254:0:0:0:0:
64,192,11254,128,0,11369:0:0:0:0:
192,192,11254,128,0,11369:0:0:0:0:
64,192,11484,128,0,11600:0:0:0:0:
448,192,11484,128,0,11600:0:0:0:0:
320,192,11484,128,0,11600:0:0:0:0:
192,192,11715,128,0,11831:0:0:0:0:
448,192,11715,128,0,11831:0:0:0:0:
64,192,11831,128,0,11946:0:0:0:0:
320,192,11946,128,0,12061:0:0:0:0:
448,192,11946,128,0,12061:0:0:0:0:
192,192,12061,128,0,12177:0:0:0:0:
64,192,12061,128,0,12177:0:0:0:0:
448,192,12177,128,0,12292:0:0:0:0:
320,192,12177,128,0,12292:0:0:0:0:
64,192,12292,128,0,12408:0:0:0:0:
448,192,12408,128,0,12523:0:0:0:0:
192,192,12408,128,0,12523:0:0:0:0:
320,192,12638,128,0,12754:0:0:0:0:
448,192,12638,128,0,12754:0:0:0:0:
192,192,12754,128,0,12869:0:0:0:0:
64,192,12754,128,0,12869:0:0:0:0:
448,192,12984,128,0,13100:0:0:0:0:
320,192,12984,128,0,13100:0:0:0:0:
192,192,12984,128,0,13100:0:0:0:0:
64,192,13100,128,0,13215:0:0:0:0:
192,192,13215,128,0,13331:0:0:0:0:
448,192,13215,128,0,13331:0:0:0:0:
320,192,13331,128,0,13446:0:0:0:0:
64,192,13331,128,0,13446:0:0:0:0:
64,192,13561,128,0,13677:0:0:0:0:
320,192,13561,128,0,13677:0:0:0:0:
448,192,13677,128,0,13792:0:0:0:0:
192,192,13792,128,0,13908:0:0:0:0:
64,192,13792,128,0,13908:0:0:0:0:
320,192,13908,128,0,14023:0:0:0:0:
448,192,13908,128,0,14023:0:0:0:0:
64,192,14023,128,0,14138:0:0:0:0:
192,192,14023,128,0,14138:0:0:0:0:
192,192,14254,128,0,14369:0:0:0:0:
448,192,14254,128,0,14369:0:0:0:0:
320,192,14254,128,0,14369:0:0:0:0:
192,192,14484,128,0,14600:0:0:0:0:
64,192,14484,128,0,14600:0:0:0:0:
320,192,14600,128,0,14715:0:0:0:0:
448,192,14600,128,0,14715:0:0:0:0:
64,192,14715,128,0,14831:0:0:0:0:
192,192,14831,128,0,14946:0:0:0:0:
448,192,14831,128,0,14946:0:0:0:0:
320,192,14946,128,0,15061:0:0:0:0:
192,192,15061,128,0,15177:0:0:0:0:
64,192,15061,128,0,15177:0:0:0:0:
448,192,15177,128,0,15292:0:0:0:0:
320,192,15177,128,0,15292:0:0:0:0:
448,192,15408,128,0,15523:0:0:0:0:
320,192,15408,128,0,15523:0:0:0:0:
64,192,15523,128,0,15638:0:0:0:0:
192,192,15523,128,0,15638:0:0:0:0:
320,192,15638,128,0,15754:0:0:0:0:
192,192,15754,128,0,15869:0:0:0:0:
448,192,15754,128,0,15869:0:0:0:0:
64,192,15869,128,0,15984:0:0:0:0:
448,192,15984,128,0,16100:0:0:0:0:
320,192,15984,128,0,16100:0:0:0:0:
192,192,16100,128,0,16215:0:0:0:0:
64,192,16100,128,0,16215:0:0:0:0:
64,192,16331,128,0,16446:0:0:0:0:
448,192,16331,128,0,16446:0:0:0:0:
320,192,16446,128,0,16561:0:0:0:0:
192,192,16446,128,0,16561:0:0:0:0:
192,192,16677,128,0,16792:0:0:0:0:
64,192,16677,128,0,16792:0:0:0:0:
448,192,16792,128,0,16908:0:0:0:0:
64,192,16908,128,0,17023:0:0:0:0:
320,192,16908,128,0,17023:0:0:0:0:
192,192,17023,128,0,17138:0:0:0:0:
448,192,17023,128,0,17138:0:0:0:0:
192,192,17254,128,0,17369:0:0:0:0:
64,192,17254,128,0,17369:0:0:0:0:
448,192,17254,128,0,17369:0:0:0:0:
320,192,17369,128,0,17484:0:0:0:0:
448,192,17484,128,0,17600:0:0:0:0:
64,192,17484,128,0,17600:0:0:0:0:
192,192,17484,128,0,17600:0:0:0:0:
64,192,17715,128,0,17773:0:0:0:0:
448,192,17715,128,0,17888:0:0:0:0:
64,192,17831,128,0,17888:0:0:0:0:
192,192,17946,128,0,18119:0:0:0:0:
448,192,17946,128,0,18004:0:0:0:0:
448,192,18061,128,0,18119:0:0:0:0:
64,192,18177,128,0,18234:0:0:0:0:
320,192,18177,128,0,18350:0:0:0:0:
64,192,18292,128,0,18350:0:0:0:0:
192,192,18408,128,0,18465:0:0:0:0:
448,192,18408,128,0,18465:0:0:0:0:
64,192,18523,128,0,18581:0:0:0:0:
320,192,18523,128,0,18581:0:0:0:0:
64,192,18638,128,0,18754:0:0:0:0:
448,192,18638,128,0,18754:0:0:0:0:
192,192,18754,128,0,18869:0:0:0:0:
320,192,18754,128,0,18869:0:0:0:0:
64,192,18869,128,0,18984:0:0:0:0:
448,192,18869,128,0,18984:0:0:0:0:
320,192,19100,128,0,19215:0:0:0:0:
448,192,19100,128,0,19215:0:0:0:0:
192,192,19215,128,0,19331:0:0:0:0:
64,192,19215,128,0,19331:0:0:0:0:
320,192,19331,128,0,19446:0:0:0:0:
448,192,19331,128,0,19446:0:0:0:0:
64,192,19561,128,0,19619:0:0:0:0:
192,192,19561,128,0,19619:0:0:0:0:
64,192,19677,128,0,19734:0:0:0:0:
320,192,19677,128,0,19734:0:0:0:0:
64,192,19792,128,0,19850:0:0:0:0:
448,192,19792,128,0,19850:0:0:0:0:
64,192,19908,128,0,19965:0:0:0:0:
448,192,19908,128,0,20254:0:0:0:0:
64,192,20023,128,0,20138:0:0:0:0:
192,192,20138,128,0,20254:0:0:0:0:
320,192,20254,128,0,20369:0:0:0:0:
448,192,20369,1,0,0:0:0:0:
64,192,20369,1,0,0:0:0:0:
192,192,34215,132,0,34677:0:0:0:0:
320,192,34677,1,0,0:0:0:0:
448,192,34677,1,0,0:0:0:0:
320,192,34792,1,0,0:0:0:0:
448,192,34792,1,0,0:0:0:0:
192,192,34908,1,0,0:0:0:0:
64,192,34908,1,0,0:0:0:0:
64,192,35023,1,0,0:0:0:0:
192,192,35023,1,0,0:0:0:0:
64,192,35138,1,0,0:0:0:0:
192,192,35138,1,0,0:0:0:0:
320,192,35138,128,0,35600:0:0:0:0:
448,192,35138,128,0,35369:0:0:0:0:
64,192,35369,128,0,35484:0:0:0:0:
448,192,35484,128,0,35600:0:0:0:0:
64,192,35600,128,0,35831:0:0:0:0:
192,192,35600,128,0,35831:0:0:0:0:
448,192,35831,1,0,0:0:0:0:
320,192,35831,1,0,0:0:0:0:
64,192,35946,128,0,36869:0:0:0:0:
192,192,35946,128,0,36408:0:0:0:0:
448,192,35946,128,0,36061:0:0:0:0:
320,192,36061,128,0,36177:0:0:0:0:
448,192,36177,128,0,36292:0:0:0:0:
320,192,36292,128,0,36408:0:0:0:0:
448,192,36408,128,0,36523:0:0:0:0:
192,192,36523,128,0,36638:0:0:0:0:
448,192,36638,128,0,36869:0:0:0:0:
192,192,36754,128,0,36869:0:0:0:0:
320,192,36754,128,0,36869:0:0:0:0:
192,192,36984,128,0,37446:0:0:0:0:
320,192,36984,1,0,0:0:0:0:
448,192,36984,1,0,0:0:0:0:
64,192,36984,128,0,37215:0:0:0:0:
448,192,37215,128,0,37331:0:0:0:0:
64,192,37331,128,0,37446:0:0:0:0:
320,192,37446,128,0,37677:0:0:0:0:
448,192,37446,128,0,37677:0:0:0:0:
64,192,37677,1,0,0:0:0:0:
192,192,37677,1,0,0:0:0:0:
448,192,37792,128,0,38715:0:0:0:0:
320,192,37792,128,0,38254:0:0:0:0:
64,192,37792,128,0,37908:0:0:0:0:
192,192,37908,128,0,38023:0:0:0:0:
64,192,38023,128,0,38138:0:0:0:0:
192,192,38138,128,0,38254:0:0:0:0:
64,192,38254,128,0,38369:0:0:0:0:
320,192,38369,128,0,38484:0:0:0:0:
64,192,38484,128,0,38715:0:0:0:0:
320,192,38600,128,0,38715:0:0:0:0:
192,192,38600,128,0,38715:0:0:0:0:
448,192,38831,128,0,39292:0:0:0:0:
320,192,38831,1,0,0:0:0:0:
64,192,38831,1,0,0:0:0:0:
192,192,38831,128,0,39061:0:0:0:0:
320,192,39061,128,0,39177:0:0:0:0:
64,192,39177,128,0,39292:0:0:0:0:
192,192,39292,128,0,39523:0:0:0:0:
320,192,39292,128,0,39523:0:0:0:0:
448,192,39523,1,0,0:0:0:0:
64,192,39523,1,0,0:0:0:0:
192,192,39638,128,0,40561:0:0:0:0:
320,192,39638,128,0,40100:0:0:0:0:
64,192,39638,128,0,39754:0:0:0:0:
448,192,39754,128,0,39869:0:0:0:0:
64,192,39869,128,0,39984:0:0:0:0:
448,192,39984,128,0,40100:0:0:0:0:
64,192,40100,128,0,40215:0:0:0:0:
448,192,40215,128,0,40331:0:0:0:0:
64,192,40331,128,0,40561:0:0:0:0:
320,192,40446,128,0,40561:0:0:0:0:
448,192,40446,128,0,40561:0:0:0:0:
64,192,40677,128,0,41138:0:0:0:0:
320,192,40677,128,0,40908:0:0:0:0:
192,192,40677,1,0,0:0:0:0:
448,192,40677,1,0,0:0:0:0:
192,192,40908,128,0,41023:0:0:0:0:
448,192,41023,128,0,41138:0:0:0:0:
192,192,41138,128,0,41369:0:0:0:0:
320,192,41138,128,0,41369:0:0:0:0:
64,192,41369,1,0,0:0:0:0:
448,192,41369,1,0,0:0:0:0:
320,192,41484,128,0,42408:0:0:0:0:
192,192,41484,128,0,41946:0:0:0:0:
448,192,41484,128,0,41600:0:0:0:0:
64,192,41600,128,0,41715:0:0:0:0:
448,192,41715,128,0,41831:0:0:0:0:
64,192,41831,1,0,0:0:0:0:
64,192,41946,1,0,0:0:0:0:
448,192,41946,1,0,0:0:0:0:
192,192,42061,1,0,0:0:0:0:
64,192,42177,128,0,42292:0:0:0:0:
448,192,42177,128,0,42292:0:0:0:0:
192,192,42292,128,0,42408:0:0:0:0:
64,192,42408,1,0,0:0:0:0:
448,192,42408,1,0,0:0:0:0:
64,192,42523,5,0,0:0:0:0:
192,192,42523,1,0,0:0:0:0:
320,192,42523,1,0,0:0:0:0:
64,192,42638,128,0,42754:0:0:0:0:
320,192,42638,128,0,42754:0:0:0:0:
192,192,42638,128,0,42754:0:0:0:0:
448,192,42869,1,0,0:0:0:0:
320,192,42869,1,0,0:0:0:0:
192,192,42984,128,0,43100:0:0:0:0:
320,192,42984,128,0,43100:0:0:0:0:
448,192,42984,128,0,43100:0:0:0:0:
64,192,42984,128,0,43100:0:0:0:0:
64,192,43215,1,0,0:0:0:0:
192,192,43215,1,0,0:0:0:0:
448,192,43215,1,0,0:0:0:0:
64,192,43331,128,0,43446:0:0:0:0:
192,192,43331,128,0,43446:0:0:0:0:
448,192,43331,128,0,43446:0:0:0:0:
192,192,43561,1,0,0:0:0:0:
320,192,43561,1,0,0:0:0:0:
448,192,43561,1,0,0:0:0:0:
192,192,43677,128,0,43792:0:0:0:0:
320,192,43677,128,0,43792:0:0:0:0:
448,192,43677,128,0,43792:0:0:0:0:
64,192,43908,128,0,44023:0:0:0:0:
192,192,43908,128,0,44023:0:0:0:0:
448,192,43908,1,0,0:0:0:0:
320,192,43908,1,0,0:0:0:0:
320,192,44023,1,0,0:0:0:0:
448,192,44023,1,0,0:0:0:0:
320,192,44138,1,0,0:0:0:0:
448,192,44138,1,0,0:0:0:0:
64,192,44369,1,0,0:0:0:0:
192,192,44369,1,0,0:0:0:0:
448,192,44369,1,0,0:0:0:0:
64,192,44484,128,0,44600:0:0:0:0:
192,192,44484,128,0,44600:0:0:0:0:
448,192,44484,128,0,44600:0:0:0:0:
192,192,44715,1,0,0:0:0:0:
320,192,44715,1,0,0:0:0:0:
64,192,44831,128,0,44946:0:0:0:0:
192,192,44831,128,0,44946:0:0:0:0:
320,192,44831,128,0,44946:0:0:0:0:
448,192,44831,128,0,44946:0:0:0:0:
64,192,45061,5,0,0:0:0:0:
192,192,45061,1,0,0:0:0:0:
448,192,45061,1,0,0:0:0:0:
64,192,45177,128,0,45292:0:0:0:0:
192,192,45177,128,0,45292:0:0:0:0:
448,192,45177,128,0,45292:0:0:0:0:
64,192,45408,1,0,0:0:0:0:
320,192,45408,1,0,0:0:0:0:
448,192,45408,1,0,0:0:0:0:
64,192,45523,128,0,45638:0:0:0:0:
320,192,45523,128,0,45638:0:0:0:0:
448,192,45523,128,0,45638:0:0:0:0:
64,192,45754,128,0,45869:0:0:0:0:
448,192,45754,128,0,45869:0:0:0:0:
192,192,45754,1,0,0:0:0:0:
320,192,45754,1,0,0:0:0:0:
192,192,45869,1,0,0:0:0:0:
320,192,45869,1,0,0:0:0:0:
192,192,45984,128,0,46100:0:0:0:0:
320,192,45984,128,0,46100:0:0:0:0:
64,192,46100,1,0,0:0:0:0:
448,192,46100,1,0,0:0:0:0:
64,192,46215,5,0,0:0:0:0:
448,192,46215,1,0,0:0:0:0:
192,192,46215,1,0,0:0:0:0:
320,192,46215,1,0,0:0:0:0:
192,192,46331,1,0,0:0:0:0:
320,192,46331,1,0,0:0:0:0:
448,192,46331,1,0,0:0:0:0:
192,192,46446,1,0,0:0:0:0:
320,192,46446,1,0,0:0:0:0:
448,192,46446,1,0,0:0:0:0:
64,192,46561,1,0,0:0:0:0:
192,192,46561,1,0,0:0:0:0:
448,192,46561,1,0,0:0:0:0:
64,192,46677,1,0,0:0:0:0:
192,192,46677,1,0,0:0:0:0:
448,192,46677,1,0,0:0:0:0:
64,192,46792,1,0,0:0:0:0:
192,192,46792,1,0,0:0:0:0:
320,192,46792,1,0,0:0:0:0:
64,192,46908,1,0,0:0:0:0:
192,192,46908,1,0,0:0:0:0:
320,192,46908,1,0,0:0:0:0:
64,192,47023,1,0,0:0:0:0:
320,192,47023,1,0,0:0:0:0:
448,192,47023,1,0,0:0:0:0:
64,192,47138,1,0,0:0:0:0:
192,192,47138,1,0,0:0:0:0:
320,192,47196,1,0,0:0:0:0:
448,192,47196,1,0,0:0:0:0:
192,192,47254,1,0,0:0:0:0:
64,192,47254,1,0,0:0:0:0:
320,192,47311,1,0,0:0:0:0:
448,192,47311,1,0,0:0:0:0:
192,192,47369,1,0,0:0:0:0:
64,192,47369,1,0,0:0:0:0:
320,192,47427,1,0,0:0:0:0:
448,192,47427,1,0,0:0:0:0:
192,192,47484,1,0,0:0:0:0:
64,192,47484,1,0,0:0:0:0:
320,192,47542,1,0,0:0:0:0:
448,192,47542,1,0,0:0:0:0:
64,192,47600,1,0,0:0:0:0:
192,192,47629,1,0,0:0:0:0:
448,192,47629,1,0,0:0:0:0:
320,192,47658,1,0,0:0:0:0:
192,192,47715,1,0,0:0:0:0:
64,192,47715,1,0,0:0:0:0:
448,192,47773,1,0,0:0:0:0:
320,192,47802,1,0,0:0:0:0:
64,192,47802,1,0,0:0:0:0:
192,192,47831,1,0,0:0:0:0:
320,192,47888,1,0,0:0:0:0:
448,192,47888,1,0,0:0:0:0:
192,192,47946,1,0,0:0:0:0:
64,192,47946,1,0,0:0:0:0:
320,192,48004,1,0,0:0:0:0:
448,192,48004,1,0,0:0:0:0:
64,192,48061,1,0,0:0:0:0:
192,192,48061,128,0,48138:0:0:0:0:
448,192,48100,128,0,48177:0:0:0:0:
320,192,48138,128,0,48215:0:0:0:0:
64,192,48177,128,0,48254:0:0:0:0:
192,192,48215,128,0,48292:0:0:0:0:
448,192,48254,128,0,48350:0:0:0:0:
320,192,48292,128,0,48388:0:0:0:0:
64,192,48331,128,0,48427:0:0:0:0:
192,192,48369,128,0,48465:0:0:0:0:
448,192,48408,128,0,48504:0:0:0:0:
320,192,48446,128,0,48542:0:0:0:0:
64,192,48484,128,0,48581:0:0:0:0:
192,192,48523,128,0,48619:0:0:0:0:
448,192,48561,128,0,48677:0:0:0:0:
320,192,48600,128,0,48715:0:0:0:0:
64,192,48638,128,0,48754:0:0:0:0:
192,192,48677,128,0,48792:0:0:0:0:
448,192,48715,128,0,48831:0:0:0:0:
320,192,48754,128,0,48869:0:0:0:0:
64,192,48792,128,0,48908:0:0:0:0:
192,192,48831,128,0,48946:0:0:0:0:
448,192,48869,128,0,48946:0:0:0:0:
320,192,48908,128,0,48984:0:0:0:0:
448,192,48984,128,0,49042:0:0:0:0:
64,192,48984,128,0,49100:0:0:0:0:
192,192,48984,128,0,49100:0:0:0:0:
320,192,49100,1,0,0:0:0:0:
448,192,49100,1,0,0:0:0:0:
192,192,49158,1,0,0:0:0:0:
64,192,49158,1,0,0:0:0:0:
320,192,49215,128,0,49273:0:0:0:0:
448,192,49215,128,0,49331:0:0:0:0:
64,192,49215,128,0,49331:0:0:0:0:
192,192,49331,1,0,0:0:0:0:
320,192,49331,1,0,0:0:0:0:
64,192,49388,1,0,0:0:0:0:
448,192,49388,1,0,0:0:0:0:
192,192,49446,128,0,49504:0:0:0:0:
448,192,49446,128,0,49561:0:0:0:0:
320,192,49446,128,0,49561:0:0:0:0:
64,192,49561,1,0,0:0:0:0:
192,192,49561,1,0,0:0:0:0:
320,192,49619,1,0,0:0:0:0:
448,192,49619,1,0,0:0:0:0:
64,192,49677,128,0,49850:0:0:0:0:
192,192,49677,128,0,49850:0:0:0:0:
448,192,49677,128,0,49850:0:0:0:0:
64,192,49908,5,0,0:0:0:0:
448,192,49908,1,0,0:0:0:0:
320,192,49908,128,0,50081:0:0:0:0:
192,192,50023,1,0,0:0:0:0:
64,192,50023,128,0,50196:0:0:0:0:
448,192,50138,1,0,0:0:0:0:
192,192,50138,128,0,50311:0:0:0:0:
320,192,50254,1,0,0:0:0:0:
448,192,50254,128,0,50427:0:0:0:0:
320,192,50369,128,0,50542:0:0:0:0:
64,192,50369,128,0,50484:0:0:0:0:
192,192,50484,1,0,0:0:0:0:
448,192,50484,1,0,0:0:0:0:
64,192,50600,1,0,0:0:0:0:
192,192,50600,1,0,0:0:0:0:
448,192,50658,1,0,0:0:0:0:
320,192,50658,128,0,50773:0:0:0:0:
64,192,50715,1,0,0:0:0:0:
192,192,50715,128,0,50773:0:0:0:0:
448,192,50831,1,0,0:0:0:0:
64,192,50831,128,0,50888:0:0:0:0:
192,192,50831,128,0,50888:0:0:0:0:
448,192,50946,1,0,0:0:0:0:
320,192,50946,1,0,0:0:0:0:
64,192,51004,1,0,0:0:0:0:
192,192,51004,128,0,51119:0:0:0:0:
448,192,51061,1,0,0:0:0:0:
320,192,51061,128,0,51119:0:0:0:0:
64,192,51177,1,0,0:0:0:0:
320,192,51177,128,0,51234:0:0:0:0:
448,192,51177,128,0,51234:0:0:0:0:
64,192,51292,1,0,0:0:0:0:
448,192,51292,1,0,0:0:0:0:
192,192,51350,128,0,51465:0:0:0:0:
320,192,51350,128,0,51465:0:0:0:0:
64,192,51408,128,0,51465:0:0:0:0:
448,192,51408,128,0,51465:0:0:0:0:
448,192,51523,128,0,51638:0:0:0:0:
64,192,51523,128,0,51638:0:0:0:0:
192,192,51523,128,0,51638:0:0:0:0:
320,192,51638,128,0,51754:0:0:0:0:
192,192,51754,128,0,51927:0:0:0:0:
64,192,51754,1,0,0:0:0:0:
448,192,51754,1,0,0:0:0:0:
448,192,51869,128,0,52042:0:0:0:0:
320,192,51869,1,0,0:0:0:0:
320,192,51984,128,0,52158:0:0:0:0:
64,192,51984,1,0,0:0:0:0:
64,192,52100,128,0,52273:0:0:0:0:
192,192,52100,1,0,0:0:0:0:
192,192,52215,128,0,52388:0:0:0:0:
448,192,52215,128,0,52331:0:0:0:0:
64,192,52331,1,0,0:0:0:0:
320,192,52331,1,0,0:0:0:0:
320,192,52446,1,0,0:0:0:0:
448,192,52446,1,0,0:0:0:0:
64,192,52504,1,0,0:0:0:0:
192,192,52504,128,0,52619:0:0:0:0:
448,192,52561,1,0,0:0:0:0:
320,192,52561,128,0,52619:0:0:0:0:
64,192,52677,1,0,0:0:0:0:
320,192,52677,128,0,52734:0:0:0:0:
448,192,52677,128,0,52734:0:0:0:0:
64,192,52792,1,0,0:0:0:0:
192,192,52792,1,0,0:0:0:0:
448,192,52850,1,0,0:0:0:0:
320,192,52850,128,0,52965:0:0:0:0:
64,192,52908,1,0,0:0:0:0:
192,192,52908,128,0,52965:0:0:0:0:
448,192,53023,1,0,0:0:0:0:
64,192,53023,128,0,53081:0:0:0:0:
192,192,53023,128,0,53081:0:0:0:0:
64,192,53138,1,0,0:0:0:0:
448,192,53138,1,0,0:0:0:0:
320,192,53196,128,0,53254:0:0:0:0:
192,192,53196,128,0,53311:0:0:0:0:
64,192,53254,128,0,53311:0:0:0:0:
448,192,53254,128,0,53311:0:0:0:0:
320,192,53311,1,0,0:0:0:0:
192,192,53369,128,0,53427:0:0:0:0:
64,192,53398,128,0,53456:0:0:0:0:
320,192,53427,128,0,53484:0:0:0:0:
448,192,53456,128,0,53513:0:0:0:0:
192,192,53484,1,0,0:0:0:0:
64,192,53513,1,0,0:0:0:0:
320,192,53542,1,0,0:0:0:0:
64,192,53600,1,0,0:0:0:0:
192,192,53600,128,0,53773:0:0:0:0:
448,192,53600,128,0,53715:0:0:0:0:
320,192,53715,1,0,0:0:0:0:
320,192,53831,128,0,54004:0:0:0:0:
64,192,53831,1,0,0:0:0:0:
448,192,53831,1,0,0:0:0:0:
64,192,53946,128,0,54119:0:0:0:0:
192,192,53946,1,0,0:0:0:0:
192,192,54061,128,0,54234:0:0:0:0:
448,192,54061,128,0,54177:0:0:0:0:
320,192,54177,1,0,0:0:0:0:
64,192,54177,1,0,0:0:0:0:
448,192,54292,1,0,0:0:0:0:
192,192,54292,1,0,0:0:0:0:
320,192,54350,1,0,0:0:0:0:
64,192,54350,128,0,54465:0:0:0:0:
448,192,54408,128,0,54465:0:0:0:0:
192,192,54408,128,0,54465:0:0:0:0:
64,192,54523,1,0,0:0:0:0:
320,192,54523,128,0,54581:0:0:0:0:
448,192,54523,128,0,54581:0:0:0:0:
64,192,54638,1,0,0:0:0:0:
320,192,54638,1,0,0:0:0:0:
192,192,54696,1,0,0:0:0:0:
448,192,54696,128,0,54811:0:0:0:0:
320,192,54754,128,0,54811:0:0:0:0:
64,192,54754,128,0,54811:0:0:0:0:
448,192,54869,1,0,0:0:0:0:
64,192,54869,128,0,54927:0:0:0:0:
192,192,54869,128,0,54927:0:0:0:0:
320,192,54984,1,0,0:0:0:0:
448,192,54984,1,0,0:0:0:0:
192,192,55042,128,0,55158:0:0:0:0:
64,192,55042,128,0,55158:0:0:0:0:
448,192,55100,128,0,55158:0:0:0:0:
320,192,55100,128,0,55158:0:0:0:0:
64,192,55215,128,0,55331:0:0:0:0:
448,192,55215,128,0,55331:0:0:0:0:
320,192,55215,128,0,55331:0:0:0:0:
192,192,55331,128,0,55446:0:0:0:0:
448,192,55446,1,0,0:0:0:0:
320,192,55446,1,0,0:0:0:0:
64,192,55446,128,0,55561:0:0:0:0:
192,192,55561,128,0,55619:0:0:0:0:
320,192,55590,128,0,55648:0:0:0:0:
448,192,55619,128,0,55677:0:0:0:0:
192,192,55677,1,0,0:0:0:0:
64,192,55677,128,0,55792:0:0:0:0:
320,192,55734,1,0,0:0:0:0:
192,192,55792,1,0,0:0:0:0:
448,192,55792,128,0,55908:0:0:0:0:
320,192,55908,128,0,55965:0:0:0:0:
192,192,55936,128,0,55994:0:0:0:0:
64,192,55965,128,0,56023:0:0:0:0:
320,192,56023,1,0,0:0:0:0:
448,192,56023,128,0,56138:0:0:0:0:
192,192,56081,1,0,0:0:0:0:
320,192,56138,1,0,0:0:0:0:
64,192,56138,128,0,56254:0:0:0:0:
192,192,56254,128,0,56369:0:0:0:0:
448,192,56254,1,0,0:0:0:0:
64,192,56369,128,0,56456:0:0:0:0:
448,192,56369,128,0,56456:0:0:0:0:
64,192,56484,128,0,56571:0:0:0:0:
448,192,56484,128,0,56571:0:0:0:0:
192,192,56600,128,0,56686:0:0:0:0:
320,192,56600,128,0,56686:0:0:0:0:
64,192,56715,128,0,56802:0:0:0:0:
448,192,56715,128,0,56802:0:0:0:0:
192,192,56831,128,0,56917:0:0:0:0:
320,192,56831,128,0,56917:0:0:0:0:
64,192,56946,128,0,57033:0:0:0:0:
448,192,56946,128,0,57033:0:0:0:0:
64,192,57061,128,0,57234:0:0:0:0:
192,192,57090,128,0,57206:0:0:0:0:
320,192,57119,128,0,57177:0:0:0:0:
448,192,57148,1,0,0:0:0:0:
64,192,57292,1,0,0:0:0:0:
448,192,57292,1,0,0:0:0:0:
320,192,57292,128,0,57465:0:0:0:0:
64,192,57408,128,0,57581:0:0:0:0:
448,192,57408,128,0,57523:0:0:0:0:
192,192,57523,128,0,57696:0:0:0:0:
320,192,57523,1,0,0:0:0:0:
448,192,57638,128,0,57811:0:0:0:0:
64,192,57638,128,0,57754:0:0:0:0:
320,192,57754,128,0,57927:0:0:0:0:
192,192,57754,128,0,57869:0:0:0:0:
64,192,57869,1,0,0:0:0:0:
448,192,57869,1,0,0:0:0:0:
64,192,57984,1,0,0:0:0:0:
192,192,57984,1,0,0:0:0:0:
448,192,58042,1,0,0:0:0:0:
320,192,58042,128,0,58158:0:0:0:0:
64,192,58100,1,0,0:0:0:0:
192,192,58100,128,0,58158:0:0:0:0:
64,192,58215,128,0,58273:0:0:0:0:
192,192,58215,128,0,58273:0:0:0:0:
448,192,58215,1,0,0:0:0:0:
448,192,58331,1,0,0:0:0:0:
320,192,58331,1,0,0:0:0:0:
64,192,58388,1,0,0:0:0:0:
192,192,58388,128,0,58504:0:0:0:0:
448,192,58446,1,0,0:0:0:0:
320,192,58446,128,0,58504:0:0:0:0:
64,192,58561,128,0,58619:0:0:0:0:
192,192,58561,128,0,58619:0:0:0:0:
448,192,58561,1,0,0:0:0:0:
448,192,58677,128,0,58792:0:0:0:0:
192,192,58677,128,0,58763:0:0:0:0:
320,192,58734,1,0,0:0:0:0:
64,192,58792,128,0,58821:0:0:0:0:
192,192,58821,128,0,58850:0:0:0:0:
448,192,58850,128,0,58879:0:0:0:0:
320,192,58879,128,0,58908:0:0:0:0:
64,192,58908,128,0,59138:0:0:0:0:
192,192,58946,128,0,58984:0:0:0:0:
320,192,58984,128,0,59023:0:0:0:0:
448,192,59023,128,0,59138:0:0:0:0:
192,192,59138,128,0,59311:0:0:0:0:
320,192,59138,1,0,0:0:0:0:
448,192,59254,128,0,59427:0:0:0:0:
64,192,59254,128,0,59369:0:0:0:0:
320,192,59369,128,0,59542:0:0:0:0:
192,192,59369,1,0,0:0:0:0:
64,192,59484,128,0,59658:0:0:0:0:
448,192,59484,128,0,59600:0:0:0:0:
192,192,59600,128,0,59773:0:0:0:0:
320,192,59600,128,0,59715:0:0:0:0:
448,192,59715,1,0,0:0:0:0:
64,192,59715,1,0,0:0:0:0:
448,192,59831,1,0,0:0:0:0:
320,192,59831,1,0,0:0:0:0:
64,192,59888,1,0,0:0:0:0:
192,192,59888,128,0,60004:0:0:0:0:
448,192,59946,1,0,0:0:0:0:
320,192,59946,128,0,60004:0:0:0:0:
64,192,60061,1,0,0:0:0:0:
320,192,60061,128,0,60119:0:0:0:0:
448,192,60061,128,0,60119:0:0:0:0:
64,192,60177,1,0,0:0:0:0:
192,192,60177,1,0,0:0:0:0:
448,192,60234,1,0,0:0:0:0:
320,192,60234,128,0,60350:0:0:0:0:
64,192,60292,1,0,0:0:0:0:
192,192,60292,128,0,60350:0:0:0:0:
448,192,60408,128,0,60523:0:0:0:0:
320,192,60408,128,0,60561:0:0:0:0:
64,192,60408,128,0,60465:0:0:0:0:
192,192,60523,128,0,60600:0:0:0:0:
64,192,60561,128,0,60638:0:0:0:0:
448,192,60600,128,0,60792:0:0:0:0:
320,192,60638,128,0,60754:0:0:0:0:
192,192,60677,128,0,60715:0:0:0:0:
64,192,60715,128,0,60869:0:0:0:0:
192,192,60792,128,0,60908:0:0:0:0:
320,192,60831,128,0,60946:0:0:0:0:
448,192,60869,128,0,60984:0:0:0:0:
64,192,60984,1,0,0:0:0:0:
192,192,60984,1,0,0:0:0:0:
320,192,61042,1,0,0:0:0:0:
448,192,61042,1,0,0:0:0:0:
64,192,61100,1,0,0:0:0:0:
192,192,61100,1,0,0:0:0:0:
448,192,61158,1,0,0:0:0:0:
320,192,61158,1,0,0:0:0:0:
192,192,61215,128,0,61331:0:0:0:0:
64,192,61215,128,0,61331:0:0:0:0:
448,192,61331,1,0,0:0:0:0:
320,192,61331,1,0,0:0:0:0:
64,192,61446,1,0,0:0:0:0:
448,192,61446,128,0,61561:0:0:0:0:
320,192,61446,128,0,61561:0:0:0:0:
192,192,61561,128,0,61677:0:0:0:0:
64,192,61561,128,0,61677:0:0:0:0:
448,192,61677,128,0,61792:0:0:0:0:
64,192,61792,128,0,61908:0:0:0:0:
192,192,61908,1,0,0:0:0:0:
320,192,61908,1,0,0:0:0:0:
448,192,61908,1,0,0:0:0:0:
448,192,62023,1,0,0:0:0:0:
320,192,62023,1,0,0:0:0:0:
64,192,62081,1,0,0:0:0:0:
192,192,62081,1,0,0:0:0:0:
320,192,62138,128,0,62254:0:0:0:0:
448,192,62138,128,0,62254:0:0:0:0:
192,192,62254,1,0,0:0:0:0:
64,192,62254,1,0,0:0:0:0:
320,192,62311,1,0,0:0:0:0:
448,192,62311,1,0,0:0:0:0:
64,192,62369,128,0,62600:0:0:0:0:
320,192,62600,128,0,62831:0:0:0:0:
64,192,62831,1,0,0:0:0:0:
192,192,62831,1,0,0:0:0:0:
448,192,62831,1,0,0:0:0:0:
64,192,62946,1,0,0:0:0:0:
320,192,62946,1,0,0:0:0:0:
448,192,62946,1,0,0:0:0:0:
192,192,63061,128,0,63292:0:0:0:0:
320,192,63292,1,0,0:0:0:0:
448,192,63292,1,0,0:0:0:0:
192,192,63350,1,0,0:0:0:0:
64,192,63350,1,0,0:0:0:0:
320,192,63408,1,0,0:0:0:0:
448,192,63408,1,0,0:0:0:0:
192,192,63465,1,0,0:0:0:0:
64,192,63465,1,0,0:0:0:0:
448,192,63523,128,0,63754:0:0:0:0:
320,192,63523,128,0,63754:0:0:0:0:
64,192,63754,128,0,63984:0:0:0:0:
192,192,63754,1,0,0:0:0:0:
320,192,63869,1,0,0:0:0:0:
448,192,63984,128,0,64100:0:0:0:0:
192,192,63984,1,0,0:0:0:0:
192,192,64100,128,0,64215:0:0:0:0:
64,192,64100,1,0,0:0:0:0:
320,192,64215,128,0,64446:0:0:0:0:
448,192,64215,1,0,0:0:0:0:
192,192,64331,1,0,0:0:0:0:
64,192,64446,1,0,0:0:0:0:
448,192,64446,1,0,0:0:0:0:
192,192,64504,1,0,0:0:0:0:
320,192,64504,1,0,0:0:0:0:
448,192,64561,1,0,0:0:0:0:
64,192,64561,1,0,0:0:0:0:
192,192,64619,1,0,0:0:0:0:
320,192,64619,1,0,0:0:0:0:
448,192,64677,128,0,64850:0:0:0:0:
64,192,64677,128,0,64850:0:0:0:0:
320,192,64677,128,0,64734:0:0:0:0:
192,192,64792,128,0,64850:0:0:0:0:
64,192,64908,128,0,65081:0:0:0:0:
448,192,64908,128,0,65081:0:0:0:0:
320,192,64908,1,0,0:0:0:0:
192,192,64908,128,0,64965:0:0:0:0:
320,192,65023,128,0,65081:0:0:0:0:
64,192,65138,128,0,65311:0:0:0:0:
448,192,65138,128,0,65311:0:0:0:0:
192,192,65138,128,0,65196:0:0:0:0:
192,192,65254,1,0,0:0:0:0:
320,192,65254,128,0,65311:0:0:0:0:
192,192,65369,128,0,65542:0:0:0:0:
320,192,65369,128,0,65542:0:0:0:0:
64,192,65369,1,0,0:0:0:0:
448,192,65369,128,0,65427:0:0:0:0:
64,192,65484,128,0,65542:0:0:0:0:
320,192,65600,128,0,65773:0:0:0:0:
192,192,65600,128,0,65773:0:0:0:0:
448,192,65600,128,0,65658:0:0:0:0:
64,192,65715,128,0,65773:0:0:0:0:
64,192,65831,128,0,66004:0:0:0:0:
448,192,65831,128,0,66004:0:0:0:0:
320,192,65831,1,0,0:0:0:0:
192,192,65831,128,0,65888:0:0:0:0:
320,192,65946,128,0,66004:0:0:0:0:
192,192,66061,128,0,66234:0:0:0:0:
320,192,66061,128,0,66234:0:0:0:0:
64,192,66061,128,0,66119:0:0:0:0:
448,192,66177,128,0,66234:0:0:0:0:
64,192,66292,128,0,66465:0:0:0:0:
448,192,66292,128,0,66465:0:0:0:0:
192,192,66292,1,0,0:0:0:0:
320,192,66292,128,0,66350:0:0:0:0:
192,192,66408,128,0,66465:0:0:0:0:
320,192,66523,128,0,66696:0:0:0:0:
448,192,66523,128,0,66696:0:0:0:0:
64,192,66523,128,0,66581:0:0:0:0:
192,192,66638,128,0,66696:0:0:0:0:
320,192,66754,128,0,66927:0:0:0:0:
448,192,66754,128,0,66927:0:0:0:0:
64,192,66754,1,0,0:0:0:0:
192,192,66754,128,0,66811:0:0:0:0:
64,192,66869,128,0,66927:0:0:0:0:
448,192,66984,128,0,67158:0:0:0:0:
320,192,66984,128,0,67158:0:0:0:0:
192,192,66984,128,0,67042:0:0:0:0:
64,192,67100,128,0,67158:0:0:0:0:
64,192,67215,128,0,67388:0:0:0:0:
192,192,67215,128,0,67388:0:0:0:0:
320,192,67215,1,0,0:0:0:0:
448,192,67215,128,0,67273:0:0:0:0:
320,192,67331,128,0,67388:0:0:0:0:
64,192,67446,128,0,67619:0:0:0:0:
192,192,67446,128,0,67619:0:0:0:0:
448,192,67446,128,0,67504:0:0:0:0:
320,192,67561,1,0,0:0:0:0:
320,192,67677,128,0,67850:0:0:0:0:
448,192,67677,128,0,67850:0:0:0:0:
64,192,67677,1,0,0:0:0:0:
192,192,67677,128,0,67734:0:0:0:0:
64,192,67792,128,0,67850:0:0:0:0:
320,192,67908,1,0,0:0:0:0:
192,192,67908,128,0,68138:0:0:0:0:
448,192,68138,128,0,68311:0:0:0:0:
64,192,68254,128,0,68369:0:0:0:0:
192,192,68369,1,0,0:0:0:0:
320,192,68369,1,0,0:0:0:0:
448,192,68369,1,0,0:0:0:0:
192,192,68484,128,0,68600:0:0:0:0:
320,192,68484,128,0,68600:0:0:0:0:
448,192,68484,128,0,68600:0:0:0:0:
64,192,68600,1,0,0:0:0:0:
192,192,68715,1,0,0:0:0:0:
448,192,68715,1,0,0:0:0:0:
320,192,68715,1,0,0:0:0:0:
192,192,68831,128,0,68946:0:0:0:0:
320,192,68831,128,0,68946:0:0:0:0:
64,192,68831,128,0,68946:0:0:0:0:
448,192,68831,1,0,0:0:0:0:
448,192,68946,1,0,0:0:0:0:
192,192,69061,1,0,0:0:0:0:
320,192,69061,1,0,0:0:0:0:
448,192,69061,1,0,0:0:0:0:
320,192,69177,128,0,69292:0:0:0:0:
448,192,69177,128,0,69292:0:0:0:0:
192,192,69177,128,0,69292:0:0:0:0:
64,192,69292,1,0,0:0:0:0:
192,192,69408,1,0,0:0:0:0:
320,192,69408,1,0,0:0:0:0:
448,192,69408,1,0,0:0:0:0:
192,192,69523,128,0,69638:0:0:0:0:
320,192,69523,128,0,69638:0:0:0:0:
448,192,69523,128,0,69638:0:0:0:0:
64,192,69638,1,0,0:0:0:0:
448,192,69754,1,0,0:0:0:0:
192,192,69754,1,0,0:0:0:0:
320,192,69754,1,0,0:0:0:0:
64,192,69754,128,0,69869:0:0:0:0:
192,192,69869,1,0,0:0:0:0:
320,192,69869,1,0,0:0:0:0:
448,192,69869,1,0,0:0:0:0:
192,192,69984,128,0,70100:0:0:0:0:
320,192,69984,128,0,70100:0:0:0:0:
448,192,69984,128,0,70100:0:0:0:0:
64,192,70100,1,0,0:0:0:0:
64,192,70215,1,0,0:0:0:0:
192,192,70215,1,0,0:0:0:0:
320,192,70215,1,0,0:0:0:0:
448,192,70215,1,0,0:0:0:0:
64,192,70331,128,0,70446:0:0:0:0:
192,192,70331,128,0,70446:0:0:0:0:
320,192,70331,128,0,70446:0:0:0:0:
448,192,70446,1,0,0:0:0:0:
64,192,70561,1,0,0:0:0:0:
192,192,70561,1,0,0:0:0:0:
320,192,70561,1,0,0:0:0:0:
64,192,70677,1,0,0:0:0:0:
448,192,70677,128,0,70792:0:0:0:0:
320,192,70677,128,0,70792:0:0:0:0:
192,192,70677,128,0,70792:0:0:0:0:
64,192,70792,1,0,0:0:0:0:
64,192,70908,1,0,0:0:0:0:
192,192,70908,1,0,0:0:0:0:
320,192,70908,1,0,0:0:0:0:
64,192,71023,128,0,71138:0:0:0:0:
192,192,71023,128,0,71138:0:0:0:0:
320,192,71023,128,0,71138:0:0:0:0:
448,192,71138,1,0,0:0:0:0:
320,192,71254,1,0,0:0:0:0:
64,192,71254,1,0,0:0:0:0:
192,192,71254,1,0,0:0:0:0:
64,192,71369,128,0,71484:0:0:0:0:
192,192,71369,128,0,71484:0:0:0:0:
320,192,71369,128,0,71484:0:0:0:0:
448,192,71484,1,0,0:0:0:0:
64,192,71600,1,0,0:0:0:0:
320,192,71629,128,0,71686:0:0:0:0:
192,192,71658,128,0,71715:0:0:0:0:
64,192,71686,128,0,71802:0:0:0:0:
192,192,71773,128,0,71831:0:0:0:0:
320,192,71802,128,0,71859:0:0:0:0:
448,192,71831,128,0,71888:0:0:0:0:
64,192,71888,1,0,0:0:0:0:
192,192,71917,1,0,0:0:0:0:
320,192,71946,1,0,0:0:0:0:
448,192,71975,1,0,0:0:0:0:
64,192,72061,128,0,72234:0:0:0:0:
192,192,72061,128,0,72234:0:0:0:0:
320,192,72061,128,0,72119:0:0:0:0:
448,192,72177,128,0,72234:0:0:0:0:
64,192,72292,128,0,72465:0:0:0:0:
192,192,72292,128,0,72465:0:0:0:0:
320,192,72292,1,0,0:0:0:0:
448,192,72292,128,0,72350:0:0:0:0:
320,192,72408,128,0,72465:0:0:0:0:
64,192,72523,128,0,72696:0:0:0:0:
192,192,72523,128,0,72696:0:0:0:0:
448,192,72523,128,0,72581:0:0:0:0:
320,192,72638,128,0,72696:0:0:0:0:
320,192,72754,128,0,72927:0:0:0:0:
448,192,72754,128,0,72927:0:0:0:0:
192,192,72754,1,0,0:0:0:0:
64,192,72754,128,0,72811:0:0:0:0:
192,192,72869,128,0,72927:0:0:0:0:
320,192,72984,128,0,73158:0:0:0:0:
448,192,72984,128,0,73158:0:0:0:0:
64,192,72984,128,0,73042:0:0:0:0:
192,192,73100,128,0,73158:0:0:0:0:
64,192,73215,128,0,73388:0:0:0:0:
192,192,73215,128,0,73388:0:0:0:0:
320,192,73215,1,0,0:0:0:0:
448,192,73215,128,0,73273:0:0:0:0:
320,192,73331,128,0,73388:0:0:0:0:
320,192,73446,128,0,73619:0:0:0:0:
448,192,73446,128,0,73619:0:0:0:0:
64,192,73446,128,0,73504:0:0:0:0:
192,192,73561,128,0,73619:0:0:0:0:
64,192,73677,128,0,73850:0:0:0:0:
192,192,73677,128,0,73850:0:0:0:0:
448,192,73677,1,0,0:0:0:0:
320,192,73677,128,0,73734:0:0:0:0:
448,192,73792,128,0,73850:0:0:0:0:
64,192,73908,128,0,74081:0:0:0:0:
448,192,73908,128,0,74081:0:0:0:0:
192,192,73908,128,0,73965:0:0:0:0:
320,192,74023,128,0,74081:0:0:0:0:
448,192,74138,128,0,74311:0:0:0:0:
64,192,74138,128,0,74311:0:0:0:0:
320,192,74138,1,0,0:0:0:0:
192,192,74138,128,0,74196:0:0:0:0:
320,192,74254,128,0,74311:0:0:0:0:
64,192,74369,128,0,74542:0:0:0:0:
448,192,74369,128,0,74542:0:0:0:0:
192,192,74369,128,0,74427:0:0:0:0:
320,192,74484,128,0,74542:0:0:0:0:
192,192,74600,128,0,74773:0:0:0:0:
320,192,74600,128,0,74773:0:0:0:0:
64,192,74600,1,0,0:0:0:0:
448,192,74600,128,0,74658:0:0:0:0:
64,192,74715,128,0,74773:0:0:0:0:
192,192,74831,128,0,75004:0:0:0:0:
320,192,74831,128,0,75004:0:0:0:0:
448,192,74831,128,0,74888:0:0:0:0:
64,192,74946,128,0,75004:0:0:0:0:
64,192,75061,128,0,75234:0:0:0:0:
448,192,75061,128,0,75234:0:0:0:0:
320,192,75061,1,0,0:0:0:0:
192,192,75061,128,0,75119:0:0:0:0:
320,192,75177,128,0,75234:0:0:0:0:
64,192,75292,1,0,0:0:0:0:
192,192,75292,128,0,75523:0:0:0:0:
448,192,75292,1,0,0:0:0:0:
448,192,75523,128,0,75638:0:0:0:0:
64,192,75638,128,0,75754:0:0:0:0:
320,192,75754,1,0,0:0:0:0:
192,192,75754,1,0,0:0:0:0:
448,192,75754,1,0,0:0:0:0:
192,192,75869,128,0,75984:0:0:0:0:
320,192,75869,128,0,75984:0:0:0:0:
448,192,75869,1,0,0:0:0:0:
448,192,75984,1,0,0:0:0:0:
64,192,75984,128,0,76100:0:0:0:0:
192,192,76100,1,0,0:0:0:0:
448,192,76100,1,0,0:0:0:0:
320,192,76100,1,0,0:0:0:0:
448,192,76215,1,0,0:0:0:0:
192,192,76215,128,0,76331:0:0:0:0:
320,192,76215,128,0,76331:0:0:0:0:
448,192,76331,1,0,0:0:0:0:
64,192,76331,128,0,76446:0:0:0:0:
192,192,76446,1,0,0:0:0:0:
320,192,76446,1,0,0:0:0:0:
448,192,76446,1,0,0:0:0:0:
320,192,76561,128,0,76677:0:0:0:0:
192,192,76561,128,0,76677:0:0:0:0:
448,192,76561,1,0,0:0:0:0:
448,192,76677,1,0,0:0:0:0:
64,192,76677,128,0,76792:0:0:0:0:
192,192,76792,1,0,0:0:0:0:
448,192,76792,1,0,0:0:0:0:
320,192,76792,1,0,0:0:0:0:
192,192,76908,128,0,77023:0:0:0:0:
320,192,76908,128,0,77023:0:0:0:0:
448,192,76908,1,0,0:0:0:0:
448,192,77023,1,0,0:0:0:0:
64,192,77023,128,0,77138:0:0:0:0:
192,192,77138,1,0,0:0:0:0:
320,192,77138,1,0,0:0:0:0:
448,192,77138,1,0,0:0:0:0:
448,192,77254,1,0,0:0:0:0:
320,192,77254,128,0,77369:0:0:0:0:
192,192,77254,128,0,77369:0:0:0:0:
448,192,77369,1,0,0:0:0:0:
64,192,77369,1,0,0:0:0:0:
448,192,77484,1,0,0:0:0:0:
320,192,77484,1,0,0:0:0:0:
192,192,77542,1,0,0:0:0:0:
64,192,77542,1,0,0:0:0:0:
320,192,77600,1,0,0:0:0:0:
448,192,77600,1,0,0:0:0:0:
64,192,77715,1,0,0:0:0:0:
192,192,77715,1,0,0:0:0:0:
448,192,77715,1,0,0:0:0:0:
192,192,77831,1,0,0:0:0:0:
448,192,77831,128,0,77946:0:0:0:0:
64,192,77831,1,0,0:0:0:0:
320,192,77831,1,0,0:0:0:0:
192,192,77946,1,0,0:0:0:0:
64,192,77946,1,0,0:0:0:0:
320,192,77946,1,0,0:0:0:0:
64,192,78061,1,0,0:0:0:0:
192,192,78061,1,0,0:0:0:0:
320,192,78061,1,0,0:0:0:0:
192,192,78177,1,0,0:0:0:0:
320,192,78177,1,0,0:0:0:0:
448,192,78177,128,0,78292:0:0:0:0:
64,192,78177,1,0,0:0:0:0:
192,192,78292,1,0,0:0:0:0:
320,192,78292,1,0,0:0:0:0:
64,192,78292,1,0,0:0:0:0:
320,192,78408,1,0,0:0:0:0:
64,192,78408,128,0,78523:0:0:0:0:
192,192,78408,128,0,78523:0:0:0:0:
448,192,78523,1,0,0:0:0:0:
320,192,78523,128,0,78600:0:0:0:0:
192,192,78561,128,0,78638:0:0:0:0:
64,192,78600,128,0,78677:0:0:0:0:
448,192,78638,128,0,78715:0:0:0:0:
320,192,78677,128,0,78754:0:0:0:0:
192,192,78715,128,0,78792:0:0:0:0:
64,192,78754,128,0,78869:0:0:0:0:
192,192,78831,128,0,78908:0:0:0:0:
320,192,78869,128,0,78946:0:0:0:0:
448,192,78908,128,0,79023:0:0:0:0:
320,192,78984,128,0,79061:0:0:0:0:
192,192,79023,128,0,79100:0:0:0:0:
64,192,79061,128,0,79138:0:0:0:0:
320,192,79100,128,0,79177:0:0:0:0:
448,192,79138,128,0,79215:0:0:0:0:
192,192,79177,128,0,79292:0:0:0:0:
64,192,79215,128,0,79254:0:0:0:0:
320,192,79254,128,0,79331:0:0:0:0:
448,192,79292,128,0,79369:0:0:0:0:
64,192,79331,1,0,0:0:0:0:
192,192,79369,1,0,0:0:0:0:
64,192,79446,1,0,0:0:0:0:
192,192,79446,1,0,0:0:0:0:
320,192,79446,1,0,0:0:0:0:
448,192,79446,1,0,0:0:0:0:
192,192,82446,5,0,0:0:0:0:
64,192,82504,1,0,0:0:0:0:
320,192,82561,1,0,0:0:0:0:
448,192,82561,1,0,0:0:0:0:
64,192,82677,1,0,0:0:0:0:
192,192,82677,1,0,0:0:0:0:
320,192,82792,1,0,0:0:0:0:
448,192,82792,1,0,0:0:0:0:
320,192,82908,1,0,0:0:0:0:
448,192,82908,1,0,0:0:0:0:
192,192,83023,1,0,0:0:0:0:
64,192,83023,1,0,0:0:0:0:
64,192,83138,1,0,0:0:0:0:
192,192,83138,1,0,0:0:0:0:
320,192,83138,1,0,0:0:0:0:
448,192,83138,128,0,83369:0:0:0:0:
64,192,83369,128,0,83484:0:0:0:0:
320,192,83484,128,0,83600:0:0:0:0:
192,192,83600,128,0,83715:0:0:0:0:
448,192,83715,128,0,83831:0:0:0:0:
64,192,83831,128,0,83946:0:0:0:0:
192,192,83946,5,0,0:0:0:0:
320,192,83946,1,0,0:0:0:0:
64,192,84061,1,0,0:0:0:0:
192,192,84061,1,0,0:0:0:0:
320,192,84061,1,0,0:0:0:0:
448,192,84061,128,0,84292:0:0:0:0:
192,192,84292,128,0,84408:0:0:0:0:
448,192,84408,128,0,84523:0:0:0:0:
64,192,84523,128,0,84638:0:0:0:0:
320,192,84638,128,0,84984:0:0:0:0:
448,192,84984,5,0,0:0:0:0:
64,192,84984,1,0,0:0:0:0:
192,192,85042,1,0,0:0:0:0:
320,192,85042,1,0,0:0:0:0:
448,192,85100,128,0,85273:0:0:0:0:
64,192,85100,128,0,85215:0:0:0:0:
320,192,85158,128,0,85273:0:0:0:0:
192,192,85215,128,0,85273:0:0:0:0:
64,192,85331,1,0,0:0:0:0:
192,192,85331,1,0,0:0:0:0:
320,192,85388,1,0,0:0:0:0:
448,192,85388,1,0,0:0:0:0:
192,192,85446,128,0,85619:0:0:0:0:
64,192,85446,128,0,85561:0:0:0:0:
320,192,85504,128,0,85619:0:0:0:0:
448,192,85561,128,0,85619:0:0:0:0:
448,192,85677,1,0,0:0:0:0:
320,192,85677,1,0,0:0:0:0:
192,192,85734,1,0,0:0:0:0:
64,192,85734,1,0,0:0:0:0:
448,192,85792,128,0,85908:0:0:0:0:
320,192,85792,128,0,85908:0:0:0:0:
192,192,85850,128,0,85908:0:0:0:0:
64,192,85908,128,0,86138:0:0:0:0:
448,192,86138,128,0,86254:0:0:0:0:
192,192,86138,128,0,86254:0:0:0:0:
320,192,86254,1,0,0:0:0:0:
192,192,86369,128,0,86542:0:0:0:0:
64,192,86369,128,0,86542:0:0:0:0:
448,192,86369,128,0,86542:0:0:0:0:
64,192,86600,1,0,0:0:0:0:
192,192,86600,1,0,0:0:0:0:
320,192,86600,1,0,0:0:0:0:
448,192,86600,1,0,0:0:0:0:
192,192,86831,1,0,0:0:0:0:
320,192,86831,128,0,86946:0:0:0:0:
448,192,86831,128,0,86946:0:0:0:0:
64,192,86831,1,0,0:0:0:0:
192,192,86946,1,0,0:0:0:0:
320,192,87061,128,0,87177:0:0:0:0:
448,192,87061,128,0,87177:0:0:0:0:
64,192,87061,128,0,87177:0:0:0:0:
192,192,87177,1,0,0:0:0:0:
448,192,87292,1,0,0:0:0:0:
64,192,87292,128,0,87408:0:0:0:0:
320,192,87292,128,0,87408:0:0:0:0:
192,192,87408,1,0,0:0:0:0:
448,192,87408,1,0,0:0:0:0:
192,192,87523,128,0,87638:0:0:0:0:
320,192,87523,128,0,87638:0:0:0:0:
64,192,87523,128,0,87638:0:0:0:0:
448,192,87638,1,0,0:0:0:0:
64,192,87754,1,0,0:0:0:0:
192,192,87754,128,0,87869:0:0:0:0:
320,192,87754,128,0,87869:0:0:0:0:
448,192,87869,1,0,0:0:0:0:
64,192,87869,1,0,0:0:0:0:
192,192,87984,128,0,88100:0:0:0:0:
448,192,87984,128,0,88100:0:0:0:0:
320,192,87984,128,0,88100:0:0:0:0:
64,192,88100,1,0,0:0:0:0:
320,192,88215,1,0,0:0:0:0:
192,192,88215,128,0,88331:0:0:0:0:
448,192,88215,128,0,88331:0:0:0:0:
64,192,88331,1,0,0:0:0:0:
320,192,88331,1,0,0:0:0:0:
64,192,88446,128,0,88561:0:0:0:0:
192,192,88446,128,0,88561:0:0:0:0:
448,192,88446,128,0,88561:0:0:0:0:
320,192,88561,1,0,0:0:0:0:
64,192,88677,1,0,0:0:0:0:
192,192,88677,128,0,88792:0:0:0:0:
448,192,88677,128,0,88792:0:0:0:0:
320,192,88792,1,0,0:0:0:0:
64,192,88792,1,0,0:0:0:0:
320,192,88908,128,0,89023:0:0:0:0:
448,192,88908,128,0,89023:0:0:0:0:
192,192,88908,128,0,89023:0:0:0:0:
64,192,89023,1,0,0:0:0:0:
448,192,89138,1,0,0:0:0:0:
192,192,89138,128,0,89254:0:0:0:0:
320,192,89138,128,0,89254:0:0:0:0:
64,192,89254,1,0,0:0:0:0:
448,192,89254,1,0,0:0:0:0:
192,192,89369,128,0,89484:0:0:0:0:
320,192,89369,128,0,89484:0:0:0:0:
64,192,89369,128,0,89484:0:0:0:0:
448,192,89484,1,0,0:0:0:0:
64,192,89600,1,0,0:0:0:0:
192,192,89600,1,0,0:0:0:0:
320,192,89600,128,0,89715:0:0:0:0:
448,192,89658,1,0,0:0:0:0:
192,192,89715,128,0,89773:0:0:0:0:
64,192,89715,128,0,89773:0:0:0:0:
448,192,89773,128,0,89888:0:0:0:0:
320,192,89831,128,0,89888:0:0:0:0:
64,192,89831,128,0,89946:0:0:0:0:
192,192,89888,128,0,89946:0:0:0:0:
320,192,89946,128,0,90004:0:0:0:0:
448,192,89946,128,0,90004:0:0:0:0:
64,192,90004,128,0,90119:0:0:0:0:
192,192,90061,128,0,90119:0:0:0:0:
448,192,90061,128,0,90177:0:0:0:0:
320,192,90119,128,0,90177:0:0:0:0:
192,192,90177,128,0,90234:0:0:0:0:
64,192,90177,128,0,90234:0:0:0:0:
448,192,90234,128,0,90350:0:0:0:0:
320,192,90292,128,0,90350:0:0:0:0:
64,192,90292,128,0,90408:0:0:0:0:
192,192,90350,128,0,90408:0:0:0:0:
320,192,90408,128,0,90465:0:0:0:0:
448,192,90408,128,0,90465:0:0:0:0:
64,192,90465,128,0,90523:0:0:0:0:
320,192,90523,1,0,0:0:0:0:
448,192,90523,1,0,0:0:0:0:
64,192,90581,128,0,90638:0:0:0:0:
192,192,90581,128,0,90638:0:0:0:0:
320,192,90638,128,0,90696:0:0:0:0:
448,192,90638,128,0,90696:0:0:0:0:
64,192,90754,128,0,90768:0:0:0:0:
192,192,90754,128,0,90768:0:0:0:0:
448,192,90754,128,0,90768:0:0:0:0:
64,192,90869,128,0,90898:0:0:0:0:
192,192,90869,128,0,90898:0:0:0:0:
448,192,90869,128,0,90898:0:0:0:0:
64,192,90984,128,0,91042:0:0:0:0:
192,192,90984,128,0,91042:0:0:0:0:
448,192,90984,128,0,91042:0:0:0:0:
320,192,91100,1,0,0:0:0:0:
448,192,91100,1,0,0:0:0:0:
64,192,91215,128,0,91331:0:0:0:0:
192,192,91215,128,0,91331:0:0:0:0:
320,192,91215,128,0,91331:0:0:0:0:
448,192,91331,1,0,0:0:0:0:
64,192,91446,1,0,0:0:0:0:
192,192,91446,128,0,91561:0:0:0:0:
320,192,91446,128,0,91561:0:0:0:0:
64,192,91561,1,0,0:0:0:0:
448,192,91561,1,0,0:0:0:0:
192,192,91677,128,0,91792:0:0:0:0:
320,192,91677,128,0,91792:0:0:0:0:
448,192,91677,128,0,91792:0:0:0:0:
64,192,91792,1,0,0:0:0:0:
192,192,91908,1,0,0:0:0:0:
320,192,91908,128,0,92023:0:0:0:0:
448,192,91908,128,0,92023:0:0:0:0:
192,192,92023,1,0,0:0:0:0:
64,192,92023,1,0,0:0:0:0:
64,192,92138,128,0,92254:0:0:0:0:
320,192,92138,128,0,92254:0:0:0:0:
448,192,92138,128,0,92254:0:0:0:0:
192,192,92254,1,0,0:0:0:0:
448,192,92369,1,0,0:0:0:0:
64,192,92369,128,0,92484:0:0:0:0:
320,192,92369,128,0,92484:0:0:0:0:
192,192,92484,1,0,0:0:0:0:
448,192,92484,1,0,0:0:0:0:
64,192,92600,128,0,92715:0:0:0:0:
192,192,92600,128,0,92715:0:0:0:0:
320,192,92600,128,0,92715:0:0:0:0:
448,192,92715,1,0,0:0:0:0:
64,192,92831,1,0,0:0:0:0:
192,192,92831,128,0,92946:0:0:0:0:
320,192,92831,128,0,92946:0:0:0:0:
448,192,92946,1,0,0:0:0:0:
64,192,92946,1,0,0:0:0:0:
192,192,93061,128,0,93177:0:0:0:0:
448,192,93061,128,0,93177:0:0:0:0:
320,192,93061,128,0,93177:0:0:0:0:
64,192,93177,1,0,0:0:0:0:
320,192,93234,1,0,0:0:0:0:
192,192,93292,1,0,0:0:0:0:
64,192,93292,128,0,93408:0:0:0:0:
448,192,93292,128,0,93408:0:0:0:0:
192,192,93408,1,0,0:0:0:0:
320,192,93465,1,0,0:0:0:0:
64,192,93465,128,0,93581:0:0:0:0:
448,192,93465,128,0,93581:0:0:0:0:
320,192,93581,1,0,0:0:0:0:
64,192,93638,1,0,0:0:0:0:
448,192,93638,1,0,0:0:0:0:
192,192,93638,1,0,0:0:0:0:
320,192,93754,1,0,0:0:0:0:
192,192,93754,1,0,0:0:0:0:
64,192,93754,1,0,0:0:0:0:
448,192,93754,1,0,0:0:0:0:
64,192,93984,128,0,94013:0:0:0:0:
320,192,94013,128,0,94042:0:0:0:0:
192,192,94042,128,0,94071:0:0:0:0:
448,192,94071,128,0,94100:0:0:0:0:
64,192,94100,128,0,94129:0:0:0:0:
320,192,94129,128,0,94158:0:0:0:0:
192,192,94158,128,0,94186:0:0:0:0:
448,192,94186,128,0,94215:0:0:0:0:
64,192,94215,1,0,0:0:0:0:
192,192,94215,1,0,0:0:0:0:
320,192,94215,128,0,94273:0:0:0:0:
448,192,94273,1,0,0:0:0:0:
64,192,94331,128,0,94446:0:0:0:0:
192,192,94331,128,0,94446:0:0:0:0:
320,192,94388,128,0,94504:0:0:0:0:
448,192,94388,128,0,94504:0:0:0:0:
64,192,94504,1,0,0:0:0:0:
192,192,94561,128,0,94677:0:0:0:0:
320,192,94561,128,0,94677:0:0:0:0:
64,192,94619,128,0,94734:0:0:0:0:
448,192,94619,128,0,94734:0:0:0:0:
192,192,94734,1,0,0:0:0:0:
320,192,94792,128,0,94908:0:0:0:0:
448,192,94792,128,0,94908:0:0:0:0:
64,192,94850,128,0,94965:0:0:0:0:
192,192,94850,128,0,94965:0:0:0:0:
448,192,94965,1,0,0:0:0:0:
192,192,95023,128,0,95138:0:0:0:0:
320,192,95023,128,0,95138:0:0:0:0:
64,192,95081,128,0,95196:0:0:0:0:
448,192,95081,128,0,95196:0:0:0:0:
192,192,95196,1,0,0:0:0:0:
320,192,95254,128,0,95369:0:0:0:0:
448,192,95254,128,0,95369:0:0:0:0:
64,192,95311,128,0,95427:0:0:0:0:
192,192,95311,128,0,95427:0:0:0:0:
448,192,95427,1,0,0:0:0:0:
192,192,95484,1,0,0:0:0:0:
320,192,95484,1,0,0:0:0:0:
448,192,95542,128,0,95658:0:0:0:0:
64,192,95542,128,0,95658:0:0:0:0:
192,192,95600,1,0,0:0:0:0:
320,192,95600,128,0,95831:0:0:0:0:
192,192,95715,128,0,95831:0:0:0:0:
64,192,95831,1,0,0:0:0:0:
448,192,95831,1,0,0:0:0:0:
320,192,95946,1,0,0:0:0:0:
448,192,95946,1,0,0:0:0:0:
192,192,96004,1,0,0:0:0:0:
64,192,96004,1,0,0:0:0:0:
448,192,96061,1,0,0:0:0:0:
320,192,96061,1,0,0:0:0:0:
192,192,96061,128,0,96119:0:0:0:0:
64,192,96119,1,0,0:0:0:0:
320,192,96177,128,0,96292:0:0:0:0:
448,192,96177,128,0,96292:0:0:0:0:
64,192,96234,128,0,96350:0:0:0:0:
192,192,96234,128,0,96350:0:0:0:0:
448,192,96350,1,0,0:0:0:0:
192,192,96408,128,0,96523:0:0:0:0:
320,192,96408,128,0,96523:0:0:0:0:
64,192,96465,128,0,96581:0:0:0:0:
448,192,96465,128,0,96581:0:0:0:0:
320,192,96581,1,0,0:0:0:0:
64,192,96638,128,0,96754:0:0:0:0:
192,192,96638,128,0,96754:0:0:0:0:
320,192,96696,128,0,96811:0:0:0:0:
448,192,96696,128,0,96811:0:0:0:0:
64,192,96811,1,0,0:0:0:0:
192,192,96869,128,0,96984:0:0:0:0:
320,192,96869,128,0,96984:0:0:0:0:
64,192,96927,128,0,97042:0:0:0:0:
448,192,96927,128,0,97042:0:0:0:0:
192,192,97042,1,0,0:0:0:0:
320,192,97100,1,0,0:0:0:0:
448,192,97100,1,0,0:0:0:0:
192,192,97158,1,0,0:0:0:0:
64,192,97158,1,0,0:0:0:0:
320,192,97215,1,0,0:0:0:0:
448,192,97215,1,0,0:0:0:0:
64,192,97215,1,0,0:0:0:0:
64,192,97331,1,0,0:0:0:0:
192,192,97331,1,0,0:0:0:0:
448,192,97331,1,0,0:0:0:0:
64,192,97446,128,0,97561:0:0:0:0:
192,192,97446,128,0,97561:0:0:0:0:
448,192,97446,128,0,97561:0:0:0:0:
64,192,97677,1,0,0:0:0:0:
192,192,97677,1,0,0:0:0:0:
448,192,97677,1,0,0:0:0:0:
64,192,97792,1,0,0:0:0:0:
192,192,97792,1,0,0:0:0:0:
448,192,97792,1,0,0:0:0:0:
64,192,97908,1,0,0:0:0:0:
192,192,97908,1,0,0:0:0:0:
320,192,97908,1,0,0:0:0:0:
448,192,97965,1,0,0:0:0:0:
64,192,98023,128,0,98138:0:0:0:0:
192,192,98023,128,0,98138:0:0:0:0:
320,192,98081,128,0,98196:0:0:0:0:
448,192,98081,128,0,98196:0:0:0:0:
64,192,98196,1,0,0:0:0:0:
192,192,98254,128,0,98369:0:0:0:0:
320,192,98254,128,0,98369:0:0:0:0:
448,192,98311,128,0,98427:0:0:0:0:
64,192,98311,128,0,98427:0:0:0:0:
192,192,98427,1,0,0:0:0:0:
448,192,98484,128,0,98542:0:0:0:0:
320,192,98484,128,0,98542:0:0:0:0:
64,192,98542,1,0,0:0:0:0:
192,192,98542,128,0,98600:0:0:0:0:
448,192,98600,128,0,98658:0:0:0:0:
320,192,98629,1,0,0:0:0:0:
64,192,98658,128,0,98715:0:0:0:0:
192,192,98686,128,0,98744:0:0:0:0:
448,192,98715,1,0,0:0:0:0:
320,192,98744,1,0,0:0:0:0:
64,192,98773,128,0,98831:0:0:0:0:
192,192,98831,1,0,0:0:0:0:
320,192,98831,1,0,0:0:0:0:
448,192,98831,1,0,0:0:0:0:
192,192,98946,1,0,0:0:0:0:
320,192,98946,1,0,0:0:0:0:
448,192,98946,1,0,0:0:0:0:
320,192,99061,1,0,0:0:0:0:
192,192,99061,1,0,0:0:0:0:
448,192,99061,1,0,0:0:0:0:
64,192,99119,1,0,0:0:0:0:
192,192,99177,128,0,99292:0:0:0:0:
320,192,99177,128,0,99292:0:0:0:0:
64,192,99234,128,0,99350:0:0:0:0:
448,192,99234,128,0,99350:0:0:0:0:
192,192,99350,1,0,0:0:0:0:
320,192,99408,128,0,99465:0:0:0:0:
448,192,99408,128,0,99465:0:0:0:0:
64,192,99465,128,0,99523:0:0:0:0:
192,192,99465,128,0,99523:0:0:0:0:
320,192,99523,1,0,0:0:0:0:
448,192,99523,1,0,0:0:0:0:
64,192,99581,128,0,99696:0:0:0:0:
192,192,99581,128,0,99696:0:0:0:0:
320,192,99638,128,0,99696:0:0:0:0:
448,192,99638,128,0,99696:0:0:0:0:
320,192,99754,128,0,99811:0:0:0:0:
448,192,99754,128,0,99811:0:0:0:0:
64,192,99811,1,0,0:0:0:0:
192,192,99811,128,0,99927:0:0:0:0:
320,192,99869,1,0,0:0:0:0:
448,192,99869,1,0,0:0:0:0:
64,192,99927,1,0,0:0:0:0:
448,192,99984,1,0,0:0:0:0:
192,192,99984,128,0,100100:0:0:0:0:
320,192,99984,128,0,100100:0:0:0:0:
64,192,100100,1,0,0:0:0:0:
448,192,100100,128,0,100215:0:0:0:0:
64,192,100215,128,0,100273:0:0:0:0:
192,192,100215,128,0,100273:0:0:0:0:
448,192,100273,1,0,0:0:0:0:
320,192,100273,128,0,100388:0:0:0:0:
192,192,100331,1,0,0:0:0:0:
64,192,100331,1,0,0:0:0:0:
448,192,100388,1,0,0:0:0:0:
64,192,100446,1,0,0:0:0:0:
320,192,100446,128,0,100561:0:0:0:0:
192,192,100446,128,0,100561:0:0:0:0:
448,192,100561,1,0,0:0:0:0:
64,192,100561,128,0,100677:0:0:0:0:
192,192,100677,1,0,0:0:0:0:
320,192,100677,1,0,0:0:0:0:
448,192,100677,1,0,0:0:0:0:
64,192,100908,1,0,0:0:0:0:
448,192,100908,1,0,0:0:0:0:
320,192,101023,1,0,0:0:0:0:
192,192,101023,1,0,0:0:0:0:
448,192,101138,128,0,101254:0:0:0:0:
192,192,101254,128,0,101369:0:0:0:0:
64,192,101254,1,0,0:0:0:0:
320,192,101369,128,0,101484:0:0:0:0:
448,192,101369,1,0,0:0:0:0:
64,192,101484,128,0,101600:0:0:0:0:
320,192,101600,128,0,101946:0:0:0:0:
448,192,101600,128,0,101946:0:0:0:0:
64,192,101908,1,0,0:0:0:0:
192,192,101984,1,0,0:0:0:0:
320,192,102061,128,0,102292:0:0:0:0:
448,192,102061,128,0,102292:0:0:0:0:
320,192,102369,1,0,0:0:0:0:
192,192,102446,1,0,0:0:0:0:
64,192,102523,128,0,102754:0:0:0:0:
448,192,102523,128,0,102754:0:0:0:0:
192,192,102754,1,0,0:0:0:0:
320,192,102754,1,0,0:0:0:0:
64,192,102984,128,0,103100:0:0:0:0:
320,192,103100,128,0,103215:0:0:0:0:
448,192,103100,1,0,0:0:0:0:
192,192,103215,128,0,103331:0:0:0:0:
64,192,103215,1,0,0:0:0:0:
448,192,103331,128,0,103446:0:0:0:0:
64,192,103446,128,0,103792:0:0:0:0:
192,192,103446,128,0,103792:0:0:0:0:
448,192,103754,1,0,0:0:0:0:
320,192,103831,1,0,0:0:0:0:
64,192,103908,128,0,104138:0:0:0:0:
192,192,103908,128,0,104138:0:0:0:0:
192,192,104215,1,0,0:0:0:0:
320,192,104292,1,0,0:0:0:0:
64,192,104369,128,0,104600:0:0:0:0:
448,192,104369,128,0,104600:0:0:0:0:
192,192,104600,1,0,0:0:0:0:
320,192,104600,128,0,104831:0:0:0:0:
448,192,104831,1,0,0:0:0:0:
64,192,104831,128,0,105061:0:0:0:0:
192,192,104831,128,0,105061:0:0:0:0:
320,192,104946,128,0,105061:0:0:0:0:
448,192,105061,128,0,105177:0:0:0:0:
64,192,105177,128,0,105292:0:0:0:0:
192,192,105177,128,0,105292:0:0:0:0:
320,192,105292,1,0,0:0:0:0:
448,192,105292,1,0,0:0:0:0:
192,192,105350,128,0,105465:0:0:0:0:
64,192,105350,128,0,105465:0:0:0:0:
320,192,105408,128,0,105523:0:0:0:0:
448,192,105408,1,0,0:0:0:0:
192,192,105523,1,0,0:0:0:0:
64,192,105523,128,0,105638:0:0:0:0:
448,192,105523,128,0,105754:0:0:0:0:
192,192,105638,1,0,0:0:0:0:
320,192,105638,128,0,105754:0:0:0:0:
64,192,105754,1,0,0:0:0:0:
192,192,105754,1,0,0:0:0:0:
320,192,105811,128,0,105927:0:0:0:0:
448,192,105811,128,0,105927:0:0:0:0:
192,192,105869,1,0,0:0:0:0:
64,192,105869,128,0,106100:0:0:0:0:
192,192,105984,128,0,106100:0:0:0:0:
320,192,105984,128,0,106042:0:0:0:0:
448,192,106100,128,0,106186:0:0:0:0:
320,192,106129,1,0,0:0:0:0:
192,192,106158,128,0,106244:0:0:0:0:
64,192,106186,1,0,0:0:0:0:
320,192,106215,1,0,0:0:0:0:
448,192,106244,1,0,0:0:0:0:
64,192,106273,128,0,106359:0:0:0:0:
192,192,106302,1,0,0:0:0:0:
448,192,106331,128,0,106561:0:0:0:0:
320,192,106331,128,0,106446:0:0:0:0:
192,192,106446,128,0,106561:0:0:0:0:
64,192,106446,1,0,0:0:0:0:
64,192,106561,1,0,0:0:0:0:
320,192,106561,1,0,0:0:0:0:
192,192,106619,1,0,0:0:0:0:
448,192,106619,1,0,0:0:0:0:
64,192,106677,128,0,106792:0:0:0:0:
320,192,106677,128,0,106908:0:0:0:0:
192,192,106792,128,0,106850:0:0:0:0:
448,192,106792,128,0,106908:0:0:0:0:
64,192,106908,128,0,106994:0:0:0:0:
192,192,106936,1,0,0:0:0:0:
320,192,106965,128,0,107023:0:0:0:0:
448,192,106994,1,0,0:0:0:0:
192,192,107023,128,0,107052:0:0:0:0:
64,192,107052,1,0,0:0:0:0:
448,192,107081,1,0,0:0:0:0:
320,192,107081,1,0,0:0:0:0:
192,192,107138,1,0,0:0:0:0:
64,192,107138,1,0,0:0:0:0:
320,192,107196,128,0,107311:0:0:0:0:
448,192,107196,128,0,107254:0:0:0:0:
64,192,107254,1,0,0:0:0:0:
192,192,107254,128,0,107369:0:0:0:0:
64,192,107369,128,0,107427:0:0:0:0:
448,192,107369,128,0,107427:0:0:0:0:
320,192,107427,128,0,107542:0:0:0:0:
448,192,107484,1,0,0:0:0:0:
192,192,107484,128,0,107600:0:0:0:0:
64,192,107542,128,0,107600:0:0:0:0:
320,192,107600,128,0,107658:0:0:0:0:
448,192,107600,128,0,107686:0:0:0:0:
64,192,107715,1,0,0:0:0:0:
192,192,107715,128,0,107744:0:0:0:0:
320,192,107744,128,0,107773:0:0:0:0:
448,192,107773,1,0,0:0:0:0:
64,192,107802,128,0,107946:0:0:0:0:
192,192,107831,128,0,107917:0:0:0:0:
320,192,107946,1,0,0:0:0:0:
448,192,107946,128,0,108061:0:0:0:0:
192,192,108004,128,0,108119:0:0:0:0:
64,192,108061,1,0,0:0:0:0:
320,192,108061,128,0,108119:0:0:0:0:
448,192,108119,128,0,108177:0:0:0:0:
64,192,108177,128,0,108292:0:0:0:0:
192,192,108177,128,0,108292:0:0:0:0:
448,192,108292,1,0,0:0:0:0:
320,192,108292,128,0,108408:0:0:0:0:
64,192,108350,128,0,108465:0:0:0:0:
192,192,108408,1,0,0:0:0:0:
448,192,108408,128,0,108465:0:0:0:0:
320,192,108465,128,0,108523:0:0:0:0:
64,192,108523,128,0,108638:0:0:0:0:
192,192,108523,128,0,108638:0:0:0:0:
320,192,108638,1,0,0:0:0:0:
448,192,108638,128,0,108754:0:0:0:0:
64,192,108696,128,0,108811:0:0:0:0:
320,192,108754,128,0,108869:0:0:0:0:
192,192,108754,128,0,108869:0:0:0:0:
64,192,108869,128,0,108927:0:0:0:0:
448,192,108869,128,0,108984:0:0:0:0:
192,192,108984,128,0,109331:0:0:0:0:
64,192,108984,128,0,109331:0:0:0:0:
320,192,108984,1,0,0:0:0:0:
448,192,109292,1,0,0:0:0:0:
320,192,109369,1,0,0:0:0:0:
192,192,109446,128,0,109677:0:0:0:0:
64,192,109446,128,0,109677:0:0:0:0:
192,192,109754,1,0,0:0:0:0:
320,192,109831,1,0,0:0:0:0:
448,192,109908,128,0,110138:0:0:0:0:
64,192,109908,128,0,110138:0:0:0:0:
192,192,110138,1,0,0:0:0:0:
320,192,110138,1,0,0:0:0:0:
448,192,110369,128,0,110484:0:0:0:0:
192,192,110484,128,0,110600:0:0:0:0:
64,192,110484,1,0,0:0:0:0:
320,192,110600,128,0,110715:0:0:0:0:
448,192,110600,1,0,0:0:0:0:
64,192,110715,128,0,110831:0:0:0:0:
448,192,110831,128,0,111177:0:0:0:0:
320,192,110831,128,0,111177:0:0:0:0:
64,192,111138,1,0,0:0:0:0:
192,192,111215,1,0,0:0:0:0:
448,192,111292,128,0,111523:0:0:0:0:
320,192,111292,128,0,111523:0:0:0:0:
320,192,111600,1,0,0:0:0:0:
192,192,111677,1,0,0:0:0:0:
448,192,111754,128,0,111984:0:0:0:0:
64,192,111754,128,0,111984:0:0:0:0:
192,192,111984,128,0,112215:0:0:0:0:
320,192,111984,1,0,0:0:0:0:
320,192,112215,128,0,112446:0:0:0:0:
448,192,112215,128,0,112446:0:0:0:0:
64,192,112215,1,0,0:0:0:0:
192,192,112331,128,0,112446:0:0:0:0:
64,192,112446,128,0,112677:0:0:0:0:
320,192,112677,128,0,112754:0:0:0:0:
448,192,112715,128,0,112792:0:0:0:0:
192,192,112754,128,0,112831:0:0:0:0:
64,192,112792,128,0,112869:0:0:0:0:
320,192,112831,128,0,112908:0:0:0:0:
448,192,112869,128,0,112946:0:0:0:0:
192,192,112908,128,0,112984:0:0:0:0:
64,192,112946,128,0,113023:0:0:0:0:
320,192,112984,128,0,113061:0:0:0:0:
448,192,113023,128,0,113100:0:0:0:0:
192,192,113061,128,0,113138:0:0:0:0:
64,192,113100,128,0,113177:0:0:0:0:
320,192,113138,128,0,113215:0:0:0:0:
448,192,113177,128,0,113254:0:0:0:0:
192,192,113215,128,0,113292:0:0:0:0:
64,192,113254,128,0,113331:0:0:0:0:
320,192,113292,1,0,0:0:0:0:
448,192,113331,1,0,0:0:0:0:
64,192,113369,128,0,113446:0:0:0:0:
192,192,113369,128,0,113446:0:0:0:0:
448,192,113446,128,0,113523:0:0:0:0:
320,192,113484,128,0,113523:0:0:0:0:
64,192,113523,128,0,113600:0:0:0:0:
192,192,113561,128,0,113600:0:0:0:0:
320,192,113600,128,0,113658:0:0:0:0:
448,192,113600,128,0,113658:0:0:0:0:
64,192,113658,128,0,113715:0:0:0:0:
192,192,113658,128,0,113715:0:0:0:0:
320,192,113715,128,0,113773:0:0:0:0:
448,192,113715,128,0,113773:0:0:0:0:
64,192,113773,128,0,113831:0:0:0:0:
192,192,113773,128,0,113831:0:0:0:0:
320,192,113831,128,0,113888:0:0:0:0:
448,192,113831,128,0,113888:0:0:0:0:
64,192,113888,128,0,113946:0:0:0:0:
192,192,113888,128,0,113946:0:0:0:0:
320,192,113946,128,0,114004:0:0:0:0:
448,192,113946,128,0,114004:0:0:0:0:
64,192,114004,1,0,0:0:0:0:
192,192,114061,1,0,0:0:0:0:
320,192,114061,128,0,114100:0:0:0:0:
448,192,114061,128,0,114138:0:0:0:0:
64,192,114100,128,0,114177:0:0:0:0:
192,192,114138,128,0,114215:0:0:0:0:
320,192,114177,128,0,114254:0:0:0:0:
448,192,114215,128,0,114292:0:0:0:0:
64,192,114254,128,0,114369:0:0:0:0:
320,192,114292,1,0,0:0:0:0:
192,192,114292,128,0,114331:0:0:0:0:
448,192,114331,128,0,114408:0:0:0:0:
320,192,114369,128,0,114446:0:0:0:0:
192,192,114408,128,0,114484:0:0:0:0:
64,192,114446,128,0,114523:0:0:0:0:
448,192,114484,1,0,0:0:0:0:
320,192,114523,1,0,0:0:0:0:
192,192,114523,1,0,0:0:0:0:
64,192,114581,128,0,114638:0:0:0:0:
448,192,114581,1,0,0:0:0:0:
192,192,114609,128,0,114667:0:0:0:0:
320,192,114638,128,0,114696:0:0:0:0:
64,192,114696,128,0,114754:0:0:0:0:
192,192,114725,128,0,114783:0:0:0:0:
320,192,114754,128,0,114927:0:0:0:0:
448,192,114754,128,0,114927:0:0:0:0:
192,192,114869,128,0,114927:0:0:0:0:
64,192,114869,128,0,114984:0:0:0:0:
448,192,114984,1,0,0:0:0:0:
320,192,114984,128,0,115042:0:0:0:0:
192,192,114984,128,0,115042:0:0:0:0:
320,192,115100,1,0,0:0:0:0:
448,192,115100,1,0,0:0:0:0:
192,192,115100,128,0,115177:0:0:0:0:
64,192,115138,128,0,115215:0:0:0:0:
448,192,115177,128,0,115254:0:0:0:0:
320,192,115215,128,0,115292:0:0:0:0:
192,192,115254,128,0,115331:0:0:0:0:
320,192,115331,1,0,0:0:0:0:
448,192,115331,1,0,0:0:0:0:
64,192,115331,1,0,0:0:0:0:
64,192,115446,1,0,0:0:0:0:
448,192,115446,128,0,115504:0:0:0:0:
320,192,115475,128,0,115533:0:0:0:0:
192,192,115504,128,0,115561:0:0:0:0:
448,192,115561,128,0,115619:0:0:0:0:
320,192,115590,128,0,115648:0:0:0:0:
192,192,115619,128,0,115677:0:0:0:0:
320,192,115677,128,0,115734:0:0:0:0:
448,192,115677,128,0,115734:0:0:0:0:
64,192,115706,128,0,115821:0:0:0:0:
192,192,115734,128,0,115821:0:0:0:0:
320,192,115792,128,0,115879:0:0:0:0:
448,192,115792,128,0,115879:0:0:0:0:
64,192,115850,128,0,115936:0:0:0:0:
192,192,115850,128,0,115936:0:0:0:0:
448,192,115908,128,0,115994:0:0:0:0:
320,192,115908,128,0,115994:0:0:0:0:
64,192,115965,128,0,116052:0:0:0:0:
192,192,115965,128,0,116052:0:0:0:0:
320,192,116023,128,0,116109:0:0:0:0:
448,192,116023,128,0,116109:0:0:0:0:
192,192,116081,128,0,116167:0:0:0:0:
64,192,116081,128,0,116167:0:0:0:0:
448,192,116138,128,0,116225:0:0:0:0:
320,192,116138,128,0,116225:0:0:0:0:
64,192,116196,128,0,116283:0:0:0:0:
192,192,116196,128,0,116283:0:0:0:0:
320,192,116254,128,0,116340:0:0:0:0:
448,192,116254,128,0,116340:0:0:0:0:
64,192,116311,128,0,116369:0:0:0:0:
192,192,116311,128,0,116369:0:0:0:0:
320,192,116369,1,0,0:0:0:0:
448,192,116369,1,0,0:0:0:0:
320,192,119023,128,0,119600:0:0:0:0:
64,192,119600,1,0,0:0:0:0:
192,192,119600,1,0,0:0:0:0:
64,192,119715,1,0,0:0:0:0:
192,192,119715,1,0,0:0:0:0:
320,192,119831,1,0,0:0:0:0:
448,192,119831,1,0,0:0:0:0:
320,192,119946,1,0,0:0:0:0:
448,192,119946,1,0,0:0:0:0:
320,192,120061,1,0,0:0:0:0:
448,192,120061,1,0,0:0:0:0:
192,192,120061,128,0,120523:0:0:0:0:
64,192,120061,128,0,120292:0:0:0:0:
448,192,120292,128,0,120408:0:0:0:0:
64,192,120408,128,0,120523:0:0:0:0:
320,192,120523,128,0,120754:0:0:0:0:
448,192,120523,128,0,120754:0:0:0:0:
64,192,120754,1,0,0:0:0:0:
192,192,120754,1,0,0:0:0:0:
320,192,120869,128,0,121331:0:0:0:0:
448,192,120869,128,0,121792:0:0:0:0:
64,192,120869,128,0,120984:0:0:0:0:
192,192,120984,128,0,121100:0:0:0:0:
64,192,121100,128,0,121215:0:0:0:0:
192,192,121215,128,0,121331:0:0:0:0:
64,192,121331,128,0,121446:0:0:0:0:
320,192,121446,128,0,121561:0:0:0:0:
64,192,121561,128,0,121792:0:0:0:0:
320,192,121677,128,0,121792:0:0:0:0:
192,192,121677,128,0,121792:0:0:0:0:
448,192,121908,128,0,122138:0:0:0:0:
320,192,121908,128,0,122369:0:0:0:0:
64,192,121908,1,0,0:0:0:0:
192,192,121908,1,0,0:0:0:0:
64,192,122138,128,0,122254:0:0:0:0:
448,192,122254,128,0,122369:0:0:0:0:
64,192,122369,128,0,122600:0:0:0:0:
192,192,122369,128,0,122600:0:0:0:0:
320,192,122600,1,0,0:0:0:0:
448,192,122600,1,0,0:0:0:0:
64,192,122715,128,0,123638:0:0:0:0:
192,192,122715,128,0,123177:0:0:0:0:
448,192,122715,128,0,122831:0:0:0:0:
320,192,122831,128,0,122946:0:0:0:0:
448,192,122946,128,0,123061:0:0:0:0:
320,192,123061,128,0,123177:0:0:0:0:
448,192,123177,128,0,123292:0:0:0:0:
192,192,123292,128,0,123408:0:0:0:0:
448,192,123408,128,0,123638:0:0:0:0:
320,192,123523,128,0,123638:0:0:0:0:
192,192,123523,128,0,123638:0:0:0:0:
448,192,123754,1,0,0:0:0:0:
320,192,123754,128,0,123984:0:0:0:0:
64,192,123754,128,0,124215:0:0:0:0:
192,192,123754,1,0,0:0:0:0:
192,192,123984,128,0,124100:0:0:0:0:
448,192,124100,128,0,124215:0:0:0:0:
192,192,124215,128,0,124446:0:0:0:0:
320,192,124215,128,0,124446:0:0:0:0:
64,192,124446,1,0,0:0:0:0:
448,192,124446,1,0,0:0:0:0:
448,192,124561,128,0,124677:0:0:0:0:
192,192,124561,128,0,125023:0:0:0:0:
320,192,124561,128,0,125484:0:0:0:0:
64,192,124677,128,0,124792:0:0:0:0:
448,192,124792,128,0,124908:0:0:0:0:
64,192,124908,128,0,125023:0:0:0:0:
448,192,125023,128,0,125138:0:0:0:0:
64,192,125138,128,0,125254:0:0:0:0:
448,192,125254,128,0,125484:0:0:0:0:
192,192,125369,128,0,125484:0:0:0:0:
64,192,125369,128,0,125484:0:0:0:0:
448,192,125600,128,0,126061:0:0:0:0:
64,192,125600,1,0,0:0:0:0:
320,192,125600,1,0,0:0:0:0:
192,192,125600,128,0,125831:0:0:0:0:
320,192,125831,128,0,125946:0:0:0:0:
64,192,125946,128,0,126061:0:0:0:0:
192,192,126061,128,0,126292:0:0:0:0:
320,192,126061,128,0,126292:0:0:0:0:
64,192,126292,1,0,0:0:0:0:
448,192,126292,1,0,0:0:0:0:
64,192,126408,128,0,126523:0:0:0:0:
192,192,126408,128,0,127331:0:0:0:0:
320,192,126408,128,0,126869:0:0:0:0:
448,192,126523,128,0,126638:0:0:0:0:
64,192,126638,128,0,126754:0:0:0:0:
448,192,126754,1,0,0:0:0:0:
448,192,126869,1,0,0:0:0:0:
64,192,126869,1,0,0:0:0:0:
320,192,126984,1,0,0:0:0:0:
448,192,127100,128,0,127215:0:0:0:0:
64,192,127100,128,0,127215:0:0:0:0:
320,192,127215,128,0,127331:0:0:0:0:
64,192,127331,1,0,0:0:0:0:
448,192,127331,1,0,0:0:0:0:
192,192,127446,1,0,0:0:0:0:
320,192,127446,1,0,0:0:0:0:
448,192,127446,1,0,0:0:0:0:
192,192,127561,128,0,127677:0:0:0:0:
320,192,127561,128,0,127677:0:0:0:0:
448,192,127561,128,0,127677:0:0:0:0:
64,192,127792,1,0,0:0:0:0:
192,192,127792,1,0,0:0:0:0:
64,192,127908,128,0,128023:0:0:0:0:
192,192,127908,128,0,128023:0:0:0:0:
320,192,127908,128,0,128023:0:0:0:0:
448,192,127908,128,0,128023:0:0:0:0:
64,192,128138,1,0,0:0:0:0:
320,192,128138,1,0,0:0:0:0:
448,192,128138,1,0,0:0:0:0:
64,192,128254,128,0,128369:0:0:0:0:
320,192,128254,128,0,128369:0:0:0:0:
448,192,128254,128,0,128369:0:0:0:0:
64,192,128484,1,0,0:0:0:0:
192,192,128484,1,0,0:0:0:0:
320,192,128484,1,0,0:0:0:0:
192,192,128600,128,0,128715:0:0:0:0:
320,192,128600,128,0,128715:0:0:0:0:
64,192,128600,128,0,128715:0:0:0:0:
320,192,128831,128,0,128946:0:0:0:0:
448,192,128831,128,0,128946:0:0:0:0:
192,192,128831,1,0,0:0:0:0:
64,192,128831,1,0,0:0:0:0:
64,192,128946,1,0,0:0:0:0:
192,192,128946,1,0,0:0:0:0:
64,192,129061,1,0,0:0:0:0:
192,192,129061,1,0,0:0:0:0:
448,192,129292,1,0,0:0:0:0:
64,192,129292,1,0,0:0:0:0:
320,192,129292,1,0,0:0:0:0:
64,192,129408,128,0,129523:0:0:0:0:
320,192,129408,128,0,129523:0:0:0:0:
448,192,129408,128,0,129523:0:0:0:0:
192,192,129638,1,0,0:0:0:0:
320,192,129638,1,0,0:0:0:0:
64,192,129754,128,0,129869:0:0:0:0:
192,192,129754,128,0,129869:0:0:0:0:
448,192,129754,128,0,129869:0:0:0:0:
320,192,129754,128,0,129869:0:0:0:0:
64,192,129984,1,0,0:0:0:0:
448,192,129984,1,0,0:0:0:0:
320,192,129984,1,0,0:0:0:0:
64,192,130100,128,0,130215:0:0:0:0:
320,192,130100,128,0,130215:0:0:0:0:
448,192,130100,128,0,130215:0:0:0:0:
64,192,130331,1,0,0:0:0:0:
448,192,130331,1,0,0:0:0:0:
192,192,130331,1,0,0:0:0:0:
64,192,130446,128,0,130561:0:0:0:0:
192,192,130446,128,0,130561:0:0:0:0:
448,192,130446,128,0,130561:0:0:0:0:
64,192,130677,128,0,130792:0:0:0:0:
320,192,130677,1,0,0:0:0:0:
192,192,130677,1,0,0:0:0:0:
448,192,130677,128,0,130792:0:0:0:0:
320,192,130792,1,0,0:0:0:0:
192,192,130792,1,0,0:0:0:0:
192,192,130908,128,0,131023:0:0:0:0:
320,192,130908,128,0,131023:0:0:0:0:
64,192,131023,1,0,0:0:0:0:
448,192,131023,128,0,131138:0:0:0:0:
64,192,131138,128,0,131215:0:0:0:0:
192,192,131138,128,0,131215:0:0:0:0:
320,192,131215,128,0,131292:0:0:0:0:
448,192,131215,128,0,131292:0:0:0:0:
64,192,131292,128,0,131369:0:0:0:0:
192,192,131292,128,0,131369:0:0:0:0:
320,192,131369,128,0,131446:0:0:0:0:
448,192,131369,128,0,131446:0:0:0:0:
64,192,131446,128,0,131523:0:0:0:0:
192,192,131446,128,0,131523:0:0:0:0:
320,192,131523,128,0,131600:0:0:0:0:
448,192,131523,128,0,131600:0:0:0:0:
64,192,131600,128,0,131677:0:0:0:0:
192,192,131600,128,0,131677:0:0:0:0:
448,192,131677,128,0,131754:0:0:0:0:
320,192,131677,128,0,131754:0:0:0:0:
64,192,131754,128,0,131831:0:0:0:0:
192,192,131754,128,0,131831:0:0:0:0:
320,192,131831,128,0,131908:0:0:0:0:
448,192,131831,128,0,131908:0:0:0:0:
192,192,131908,128,0,131984:0:0:0:0:
64,192,131908,128,0,131984:0:0:0:0:
448,192,131984,128,0,132061:0:0:0:0:
320,192,131984,128,0,132023:0:0:0:0:
64,192,132061,1,0,0:0:0:0:
192,192,132061,128,0,132138:0:0:0:0:
320,192,132100,128,0,132177:0:0:0:0:
448,192,132138,128,0,132215:0:0:0:0:
64,192,132177,128,0,132254:0:0:0:0:
320,192,132215,128,0,132292:0:0:0:0:
192,192,132254,128,0,132331:0:0:0:0:
448,192,132292,128,0,132369:0:0:0:0:
64,192,132331,128,0,132408:0:0:0:0:
192,192,132369,128,0,132446:0:0:0:0:
320,192,132408,128,0,132484:0:0:0:0:
448,192,132446,128,0,132523:0:0:0:0:
64,192,132484,128,0,132561:0:0:0:0:
320,192,132523,128,0,132600:0:0:0:0:
192,192,132561,128,0,132638:0:0:0:0:
448,192,132600,128,0,132677:0:0:0:0:
64,192,132638,128,0,132715:0:0:0:0:
192,192,132677,128,0,132754:0:0:0:0:
320,192,132715,128,0,132792:0:0:0:0:
448,192,132754,128,0,132831:0:0:0:0:
64,192,132792,128,0,132869:0:0:0:0:
320,192,132831,128,0,132908:0:0:0:0:
192,192,132869,128,0,132946:0:0:0:0:
448,192,132908,128,0,132984:0:0:0:0:
192,192,132984,128,0,133061:0:0:0:0:
64,192,133023,128,0,133100:0:0:0:0:
320,192,133061,128,0,133138:0:0:0:0:
448,192,133100,128,0,133177:0:0:0:0:
192,192,133138,128,0,133215:0:0:0:0:
64,192,133177,128,0,133254:0:0:0:0:
320,192,133215,128,0,133311:0:0:0:0:
448,192,133254,128,0,133350:0:0:0:0:
192,192,133292,128,0,133388:0:0:0:0:
64,192,133331,128,0,133427:0:0:0:0:
320,192,133369,128,0,133465:0:0:0:0:
448,192,133408,128,0,133504:0:0:0:0:
192,192,133446,128,0,133542:0:0:0:0:
64,192,133484,128,0,133581:0:0:0:0:
320,192,133523,128,0,133638:0:0:0:0:
448,192,133561,128,0,133677:0:0:0:0:
192,192,133600,128,0,133715:0:0:0:0:
64,192,133638,128,0,133754:0:0:0:0:
320,192,133677,128,0,133792:0:0:0:0:
448,192,133715,128,0,133831:0:0:0:0:
192,192,133754,128,0,133888:0:0:0:0:
64,192,133792,128,0,133850:0:0:0:0:
320,192,133831,128,0,133908:0:0:0:0:
448,192,133869,128,0,133946:0:0:0:0:
64,192,133908,128,0,133994:0:0:0:0:
192,192,133936,128,0,134023:0:0:0:0:
320,192,133965,128,0,134052:0:0:0:0:
448,192,133994,128,0,134081:0:0:0:0:
64,192,134023,128,0,134109:0:0:0:0:
192,192,134052,128,0,134138:0:0:0:0:
320,192,134081,128,0,134167:0:0:0:0:
448,192,134109,128,0,134196:0:0:0:0:
64,192,134138,128,0,134225:0:0:0:0:
192,192,134167,128,0,134254:0:0:0:0:
320,192,134196,128,0,134283:0:0:0:0:
448,192,134225,128,0,134311:0:0:0:0:
64,192,134254,128,0,134340:0:0:0:0:
192,192,134283,128,0,134369:0:0:0:0:
320,192,134311,128,0,134398:0:0:0:0:
448,192,134340,128,0,134427:0:0:0:0:
64,192,134369,128,0,134456:0:0:0:0:
192,192,134398,128,0,134484:0:0:0:0:
320,192,134427,128,0,134513:0:0:0:0:
448,192,134456,128,0,134542:0:0:0:0:
64,192,134484,128,0,134571:0:0:0:0:
192,192,134513,128,0,134600:0:0:0:0:
320,192,134542,128,0,134629:0:0:0:0:
448,192,134571,128,0,134715:0:0:0:0:
320,192,134658,128,0,134744:0:0:0:0:
192,192,134686,128,0,134773:0:0:0:0:
64,192,134715,128,0,134802:0:0:0:0:
448,192,134831,1,0,0:0:0:0:
192,192,134831,128,0,134984:0:0:0:0:
320,192,134831,128,0,134984:0:0:0:0:
64,192,134908,1,0,0:0:0:0:
448,192,134984,1,0,0:0:0:0:
192,192,135061,1,0,0:0:0:0:
64,192,135061,128,0,135215:0:0:0:0:
320,192,135061,128,0,135215:0:0:0:0:
448,192,135138,1,0,0:0:0:0:
192,192,135215,1,0,0:0:0:0:
448,192,135292,1,0,0:0:0:0:
64,192,135292,128,0,135446:0:0:0:0:
320,192,135292,128,0,135446:0:0:0:0:
192,192,135369,1,0,0:0:0:0:
448,192,135446,1,0,0:0:0:0:
64,192,135523,1,0,0:0:0:0:
192,192,135523,128,0,135677:0:0:0:0:
320,192,135523,128,0,135677:0:0:0:0:
448,192,135600,1,0,0:0:0:0:
64,192,135677,1,0,0:0:0:0:
320,192,135754,1,0,0:0:0:0:
192,192,135754,128,0,135908:0:0:0:0:
448,192,135754,128,0,135908:0:0:0:0:
64,192,135831,1,0,0:0:0:0:
320,192,135908,1,0,0:0:0:0:
64,192,135984,1,0,0:0:0:0:
448,192,135984,128,0,136138:0:0:0:0:
192,192,135984,128,0,136138:0:0:0:0:
320,192,136061,1,0,0:0:0:0:
64,192,136138,1,0,0:0:0:0:
448,192,136215,1,0,0:0:0:0:
192,192,136215,128,0,136369:0:0:0:0:
320,192,136215,128,0,136369:0:0:0:0:
64,192,136292,1,0,0:0:0:0:
448,192,136369,1,0,0:0:0:0:
64,192,136446,1,0,0:0:0:0:
192,192,136484,1,0,0:0:0:0:
448,192,136523,1,0,0:0:0:0:
320,192,136561,1,0,0:0:0:0:
192,192,136600,1,0,0:0:0:0:
64,192,136638,1,0,0:0:0:0:
448,192,136677,1,0,0:0:0:0:
192,192,136677,128,0,136831:0:0:0:0:
320,192,136677,128,0,136831:0:0:0:0:
64,192,136754,1,0,0:0:0:0:
448,192,136831,1,0,0:0:0:0:
192,192,136908,1,0,0:0:0:0:
64,192,136908,128,0,137061:0:0:0:0:
320,192,136908,128,0,137061:0:0:0:0:
448,192,136984,1,0,0:0:0:0:
192,192,137061,1,0,0:0:0:0:
448,192,137138,1,0,0:0:0:0:
64,192,137138,128,0,137292:0:0:0:0:
320,192,137138,128,0,137292:0:0:0:0:
192,192,137215,1,0,0:0:0:0:
448,192,137292,1,0,0:0:0:0:
64,192,137369,1,0,0:0:0:0:
192,192,137369,128,0,137523:0:0:0:0:
320,192,137369,128,0,137523:0:0:0:0:
448,192,137446,1,0,0:0:0:0:
64,192,137523,1,0,0:0:0:0:
320,192,137600,1,0,0:0:0:0:
192,192,137600,128,0,137754:0:0:0:0:
448,192,137600,128,0,137754:0:0:0:0:
64,192,137677,1,0,0:0:0:0:
320,192,137754,1,0,0:0:0:0:
64,192,137831,1,0,0:0:0:0:
192,192,137831,128,0,137984:0:0:0:0:
448,192,137831,128,0,137984:0:0:0:0:
320,192,137908,1,0,0:0:0:0:
64,192,137984,1,0,0:0:0:0:
448,192,138061,1,0,0:0:0:0:
192,192,138061,128,0,138215:0:0:0:0:
320,192,138061,128,0,138215:0:0:0:0:
64,192,138138,1,0,0:0:0:0:
448,192,138215,1,0,0:0:0:0:
64,192,138292,1,0,0:0:0:0:
320,192,138331,1,0,0:0:0:0:
192,192,138369,1,0,0:0:0:0:
448,192,138408,1,0,0:0:0:0:
64,192,138446,1,0,0:0:0:0:
192,192,138484,128,0,138677:0:0:0:0:
448,192,138523,1,0,0:0:0:0:
320,192,138523,128,0,138677:0:0:0:0:
64,192,138600,1,0,0:0:0:0:
448,192,138677,1,0,0:0:0:0:
192,192,138754,1,0,0:0:0:0:
64,192,138754,128,0,138908:0:0:0:0:
320,192,138754,128,0,138908:0:0:0:0:
448,192,138831,1,0,0:0:0:0:
192,192,138908,1,0,0:0:0:0:
448,192,138984,1,0,0:0:0:0:
64,192,138984,128,0,139138:0:0:0:0:
320,192,138984,128,0,139138:0:0:0:0:
192,192,139061,1,0,0:0:0:0:
448,192,139138,1,0,0:0:0:0:
64,192,139215,1,0,0:0:0:0:
192,192,139215,128,0,139369:0:0:0:0:
320,192,139215,128,0,139369:0:0:0:0:
448,192,139292,1,0,0:0:0:0:
64,192,139369,1,0,0:0:0:0:
320,192,139446,1,0,0:0:0:0:
192,192,139446,128,0,139600:0:0:0:0:
448,192,139446,128,0,139600:0:0:0:0:
64,192,139523,1,0,0:0:0:0:
320,192,139600,1,0,0:0:0:0:
64,192,139677,1,0,0:0:0:0:
192,192,139677,128,0,139831:0:0:0:0:
448,192,139677,128,0,139831:0:0:0:0:
320,192,139754,1,0,0:0:0:0:
64,192,139831,1,0,0:0:0:0:
448,192,139908,1,0,0:0:0:0:
192,192,139908,128,0,140061:0:0:0:0:
320,192,139908,128,0,140061:0:0:0:0:
64,192,139984,1,0,0:0:0:0:
448,192,140061,1,0,0:0:0:0:
64,192,140138,1,0,0:0:0:0:
192,192,140177,1,0,0:0:0:0:
448,192,140215,1,0,0:0:0:0:
320,192,140254,1,0,0:0:0:0:
192,192,140292,1,0,0:0:0:0:
64,192,140331,1,0,0:0:0:0:
192,192,140369,128,0,140523:0:0:0:0:
320,192,140369,128,0,140523:0:0:0:0:
448,192,140369,1,0,0:0:0:0:
64,192,140446,1,0,0:0:0:0:
448,192,140523,1,0,0:0:0:0:
192,192,140600,1,0,0:0:0:0:
64,192,140600,128,0,140754:0:0:0:0:
320,192,140600,128,0,140754:0:0:0:0:
448,192,140677,1,0,0:0:0:0:
192,192,140754,1,0,0:0:0:0:
448,192,140831,1,0,0:0:0:0:
64,192,140831,128,0,140984:0:0:0:0:
320,192,140831,128,0,140984:0:0:0:0:
192,192,140908,1,0,0:0:0:0:
448,192,140984,1,0,0:0:0:0:
192,192,141061,128,0,141215:0:0:0:0:
320,192,141061,128,0,141215:0:0:0:0:
64,192,141061,1,0,0:0:0:0:
448,192,141138,1,0,0:0:0:0:
64,192,141215,1,0,0:0:0:0:
64,192,141292,128,0,141369:0:0:0:0:
192,192,141292,128,0,141369:0:0:0:0:
320,192,141292,128,0,141369:0:0:0:0:
448,192,141292,128,0,141369:0:0:0:0:
64,192,141446,128,0,141523:0:0:0:0:
192,192,141446,128,0,141523:0:0:0:0:
320,192,141446,128,0,141523:0:0:0:0:
448,192,141446,128,0,141523:0:0:0:0:
64,192,141600,128,0,141677:0:0:0:0:
192,192,141600,128,0,141677:0:0:0:0:
320,192,141600,128,0,141677:0:0:0:0:
448,192,141600,128,0,141677:0:0:0:0:
64,192,141754,1,0,0:0:0:0:
192,192,141754,1,0,0:0:0:0:
320,192,141754,1,0,0:0:0:0:
448,192,141754,1,0,0:0:0:0:
64,192,142215,5,0,0:0:0:0:
320,192,142215,128,0,142388:0:0:0:0:
448,192,142215,128,0,142273:0:0:0:0:
64,192,142331,128,0,142504:0:0:0:0:
192,192,142331,1,0,0:0:0:0:
192,192,142446,128,0,142619:0:0:0:0:
448,192,142446,1,0,0:0:0:0:
448,192,142561,128,0,142734:0:0:0:0:
320,192,142561,1,0,0:0:0:0:
64,192,142677,128,0,142792:0:0:0:0:
320,192,142677,128,0,142850:0:0:0:0:
448,192,142792,1,0,0:0:0:0:
192,192,142792,1,0,0:0:0:0:
192,192,142908,1,0,0:0:0:0:
64,192,142908,1,0,0:0:0:0:
320,192,142965,128,0,143081:0:0:0:0:
448,192,142965,1,0,0:0:0:0:
192,192,143023,128,0,143081:0:0:0:0:
64,192,143023,1,0,0:0:0:0:
192,192,143138,128,0,143196:0:0:0:0:
64,192,143138,128,0,143196:0:0:0:0:
448,192,143138,1,0,0:0:0:0:
320,192,143254,1,0,0:0:0:0:
448,192,143254,1,0,0:0:0:0:
192,192,143311,128,0,143427:0:0:0:0:
64,192,143311,1,0,0:0:0:0:
320,192,143369,128,0,143427:0:0:0:0:
448,192,143369,1,0,0:0:0:0:
448,192,143484,128,0,143542:0:0:0:0:
320,192,143484,128,0,143542:0:0:0:0:
64,192,143484,1,0,0:0:0:0:
448,192,143600,1,0,0:0:0:0:
64,192,143600,1,0,0:0:0:0:
320,192,143658,128,0,143773:0:0:0:0:
192,192,143658,128,0,143773:0:0:0:0:
448,192,143715,128,0,143773:0:0:0:0:
64,192,143715,128,0,143773:0:0:0:0:
192,192,143831,128,0,143946:0:0:0:0:
64,192,143831,128,0,143946:0:0:0:0:
448,192,143831,128,0,143946:0:0:0:0:
320,192,143946,128,0,144061:0:0:0:0:
448,192,144061,1,0,0:0:0:0:
192,192,144061,128,0,144234:0:0:0:0:
64,192,144061,128,0,144119:0:0:0:0:
320,192,144177,1,0,0:0:0:0:
448,192,144177,128,0,144350:0:0:0:0:
64,192,144292,1,0,0:0:0:0:
320,192,144292,128,0,144465:0:0:0:0:
192,192,144408,1,0,0:0:0:0:
64,192,144408,128,0,144581:0:0:0:0:
448,192,144523,128,0,144638:0:0:0:0:
192,192,144523,128,0,144696:0:0:0:0:
320,192,144638,1,0,0:0:0:0:
64,192,144638,1,0,0:0:0:0:
448,192,144754,1,0,0:0:0:0:
320,192,144754,1,0,0:0:0:0:
192,192,144811,128,0,144927:0:0:0:0:
64,192,144811,1,0,0:0:0:0:
320,192,144869,128,0,144927:0:0:0:0:
448,192,144869,1,0,0:0:0:0:
448,192,144984,128,0,145042:0:0:0:0:
320,192,144984,128,0,145042:0:0:0:0:
64,192,144984,1,0,0:0:0:0:
192,192,145100,1,0,0:0:0:0:
64,192,145100,1,0,0:0:0:0:
320,192,145158,128,0,145273:0:0:0:0:
448,192,145158,1,0,0:0:0:0:
192,192,145215,128,0,145273:0:0:0:0:
64,192,145215,1,0,0:0:0:0:
192,192,145331,128,0,145388:0:0:0:0:
64,192,145331,128,0,145388:0:0:0:0:
448,192,145331,1,0,0:0:0:0:
448,192,145446,1,0,0:0:0:0:
64,192,145446,1,0,0:0:0:0:
192,192,145504,128,0,145619:0:0:0:0:
320,192,145504,128,0,145561:0:0:0:0:
448,192,145561,128,0,145619:0:0:0:0:
64,192,145561,128,0,145619:0:0:0:0:
320,192,145619,1,0,0:0:0:0:
192,192,145677,128,0,145734:0:0:0:0:
64,192,145706,128,0,145763:0:0:0:0:
320,192,145734,128,0,145792:0:0:0:0:
448,192,145763,128,0,145821:0:0:0:0:
192,192,145792,1,0,0:0:0:0:
64,192,145821,1,0,0:0:0:0:
320,192,145850,1,0,0:0:0:0:
192,192,145908,128,0,146081:0:0:0:0:
448,192,145908,128,0,146023:0:0:0:0:
64,192,145908,128,0,145965:0:0:0:0:
320,192,146023,1,0,0:0:0:0:
448,192,146138,1,0,0:0:0:0:
64,192,146138,1,0,0:0:0:0:
320,192,146138,128,0,146311:0:0:0:0:
192,192,146254,1,0,0:0:0:0:
64,192,146254,128,0,146427:0:0:0:0:
448,192,146369,128,0,146484:0:0:0:0:
192,192,146369,128,0,146542:0:0:0:0:
64,192,146484,1,0,0:0:0:0:
320,192,146484,1,0,0:0:0:0:
192,192,146600,1,0,0:0:0:0:
448,192,146600,1,0,0:0:0:0:
64,192,146658,128,0,146773:0:0:0:0:
320,192,146658,1,0,0:0:0:0:
192,192,146715,128,0,146773:0:0:0:0:
448,192,146715,128,0,146773:0:0:0:0:
448,192,146831,128,0,146888:0:0:0:0:
320,192,146831,128,0,146888:0:0:0:0:
64,192,146831,1,0,0:0:0:0:
320,192,146946,1,0,0:0:0:0:
64,192,146946,1,0,0:0:0:0:
448,192,147004,128,0,147119:0:0:0:0:
192,192,147004,1,0,0:0:0:0:
64,192,147061,128,0,147119:0:0:0:0:
320,192,147061,128,0,147119:0:0:0:0:
192,192,147177,128,0,147234:0:0:0:0:
64,192,147177,128,0,147234:0:0:0:0:
448,192,147177,1,0,0:0:0:0:
320,192,147292,128,0,147369:0:0:0:0:
448,192,147331,128,0,147408:0:0:0:0:
64,192,147369,128,0,147484:0:0:0:0:
192,192,147408,128,0,147523:0:0:0:0:
320,192,147446,128,0,147561:0:0:0:0:
448,192,147484,128,0,147600:0:0:0:0:
64,192,147561,128,0,147677:0:0:0:0:
192,192,147600,128,0,147715:0:0:0:0:
320,192,147638,128,0,147754:0:0:0:0:
448,192,147677,128,0,147792:0:0:0:0:
64,192,147754,128,0,147869:0:0:0:0:
192,192,147792,128,0,147908:0:0:0:0:
320,192,147831,128,0,147946:0:0:0:0:
448,192,147869,128,0,147984:0:0:0:0:
64,192,147946,128,0,148100:0:0:0:0:
192,192,147984,128,0,148138:0:0:0:0:
320,192,148023,128,0,148177:0:0:0:0:
448,192,148061,128,0,148215:0:0:0:0:
64,192,148138,128,0,148292:0:0:0:0:
192,192,148177,128,0,148331:0:0:0:0:
320,192,148215,128,0,148369:0:0:0:0:
448,192,148254,128,0,148408:0:0:0:0:
64,192,148331,128,0,148484:0:0:0:0:
192,192,148369,128,0,148523:0:0:0:0:
320,192,148408,128,0,148561:0:0:0:0:
448,192,148446,128,0,148600:0:0:0:0:
64,192,148523,128,0,148638:0:0:0:0:
192,192,148561,128,0,148677:0:0:0:0:
320,192,148600,128,0,148677:0:0:0:0:
448,192,148638,128,0,148677:0:0:0:0:
64,192,148677,128,0,148792:0:0:0:0:
320,192,148734,128,0,148850:0:0:0:0:
192,192,148792,128,0,148908:0:0:0:0:
448,192,148850,128,0,148965:0:0:0:0:
64,192,148908,128,0,148965:0:0:0:0:
192,192,148936,128,0,148994:0:0:0:0:
320,192,148965,128,0,149023:0:0:0:0:
448,192,148994,128,0,149052:0:0:0:0:
64,192,149023,128,0,149138:0:0:0:0:
192,192,149081,1,0,0:0:0:0:
320,192,149138,128,0,149254:0:0:0:0:
448,192,149138,1,0,0:0:0:0:
64,192,149254,128,0,149369:0:0:0:0:
192,192,149254,1,0,0:0:0:0:
448,192,149369,128,0,149484:0:0:0:0:
320,192,149369,1,0,0:0:0:0:
192,192,149484,128,0,149600:0:0:0:0:
64,192,149484,1,0,0:0:0:0:
448,192,149600,128,0,149946:0:0:0:0:
320,192,149600,128,0,149715:0:0:0:0:
192,192,149715,1,0,0:0:0:0:
64,192,149715,128,0,149831:0:0:0:0:
320,192,149831,128,0,149946:0:0:0:0:
64,192,149946,1,0,0:0:0:0:
192,192,149946,1,0,0:0:0:0:
320,192,150004,1,0,0:0:0:0:
448,192,150004,1,0,0:0:0:0:
192,192,150061,128,0,150177:0:0:0:0:
64,192,150061,128,0,150408:0:0:0:0:
320,192,150177,1,0,0:0:0:0:
448,192,150177,128,0,150292:0:0:0:0:
192,192,150292,128,0,150408:0:0:0:0:
448,192,150408,1,0,0:0:0:0:
320,192,150408,1,0,0:0:0:0:
192,192,150465,1,0,0:0:0:0:
64,192,150465,1,0,0:0:0:0:
320,192,150523,128,0,150869:0:0:0:0:
448,192,150523,128,0,150638:0:0:0:0:
64,192,150638,128,0,150754:0:0:0:0:
192,192,150638,1,0,0:0:0:0:
192,192,150754,128,0,150869:0:0:0:0:
64,192,150869,1,0,0:0:0:0:
448,192,150869,1,0,0:0:0:0:
192,192,150927,1,0,0:0:0:0:
64,192,150984,128,0,151100:0:0:0:0:
448,192,150984,1,0,0:0:0:0:
320,192,150984,1,0,0:0:0:0:
320,192,151100,128,0,151215:0:0:0:0:
448,192,151100,128,0,151215:0:0:0:0:
192,192,151215,128,0,151331:0:0:0:0:
64,192,151215,128,0,151331:0:0:0:0:
448,192,151331,128,0,151446:0:0:0:0:
64,192,151446,128,0,151792:0:0:0:0:
192,192,151446,128,0,151561:0:0:0:0:
448,192,151561,128,0,151677:0:0:0:0:
320,192,151561,1,0,0:0:0:0:
192,192,151677,128,0,151792:0:0:0:0:
320,192,151792,1,0,0:0:0:0:
448,192,151792,1,0,0:0:0:0:
192,192,151850,1,0,0:0:0:0:
64,192,151850,1,0,0:0:0:0:
448,192,151908,128,0,152254:0:0:0:0:
320,192,151908,128,0,152023:0:0:0:0:
64,192,152023,128,0,152138:0:0:0:0:
192,192,152023,1,0,0:0:0:0:
320,192,152138,128,0,152254:0:0:0:0:
192,192,152254,1,0,0:0:0:0:
64,192,152254,1,0,0:0:0:0:
320,192,152311,1,0,0:0:0:0:
448,192,152311,1,0,0:0:0:0:
192,192,152369,128,0,152715:0:0:0:0:
64,192,152369,128,0,152484:0:0:0:0:
448,192,152484,128,0,152600:0:0:0:0:
320,192,152484,1,0,0:0:0:0:
320,192,152600,128,0,152715:0:0:0:0:
64,192,152715,128,0,152831:0:0:0:0:
448,192,152715,1,0,0:0:0:0:
448,192,152831,128,0,152946:0:0:0:0:
192,192,152831,1,0,0:0:0:0:
320,192,152831,1,0,0:0:0:0:
64,192,152946,128,0,153061:0:0:0:0:
320,192,152946,128,0,153061:0:0:0:0:
448,192,153061,128,0,153177:0:0:0:0:
192,192,153061,128,0,153177:0:0:0:0:
64,192,153177,128,0,153292:0:0:0:0:
448,192,153292,128,0,153638:0:0:0:0:
192,192,153292,128,0,153408:0:0:0:0:
320,192,153292,1,0,0:0:0:0:
64,192,153408,1,0,0:0:0:0:
320,192,153408,128,0,153523:0:0:0:0:
64,192,153523,128,0,153638:0:0:0:0:
192,192,153638,1,0,0:0:0:0:
320,192,153638,1,0,0:0:0:0:
64,192,153696,1,0,0:0:0:0:
448,192,153696,1,0,0:0:0:0:
320,192,153754,128,0,154100:0:0:0:0:
192,192,153754,128,0,153869:0:0:0:0:
64,192,153869,128,0,153984:0:0:0:0:
448,192,153869,1,0,0:0:0:0:
448,192,153984,128,0,154100:0:0:0:0:
64,192,154100,1,0,0:0:0:0:
192,192,154100,1,0,0:0:0:0:
320,192,154158,1,0,0:0:0:0:
448,192,154158,1,0,0:0:0:0:
192,192,154215,128,0,154561:0:0:0:0:
64,192,154215,128,0,154331:0:0:0:0:
448,192,154331,128,0,154446:0:0:0:0:
320,192,154331,1,0,0:0:0:0:
64,192,154446,128,0,154561:0:0:0:0:
320,192,154561,1,0,0:0:0:0:
448,192,154561,1,0,0:0:0:0:
192,192,154619,1,0,0:0:0:0:
64,192,154619,1,0,0:0:0:0:
448,192,154677,128,0,155023:0:0:0:0:
320,192,154677,128,0,154792:0:0:0:0:
64,192,154792,128,0,154908:0:0:0:0:
192,192,154792,1,0,0:0:0:0:
320,192,154908,128,0,155023:0:0:0:0:
64,192,155023,128,0,155138:0:0:0:0:
192,192,155023,128,0,155138:0:0:0:0:
320,192,155138,1,0,0:0:0:0:
448,192,155138,1,0,0:0:0:0:
192,192,155254,128,0,155369:0:0:0:0:
320,192,155254,128,0,155369:0:0:0:0:
64,192,155254,128,0,155369:0:0:0:0:
448,192,155369,1,0,0:0:0:0:
320,192,155484,1,0,0:0:0:0:
64,192,155484,128,0,155600:0:0:0:0:
192,192,155484,128,0,155600:0:0:0:0:
320,192,155600,128,0,155715:0:0:0:0:
448,192,155600,128,0,155715:0:0:0:0:
64,192,155715,1,0,0:0:0:0:
192,192,155715,1,0,0:0:0:0:
64,192,155831,1,0,0:0:0:0:
192,192,155831,1,0,0:0:0:0:
192,192,155946,128,0,156061:0:0:0:0:
320,192,155946,128,0,156061:0:0:0:0:
448,192,155946,128,0,156061:0:0:0:0:
64,192,156061,1,0,0:0:0:0:
192,192,156177,1,0,0:0:0:0:
320,192,156177,128,0,156292:0:0:0:0:
448,192,156177,128,0,156292:0:0:0:0:
64,192,156292,128,0,156408:0:0:0:0:
192,192,156292,128,0,156408:0:0:0:0:
320,192,156408,1,0,0:0:0:0:
448,192,156408,1,0,0:0:0:0:
192,192,156523,5,0,0:0:0:0:
448,192,156523,1,0,0:0:0:0:
64,192,156523,1,0,0:0:0:0:
192,192,156638,1,0,0:0:0:0:
448,192,156638,1,0,0:0:0:0:
320,192,156754,1,0,0:0:0:0:
64,192,156754,1,0,0:0:0:0:
448,192,156754,1,0,0:0:0:0:
320,192,156869,1,0,0:0:0:0:
64,192,156869,1,0,0:0:0:0:
192,192,156984,128,0,157100:0:0:0:0:
64,192,156984,128,0,157331:0:0:0:0:
448,192,156984,1,0,0:0:0:0:
448,192,157100,128,0,157215:0:0:0:0:
320,192,157100,1,0,0:0:0:0:
192,192,157215,128,0,157331:0:0:0:0:
320,192,157331,1,0,0:0:0:0:
448,192,157331,1,0,0:0:0:0:
192,192,157388,1,0,0:0:0:0:
64,192,157388,1,0,0:0:0:0:
320,192,157446,128,0,157561:0:0:0:0:
448,192,157446,128,0,157792:0:0:0:0:
64,192,157561,128,0,157677:0:0:0:0:
192,192,157561,1,0,0:0:0:0:
320,192,157677,128,0,157792:0:0:0:0:
192,192,157792,1,0,0:0:0:0:
64,192,157792,1,0,0:0:0:0:
448,192,157850,1,0,0:0:0:0:
320,192,157850,1,0,0:0:0:0:
64,192,157908,128,0,158023:0:0:0:0:
192,192,157908,128,0,158254:0:0:0:0:
448,192,158023,128,0,158138:0:0:0:0:
320,192,158023,1,0,0:0:0:0:
320,192,158138,128,0,158254:0:0:0:0:
448,192,158254,1,0,0:0:0:0:
64,192,158254,1,0,0:0:0:0:
320,192,158311,1,0,0:0:0:0:
192,192,158369,1,0,0:0:0:0:
64,192,158369,1,0,0:0:0:0:
448,192,158369,128,0,158484:0:0:0:0:
64,192,158484,128,0,158600:0:0:0:0:
192,192,158484,128,0,158600:0:0:0:0:
320,192,158600,128,0,158715:0:0:0:0:
448,192,158600,128,0,158715:0:0:0:0:
64,192,158715,128,0,158831:0:0:0:0:
448,192,158831,128,0,159177:0:0:0:0:
320,192,158831,128,0,158946:0:0:0:0:
192,192,158946,1,0,0:0:0:0:
64,192,158946,128,0,159061:0:0:0:0:
320,192,159061,128,0,159177:0:0:0:0:
64,192,159177,1,0,0:0:0:0:
192,192,159177,1,0,0:0:0:0:
320,192,159234,1,0,0:0:0:0:
448,192,159234,1,0,0:0:0:0:
64,192,159292,128,0,159638:0:0:0:0:
192,192,159292,128,0,159408:0:0:0:0:
448,192,159408,128,0,159523:0:0:0:0:
320,192,159408,1,0,0:0:0:0:
192,192,159523,128,0,159638:0:0:0:0:
320,192,159638,1,0,0:0:0:0:
448,192,159638,1,0,0:0:0:0:
192,192,159696,1,0,0:0:0:0:
64,192,159696,1,0,0:0:0:0:
448,192,159754,128,0,159869:0:0:0:0:
320,192,159754,128,0,160100:0:0:0:0:
64,192,159869,128,0,159984:0:0:0:0:
192,192,159869,1,0,0:0:0:0:
192,192,159984,128,0,160100:0:0:0:0:
64,192,160100,1,0,0:0:0:0:
448,192,160100,128,0,160215:0:0:0:0:
192,192,160215,1,0,0:0:0:0:
320,192,160215,1,0,0:0:0:0:
64,192,160215,128,0,160331:0:0:0:0:
192,192,160331,128,0,160446:0:0:0:0:
448,192,160331,128,0,160446:0:0:0:0:
320,192,160446,128,0,160561:0:0:0:0:
64,192,160446,128,0,160561:0:0:0:0:
448,192,160561,128,0,160677:0:0:0:0:
320,192,160677,128,0,160792:0:0:0:0:
64,192,160677,128,0,161023:0:0:0:0:
192,192,160677,1,0,0:0:0:0:
192,192,160792,128,0,160908:0:0:0:0:
448,192,160792,1,0,0:0:0:0:
448,192,160908,128,0,161023:0:0:0:0:
192,192,161023,1,0,0:0:0:0:
320,192,161023,1,0,0:0:0:0:
448,192,161081,1,0,0:0:0:0:
64,192,161081,1,0,0:0:0:0:
320,192,161138,128,0,161254:0:0:0:0:
192,192,161138,128,0,161484:0:0:0:0:
448,192,161254,128,0,161369:0:0:0:0:
64,192,161254,1,0,0:0:0:0:
64,192,161369,128,0,161484:0:0:0:0:
320,192,161484,1,0,0:0:0:0:
448,192,161484,1,0,0:0:0:0:
64,192,161542,1,0,0:0:0:0:
192,192,161542,1,0,0:0:0:0:
448,192,161600,128,0,161715:0:0:0:0:
320,192,161600,128,0,161946:0:0:0:0:
64,192,161715,128,0,161831:0:0:0:0:
192,192,161715,1,0,0:0:0:0:
448,192,161831,128,0,161946:0:0:0:0:
64,192,161946,1,0,0:0:0:0:
192,192,161946,1,0,0:0:0:0:
320,192,162004,1,0,0:0:0:0:
448,192,162004,1,0,0:0:0:0:
64,192,162061,128,0,162408:0:0:0:0:
192,192,162061,128,0,162177:0:0:0:0:
448,192,162177,128,0,162292:0:0:0:0:
320,192,162177,1,0,0:0:0:0:
192,192,162292,128,0,162408:0:0:0:0:
320,192,162408,128,0,162523:0:0:0:0:
448,192,162408,128,0,162523:0:0:0:0:
64,192,162523,128,0,162638:0:0:0:0:
192,192,162638,128,0,162754:0:0:0:0:
448,192,162638,128,0,162754:0:0:0:0:
320,192,162754,128,0,162869:0:0:0:0:
64,192,162754,128,0,162869:0:0:0:0:
448,192,162869,128,0,162984:0:0:0:0:
64,192,162984,1,0,0:0:0:0:
192,192,162984,128,0,163061:0:0:0:0:
320,192,163023,128,0,163100:0:0:0:0:
448,192,163061,128,0,163177:0:0:0:0:
320,192,163138,128,0,163215:0:0:0:0:
192,192,163177,128,0,163254:0:0:0:0:
64,192,163215,128,0,163292:0:0:0:0:
448,192,163254,1,0,0:0:0:0:
320,192,163292,1,0,0:0:0:0:
64,192,163331,1,0,0:0:0:0:
192,192,163331,128,0,163446:0:0:0:0:
448,192,163446,128,0,163504:0:0:0:0:
320,192,163475,128,0,163533:0:0:0:0:
64,192,163504,128,0,163533:0:0:0:0:
192,192,163533,128,0,163590:0:0:0:0:
448,192,163561,128,0,163590:0:0:0:0:
64,192,163590,128,0,163648:0:0:0:0:
320,192,163619,128,0,163648:0:0:0:0:
192,192,163648,128,0,163706:0:0:0:0:
448,192,163677,128,0,163734:0:0:0:0:
320,192,163706,128,0,163734:0:0:0:0:
64,192,163734,128,0,163821:0:0:0:0:
192,192,163763,128,0,163792:0:0:0:0:
448,192,163792,128,0,163821:0:0:0:0:
320,192,163821,128,0,163879:0:0:0:0:
192,192,163850,128,0,163908:0:0:0:0:
64,192,163908,128,0,164138:0:0:0:0:
448,192,163908,128,0,164138:0:0:0:0:
320,192,164023,128,0,164254:0:0:0:0:
192,192,164138,128,0,164254:0:0:0:0:
64,192,164254,1,0,0:0:0:0:
448,192,164254,1,0,0:0:0:0:
64,192,164369,5,0,0:0:0:0:
192,192,164369,1,0,0:0:0:0:
320,192,164369,1,0,0:0:0:0:
448,192,164369,128,0,171754:0:0:0:0:
64,192,171754,1,0,0:0:0:0:
192,192,171811,128,0,174523:0:0:0:0:
320,192,171869,128,0,174581:0:0:0:0:
64,192,172215,1,0,0:0:0:0:
64,192,172677,1,0,0:0:0:0:
64,192,173138,1,0,0:0:0:0:
64,192,173600,1,0,0:0:0:0:
64,192,174061,1,0,0:0:0:0:
448,192,174523,1,0,0:0:0:0:
64,192,174581,128,0,175388:0:0:0:0:
448,192,174638,128,0,175446:0:0:0:0:
192,192,174984,1,0,0:0:0:0:
64,192,175446,1,0,0:0:0:0:
320,192,175504,128,0,177292:0:0:0:0:
192,192,175561,128,0,177350:0:0:0:0:
448,192,175908,1,0,0:0:0:0:
448,192,176369,1,0,0:0:0:0:
448,192,176831,1,0,0:0:0:0:
64,192,177292,1,0,0:0:0:0:
448,192,177350,128,0,179081:0:0:0:0:
64,192,177408,128,0,179081:0:0:0:0:
320,192,177754,1,0,0:0:0:0:
320,192,178215,1,0,0:0:0:0:
320,192,178677,1,0,0:0:0:0:
320,192,179081,1,0,0:0:0:0:
192,192,179138,1,0,0:0:0:0:
64,192,179138,1,0,0:0:0:0:
448,192,179254,1,0,0:0:0:0:
320,192,179254,1,0,0:0:0:0:
64,192,179369,1,0,0:0:0:0:
320,192,179484,1,0,0:0:0:0:
192,192,179484,1,0,0:0:0:0:
64,192,179715,1,0,0:0:0:0:
448,192,179715,1,0,0:0:0:0:
192,192,179831,1,0,0:0:0:0:
320,192,179946,1,0,0:0:0:0:
448,192,180061,1,0,0:0:0:0:
64,192,180061,1,0,0:0:0:0:
320,192,180177,1,0,0:0:0:0:
192,192,180177,1,0,0:0:0:0:
64,192,180292,1,0,0:0:0:0:
320,192,180408,1,0,0:0:0:0:
448,192,180408,1,0,0:0:0:0:
192,192,180638,1,0,0:0:0:0:
320,192,180638,1,0,0:0:0:0:
448,192,180754,1,0,0:0:0:0:
64,192,180754,1,0,0:0:0:0:
320,192,180869,1,0,0:0:0:0:
64,192,180984,128,0,181042:0:0:0:0:
192,192,180984,128,0,181042:0:0:0:0:
320,192,181100,128,0,181158:0:0:0:0:
448,192,181100,128,0,181158:0:0:0:0:
320,192,181331,128,0,181388:0:0:0:0:
448,192,181331,128,0,181388:0:0:0:0:
320,192,181561,128,0,181619:0:0:0:0:
448,192,181561,128,0,181619:0:0:0:0:
192,192,181677,128,0,181734:0:0:0:0:
64,192,181677,128,0,181734:0:0:0:0:
320,192,181792,128,0,181850:0:0:0:0:
448,192,181792,128,0,181850:0:0:0:0:
192,192,181908,128,0,181965:0:0:0:0:
64,192,181908,128,0,181965:0:0:0:0:
320,192,182023,128,0,182081:0:0:0:0:
192,192,182138,128,0,182196:0:0:0:0:
448,192,182138,128,0,182196:0:0:0:0:
320,192,182254,128,0,182311:0:0:0:0:
64,192,182484,128,0,182542:0:0:0:0:
320,192,182484,128,0,182542:0:0:0:0:
192,192,182600,128,0,182658:0:0:0:0:
448,192,182715,128,0,182773:0:0:0:0:
320,192,182831,1,0,0:0:0:0:
192,192,182946,1,0,0:0:0:0:
448,192,182946,1,0,0:0:0:0:
64,192,183061,1,0,0:0:0:0:
320,192,183177,1,0,0:0:0:0:
448,192,183177,1,0,0:0:0:0:
64,192,183292,1,0,0:0:0:0:
448,192,183408,1,0,0:0:0:0:
320,192,183408,1,0,0:0:0:0:
192,192,183523,1,0,0:0:0:0:
64,192,183523,1,0,0:0:0:0:
320,192,183638,1,0,0:0:0:0:
448,192,183638,1,0,0:0:0:0:
64,192,183754,1,0,0:0:0:0:
192,192,183754,1,0,0:0:0:0:
320,192,183869,1,0,0:0:0:0:
192,192,183984,1,0,0:0:0:0:
448,192,183984,1,0,0:0:0:0:
64,192,184100,1,0,0:0:0:0:
320,192,184331,1,0,0:0:0:0:
448,192,184331,1,0,0:0:0:0:
64,192,184446,1,0,0:0:0:0:
192,192,184561,1,0,0:0:0:0:
448,192,184561,1,0,0:0:0:0:
320,192,184677,128,0,184734:0:0:0:0:
64,192,184792,128,0,184850:0:0:0:0:
192,192,184792,128,0,184850:0:0:0:0:
448,192,184908,128,0,184965:0:0:0:0:
192,192,185023,128,0,185081:0:0:0:0:
320,192,185023,128,0,185081:0:0:0:0:
64,192,185138,128,0,185196:0:0:0:0:
192,192,185254,128,0,185311:0:0:0:0:
448,192,185254,128,0,185311:0:0:0:0:
320,192,185369,128,0,185427:0:0:0:0:
64,192,185369,128,0,185427:0:0:0:0:
192,192,185484,128,0,185542:0:0:0:0:
448,192,185484,128,0,185542:0:0:0:0:
320,192,185600,128,0,185658:0:0:0:0:
64,192,185600,128,0,185658:0:0:0:0:
448,192,185715,128,0,185773:0:0:0:0:
64,192,185831,128,0,185888:0:0:0:0:
192,192,185831,128,0,185888:0:0:0:0:
320,192,185946,128,0,186004:0:0:0:0:
448,192,186061,128,0,186119:0:0:0:0:
192,192,186061,128,0,186119:0:0:0:0:
64,192,186177,128,0,186234:0:0:0:0:
320,192,186292,128,0,186350:0:0:0:0:
448,192,186292,128,0,186350:0:0:0:0:
64,192,186408,128,0,186465:0:0:0:0:
192,192,186523,128,0,186581:0:0:0:0:
320,192,186523,1,0,0:0:0:0:
448,192,186638,128,0,186696:0:0:0:0:
64,192,186638,1,0,0:0:0:0:
64,192,186869,128,0,186927:0:0:0:0:
448,192,186869,1,0,0:0:0:0:
64,192,187100,128,0,187158:0:0:0:0:
448,192,187100,1,0,0:0:0:0:
320,192,187215,128,0,187273:0:0:0:0:
192,192,187215,1,0,0:0:0:0:
64,192,187331,1,0,0:0:0:0:
448,192,187331,128,0,187388:0:0:0:0:
192,192,187446,128,0,187504:0:0:0:0:
320,192,187446,1,0,0:0:0:0:
64,192,187561,128,0,187619:0:0:0:0:
448,192,187561,1,0,0:0:0:0:
448,192,187677,128,0,187734:0:0:0:0:
192,192,187677,1,0,0:0:0:0:
320,192,187792,128,0,187850:0:0:0:0:
64,192,187792,1,0,0:0:0:0:
64,192,187908,128,0,187965:0:0:0:0:
192,192,187908,1,0,0:0:0:0:
320,192,188023,128,0,188081:0:0:0:0:
448,192,188023,1,0,0:0:0:0:
64,192,188138,1,0,0:0:0:0:
192,192,188138,128,0,188196:0:0:0:0:
320,192,188254,128,0,188311:0:0:0:0:
448,192,188254,1,0,0:0:0:0:
448,192,188369,128,0,188427:0:0:0:0:
192,192,188369,1,0,0:0:0:0:
64,192,188484,128,0,188542:0:0:0:0:
320,192,188484,1,0,0:0:0:0:
448,192,188600,128,0,188658:0:0:0:0:
192,192,188600,1,0,0:0:0:0:
64,192,188715,128,0,188773:0:0:0:0:
320,192,188715,1,0,0:0:0:0:
192,192,188831,128,0,188888:0:0:0:0:
448,192,188831,128,0,188888:0:0:0:0:
320,192,188946,128,0,189004:0:0:0:0:
64,192,188946,1,0,0:0:0:0:
64,192,189061,128,0,189119:0:0:0:0:
448,192,189061,1,0,0:0:0:0:
192,192,189177,128,0,189234:0:0:0:0:
320,192,189177,1,0,0:0:0:0:
64,192,189292,128,0,189350:0:0:0:0:
448,192,189292,1,0,0:0:0:0:
64,192,189984,128,0,190042:0:0:0:0:
192,192,189984,1,0,0:0:0:0:
320,192,190100,128,0,190158:0:0:0:0:
448,192,190100,1,0,0:0:0:0:
64,192,190215,128,0,190273:0:0:0:0:
448,192,190215,1,0,0:0:0:0:
320,192,190561,128,0,190619:0:0:0:0:
448,192,190561,1,0,0:0:0:0:
192,192,190619,128,0,190677:0:0:0:0:
64,192,190619,1,0,0:0:0:0:
448,192,190677,1,0,0:0:0:0:
320,192,190677,128,0,190734:0:0:0:0:
448,192,191369,128,0,191427:0:0:0:0:
64,192,191369,1,0,0:0:0:0:
192,192,191600,128,0,191658:0:0:0:0:
320,192,191600,1,0,0:0:0:0:
64,192,191831,128,0,191888:0:0:0:0:
448,192,191831,1,0,0:0:0:0:
192,192,192061,128,0,192119:0:0:0:0:
320,192,192061,1,0,0:0:0:0:
64,192,192754,128,0,192811:0:0:0:0:
320,192,192754,1,0,0:0:0:0:
64,192,192984,128,0,193042:0:0:0:0:
320,192,192984,1,0,0:0:0:0:
192,192,193446,128,0,193504:0:0:0:0:
448,192,193504,128,0,193561:0:0:0:0:
64,192,193561,128,0,193619:0:0:0:0:
320,192,193619,128,0,193677:0:0:0:0:
192,192,193677,128,0,193734:0:0:0:0:
448,192,193734,128,0,193792:0:0:0:0:
64,192,193792,128,0,193850:0:0:0:0:
320,192,193850,128,0,193908:0:0:0:0:
192,192,193908,128,0,194023:0:0:0:0:
448,192,193908,128,0,194023:0:0:0:0:
64,192,193908,128,0,194023:0:0:0:0:
320,192,194023,128,0,194138:0:0:0:0:
320,192,194254,128,0,194369:0:0:0:0:
192,192,194484,128,0,194600:0:0:0:0:
64,192,194484,128,0,194600:0:0:0:0:
448,192,194600,128,0,194715:0:0:0:0:
64,192,194715,128,0,194831:0:0:0:0:
448,192,194831,128,0,194946:0:0:0:0:
320,192,194831,128,0,194946:0:0:0:0:
192,192,194946,128,0,195061:0:0:0:0:
448,192,195061,128,0,195177:0:0:0:0:
320,192,195177,128,0,195292:0:0:0:0:
64,192,195177,128,0,195292:0:0:0:0:
320,192,195408,128,0,195523:0:0:0:0:
448,192,195408,128,0,195523:0:0:0:0:
64,192,195523,128,0,195638:0:0:0:0:
192,192,195523,128,0,195638:0:0:0:0:
192,192,195754,128,0,195869:0:0:0:0:
64,192,195754,128,0,195869:0:0:0:0:
448,192,195869,128,0,195984:0:0:0:0:
320,192,195869,128,0,195984:0:0:0:0:
192,192,196100,128,0,196215:0:0:0:0:
448,192,196100,128,0,196215:0:0:0:0:
64,192,196100,128,0,196215:0:0:0:0:
320,192,196331,128,0,196446:0:0:0:0:
192,192,196331,128,0,196446:0:0:0:0:
64,192,196446,128,0,196561:0:0:0:0:
448,192,196446,128,0,196561:0:0:0:0:
320,192,196561,128,0,196677:0:0:0:0:
448,192,196677,128,0,196792:0:0:0:0:
64,192,196677,128,0,196792:0:0:0:0:
192,192,196792,128,0,196908:0:0:0:0:
64,192,196908,128,0,197023:0:0:0:0:
448,192,196908,128,0,197023:0:0:0:0:
192,192,197023,128,0,197138:0:0:0:0:
320,192,197023,128,0,197138:0:0:0:0:
64,192,197254,128,0,197369:0:0:0:0:
192,192,197254,128,0,197369:0:0:0:0:
320,192,197369,128,0,197484:0:0:0:0:
448,192,197369,128,0,197484:0:0:0:0:
448,192,197600,128,0,197715:0:0:0:0:
320,192,197600,128,0,197715:0:0:0:0:
192,192,197715,128,0,197831:0:0:0:0:
64,192,197715,128,0,197831:0:0:0:0:
192,192,197946,128,0,198061:0:0:0:0:
64,192,197946,128,0,198061:0:0:0:0:
448,192,197946,128,0,198061:0:0:0:0:
320,192,198177,128,0,198292:0:0:0:0:
448,192,198292,128,0,198408:0:0:0:0:
192,192,198292,128,0,198408:0:0:0:0:
320,192,198408,128,0,198523:0:0:0:0:
64,192,198523,128,0,198638:0:0:0:0:
448,192,198523,128,0,198638:0:0:0:0:
192,192,198638,128,0,198754:0:0:0:0:
320,192,198638,128,0,198754:0:0:0:0:
448,192,198754,128,0,198869:0:0:0:0:
320,192,198869,128,0,198984:0:0:0:0:
192,192,198869,128,0,198984:0:0:0:0:
64,192,198869,128,0,198984:0:0:0:0:
192,192,199100,128,0,199215:0:0:0:0:
448,192,199100,128,0,199215:0:0:0:0:
320,192,199215,128,0,199331:0:0:0:0:
64,192,199215,128,0,199331:0:0:0:0:
320,192,199446,128,0,199561:0:0:0:0:
64,192,199446,128,0,199561:0:0:0:0:
448,192,199561,128,0,199677:0:0:0:0:
192,192,199561,128,0,199677:0:0:0:0:
64,192,199677,128,0,199792:0:0:0:0:
320,192,199677,128,0,199792:0:0:0:0:
192,192,199792,128,0,199908:0:0:0:0:
448,192,199908,128,0,200023:0:0:0:0:
64,192,199908,128,0,200023:0:0:0:0:
320,192,200023,128,0,200138:0:0:0:0:
448,192,200138,128,0,200254:0:0:0:0:
64,192,200138,128,0,200254:0:0:0:0:
192,192,200254,128,0,200369:0:0:0:0:
64,192,200369,128,0,200484:0:0:0:0:
448,192,200369,128,0,200484:0:0:0:0:
320,192,200484,128,0,200600:0:0:0:0:
448,192,200600,128,0,200715:0:0:0:0:
64,192,200600,128,0,200715:0:0:0:0:
320,192,200715,128,0,200831:0:0:0:0:
192,192,200715,128,0,200831:0:0:0:0:
320,192,200946,128,0,201061:0:0:0:0:
64,192,201061,128,0,201177:0:0:0:0:
320,192,201177,128,0,201292:0:0:0:0:
192,192,201177,128,0,201292:0:0:0:0:
448,192,201177,128,0,201292:0:0:0:0:
64,192,201292,128,0,201408:0:0:0:0:
448,192,201408,128,0,201523:0:0:0:0:
320,192,201408,128,0,201523:0:0:0:0:
192,192,201638,128,0,201754:0:0:0:0:
448,192,201638,128,0,201754:0:0:0:0:
192,192,201869,128,0,201984:0:0:0:0:
64,192,201984,128,0,202100:0:0:0:0:
320,192,201984,128,0,202100:0:0:0:0:
448,192,201984,128,0,202100:0:0:0:0:
192,192,202100,128,0,202215:0:0:0:0:
64,192,202215,128,0,202331:0:0:0:0:
448,192,202215,128,0,202331:0:0:0:0:
320,192,202331,128,0,202446:0:0:0:0:
192,192,202446,128,0,202561:0:0:0:0:
64,192,202561,128,0,202677:0:0:0:0:
448,192,202561,128,0,202677:0:0:0:0:
320,192,202561,128,0,202677:0:0:0:0:
64,192,202792,128,0,202908:0:0:0:0:
192,192,202792,128,0,202908:0:0:0:0:
320,192,202908,128,0,203023:0:0:0:0:
448,192,202908,128,0,203023:0:0:0:0:
448,192,203138,128,0,203254:0:0:0:0:
320,192,203138,128,0,203254:0:0:0:0:
192,192,203254,128,0,203369:0:0:0:0:
64,192,203254,128,0,203369:0:0:0:0:
320,192,203484,128,0,203600:0:0:0:0:
448,192,203484,128,0,203600:0:0:0:0:
64,192,203484,128,0,203600:0:0:0:0:
448,192,203715,128,0,203831:0:0:0:0:
192,192,203715,128,0,203831:0:0:0:0:
64,192,203831,128,0,203946:0:0:0:0:
448,192,203946,128,0,204061:0:0:0:0:
320,192,203946,128,0,204061:0:0:0:0:
64,192,204061,128,0,204177:0:0:0:0:
192,192,204061,128,0,204177:0:0:0:0:
320,192,204177,128,0,204292:0:0:0:0:
448,192,204177,128,0,204292:0:0:0:0:
64,192,204292,128,0,204408:0:0:0:0:
192,192,204408,128,0,204523:0:0:0:0:
448,192,204408,128,0,204523:0:0:0:0:
448,192,204638,128,0,204754:0:0:0:0:
320,192,204638,128,0,204754:0:0:0:0:
64,192,204754,128,0,204869:0:0:0:0:
192,192,204754,128,0,204869:0:0:0:0:
192,192,204984,128,0,205100:0:0:0:0:
320,192,204984,128,0,205100:0:0:0:0:
448,192,204984,128,0,205100:0:0:0:0:
64,192,205100,128,0,205215:0:0:0:0:
448,192,205215,128,0,205331:0:0:0:0:
192,192,205215,128,0,205331:0:0:0:0:
64,192,205331,128,0,205446:0:0:0:0:
320,192,205331,128,0,205446:0:0:0:0:
320,192,205561,128,0,205677:0:0:0:0:
64,192,205561,128,0,205677:0:0:0:0:
448,192,205677,128,0,205792:0:0:0:0:
64,192,205792,128,0,205908:0:0:0:0:
192,192,205792,128,0,205908:0:0:0:0:
448,192,205908,128,0,206023:0:0:0:0:
320,192,205908,128,0,206023:0:0:0:0:
192,192,206023,128,0,206138:0:0:0:0:
64,192,206023,128,0,206138:0:0:0:0:
320,192,206254,128,0,206369:0:0:0:0:
448,192,206254,128,0,206369:0:0:0:0:
192,192,206254,128,0,206369:0:0:0:0:
64,192,206484,128,0,206600:0:0:0:0:
192,192,206484,128,0,206600:0:0:0:0:
448,192,206600,128,0,206715:0:0:0:0:
320,192,206600,128,0,206715:0:0:0:0:
64,192,206715,128,0,206831:0:0:0:0:
448,192,206831,128,0,206946:0:0:0:0:
192,192,206831,128,0,206946:0:0:0:0:
320,192,206946,128,0,207061:0:0:0:0:
64,192,207061,128,0,207177:0:0:0:0:
192,192,207061,128,0,207177:0:0:0:0:
320,192,207177,128,0,207292:0:0:0:0:
448,192,207177,128,0,207292:0:0:0:0:
320,192,207408,128,0,207523:0:0:0:0:
448,192,207408,128,0,207523:0:0:0:0:
192,192,207523,128,0,207638:0:0:0:0:
64,192,207523,128,0,207638:0:0:0:0:
320,192,207638,128,0,207754:0:0:0:0:
448,192,207754,128,0,207869:0:0:0:0:
192,192,207754,128,0,207869:0:0:0:0:
64,192,207927,128,0,208042:0:0:0:0:
320,192,207927,128,0,208042:0:0:0:0:
448,192,208100,128,0,208215:0:0:0:0:
192,192,208100,128,0,208215:0:0:0:0:
320,192,208215,128,0,208331:0:0:0:0:
64,192,208215,128,0,208331:0:0:0:0:
192,192,208388,128,0,208504:0:0:0:0:
448,192,208388,128,0,208504:0:0:0:0:
64,192,208561,128,0,208677:0:0:0:0:
320,192,208561,128,0,208677:0:0:0:0:
192,192,208677,1,0,0:0:0:0:
448,192,208677,1,0,0:0:0:0:
64,192,216061,5,0,0:0:0:0:
192,192,216061,1,0,0:0:0:0:
448,192,216061,1,0,0:0:0:0:
448,192,216177,1,0,0:0:0:0:
320,192,216177,1,0,0:0:0:0:
64,192,216177,1,0,0:0:0:0:
64,192,216292,1,0,0:0:0:0:
192,192,216292,1,0,0:0:0:0:
320,192,216292,1,0,0:0:0:0:
448,192,216408,1,0,0:0:0:0:
320,192,216408,1,0,0:0:0:0:
64,192,216408,1,0,0:0:0:0:
64,192,216523,1,0,0:0:0:0:
192,192,216523,1,0,0:0:0:0:
448,192,216523,1,0,0:0:0:0:
192,192,216638,1,0,0:0:0:0:
320,192,216638,1,0,0:0:0:0:
448,192,216638,1,0,0:0:0:0:
448,192,216754,1,0,0:0:0:0:
320,192,216754,1,0,0:0:0:0:
64,192,216754,1,0,0:0:0:0:
64,192,216869,1,0,0:0:0:0:
320,192,216869,1,0,0:0:0:0:
448,192,216869,1,0,0:0:0:0:
64,192,216984,1,0,0:0:0:0:
448,192,216984,1,0,0:0:0:0:
320,192,216984,1,0,0:0:0:0:
192,192,216984,1,0,0:0:0:0:
64,192,217100,1,0,0:0:0:0:
192,192,217100,1,0,0:0:0:0:
448,192,217100,1,0,0:0:0:0:
192,192,217215,1,0,0:0:0:0:
320,192,217215,1,0,0:0:0:0:
448,192,217215,1,0,0:0:0:0:
64,192,217331,1,0,0:0:0:0:
448,192,217331,1,0,0:0:0:0:
192,192,217331,1,0,0:0:0:0:
64,192,217446,1,0,0:0:0:0:
448,192,217446,1,0,0:0:0:0:
320,192,217446,1,0,0:0:0:0:
192,192,217561,1,0,0:0:0:0:
320,192,217561,1,0,0:0:0:0:
64,192,217561,1,0,0:0:0:0:
64,192,217677,1,0,0:0:0:0:
192,192,217677,1,0,0:0:0:0:
448,192,217677,1,0,0:0:0:0:
64,192,217792,1,0,0:0:0:0:
192,192,217792,1,0,0:0:0:0:
448,192,217792,1,0,0:0:0:0:
64,192,217908,1,0,0:0:0:0:
192,192,217908,1,0,0:0:0:0:
320,192,217908,1,0,0:0:0:0:
448,192,217908,1,0,0:0:0:0:
64,192,218023,1,0,0:0:0:0:
320,192,218023,1,0,0:0:0:0:
448,192,218023,1,0,0:0:0:0:
320,192,218138,1,0,0:0:0:0:
192,192,218138,1,0,0:0:0:0:
64,192,218138,1,0,0:0:0:0:
64,192,218254,1,0,0:0:0:0:
320,192,218254,1,0,0:0:0:0:
448,192,218254,1,0,0:0:0:0:
448,192,218369,1,0,0:0:0:0:
192,192,218369,1,0,0:0:0:0:
64,192,218369,1,0,0:0:0:0:
448,192,218484,1,0,0:0:0:0:
320,192,218484,1,0,0:0:0:0:
192,192,218484,1,0,0:0:0:0:
64,192,218600,1,0,0:0:0:0:
320,192,218600,1,0,0:0:0:0:
448,192,218600,1,0,0:0:0:0:
448,192,218715,1,0,0:0:0:0:
320,192,218715,1,0,0:0:0:0:
64,192,218715,1,0,0:0:0:0:
320,192,218831,1,0,0:0:0:0:
192,192,218831,1,0,0:0:0:0:
64,192,218831,1,0,0:0:0:0:
448,192,218831,1,0,0:0:0:0:
448,192,218946,1,0,0:0:0:0:
192,192,218946,1,0,0:0:0:0:
64,192,218946,1,0,0:0:0:0:
448,192,219061,1,0,0:0:0:0:
320,192,219061,1,0,0:0:0:0:
192,192,219061,1,0,0:0:0:0:
192,192,219177,1,0,0:0:0:0:
448,192,219177,1,0,0:0:0:0:
64,192,219177,1,0,0:0:0:0:
320,192,219292,1,0,0:0:0:0:
448,192,219292,1,0,0:0:0:0:
64,192,219292,1,0,0:0:0:0:
64,192,219408,1,0,0:0:0:0:
320,192,219408,1,0,0:0:0:0:
192,192,219408,1,0,0:0:0:0:
448,192,219523,1,0,0:0:0:0:
192,192,219523,1,0,0:0:0:0:
64,192,219523,1,0,0:0:0:0:
448,192,219638,1,0,0:0:0:0:
192,192,219638,1,0,0:0:0:0:
64,192,219638,1,0,0:0:0:0:
64,192,219754,1,0,0:0:0:0:
192,192,219754,1,0,0:0:0:0:
448,192,219811,1,0,0:0:0:0:
320,192,219811,1,0,0:0:0:0:
64,192,219869,1,0,0:0:0:0:
192,192,219869,1,0,0:0:0:0:
448,192,219927,1,0,0:0:0:0:
320,192,219927,1,0,0:0:0:0:
192,192,219984,1,0,0:0:0:0:
64,192,219984,1,0,0:0:0:0:
320,192,220042,1,0,0:0:0:0:
448,192,220042,1,0,0:0:0:0:
64,192,220100,1,0,0:0:0:0:
192,192,220100,1,0,0:0:0:0:
320,192,220158,1,0,0:0:0:0:
448,192,220158,1,0,0:0:0:0:
64,192,220215,1,0,0:0:0:0:
192,192,220215,1,0,0:0:0:0:
448,192,220273,1,0,0:0:0:0:
320,192,220273,1,0,0:0:0:0:
64,192,220331,1,0,0:0:0:0:
192,192,220331,1,0,0:0:0:0:
448,192,220388,1,0,0:0:0:0:
320,192,220388,1,0,0:0:0:0:
192,192,220446,1,0,0:0:0:0:
64,192,220446,1,0,0:0:0:0:
448,192,220504,1,0,0:0:0:0:
320,192,220504,1,0,0:0:0:0:
192,192,220561,1,0,0:0:0:0:
64,192,220561,1,0,0:0:0:0:
320,192,220619,1,0,0:0:0:0:
448,192,220619,1,0,0:0:0:0:
64,192,220677,128,0,220706:0:0:0:0:
192,192,220677,128,0,220706:0:0:0:0:
320,192,220734,128,0,220763:0:0:0:0:
448,192,220734,128,0,220763:0:0:0:0:
64,192,220792,128,0,220821:0:0:0:0:
192,192,220792,128,0,220821:0:0:0:0:
320,192,220850,128,0,220879:0:0:0:0:
448,192,220850,128,0,220879:0:0:0:0:
192,192,220908,128,0,220936:0:0:0:0:
64,192,220908,128,0,220936:0:0:0:0:
320,192,220965,128,0,220994:0:0:0:0:
448,192,220965,128,0,220994:0:0:0:0:
64,192,221023,128,0,221052:0:0:0:0:
192,192,221023,128,0,221052:0:0:0:0:
320,192,221081,128,0,221109:0:0:0:0:
448,192,221081,128,0,221109:0:0:0:0:
64,192,221138,128,0,221196:0:0:0:0:
192,192,221138,128,0,221196:0:0:0:0:
320,192,221196,128,0,221254:0:0:0:0:
448,192,221196,128,0,221254:0:0:0:0:
64,192,221254,128,0,221311:0:0:0:0:
192,192,221254,128,0,221311:0:0:0:0:
320,192,221311,128,0,221369:0:0:0:0:
448,192,221311,128,0,221369:0:0:0:0:
64,192,221369,128,0,221427:0:0:0:0:
192,192,221369,128,0,221427:0:0:0:0:
320,192,221427,128,0,221484:0:0:0:0:
448,192,221427,128,0,221484:0:0:0:0:
64,192,221484,128,0,221542:0:0:0:0:
192,192,221484,128,0,221542:0:0:0:0:
320,192,221542,128,0,221600:0:0:0:0:
448,192,221542,128,0,221600:0:0:0:0:
64,192,221600,128,0,221686:0:0:0:0:
192,192,221600,128,0,221686:0:0:0:0:
320,192,221658,128,0,221744:0:0:0:0:
448,192,221658,128,0,221744:0:0:0:0:
192,192,221715,128,0,221802:0:0:0:0:
64,192,221715,128,0,221802:0:0:0:0:
320,192,221773,128,0,221859:0:0:0:0:
448,192,221773,128,0,221859:0:0:0:0:
64,192,221831,128,0,221917:0:0:0:0:
192,192,221831,128,0,221917:0:0:0:0:
448,192,221888,128,0,221975:0:0:0:0:
320,192,221888,128,0,221975:0:0:0:0:
192,192,221946,128,0,222033:0:0:0:0:
64,192,221946,128,0,222033:0:0:0:0:
320,192,222004,128,0,222090:0:0:0:0:
448,192,222004,128,0,222090:0:0:0:0:
64,192,222061,128,0,222148:0:0:0:0:
192,192,222090,128,0,222177:0:0:0:0:
448,192,222119,128,0,222206:0:0:0:0:
320,192,222148,128,0,222234:0:0:0:0:
64,192,222177,128,0,222263:0:0:0:0:
192,192,222206,128,0,222292:0:0:0:0:
448,192,222234,128,0,222321:0:0:0:0:
320,192,222263,128,0,222350:0:0:0:0:
64,192,222292,128,0,222379:0:0:0:0:
192,192,222321,128,0,222408:0:0:0:0:
448,192,222350,128,0,222436:0:0:0:0:
320,192,222379,128,0,222465:0:0:0:0:
64,192,222408,128,0,222494:0:0:0:0:
192,192,222436,128,0,222523:0:0:0:0:
448,192,222465,128,0,222552:0:0:0:0:
320,192,222494,128,0,222581:0:0:0:0:
64,192,222523,128,0,222609:0:0:0:0:
192,192,222552,128,0,222638:0:0:0:0:
448,192,222581,128,0,222667:0:0:0:0:
320,192,222609,128,0,222696:0:0:0:0:
64,192,222638,128,0,222725:0:0:0:0:
192,192,222667,128,0,222754:0:0:0:0:
448,192,222696,128,0,222783:0:0:0:0:
320,192,222725,128,0,222811:0:0:0:0:
64,192,222754,128,0,222840:0:0:0:0:
192,192,222783,128,0,222869:0:0:0:0:
448,192,222811,128,0,222898:0:0:0:0:
320,192,222840,128,0,222927:0:0:0:0:
64,192,222869,128,0,222956:0:0:0:0:
192,192,222898,128,0,222984:0:0:0:0:
448,192,222927,128,0,223013:0:0:0:0:
320,192,222956,128,0,223042:0:0:0:0:
64,192,222984,128,0,223071:0:0:0:0:
192,192,223013,128,0,223100:0:0:0:0:
448,192,223042,128,0,223129:0:0:0:0:
320,192,223071,128,0,223158:0:0:0:0:
64,192,223100,128,0,223186:0:0:0:0:
192,192,223129,128,0,223215:0:0:0:0:
448,192,223158,128,0,223244:0:0:0:0:
320,192,223186,128,0,223273:0:0:0:0:
64,192,223215,128,0,223302:0:0:0:0:
192,192,223244,128,0,223331:0:0:0:0:
448,192,223273,128,0,223359:0:0:0:0:
320,192,223302,128,0,223388:0:0:0:0:
64,192,223331,128,0,223417:0:0:0:0:
192,192,223359,128,0,223446:0:0:0:0:
448,192,223388,128,0,223446:0:0:0:0:
320,192,223417,128,0,223446:0:0:0:0:
64,192,223446,1,0,0:0:0:0:
320,192,223561,128,0,224311:0:0:0:0:
64,192,224023,1,0,0:0:0:0:
448,192,224023,1,0,0:0:0:0:
192,192,224138,1,0,0:0:0:0:
64,192,224254,1,0,0:0:0:0:
448,192,224254,1,0,0:0:0:0:
64,192,224369,1,0,0:0:0:0:
192,192,224369,1,0,0:0:0:0:
320,192,224369,1,0,0:0:0:0:
448,192,224369,1,0,0:0:0:0:
448,192,224484,1,0,0:0:0:0:
320,192,224484,1,0,0:0:0:0:
192,192,224542,1,0,0:0:0:0:
64,192,224542,1,0,0:0:0:0:
320,192,224600,128,0,224715:0:0:0:0:
448,192,224600,128,0,224715:0:0:0:0:
64,192,224715,1,0,0:0:0:0:
192,192,224715,1,0,0:0:0:0:
320,192,224773,1,0,0:0:0:0:
448,192,224773,1,0,0:0:0:0:
64,192,224831,128,0,224946:0:0:0:0:
192,192,224831,128,0,224946:0:0:0:0:
448,192,224946,1,0,0:0:0:0:
320,192,224946,1,0,0:0:0:0:
192,192,225004,1,0,0:0:0:0:
64,192,225004,1,0,0:0:0:0:
320,192,225061,128,0,225177:0:0:0:0:
448,192,225061,128,0,225177:0:0:0:0:
192,192,225292,1,0,0:0:0:0:
448,192,225292,128,0,225465:0:0:0:0:
64,192,225292,128,0,225465:0:0:0:0:
192,192,225408,128,0,225581:0:0:0:0:
320,192,225408,1,0,0:0:0:0:
64,192,225523,1,0,0:0:0:0:
448,192,225523,128,0,225696:0:0:0:0:
320,192,225523,128,0,225696:0:0:0:0:
64,192,225638,128,0,225811:0:0:0:0:
192,192,225638,1,0,0:0:0:0:
448,192,225754,1,0,0:0:0:0:
320,192,225754,128,0,225927:0:0:0:0:
192,192,225754,128,0,225927:0:0:0:0:
64,192,225869,128,0,226042:0:0:0:0:
448,192,225869,1,0,0:0:0:0:
448,192,225984,128,0,226158:0:0:0:0:
192,192,225984,1,0,0:0:0:0:
320,192,225984,1,0,0:0:0:0:
320,192,226100,128,0,226273:0:0:0:0:
192,192,226100,128,0,226273:0:0:0:0:
64,192,226100,1,0,0:0:0:0:
64,192,226215,128,0,226388:0:0:0:0:
448,192,226215,128,0,226388:0:0:0:0:
320,192,226331,128,0,226504:0:0:0:0:
192,192,226331,1,0,0:0:0:0:
64,192,226446,128,0,226619:0:0:0:0:
448,192,226446,1,0,0:0:0:0:
192,192,226446,128,0,226619:0:0:0:0:
448,192,226561,128,0,226734:0:0:0:0:
320,192,226561,1,0,0:0:0:0:
64,192,226677,1,0,0:0:0:0:
320,192,226677,128,0,226850:0:0:0:0:
192,192,226677,128,0,226850:0:0:0:0:
64,192,226792,1,0,0:0:0:0:
448,192,226792,128,0,227023:0:0:0:0:
64,192,226908,1,0,0:0:0:0:
320,192,226908,128,0,227023:0:0:0:0:
192,192,226908,1,0,0:0:0:0:
64,192,227023,1,0,0:0:0:0:
192,192,227023,1,0,0:0:0:0:
320,192,227081,1,0,0:0:0:0:
448,192,227081,1,0,0:0:0:0:
64,192,227138,128,0,227311:0:0:0:0:
192,192,227138,128,0,227311:0:0:0:0:
448,192,227138,1,0,0:0:0:0:
320,192,227254,128,0,227427:0:0:0:0:
448,192,227254,1,0,0:0:0:0:
448,192,227369,128,0,227542:0:0:0:0:
64,192,227369,128,0,227542:0:0:0:0:
192,192,227369,1,0,0:0:0:0:
320,192,227484,128,0,227658:0:0:0:0:
192,192,227484,1,0,0:0:0:0:
192,192,227600,128,0,227773:0:0:0:0:
64,192,227600,128,0,227773:0:0:0:0:
448,192,227600,1,0,0:0:0:0:
448,192,227715,128,0,227888:0:0:0:0:
320,192,227715,1,0,0:0:0:0:
320,192,227831,128,0,228004:0:0:0:0:
192,192,227831,128,0,228004:0:0:0:0:
64,192,227831,1,0,0:0:0:0:
448,192,227946,128,0,228119:0:0:0:0:
64,192,227946,1,0,0:0:0:0:
64,192,228061,128,0,228234:0:0:0:0:
320,192,228061,128,0,228234:0:0:0:0:
192,192,228061,1,0,0:0:0:0:
192,192,228177,128,0,228350:0:0:0:0:
448,192,228177,1,0,0:0:0:0:
320,192,228292,128,0,228465:0:0:0:0:
448,192,228292,128,0,228465:0:0:0:0:
64,192,228292,1,0,0:0:0:0:
64,192,228408,128,0,228581:0:0:0:0:
192,192,228408,1,0,0:0:0:0:
448,192,228523,1,0,0:0:0:0:
320,192,228523,128,0,228754:0:0:0:0:
192,192,228523,128,0,228638:0:0:0:0:
448,192,228638,128,0,228754:0:0:0:0:
64,192,228638,1,0,0:0:0:0:
64,192,228754,1,0,0:0:0:0:
192,192,228754,1,0,0:0:0:0:
448,192,228811,1,0,0:0:0:0:
320,192,228811,1,0,0:0:0:0:
64,192,228869,1,0,0:0:0:0:
192,192,228869,1,0,0:0:0:0:
448,192,228927,1,0,0:0:0:0:
320,192,228927,1,0,0:0:0:0:
192,192,228984,1,0,0:0:0:0:
64,192,228984,128,0,229158:0:0:0:0:
448,192,228984,128,0,229158:0:0:0:0:
320,192,229100,128,0,229273:0:0:0:0:
192,192,229100,1,0,0:0:0:0:
64,192,229215,128,0,229388:0:0:0:0:
192,192,229215,128,0,229388:0:0:0:0:
448,192,229215,1,0,0:0:0:0:
448,192,229331,128,0,229504:0:0:0:0:
320,192,229331,1,0,0:0:0:0:
192,192,229446,128,0,229619:0:0:0:0:
320,192,229446,128,0,229619:0:0:0:0:
64,192,229446,1,0,0:0:0:0:
448,192,229561,128,0,229734:0:0:0:0:
64,192,229561,1,0,0:0:0:0:
64,192,229677,128,0,229850:0:0:0:0:
192,192,229677,1,0,0:0:0:0:
320,192,229677,1,0,0:0:0:0:
192,192,229792,128,0,229965:0:0:0:0:
320,192,229792,128,0,229965:0:0:0:0:
448,192,229792,1,0,0:0:0:0:
448,192,229908,128,0,230081:0:0:0:0:
64,192,229908,128,0,230081:0:0:0:0:
192,192,230023,128,0,230196:0:0:0:0:
320,192,230023,1,0,0:0:0:0:
320,192,230138,128,0,230311:0:0:0:0:
448,192,230138,128,0,230311:0:0:0:0:
64,192,230138,1,0,0:0:0:0:
192,192,230254,1,0,0:0:0:0:
64,192,230254,128,0,230427:0:0:0:0:
192,192,230369,128,0,230542:0:0:0:0:
320,192,230369,128,0,230542:0:0:0:0:
448,192,230369,1,0,0:0:0:0:
448,192,230484,128,0,230658:0:0:0:0:
64,192,230484,128,0,230715:0:0:0:0:
320,192,230600,1,0,0:0:0:0:
192,192,230600,128,0,230715:0:0:0:0:
448,192,230715,1,0,0:0:0:0:
320,192,230715,1,0,0:0:0:0:
192,192,230773,1,0,0:0:0:0:
64,192,230773,1,0,0:0:0:0:
320,192,230831,1,0,0:0:0:0:
448,192,230831,1,0,0:0:0:0:
64,192,230888,128,0,230946:0:0:0:0:
192,192,230888,128,0,230946:0:0:0:0:
448,192,230946,1,0,0:0:0:0:
320,192,230946,128,0,231119:0:0:0:0:
192,192,231061,128,0,231234:0:0:0:0:
64,192,231061,128,0,231234:0:0:0:0:
448,192,231061,1,0,0:0:0:0:
448,192,231177,128,0,231350:0:0:0:0:
320,192,231177,1,0,0:0:0:0:
320,192,231292,128,0,231465:0:0:0:0:
192,192,231292,128,0,231465:0:0:0:0:
64,192,231292,1,0,0:0:0:0:
64,192,231408,128,0,231581:0:0:0:0:
448,192,231408,1,0,0:0:0:0:
320,192,231523,128,0,231638:0:0:0:0:
448,192,231523,128,0,231638:0:0:0:0:
192,192,231523,1,0,0:0:0:0:
64,192,231638,1,0,0:0:0:0:
192,192,231638,1,0,0:0:0:0:
320,192,231696,1,0,0:0:0:0:
448,192,231696,1,0,0:0:0:0:
64,192,231754,128,0,231869:0:0:0:0:
192,192,231754,128,0,231869:0:0:0:0:
320,192,231869,1,0,0:0:0:0:
448,192,231869,1,0,0:0:0:0:
64,192,231927,128,0,232042:0:0:0:0:
192,192,231927,128,0,232042:0:0:0:0:
320,192,231984,128,0,232042:0:0:0:0:
448,192,231984,128,0,232042:0:0:0:0:
64,192,232100,1,0,0:0:0:0:
192,192,232100,1,0,0:0:0:0:
320,192,232100,128,0,232158:0:0:0:0:
448,192,232100,128,0,232158:0:0:0:0:
64,192,232215,1,0,0:0:0:0:
192,192,232215,1,0,0:0:0:0:
320,192,232273,128,0,232388:0:0:0:0:
448,192,232273,128,0,232388:0:0:0:0:
64,192,232331,128,0,232446:0:0:0:0:
192,192,232331,128,0,232446:0:0:0:0:
448,192,232446,1,0,0:0:0:0:
320,192,232475,1,0,0:0:0:0:
192,192,232504,1,0,0:0:0:0:
64,192,232533,1,0,0:0:0:0:
448,192,232561,1,0,0:0:0:0:
320,192,232590,1,0,0:0:0:0:
192,192,232619,1,0,0:0:0:0:
64,192,232648,1,0,0:0:0:0:
320,192,232677,128,0,232850:0:0:0:0:
448,192,232677,128,0,232850:0:0:0:0:
64,192,232792,128,0,232965:0:0:0:0:
192,192,232792,1,0,0:0:0:0:
192,192,232908,128,0,233081:0:0:0:0:
448,192,232908,128,0,233081:0:0:0:0:
320,192,232908,1,0,0:0:0:0:
64,192,233023,128,0,233196:0:0:0:0:
320,192,233023,1,0,0:0:0:0:
320,192,233138,128,0,233311:0:0:0:0:
192,192,233138,1,0,0:0:0:0:
448,192,233138,1,0,0:0:0:0:
192,192,233254,128,0,233427:0:0:0:0:
448,192,233254,128,0,233427:0:0:0:0:
64,192,233254,1,0,0:0:0:0:
64,192,233369,1,0,0:0:0:0:
320,192,233369,128,0,233542:0:0:0:0:
64,192,233484,1,0,0:0:0:0:
192,192,233484,1,0,0:0:0:0:
448,192,233542,1,0,0:0:0:0:
64,192,233600,128,0,233773:0:0:0:0:
192,192,233600,128,0,233773:0:0:0:0:
320,192,233600,1,0,0:0:0:0:
448,192,233715,128,0,233888:0:0:0:0:
320,192,233715,1,0,0:0:0:0:
320,192,233831,128,0,234004:0:0:0:0:
192,192,233831,128,0,234004:0:0:0:0:
64,192,233831,1,0,0:0:0:0:
448,192,233946,1,0,0:0:0:0:
64,192,233946,128,0,234119:0:0:0:0:
320,192,234061,1,0,0:0:0:0:
448,192,234061,1,0,0:0:0:0:
192,192,234119,1,0,0:0:0:0:
320,192,234177,1,0,0:0:0:0:
448,192,234177,128,0,234234:0:0:0:0:
192,192,234234,128,0,234350:0:0:0:0:
64,192,234234,128,0,234321:0:0:0:0:
320,192,234292,128,0,234408:0:0:0:0:
448,192,234350,128,0,234436:0:0:0:0:
64,192,234408,1,0,0:0:0:0:
192,192,234436,1,0,0:0:0:0:
320,192,234465,1,0,0:0:0:0:
448,192,234494,1,0,0:0:0:0:
64,192,234523,128,0,234696:0:0:0:0:
192,192,234523,128,0,234696:0:0:0:0:
448,192,234638,128,0,234811:0:0:0:0:
320,192,234638,1,0,0:0:0:0:
192,192,234754,128,0,234927:0:0:0:0:
320,192,234754,128,0,234927:0:0:0:0:
64,192,234754,1,0,0:0:0:0:
448,192,234869,128,0,235042:0:0:0:0:
64,192,234869,1,0,0:0:0:0:
64,192,234984,128,0,235158:0:0:0:0:
192,192,234984,128,0,235158:0:0:0:0:
320,192,234984,1,0,0:0:0:0:
320,192,235100,128,0,235273:0:0:0:0:
448,192,235100,1,0,0:0:0:0:
448,192,235215,128,0,235331:0:0:0:0:
64,192,235215,128,0,235273:0:0:0:0:
192,192,235215,1,0,0:0:0:0:
64,192,235331,1,0,0:0:0:0:
192,192,235331,1,0,0:0:0:0:
448,192,235388,1,0,0:0:0:0:
320,192,235388,128,0,235561:0:0:0:0:
64,192,235446,1,0,0:0:0:0:
192,192,235446,128,0,235561:0:0:0:0:
448,192,235504,128,0,235561:0:0:0:0:
64,192,235561,1,0,0:0:0:0:
320,192,235619,1,0,0:0:0:0:
192,192,235619,128,0,235734:0:0:0:0:
64,192,235677,1,0,0:0:0:0:
448,192,235677,1,0,0:0:0:0:
320,192,235734,1,0,0:0:0:0:
448,192,235792,1,0,0:0:0:0:
64,192,235792,128,0,235908:0:0:0:0:
192,192,235850,1,0,0:0:0:0:
320,192,235850,1,0,0:0:0:0:
320,192,235908,128,0,235936:0:0:0:0:
448,192,235908,128,0,235936:0:0:0:0:
64,192,235965,128,0,235994:0:0:0:0:
192,192,235965,128,0,235994:0:0:0:0:
448,192,236023,128,0,236052:0:0:0:0:
320,192,236023,128,0,236052:0:0:0:0:
192,192,236081,1,0,0:0:0:0:
64,192,236081,1,0,0:0:0:0:
320,192,236138,1,0,0:0:0:0:
448,192,236138,1,0,0:0:0:0:
64,192,236196,1,0,0:0:0:0:
192,192,236196,1,0,0:0:0:0:
320,192,236254,128,0,236283:0:0:0:0:
448,192,236254,128,0,236283:0:0:0:0:
64,192,236311,128,0,236340:0:0:0:0:
192,192,236311,128,0,236340:0:0:0:0:
320,192,236369,128,0,236398:0:0:0:0:
448,192,236369,128,0,236398:0:0:0:0:
64,192,236427,1,0,0:0:0:0:
192,192,236484,1,0,0:0:0:0:
320,192,236484,1,0,0:0:0:0:
64,192,236542,128,0,236600:0:0:0:0:
448,192,236542,128,0,236600:0:0:0:0:
192,192,236600,128,0,236831:0:0:0:0:
320,192,236600,128,0,236658:0:0:0:0:
64,192,236715,128,0,236831:0:0:0:0:
320,192,236715,1,0,0:0:0:0:
448,192,236715,1,0,0:0:0:0:
320,192,236831,128,0,236888:0:0:0:0:
448,192,236831,128,0,236888:0:0:0:0:
192,192,236888,128,0,237177:0:0:0:0:
64,192,236888,128,0,236946:0:0:0:0:
448,192,236946,1,0,0:0:0:0:
320,192,236946,1,0,0:0:0:0:
64,192,237061,1,0,0:0:0:0:
448,192,237061,1,0,0:0:0:0:
320,192,237061,128,0,237177:0:0:0:0:
64,192,237177,1,0,0:0:0:0:
448,192,237177,1,0,0:0:0:0:
192,192,237234,128,0,237350:0:0:0:0:
320,192,237234,128,0,237350:0:0:0:0:
64,192,237292,128,0,237523:0:0:0:0:
448,192,237292,128,0,237523:0:0:0:0:
192,192,237408,128,0,237436:0:0:0:0:
320,192,237408,128,0,237436:0:0:0:0:
192,192,237523,128,0,237552:0:0:0:0:
320,192,237523,128,0,237552:0:0:0:0:
64,192,237581,1,0,0:0:0:0:
448,192,237581,1,0,0:0:0:0:
192,192,237638,128,0,237667:0:0:0:0:
320,192,237638,128,0,237667:0:0:0:0:
64,192,237696,1,0,0:0:0:0:
448,192,237696,128,0,237783:0:0:0:0:
192,192,237754,128,0,237840:0:0:0:0:
320,192,237754,128,0,237811:0:0:0:0:
64,192,237811,128,0,237898:0:0:0:0:
448,192,237869,128,0,237927:0:0:0:0:
320,192,237898,1,0,0:0:0:0:
192,192,237927,128,0,237984:0:0:0:0:
64,192,237956,128,0,238042:0:0:0:0:
320,192,237984,128,0,238100:0:0:0:0:
448,192,237984,128,0,238129:0:0:0:0:
192,192,238042,1,0,0:0:0:0:
64,192,238100,128,0,238158:0:0:0:0:
192,192,238129,1,0,0:0:0:0:
320,192,238158,128,0,238215:0:0:0:0:
448,192,238186,128,0,238244:0:0:0:0:
64,192,238215,1,0,0:0:0:0:
192,192,238215,128,0,238302:0:0:0:0:
320,192,238273,128,0,238359:0:0:0:0:
448,192,238302,1,0,0:0:0:0:
64,192,238331,128,0,238388:0:0:0:0:
192,192,238359,1,0,0:0:0:0:
448,192,238388,128,0,238446:0:0:0:0:
320,192,238417,128,0,238475:0:0:0:0:
192,192,238446,1,0,0:0:0:0:
64,192,238446,128,0,238619:0:0:0:0:
192,192,238561,128,0,238648:0:0:0:0:
320,192,238561,128,0,238677:0:0:0:0:
448,192,238561,128,0,238706:0:0:0:0:
64,192,238677,128,0,238734:0:0:0:0:
192,192,238706,1,0,0:0:0:0:
320,192,238734,128,0,238850:0:0:0:0:
448,192,238763,128,0,238850:0:0:0:0:
64,192,238792,128,0,238965:0:0:0:0:
192,192,238792,128,0,238821:0:0:0:0:
448,192,238908,128,0,239023:0:0:0:0:
192,192,238908,128,0,239023:0:0:0:0:
320,192,238908,128,0,238994:0:0:0:0:
64,192,239023,1,0,0:0:0:0:
320,192,239052,1,0,0:0:0:0:
192,192,239081,1,0,0:0:0:0:
448,192,239109,128,0,239311:0:0:0:0:
320,192,239138,128,0,239254:0:0:0:0:
64,192,239138,128,0,239196:0:0:0:0:
192,192,239196,128,0,239311:0:0:0:0:
64,192,239254,128,0,239369:0:0:0:0:
320,192,239311,128,0,239427:0:0:0:0:
448,192,239369,128,0,239484:0:0:0:0:
192,192,239369,128,0,239542:0:0:0:0:
64,192,239427,128,0,239484:0:0:0:0:
320,192,239484,128,0,239715:0:0:0:0:
448,192,239542,128,0,239600:0:0:0:0:
64,192,239542,128,0,239600:0:0:0:0:
192,192,239600,128,0,239715:0:0:0:0:
192,192,239773,128,0,240004:0:0:0:0:
320,192,239773,128,0,240004:0:0:0:0:
64,192,239946,128,0,240004:0:0:0:0:
448,192,239946,128,0,240004:0:0:0:0:
64,192,240061,128,0,241908:0:0:0:0:
192,192,240061,1,0,0:0:0:0:
320,192,240061,1,0,0:0:0:0:
448,192,240061,1,0,0:0:0:0:
320,192,241908,128,0,242215:0:0:0:0:
448,192,242061,128,0,242215:0:0:0:0:
192,192,242061,128,0,242369:0:0:0:0:
64,192,242215,128,0,242523:0:0:0:0:
320,192,242369,128,0,242523:0:0:0:0:
448,192,242369,128,0,242677:0:0:0:0:
192,192,242523,128,0,242831:0:0:0:0:
320,192,242677,128,0,242831:0:0:0:0:
64,192,242677,128,0,243061:0:0:0:0:
448,192,242831,128,0,243677:0:0:0:0:
320,192,243061,128,0,243292:0:0:0:0:
64,192,243292,128,0,243523:0:0:0:0:
192,192,243523,128,0,243754:0:0:0:0:
448,192,243754,1,0,0:0:0:0:
320,192,243754,1,0,0:0:0:0:
64,192,243754,128,0,243984:0:0:0:0:
320,192,243984,128,0,244042:0:0:0:0:
320,192,244100,128,0,244158:0:0:0:0:
320,192,244215,128,0,244331:0:0:0:0:
64,192,244331,128,0,244446:0:0:0:0:
448,192,244446,128,0,244504:0:0:0:0:
448,192,244561,128,0,244619:0:0:0:0:
320,192,244677,1,0,0:0:0:0:
64,192,244677,128,0,244908:0:0:0:0:
192,192,244677,128,0,244908:0:0:0:0:
448,192,244908,128,0,245023:0:0:0:0:
320,192,244946,128,0,245061:0:0:0:0:
192,192,244984,128,0,245100:0:0:0:0:
64,192,245023,128,0,245138:0:0:0:0:
320,192,245138,128,0,245600:0:0:0:0:
448,192,245138,128,0,245600:0:0:0:0:
64,192,245600,1,0,0:0:0:0:
192,192,245600,1,0,0:0:0:0:
320,192,245715,1,0,0:0:0:0:
448,192,245715,1,0,0:0:0:0:
192,192,245831,1,0,0:0:0:0:
64,192,245831,1,0,0:0:0:0:
320,192,245946,1,0,0:0:0:0:
448,192,245946,1,0,0:0:0:0:
192,192,246061,1,0,0:0:0:0:
64,192,246061,1,0,0:0:0:0:
320,192,246177,1,0,0:0:0:0:
448,192,246177,1,0,0:0:0:0:
192,192,246292,1,0,0:0:0:0:
64,192,246292,1,0,0:0:0:0:
320,192,246408,1,0,0:0:0:0:
448,192,246408,1,0,0:0:0:0:
192,192,246523,1,0,0:0:0:0:
64,192,246523,1,0,0:0:0:0:
320,192,246581,1,0,0:0:0:0:
448,192,246581,1,0,0:0:0:0:
192,192,246638,1,0,0:0:0:0:
64,192,246638,1,0,0:0:0:0:
320,192,246696,1,0,0:0:0:0:
448,192,246696,1,0,0:0:0:0:
192,192,246754,1,0,0:0:0:0:
64,192,246754,1,0,0:0:0:0:
320,192,246811,1,0,0:0:0:0:
448,192,246811,1,0,0:0:0:0:
64,192,246869,1,0,0:0:0:0:
192,192,246869,1,0,0:0:0:0:
320,192,246927,1,0,0:0:0:0:
448,192,246927,1,0,0:0:0:0:
192,192,246984,1,0,0:0:0:0:
64,192,246984,1,0,0:0:0:0:
320,192,247042,1,0,0:0:0:0:
448,192,247042,1,0,0:0:0:0:
192,192,247100,1,0,0:0:0:0:
64,192,247100,1,0,0:0:0:0:
320,192,247158,1,0,0:0:0:0:
448,192,247158,1,0,0:0:0:0:
192,192,247215,1,0,0:0:0:0:
64,192,247215,1,0,0:0:0:0:
320,192,247273,1,0,0:0:0:0:
448,192,247273,1,0,0:0:0:0:
192,192,247331,1,0,0:0:0:0:
64,192,247331,1,0,0:0:0:0:
320,192,247388,1,0,0:0:0:0:
448,192,247388,1,0,0:0:0:0:
64,192,247446,1,0,0:0:0:0:
192,192,247446,128,0,247600:0:0:0:0:
320,192,247484,128,0,247638:0:0:0:0:
448,192,247523,128,0,247677:0:0:0:0:
64,192,247600,128,0,247754:0:0:0:0:
192,192,247638,128,0,247792:0:0:0:0:
320,192,247677,128,0,247831:0:0:0:0:
448,192,247715,128,0,247869:0:0:0:0:
64,192,247792,128,0,247908:0:0:0:0:
192,192,247831,128,0,247946:0:0:0:0:
320,192,247869,128,0,247984:0:0:0:0:
448,192,247908,128,0,248023:0:0:0:0:
64,192,247946,128,0,248023:0:0:0:0:
192,192,247984,128,0,248061:0:0:0:0:
320,192,248023,128,0,248100:0:0:0:0:
448,192,248061,128,0,248138:0:0:0:0:
64,192,248061,128,0,248138:0:0:0:0:
192,192,248100,128,0,248177:0:0:0:0:
320,192,248138,128,0,248215:0:0:0:0:
448,192,248177,128,0,248254:0:0:0:0:
64,192,248177,128,0,248254:0:0:0:0:
192,192,248215,128,0,248292:0:0:0:0:
320,192,248254,128,0,248331:0:0:0:0:
448,192,248292,128,0,248369:0:0:0:0:
64,192,248292,128,0,248369:0:0:0:0:
192,192,248331,128,0,248369:0:0:0:0:
64,192,249061,5,0,0:0:0:0:
192,192,249061,1,0,0:0:0:0:
320,192,249061,1,0,0:0:0:0:
448,192,249061,1,0,0:0:0:0:
64,192,249292,128,0,249350:0:0:0:0:
192,192,249292,128,0,249408:0:0:0:0:
320,192,249350,128,0,249465:0:0:0:0:
448,192,249350,128,0,249465:0:0:0:0:
64,192,249408,128,0,249523:0:0:0:0:
192,192,249465,128,0,249523:0:0:0:0:
448,192,249523,128,0,249581:0:0:0:0:
320,192,249523,128,0,249638:0:0:0:0:
192,192,249581,128,0,249696:0:0:0:0:
64,192,249581,128,0,249696:0:0:0:0:
448,192,249638,128,0,249754:0:0:0:0:
320,192,249696,128,0,249754:0:0:0:0:
64,192,249754,128,0,249811:0:0:0:0:
192,192,249754,128,0,249869:0:0:0:0:
448,192,249811,128,0,249927:0:0:0:0:
320,192,249811,128,0,249927:0:0:0:0:
64,192,249869,128,0,249984:0:0:0:0:
192,192,249927,128,0,249984:0:0:0:0:
448,192,249984,128,0,250042:0:0:0:0:
320,192,249984,128,0,250100:0:0:0:0:
64,192,250042,128,0,250158:0:0:0:0:
192,192,250042,128,0,250158:0:0:0:0:
448,192,250100,128,0,250215:0:0:0:0:
320,192,250158,128,0,250215:0:0:0:0:
192,192,250215,128,0,250331:0:0:0:0:
64,192,250215,128,0,250273:0:0:0:0:
320,192,250273,128,0,250388:0:0:0:0:
448,192,250273,128,0,250388:0:0:0:0:
64,192,250331,128,0,250446:0:0:0:0:
192,192,250388,128,0,250446:0:0:0:0:
320,192,250446,128,0,250561:0:0:0:0:
448,192,250446,128,0,250504:0:0:0:0:
192,192,250504,128,0,250619:0:0:0:0:
64,192,250504,128,0,250619:0:0:0:0:
448,192,250561,128,0,250677:0:0:0:0:
320,192,250619,128,0,250677:0:0:0:0:
64,192,250677,128,0,250734:0:0:0:0:
192,192,250677,128,0,250792:0:0:0:0:
448,192,250734,128,0,250850:0:0:0:0:
320,192,250734,128,0,250850:0:0:0:0:
64,192,250792,128,0,250908:0:0:0:0:
192,192,250850,128,0,250908:0:0:0:0:
448,192,250908,128,0,250965:0:0:0:0:
320,192,250908,128,0,251023:0:0:0:0:
64,192,250965,128,0,251081:0:0:0:0:
192,192,250965,128,0,251081:0:0:0:0:
448,192,251023,128,0,251138:0:0:0:0:
320,192,251081,128,0,251138:0:0:0:0:
192,192,251138,128,0,251254:0:0:0:0:
64,192,251138,128,0,251196:0:0:0:0:
320,192,251196,128,0,251311:0:0:0:0:
448,192,251196,128,0,251311:0:0:0:0:
64,192,251254,128,0,251369:0:0:0:0:
192,192,251311,128,0,251369:0:0:0:0:
320,192,251369,128,0,251484:0:0:0:0:
448,192,251369,128,0,251427:0:0:0:0:
192,192,251427,128,0,251542:0:0:0:0:
64,192,251427,128,0,251542:0:0:0:0:
448,192,251484,128,0,251600:0:0:0:0:
320,192,251542,128,0,251600:0:0:0:0:
64,192,251600,128,0,251658:0:0:0:0:
192,192,251600,128,0,251715:0:0:0:0:
448,192,251658,128,0,251773:0:0:0:0:
320,192,251658,128,0,251773:0:0:0:0:
64,192,251715,128,0,251831:0:0:0:0:
192,192,251773,128,0,251831:0:0:0:0:
448,192,251831,128,0,251888:0:0:0:0:
320,192,251831,128,0,251946:0:0:0:0:
64,192,251888,128,0,252004:0:0:0:0:
192,192,251888,128,0,252004:0:0:0:0:
448,192,251946,128,0,252061:0:0:0:0:
320,192,252004,128,0,252061:0:0:0:0:
64,192,252061,128,0,252119:0:0:0:0:
192,192,252061,128,0,252177:0:0:0:0:
448,192,252119,128,0,252234:0:0:0:0:
320,192,252119,128,0,252234:0:0:0:0:
64,192,252177,128,0,252292:0:0:0:0:
192,192,252234,128,0,252292:0:0:0:0:
448,192,252292,128,0,252350:0:0:0:0:
320,192,252292,128,0,252408:0:0:0:0:
192,192,252349,128,0,252465:0:0:0:0:
64,192,252350,128,0,252465:0:0:0:0:
448,192,252408,128,0,252523:0:0:0:0:
320,192,252465,128,0,252523:0:0:0:0:
192,192,252523,128,0,252638:0:0:0:0:
64,192,252523,128,0,252581:0:0:0:0:
320,192,252581,128,0,252696:0:0:0:0:
448,192,252581,128,0,252696:0:0:0:0:
64,192,252638,128,0,252754:0:0:0:0:
192,192,252696,128,0,252754:0:0:0:0:
320,192,252754,128,0,252869:0:0:0:0:
448,192,252754,128,0,252811:0:0:0:0:
192,192,252811,128,0,252927:0:0:0:0:
64,192,252811,128,0,252927:0:0:0:0:
448,192,252869,128,0,252984:0:0:0:0:
320,192,252927,128,0,252984:0:0:0:0:
192,192,252984,128,0,253100:0:0:0:0:
64,192,252984,128,0,253042:0:0:0:0:
320,192,253042,128,0,253158:0:0:0:0:
448,192,253042,128,0,253158:0:0:0:0:
64,192,253100,128,0,253215:0:0:0:0:
192,192,253158,128,0,253215:0:0:0:0:
320,192,253215,128,0,253331:0:0:0:0:
448,192,253215,128,0,253273:0:0:0:0:
192,192,253273,128,0,253388:0:0:0:0:
64,192,253273,128,0,253388:0:0:0:0:
448,192,253331,128,0,253446:0:0:0:0:
320,192,253388,128,0,253446:0:0:0:0:
64,192,253446,128,0,253504:0:0:0:0:
192,192,253446,128,0,253561:0:0:0:0:
448,192,253504,128,0,253619:0:0:0:0:
320,192,253504,128,0,253619:0:0:0:0:
64,192,253561,128,0,253677:0:0:0:0:
192,192,253619,128,0,253677:0:0:0:0:
448,192,253677,128,0,253734:0:0:0:0:
320,192,253677,128,0,253792:0:0:0:0:
64,192,253734,128,0,253850:0:0:0:0:
192,192,253734,128,0,253850:0:0:0:0:
448,192,253792,128,0,253908:0:0:0:0:
320,192,253850,128,0,253908:0:0:0:0:
64,192,253908,128,0,253965:0:0:0:0:
192,192,253908,128,0,254023:0:0:0:0:
448,192,253965,128,0,254081:0:0:0:0:
320,192,253965,128,0,254081:0:0:0:0:
64,192,254023,128,0,254138:0:0:0:0:
192,192,254081,128,0,254138:0:0:0:0:
448,192,254138,128,0,254196:0:0:0:0:
320,192,254138,128,0,254254:0:0:0:0:
64,192,254196,128,0,254311:0:0:0:0:
192,192,254196,128,0,254311:0:0:0:0:
448,192,254254,128,0,254369:0:0:0:0:
320,192,254311,128,0,254369:0:0:0:0:
192,192,254369,128,0,254484:0:0:0:0:
64,192,254369,128,0,254427:0:0:0:0:
320,192,254427,128,0,254542:0:0:0:0:
448,192,254427,128,0,254542:0:0:0:0:
64,192,254484,128,0,254600:0:0:0:0:
192,192,254542,128,0,254600:0:0:0:0:
320,192,254600,128,0,254715:0:0:0:0:
448,192,254600,128,0,254658:0:0:0:0:
192,192,254658,128,0,254773:0:0:0:0:
64,192,254658,128,0,254773:0:0:0:0:
448,192,254715,128,0,254831:0:0:0:0:
320,192,254773,128,0,254831:0:0:0:0:
64,192,254831,128,0,254888:0:0:0:0:
192,192,254831,128,0,254927:0:0:0:0:
448,192,254888,128,0,255004:0:0:0:0:
320,192,254888,128,0,254965:0:0:0:0:
64,192,254946,128,0,255023:0:0:0:0:
192,192,254984,128,0,255061:0:0:0:0:
320,192,255023,128,0,255100:0:0:0:0:
448,192,255061,128,0,255138:0:0:0:0:
64,192,255061,128,0,255138:0:0:0:0:
192,192,255100,128,0,255177:0:0:0:0:
320,192,255138,128,0,255215:0:0:0:0:
448,192,255177,128,0,255254:0:0:0:0:
64,192,255177,128,0,255254:0:0:0:0:
192,192,255215,128,0,255292:0:0:0:0:
320,192,255254,128,0,255331:0:0:0:0:
448,192,255292,128,0,255369:0:0:0:0:
64,192,255292,128,0,255446:0:0:0:0:
192,192,255331,128,0,255446:0:0:0:0:
448,192,255408,1,0,0:0:0:0:
320,192,255408,1,0,0:0:0:0:
320,192,255465,128,0,255522:0:0:0:0:
448,192,255465,128,0,255522:0:0:0:0:
192,192,255484,128,0,255600:0:0:0:0:
64,192,255484,128,0,255600:0:0:0:0:
320,192,255561,128,0,255638:0:0:0:0:
448,192,255600,128,0,255677:0:0:0:0:
64,192,255638,1,0,0:0:0:0:
192,192,255638,1,0,0:0:0:0:
64,192,255696,128,0,255754:0:0:0:0:
192,192,255696,128,0,255869:0:0:0:0:
448,192,255754,1,0,0:0:0:0:
320,192,255754,128,0,255869:0:0:0:0:
64,192,255869,128,0,255984:0:0:0:0:
448,192,255869,128,0,256215:0:0:0:0:
320,192,255984,1,0,0:0:0:0:
192,192,255984,128,0,256100:0:0:0:0:
64,192,256100,1,0,0:0:0:0:
320,192,256100,128,0,256331:0:0:0:0:
64,192,256215,1,0,0:0:0:0:
192,192,256215,128,0,256331:0:0:0:0:
64,192,256330,128,0,256445:0:0:0:0:
448,192,256330,128,0,256445:0:0:0:0:
192,192,256445,128,0,256676:0:0:0:0:
320,192,256445,1,0,0:0:0:0:
448,192,256676,128,0,256734:0:0:0:0:
64,192,256676,128,0,256792:0:0:0:0:
320,192,256734,128,0,256849:0:0:0:0:
192,192,256734,128,0,256849:0:0:0:0:
448,192,256792,128,0,256878:0:0:0:0:
64,192,256849,128,0,256907:0:0:0:0:
192,192,256907,128,0,256936:0:0:0:0:
320,192,256907,128,0,256965:0:0:0:0:
448,192,256936,128,0,256993:0:0:0:0:
64,192,256965,128,0,257080:0:0:0:0:
192,192,256993,1,0,0:0:0:0:
320,192,257022,1,0,0:0:0:0:
448,192,257051,128,0,257138:0:0:0:0:
192,192,257080,128,0,257195:0:0:0:0:
64,192,257138,128,0,257224:0:0:0:0:
320,192,257138,128,0,257195:0:0:0:0:
448,192,257195,128,0,257253:0:0:0:0:
192,192,257253,128,0,257311:0:0:0:0:
320,192,257253,128,0,257282:0:0:0:0:
64,192,257282,128,0,257340:0:0:0:0:
448,192,257311,128,0,257426:0:0:0:0:
320,192,257340,1,0,0:0:0:0:
192,192,257368,1,0,0:0:0:0:
64,192,257397,128,0,257484:0:0:0:0:
320,192,257426,128,0,257542:0:0:0:0:
192,192,257484,128,0,257542:0:0:0:0:
448,192,257484,128,0,257599:0:0:0:0:
64,192,257542,128,0,257657:0:0:0:0:
192,192,257599,128,0,257657:0:0:0:0:
320,192,257599,128,0,257715:0:0:0:0:
448,192,257657,128,0,257772:0:0:0:0:
64,192,257715,128,0,257772:0:0:0:0:
192,192,257715,128,0,257801:0:0:0:0:
320,192,257772,128,0,257830:0:0:0:0:
64,192,257830,1,0,0:0:0:0:
448,192,257830,128,0,257888:0:0:0:0:
192,192,257859,1,0,0:0:0:0:
320,192,257888,128,0,258003:0:0:0:0:
448,192,257945,128,0,258032:0:0:0:0:
64,192,257945,128,0,258061:0:0:0:0:
192,192,258003,128,0,258118:0:0:0:0:
320,192,258061,1,0,0:0:0:0:
448,192,258090,1,0,0:0:0:0:
64,192,258118,128,0,258234:0:0:0:0:
320,192,258176,128,0,258292:0:0:0:0:
192,192,258176,128,0,258263:0:0:0:0:
448,192,258234,128,0,258320:0:0:0:0:
64,192,258292,128,0,258465:0:0:0:0:
192,192,258320,128,0,258436:0:0:0:0:
320,192,258349,128,0,258407:0:0:0:0:
448,192,258378,1,0,0:0:0:0:
448,192,258522,128,0,258638:0:0:0:0:
320,192,258522,128,0,258580:0:0:0:0:
64,192,258580,128,0,258638:0:0:0:0:
320,192,258638,1,0,0:0:0:0:
192,192,258667,128,0,258753:0:0:0:0:
448,192,258695,128,0,258811:0:0:0:0:
64,192,258724,1,0,0:0:0:0:
320,192,258753,128,0,258868:0:0:0:0:
192,192,258811,128,0,258984:0:0:0:0:
64,192,258868,128,0,258926:0:0:0:0:
448,192,258868,128,0,258955:0:0:0:0:
320,192,258926,128,0,259013:0:0:0:0:
64,192,258984,128,0,259042:0:0:0:0:
448,192,259013,1,0,0:0:0:0:
192,192,259042,1,0,0:0:0:0:
320,192,259070,128,0,259157:0:0:0:0:
64,192,259099,128,0,259215:0:0:0:0:
448,192,259157,128,0,259301:0:0:0:0:
320,192,259215,128,0,259272:0:0:0:0:
192,192,259215,128,0,259330:0:0:0:0:
64,192,259272,128,0,259359:0:0:0:0:
320,192,259330,128,0,259388:0:0:0:0:
448,192,259359,128,0,259445:0:0:0:0:
192,192,259388,128,0,259503:0:0:0:0:
64,192,259417,128,0,259503:0:0:0:0:
320,192,259445,128,0,259561:0:0:0:0:
448,192,259503,128,0,259618:0:0:0:0:
64,192,259561,128,0,259676:0:0:0:0:
192,192,259561,128,0,259647:0:0:0:0:
320,192,259618,128,0,259705:0:0:0:0:
448,192,259676,128,0,259849:0:0:0:0:
192,192,259705,128,0,259763:0:0:0:0:
64,192,259734,128,0,259820:0:0:0:0:
320,192,259753,1,0,0:0:0:0:
192,192,259830,1,0,0:0:0:0:
64,192,259907,1,0,0:0:0:0:
448,192,259907,128,0,260138:0:0:0:0:
320,192,259945,128,0,260022:0:0:0:0:
192,192,259984,128,0,260061:0:0:0:0:
64,192,260022,128,0,260253:0:0:0:0:
192,192,260138,128,0,260176:0:0:0:0:
320,192,260176,128,0,260215:0:0:0:0:
448,192,260215,128,0,260253:0:0:0:0:
192,192,260253,128,0,260292:0:0:0:0:
320,192,260292,128,0,260330:0:0:0:0:
448,192,260330,128,0,260368:0:0:0:0:
192,192,260368,128,0,260484:0:0:0:0:
64,192,260368,128,0,260484:0:0:0:0:
320,192,260426,128,0,260542:0:0:0:0:
448,192,260484,128,0,260570:0:0:0:0:
64,192,260542,128,0,260599:0:0:0:0:
192,192,260542,128,0,260657:0:0:0:0:
320,192,260599,128,0,260686:0:0:0:0:
448,192,260628,128,0,260715:0:0:0:0:
64,192,260657,128,0,260772:0:0:0:0:
192,192,260715,128,0,260801:0:0:0:0:
320,192,260743,128,0,260859:0:0:0:0:
448,192,260772,128,0,260830:0:0:0:0:
64,192,260830,128,0,260888:0:0:0:0:
192,192,260859,128,0,260917:0:0:0:0:
448,192,260888,128,0,260917:0:0:0:0:
320,192,260917,128,0,260945:0:0:0:0:
64,192,260945,128,0,260974:0:0:0:0:
192,192,260974,128,0,261003:0:0:0:0:
448,192,261003,128,0,261061:0:0:0:0:
320,192,261032,128,0,261090:0:0:0:0:
64,192,261061,128,0,261118:0:0:0:0:
320,192,261118,128,0,261176:0:0:0:0:
192,192,261176,128,0,261234:0:0:0:0:
448,192,261234,128,0,261292:0:0:0:0:
64,192,261292,128,0,261407:0:0:0:0:
192,192,261292,128,0,261349:0:0:0:0:
320,192,261349,128,0,261465:0:0:0:0:
448,192,261407,128,0,261493:0:0:0:0:
192,192,261407,128,0,261551:0:0:0:0:
64,192,261465,128,0,261522:0:0:0:0:
320,192,261522,128,0,261580:0:0:0:0:
448,192,261551,128,0,261638:0:0:0:0:
64,192,261580,128,0,261667:0:0:0:0:
192,192,261609,128,0,261695:0:0:0:0:
320,192,261638,128,0,261724:0:0:0:0:
448,192,261695,128,0,261782:0:0:0:0:
64,192,261753,128,0,261830:0:0:0:0:
192,192,261792,128,0,261868:0:0:0:0:
320,192,261830,128,0,261907:0:0:0:0:
448,192,261868,128,0,261945:0:0:0:0:
64,192,261907,1,0,0:0:0:0:
192,192,261945,1,0,0:0:0:0:
320,192,261984,128,0,262099:0:0:0:0:
448,192,262022,128,0,262061:0:0:0:0:
192,192,262061,128,0,262138:0:0:0:0:
64,192,262099,128,0,262176:0:0:0:0:
448,192,262138,1,0,0:0:0:0:
320,192,262176,1,0,0:0:0:0:
192,192,262215,128,0,262272:0:0:0:0:
64,192,262243,128,0,262301:0:0:0:0:
320,192,262272,128,0,262330:0:0:0:0:
448,192,262301,128,0,262359:0:0:0:0:
192,192,262330,128,0,262388:0:0:0:0:
64,192,262359,128,0,262417:0:0:0:0:
320,192,262388,128,0,262445:0:0:0:0:
448,192,262417,128,0,262474:0:0:0:0:
192,192,262445,128,0,262503:0:0:0:0:
64,192,262474,128,0,262532:0:0:0:0:
320,192,262561,128,0,262618:0:0:0:0:
448,192,262561,1,0,0:0:0:0:
192,192,262590,128,0,262647:0:0:0:0:
64,192,262647,1,0,0:0:0:0:
448,192,262676,128,0,262734:0:0:0:0:
320,192,262705,128,0,262763:0:0:0:0:
64,192,262734,128,0,262792:0:0:0:0:
192,192,262763,128,0,262820:0:0:0:0:
448,192,262792,128,0,262849:0:0:0:0:
320,192,262820,128,0,262878:0:0:0:0:
64,192,262849,128,0,262907:0:0:0:0:
192,192,262878,128,0,262936:0:0:0:0:
448,192,262907,128,0,262965:0:0:0:0:
320,192,262936,128,0,262993:0:0:0:0:
448,192,263022,1,0,0:0:0:0:
320,192,263022,128,0,263080:0:0:0:0:
192,192,263051,128,0,263109:0:0:0:0:
64,192,263109,1,0,0:0:0:0:
448,192,263138,1,0,0:0:0:0:
320,192,263138,128,0,263253:0:0:0:0:
192,192,263176,128,0,263292:0:0:0:0:
64,192,263215,128,0,263330:0:0:0:0:
448,192,263253,128,0,263368:0:0:0:0:
320,192,263292,128,0,263407:0:0:0:0:
192,192,263330,128,0,263445:0:0:0:0:
64,192,263368,128,0,263484:0:0:0:0:
448,192,263407,128,0,263522:0:0:0:0:
320,192,263445,128,0,263561:0:0:0:0:
192,192,263484,128,0,263599:0:0:0:0:
64,192,263522,128,0,263638:0:0:0:0:
448,192,263561,128,0,263676:0:0:0:0:
320,192,263599,128,0,263715:0:0:0:0:
192,192,263638,128,0,263753:0:0:0:0:
64,192,263676,128,0,263792:0:0:0:0:
448,192,263715,128,0,263830:0:0:0:0:
320,192,263753,128,0,263868:0:0:0:0:
192,192,263792,128,0,263907:0:0:0:0:
64,192,263830,128,0,263945:0:0:0:0:
448,192,263868,128,0,264022:0:0:0:0:
320,192,263907,128,0,264022:0:0:0:0:
192,192,263945,128,0,264022:0:0:0:0:
64,192,263984,128,0,264022:0:0:0:0:
64,192,264061,5,0,0:0:0:0:
192,192,264061,1,0,0:0:0:0:
320,192,264061,1,0,0:0:0:0:
448,192,264061,1,0,0:0:0:0:
64,192,264292,1,0,0:0:0:0:
192,192,264292,1,0,0:0:0:0:
320,192,264407,128,0,266830:0:0:0:0:
448,192,264407,128,0,266830:0:0:0:0:
