osu file format v14

[General]
AudioFilename: audio.mp3
AudioLeadIn: 0
PreviewTime: 148677
Countdown: 1
SampleSet: None
StackLeniency: 0.7
Mode: 3
LetterboxInBreaks: 0
SpecialStyle: 0
WidescreenStoryboard: 1

[Editor]
Bookmarks: 64677,72061,100677,112677,134831,164369,171754,216061,219754,223446,232677,240061,249292
DistanceSpacing: 0.8
BeatDivisor: 8
GridSize: 4
TimelineZoom: 2.999999

[Metadata]
Title:Villain Virus [feat. Camellia]
TitleUnicode:Villain Virus [feat. かめりあ]
Artist:Kobaryo
ArtistUnicode:Kobaryo
Creator:FelixSpade
Version:UNSTOPPABLE SYMBIOTE
Source:
Tags:mixpeed action cryochan ezmmr
BeatmapID:1725084
BeatmapSetID:816364

[Difficulty]
HPDrainRate:8.5
CircleSize:4
OverallDifficulty:9
ApproachRate:5
SliderMultiplier:1.4
SliderTickRate:1

[Events]
//Background and Video events
0,0,"bg.jpg",0,0
//Break Periods
2,164627,170554
//Storyboard Layer 0 (Background)
//Storyboard Layer 1 (Fail)
//Storyboard Layer 2 (Pass)
//Storyboard Layer 3 (Foreground)
//Storyboard Sound Samples

[TimingPoints]
1908,230.769230769231,4,2,0,0,1,0
1908,-133.333333333333,4,2,0,0,0,0
16677,-133.333333333333,4,1,0,15,0,0
16713.92,-131.578947368421,4,1,0,15,0,0
16750.84,-129.87012987013,4,1,0,15,0,0
16787.76,-129.87012987013,4,1,0,15,0,0
16824.68,-128.205128205128,4,1,0,15,0,0
16861.6,-126.582278481013,4,1,0,15,0,0
16898.52,-125,4,1,0,15,0,0
16935.44,-125,4,1,0,15,0,0
16972.36,-123.456790123457,4,1,0,15,0,0
17009.28,-121.951219512195,4,1,0,15,0,0
17046.2,-120.481927710843,4,1,0,15,0,0
17083.12,-120.481927710843,4,1,0,15,0,0
17120.04,-119.047619047619,4,1,0,15,0,0
17156.96,-117.647058823529,4,1,0,15,0,0
17193.88,-116.279069767442,4,1,0,15,0,0
17230.8,-116.279069767442,4,1,0,15,0,0
17267.72,-114.942528735632,4,1,0,15,0,0
17304.64,-113.636363636364,4,1,0,15,0,0
17341.56,-112.359550561798,4,1,0,15,0,0
17378.48,-112.359550561798,4,1,0,15,0,0
17415.4,-111.111111111111,4,1,0,15,0,0
17452.32,-109.89010989011,4,1,0,15,0,0
17489.24,-108.695652173913,4,1,0,15,0,0
17526.16,-108.695652173913,4,1,0,15,0,0
17563.08,-107.52688172043,4,1,0,15,0,0
17600,-106.382978723404,4,1,0,15,0,0
17636.92,-105.263157894737,4,1,0,15,0,0
17673.84,-105.263157894737,4,1,0,15,0,0
17710.76,-104.166666666667,4,1,0,15,0,0
17747.68,-103.092783505155,4,1,0,15,0,0
17784.6,-102.040816326531,4,1,0,15,0,0
17821.52,-102.040816326531,4,1,0,15,0,0
17858.44,-101.010101010101,4,1,0,15,0,0
17895.36,-100,4,1,0,15,0,0
17932.28,-100,4,1,0,15,0,0
17969.2,-99.009900990099,4,1,0,15,0,0
18006.12,-98.0392156862745,4,1,0,15,0,0
18043.04,-97.0873786407767,4,1,0,15,0,0
18079.96,-97.0873786407767,4,1,0,15,0,0
18116.88,-96.1538461538461,4,1,0,15,0,0
18153.8,-95.2380952380952,4,1,0,15,0,0
18190.72,-94.3396226415094,4,1,0,15,0,0
18227.64,-93.4579439252336,4,1,0,15,0,0
18264.56,-93.4579439252336,4,1,0,15,0,0
18301.48,-92.5925925925926,4,1,0,15,0,0
18338.4,-91.743119266055,4,1,0,15,0,0
18375.32,-90.9090909090909,4,1,0,15,0,0
18412.24,-90.9090909090909,4,1,0,15,0,0
18449.16,-90.0900900900901,4,1,0,15,0,0
18486.08,-89.2857142857143,4,1,0,15,0,0
18523,-88.495575221239,4,1,0,15,0,0
18559.92,-88.495575221239,4,1,0,15,0,0
18596.84,-87.719298245614,4,1,0,15,0,0
18633.76,-86.9565217391304,4,1,0,15,0,0
18670.68,-86.2068965517241,4,1,0,15,0,0
18707.6,-86.2068965517241,4,1,0,15,0,0
18744.52,-85.4700854700855,4,1,0,15,0,0
18781.44,-84.7457627118644,4,1,0,15,0,0
18818.36,-84.0336134453782,4,1,0,15,0,0
18855.28,-84.0336134453782,4,1,0,15,0,0
18892.2,-83.3333333333333,4,1,0,15,0,0
18929.12,-82.6446280991736,4,1,0,15,0,0
18966.04,-81.9672131147541,4,1,0,15,0,0
19002.96,-81.9672131147541,4,1,0,15,0,0
19039.88,-81.3008130081301,4,1,0,15,0,0
19076.8,-80.6451612903226,4,1,0,15,0,0
19113.72,-80,4,1,0,15,0,0
19150.64,-80,4,1,0,15,0,0
19187.56,-79.3650793650794,4,1,0,15,0,0
19224.48,-78.740157480315,4,1,0,15,0,0
19261.4,-78.740157480315,4,1,0,15,0,0
19298.32,-78.125,4,1,0,15,0,0
19335.24,-77.5193798449612,4,1,0,15,0,0
19372.16,-76.9230769230769,4,1,0,15,0,0
19409.08,-76.3358778625954,4,1,0,15,0,0
19446,-76.3358778625954,4,1,0,15,0,0
19482.92,-75.7575757575758,4,1,0,15,0,0
19519.84,-75.187969924812,4,1,0,15,0,0
19556.76,-74.6268656716418,4,1,0,15,0,0
19593.68,-74.6268656716418,4,1,0,15,0,0
19630.6,-74.0740740740741,4,1,0,15,0,0
19667.52,-73.5294117647059,4,1,0,15,0,0
19704.44,-72.992700729927,4,1,0,15,0,0
19741.36,-72.992700729927,4,1,0,15,0,0
19778.28,-72.463768115942,4,1,0,15,0,0
19815.2,-71.9424460431655,4,1,0,15,0,0
19852.12,-71.4285714285714,4,1,0,15,0,0
19889.04,-71.4285714285714,4,1,0,15,0,0
19925.96,-70.9219858156028,4,1,0,15,0,0
19962.88,-70.4225352112676,4,1,0,15,0,0
19999.8,-69.9300699300699,4,1,0,15,0,0
20036.72,-69.9300699300699,4,1,0,15,0,0
20073.64,-69.4444444444444,4,1,0,15,0,0
20110.56,-68.9655172413793,4,1,0,15,0,0
20147.48,-68.4931506849315,4,1,0,15,0,0
20184.4,-68.4931506849315,4,1,0,15,0,0
20221.32,-68.0272108843538,4,1,0,15,0,0
20258.24,-67.5675675675676,4,1,0,15,0,0
20295.16,-67.1140939597315,4,1,0,15,0,0
20332.08,-67.1140939597315,4,1,0,15,0,0
20369,-66.6666666666667,4,1,0,15,0,0
20370,-100,4,1,0,15,0,0
34677,-52.6316,4,2,0,5,0,0
34734.5,-1000,4,2,0,5,0,0
34792,-52.6316,4,2,0,5,0,0
34850,-1000,4,2,0,5,0,0
34908,-52.6316,4,2,0,5,0,0
34965.5,-1000,4,2,0,5,0,0
35023,-52.6316,4,2,0,5,0,0
35080.5,-1000,4,2,0,5,0,0
35138,-50,4,2,0,5,0,0
35196,-100,4,2,0,5,0,0
36984,-50,4,2,0,5,0,0
37042,-100,4,2,0,5,0,0
38831,-50,4,2,0,5,0,0
38888,-100,4,2,0,5,0,0
40677,-50,4,2,0,5,0,0
40734,-100,4,2,0,5,0,0
41888,-66.6667,4,2,0,5,0,0
41917,-200,4,2,0,5,0,0
41946,-66.6667,4,2,0,5,0,0
42003.5,-200,4,2,0,5,0,0
42061,-66.6667,4,2,0,5,0,0
42119,-200,4,2,0,5,0,0
42177,-66.6667,4,2,0,5,0,0
42234.5,-200,4,2,0,5,0,0
42292,-66.6667,4,2,0,5,0,0
42350,-200,4,2,0,5,0,0
42408,-66.6667,4,2,0,5,0,0
42465.5,-200,4,2,0,5,0,0
42523,-100,4,2,0,5,0,0
49677,-10,4,2,0,5,0,0
49706,-200,4,2,0,5,0,0
49763,-66.6666666666667,4,2,0,5,0,0
49908,-100,4,2,0,5,0,0
57061,-52.6316,4,2,0,5,0,0
57080.5,-1000,4,2,0,5,0,0
57100,-52.6316,4,2,0,5,0,0
57119,-1000,4,2,0,5,0,0
57138,-52.6316,4,2,0,5,0,0
57157.5,-1000,4,2,0,5,0,0
57177,-52.6316,4,2,0,5,0,0
57196,-1000,4,2,0,5,0,0
57215,-52.6316,4,2,0,5,0,0
57234.5,-1000,4,2,0,5,0,0
57254,-52.6316,4,2,0,5,0,0
57273,-1000,4,2,0,5,0,0
57292,-100,4,2,0,5,0,0
58677,-52.6316,4,2,0,5,0,0
58705.5,-1000,4,2,0,5,0,0
58734,-52.6316,4,2,0,5,0,0
58763,-1000,4,2,0,5,0,0
58792,-52.6316,4,2,0,5,0,0
58811.5,-1000,4,2,0,5,0,0
58831,-52.6316,4,2,0,5,0,0
58850,-1000,4,2,0,5,0,0
58869,-52.6316,4,2,0,5,0,0
58888.5,-1000,4,2,0,5,0,0
58908,-200,4,2,0,5,0,0
59023,-66.6666666666667,4,2,0,5,0,0
59138,-100,4,2,0,5,0,0
60754,-52.6316,4,2,0,5,0,0
60782.5,-1000,4,2,0,5,0,0
60811,-52.6316,4,2,0,5,0,0
60840,-1000,4,2,0,5,0,0
60869,-52.6316,4,2,0,5,0,0
60898,-1000,4,2,0,5,0,0
60927,-52.6316,4,2,0,5,0,0
60955.5,-1000,4,2,0,5,0,0
60984,-100,4,2,0,5,0,0
61677,-66.6667,4,2,0,5,0,0
61734.5,-200,4,2,0,5,0,0
61792,-66.6667,4,2,0,5,0,0
61850,-200,4,2,0,5,0,0
61908,-100,4,2,0,5,0,0
62369,-66.6666666666667,4,2,0,5,0,0
62484,-200,4,2,0,5,0,0
62600,-66.6666666666667,4,2,0,5,0,0
62715,-200,4,2,0,5,0,0
62831,-100,4,2,0,5,0,0
63754,-166.666666666667,4,1,0,15,0,0
63760.92,-166.666666666667,4,1,0,15,0,0
63767.84,-166.666666666667,4,1,0,15,0,0
63774.76,-166.666666666667,4,1,0,15,0,0
63781.68,-166.666666666667,4,1,0,15,0,0
63788.6,-166.666666666667,4,1,0,15,0,0
63795.52,-166.666666666667,4,1,0,15,0,0
63802.44,-166.666666666667,4,1,0,15,0,0
63809.36,-166.666666666667,4,1,0,15,0,0
63816.28,-166.666666666667,4,1,0,15,0,0
63823.2,-166.666666666667,4,1,0,15,0,0
63830.12,-166.666666666667,4,1,0,15,0,0
63837.04,-163.934426229508,4,1,0,15,0,0
63843.96,-163.934426229508,4,1,0,15,0,0
63850.88,-163.934426229508,4,1,0,15,0,0
63857.8,-163.934426229508,4,1,0,15,0,0
63864.72,-163.934426229508,4,1,0,15,0,0
63871.64,-163.934426229508,4,1,0,15,0,0
63878.56,-163.934426229508,4,1,0,15,0,0
63885.48,-163.934426229508,4,1,0,15,0,0
63892.4,-161.290322580645,4,1,0,15,0,0
63899.32,-161.290322580645,4,1,0,15,0,0
63906.24,-161.290322580645,4,1,0,15,0,0
63913.16,-161.290322580645,4,1,0,15,0,0
63920.08,-161.290322580645,4,1,0,15,0,0
63927,-158.730158730159,4,1,0,15,0,0
63933.92,-158.730158730159,4,1,0,15,0,0
63940.84,-158.730158730159,4,1,0,15,0,0
63947.76,-158.730158730159,4,1,0,15,0,0
63954.68,-158.730158730159,4,1,0,15,0,0
63961.6,-156.25,4,1,0,15,0,0
63968.52,-156.25,4,1,0,15,0,0
63975.44,-156.25,4,1,0,15,0,0
63982.36,-156.25,4,1,0,15,0,0
63989.28,-153.846153846154,4,1,0,15,0,0
63996.2,-153.846153846154,4,1,0,15,0,0
64003.12,-153.846153846154,4,1,0,15,0,0
64010.04,-153.846153846154,4,1,0,15,0,0
64016.96,-151.515151515152,4,1,0,15,0,0
64023.88,-151.515151515152,4,1,0,15,0,0
64030.8,-151.515151515152,4,1,0,15,0,0
64037.72,-149.253731343284,4,1,0,15,0,0
64044.64,-149.253731343284,4,1,0,15,0,0
64051.56,-149.253731343284,4,1,0,15,0,0
64058.48,-147.058823529412,4,1,0,15,0,0
64065.4,-147.058823529412,4,1,0,15,0,0
64072.32,-147.058823529412,4,1,0,15,0,0
64079.24,-144.927536231884,4,1,0,15,0,0
64086.16,-144.927536231884,4,1,0,15,0,0
64093.08,-142.857142857143,4,1,0,15,0,0
64100,-142.857142857143,4,1,0,15,0,0
64106.92,-142.857142857143,4,1,0,15,0,0
64113.84,-140.845070422535,4,1,0,15,0,0
64120.76,-140.845070422535,4,1,0,15,0,0
64127.68,-138.888888888889,4,1,0,15,0,0
64134.6,-138.888888888889,4,1,0,15,0,0
64141.52,-136.986301369863,4,1,0,15,0,0
64148.44,-136.986301369863,4,1,0,15,0,0
64155.36,-136.986301369863,4,1,0,15,0,0
64162.28,-135.135135135135,4,1,0,15,0,0
64169.2,-135.135135135135,4,1,0,15,0,0
64176.12,-133.333333333333,4,1,0,15,0,0
64183.04,-133.333333333333,4,1,0,15,0,0
64189.96,-131.578947368421,4,1,0,15,0,0
64196.88,-131.578947368421,4,1,0,15,0,0
64203.8,-129.87012987013,4,1,0,15,0,0
64210.72,-129.87012987013,4,1,0,15,0,0
64217.64,-128.205128205128,4,1,0,15,0,0
64224.56,-128.205128205128,4,1,0,15,0,0
64231.48,-126.582278481013,4,1,0,15,0,0
64238.4,-125,4,1,0,15,0,0
64245.32,-125,4,1,0,15,0,0
64252.24,-123.456790123457,4,1,0,15,0,0
64259.16,-123.456790123457,4,1,0,15,0,0
64266.08,-121.951219512195,4,1,0,15,0,0
64273,-120.481927710843,4,1,0,15,0,0
64279.92,-120.481927710843,4,1,0,15,0,0
64286.84,-119.047619047619,4,1,0,15,0,0
64293.76,-119.047619047619,4,1,0,15,0,0
64300.68,-117.647058823529,4,1,0,15,0,0
64307.6,-116.279069767442,4,1,0,15,0,0
64314.52,-116.279069767442,4,1,0,15,0,0
64321.44,-114.942528735632,4,1,0,15,0,0
64328.36,-113.636363636364,4,1,0,15,0,0
64335.28,-113.636363636364,4,1,0,15,0,0
64342.2,-112.359550561798,4,1,0,15,0,0
64349.12,-111.111111111111,4,1,0,15,0,0
64356.04,-111.111111111111,4,1,0,15,0,0
64362.96,-109.89010989011,4,1,0,15,0,0
64369.88,-108.695652173913,4,1,0,15,0,0
64376.8,-108.695652173913,4,1,0,15,0,0
64383.72,-107.52688172043,4,1,0,15,0,0
64390.64,-106.382978723404,4,1,0,15,0,0
64397.56,-105.263157894737,4,1,0,15,0,0
64404.48,-105.263157894737,4,1,0,15,0,0
64411.4,-104.166666666667,4,1,0,15,0,0
64418.32,-103.092783505155,4,1,0,15,0,0
64425.24,-102.040816326531,4,1,0,15,0,0
64432.16,-102.040816326531,4,1,0,15,0,0
64439.08,-101.010101010101,4,1,0,15,0,0
64446,-52.6316,4,2,0,5,0,0
64475,-1000,4,2,0,5,0,0
64504,-52.6316,4,2,0,5,0,0
64532.5,-1000,4,2,0,5,0,0
64561,-52.6316,4,2,0,5,0,0
64590,-1000,4,2,0,5,0,0
64619,-52.6316,4,2,0,5,0,0
64648,-1000,4,2,0,5,0,0
64677,-40,4,2,0,5,0,0
64691,-400,4,2,0,5,0,0
64720,-100,4,2,0,5,0,0
64908,-40,4,2,0,5,0,0
64936,-400,4,2,0,5,0,0
64994,-100,4,2,0,5,0,0
65138,-40,4,2,0,5,0,0
65153,-400,4,2,0,5,0,0
65182,-100,4,2,0,5,0,0
65369,-40,4,2,0,5,0,0
65398,-400,4,2,0,5,0,0
65456,-100,4,2,0,5,0,0
65600,-40,4,2,0,5,0,0
65614,-400,4,2,0,5,0,0
65643,-100,4,2,0,5,0,0
65831,-40,4,2,0,5,0,0
65859,-400,4,2,0,5,0,0
65917,-100,4,2,0,5,0,0
66061,-40,4,2,0,5,0,0
66076,-400,4,2,0,5,0,0
66105,-100,4,2,0,5,0,0
66292,-40,4,2,0,5,0,0
66321,-400,4,2,0,5,0,0
66379,-100,4,2,0,5,0,0
66523,-40,4,2,0,5,0,0
66537,-400,4,2,0,5,0,0
66566,-100,4,2,0,5,0,0
66754,-40,4,2,0,5,0,0
66782,-400,4,2,0,5,0,0
66840,-100,4,2,0,5,0,0
66984,-40,4,2,0,5,0,0
66999,-400,4,2,0,5,0,0
67028,-100,4,2,0,5,0,0
67215,-40,4,2,0,5,0,0
67244,-400,4,2,0,5,0,0
67302,-100,4,2,0,5,0,0
67446,-40,4,2,0,5,0,0
67460,-400,4,2,0,5,0,0
67489,-100,4,2,0,5,0,0
67677,-40,4,2,0,5,0,0
67705,-400,4,2,0,5,0,0
67763,-100,4,2,0,5,0,0
72061,-40,4,2,0,5,0,0
72075,-400,4,2,0,5,0,0
72104,-100,4,2,0,5,0,0
72292,-40,4,2,0,5,0,0
72320,-400,4,2,0,5,0,0
72378,-100,4,2,0,5,0,0
72522,-40,4,2,0,5,0,0
72537,-400,4,2,0,5,0,0
72566,-100,4,2,0,5,0,0
72753,-40,4,2,0,5,0,0
72782,-400,4,2,0,5,0,0
72840,-100,4,2,0,5,0,0
72984,-40,4,2,0,5,0,0
72998,-400,4,2,0,5,0,0
73027,-100,4,2,0,5,0,0
73215,-40,4,2,0,5,0,0
73243,-400,4,2,0,5,0,0
73301,-100,4,2,0,5,0,0
73445,-40,4,2,0,5,0,0
73460,-400,4,2,0,5,0,0
73489,-100,4,2,0,5,0,0
73676,-40,4,2,0,5,0,0
73705,-400,4,2,0,5,0,0
73763,-100,4,2,0,5,0,0
73907,-40,4,2,0,5,0,0
73921,-400,4,2,0,5,0,0
73950,-100,4,2,0,5,0,0
74138,-40,4,2,0,5,0,0
74166,-400,4,2,0,5,0,0
74224,-100,4,2,0,5,0,0
74368,-40,4,2,0,5,0,0
74383,-400,4,2,0,5,0,0
74412,-100,4,2,0,5,0,0
74599,-40,4,2,0,5,0,0
74628,-400,4,2,0,5,0,0
74686,-100,4,2,0,5,0,0
74830,-40,4,2,0,5,0,0
74844,-400,4,2,0,5,0,0
74873,-100,4,2,0,5,0,0
75061,-40,4,2,0,5,0,0
75089,-400,4,2,0,5,0,0
75147,-100,4,2,0,5,0,0
78754,-66.6667,4,2,0,5,0,0
78811.5,-200,4,2,0,5,0,0
78869,-66.6667,4,2,0,5,0,0
78926.5,-200,4,2,0,5,0,0
79215,-66.6666666666667,4,2,0,5,0,0
79446,-100,4,2,0,5,0,0
82561,-66.6667,4,2,0,5,0,0
82619,-200,4,2,0,5,0,0
82677,-66.6667,4,2,0,5,0,0
82734.5,-200,4,2,0,5,0,0
82792,-66.6667,4,2,0,5,0,0
82850,-200,4,2,0,5,0,0
82908,-66.6667,4,2,0,5,0,0
82965.5,-200,4,2,0,5,0,0
83023,-66.6667,4,2,0,5,0,0
83080.5,-200,4,2,0,5,0,0
83138,-50,4,2,0,5,0,0
83196,-100,4,2,0,5,0,0
84061,-50,4,2,0,5,0,0
84119,-100,4,2,0,5,0,0
85908,-66.6667,4,2,0,5,0,0
85965.5,-200,4,2,0,5,0,0
86023,-66.6667,4,2,0,5,0,0
86080.5,-200,4,2,0,5,0,0
86138,-66.6667,4,2,0,5,0,0
86196,-200,4,2,0,5,0,0
86254,-66.6667,4,2,0,5,0,0
86311.5,-200,4,2,0,5,0,0
86369,-52.6316,4,2,0,5,0,0
86398,-1000,4,2,0,5,0,0
86427,-52.6316,4,2,0,5,0,0
86455.5,-1000,4,2,0,5,0,0
86484,-52.6316,4,2,0,5,0,0
86513,-1000,4,2,0,5,0,0
86542,-52.6316,4,2,0,5,0,0
86571,-1000,4,2,0,5,0,0
86600,-100,4,2,0,5,0,0
93292,-1000,4,2,0,5,0,0
93447.7,-10.989,4,2,0,5,0,0
93465,-1000,4,2,0,5,0,0
93620.7,-10.989,4,2,0,5,0,0
93638,-1000,4,2,0,5,0,0
93742.4,-10.989,4,2,0,5,0,0
93754,-200,4,2,0,5,0,0
93984,-66.6666666666667,4,2,0,5,0,0
94215,-100,4,2,0,5,0,0
95484,-66.6667,4,2,0,5,0,0
95542,-200,4,2,0,5,0,0
95600,-66.6667,4,2,0,5,0,0
95657.5,-200,4,2,0,5,0,0
95715,-66.6667,4,2,0,5,0,0
95773,-200,4,2,0,5,0,0
95831,-66.6667,4,2,0,5,0,0
95888.5,-200,4,2,0,5,0,0
95946,-100,4,2,0,5,0,0
97446,-66.6667,4,2,0,5,0,0
97532.5,-200,4,2,0,5,0,0
97619,-66.6667,4,2,0,5,0,0
97705.5,-200,4,2,0,5,0,0
97792,-66.6667,4,2,0,5,0,0
97850,-200,4,2,0,5,0,0
97908,-100,4,2,0,5,0,0
99754,-52.6316,4,2,0,5,0,0
99782.5,-1000,4,2,0,5,0,0
99811,-52.6316,4,2,0,5,0,0
99840,-1000,4,2,0,5,0,0
99869,-52.6316,4,2,0,5,0,0
99898,-1000,4,2,0,5,0,0
99927,-52.6316,4,2,0,5,0,0
99955.5,-1000,4,2,0,5,0,0
99984,-52.6316,4,2,0,5,0,0
100042,-1000,4,2,0,5,0,0
100100,-52.6316,4,2,0,5,0,0
100158,-1000,4,2,0,5,0,0
100215,-52.6316,4,2,0,5,0,0
100244,-1000,4,2,0,5,0,0
100273,-52.6316,4,2,0,5,0,0
100302,-1000,4,2,0,5,0,0
100331,-52.6316,4,2,0,5,0,0
100360,-1000,4,2,0,5,0,0
100388,-52.6316,4,2,0,5,0,0
100417,-1000,4,2,0,5,0,0
100446,-52.6316,4,2,0,5,0,0
100504,-1000,4,2,0,5,0,0
100561,-52.6316,4,2,0,5,0,0
100619,-1000,4,2,0,5,0,0
100677,-100,4,2,0,5,0,0
119600,-66.6667,4,2,0,5,0,0
119658,-200,4,2,0,5,0,0
119715,-66.6667,4,2,0,5,0,0
119773,-200,4,2,0,5,0,0
119831,-66.6667,4,2,0,5,0,0
119889,-200,4,2,0,5,0,0
119946,-66.6667,4,2,0,5,0,0
120004,-200,4,2,0,5,0,0
120061,-50,4,2,0,5,0,0
120119,-100,4,2,0,5,0,0
121908,-50,4,2,0,5,0,0
121965,-100,4,2,0,5,0,0
123754,-50,4,2,0,5,0,0
123811,-100,4,2,0,5,0,0
125600,-50,4,2,0,5,0,0
125658,-100,4,2,0,5,0,0
126754,-66.6667,4,2,0,5,0,0
126783,-200,4,2,0,5,0,0
126811,-66.6667,4,2,0,5,0,0
126840,-200,4,2,0,5,0,0
126869,-66.6667,4,2,0,5,0,0
126927,-200,4,2,0,5,0,0
126984,-66.6667,4,2,0,5,0,0
127042,-200,4,2,0,5,0,0
127100,-66.6667,4,2,0,5,0,0
127158,-200,4,2,0,5,0,0
127215,-66.6667,4,2,0,5,0,0
127273,-200,4,2,0,5,0,0
127331,-66.6667,4,2,0,5,0,0
127389,-200,4,2,0,5,0,0
127446,-100,4,2,0,5,0,0
132061,-1000,4,2,0,5,0,0
132200,-10.989,4,2,0,5,0,0
132215,-1000,4,2,0,5,0,0
132354,-10.989,4,2,0,5,0,0
132369,-1000,4,2,0,5,0,0
132508,-10.989,4,2,0,5,0,0
132523,-1000,4,2,0,5,0,0
132662,-10.989,4,2,0,5,0,0
132677,-1000,4,2,0,5,0,0
132816,-10.989,4,2,0,5,0,0
132831,-100,4,2,0,5,0,0
134600,-10,4,2,0,5,0,0
134629,-200,4,2,0,5,0,0
134686,-66.6666666666667,4,2,0,5,0,0
134831,-100,4,2,0,5,0,0
136369,-200,4,2,0,5,0,0
136523,-66.6666666666667,4,2,0,5,0,0
136677,-100,4,2,0,5,0,0
138061,-66.6667,4,2,0,5,0,0
138100,-200,4,2,0,5,0,0
138138,-66.6667,4,2,0,5,0,0
138177,-200,4,2,0,5,0,0
138215,-66.6667,4,2,0,5,0,0
138254,-200,4,2,0,5,0,0
138292,-200,4,2,0,5,0,0
138408,-66.6666666666667,4,2,0,5,0,0
138523,-100,4,2,0,5,0,0
140061,-200,4,2,0,5,0,0
140215,-66.6666666666667,4,2,0,5,0,0
140369,-100,4,2,0,5,0,0
141292,-1000,4,2,0,5,0,0
141431,-10.989,4,2,0,5,0,0
141446,-1000,4,2,0,5,0,0
141585,-10.989,4,2,0,5,0,0
141600,-1000,4,2,0,5,0,0
141739,-10.989,4,2,0,5,0,0
141754,-200,4,2,0,5,0,0
141984,-66.6666666666667,4,2,0,5,0,0
142215,-100,4,2,0,5,0,0
155254,-200,4,2,0,5,0,0
155369,-66.6666666666667,4,2,0,5,0,0
155484,-100,4,2,0,5,0,0
155600,-200,4,2,0,5,0,0
155715,-66.6666666666667,4,2,0,5,0,0
155831,-100,4,2,0,5,0,0
155946,-200,4,2,0,5,0,0
156061,-66.6666666666667,4,2,0,5,0,0
156177,-100,4,2,0,5,0,0
156292,-200,4,2,0,5,0,0
156408,-66.6666666666667,4,2,0,5,0,0
156523,-52.6316,4,2,0,5,0,0
156581,-1000,4,2,0,5,0,0
156638,-52.6316,4,2,0,5,0,0
156696,-1000,4,2,0,5,0,0
156754,-52.6316,4,2,0,5,0,0
156812,-1000,4,2,0,5,0,0
156869,-52.6316,4,2,0,5,0,0
156927,-1000,4,2,0,5,0,0
156984,-100,4,2,0,5,0,0
163908,-100,4,1,0,15,0,0
163912.61,-99.009900990099,4,1,0,15,0,0
163917.22,-98.0392156862745,4,1,0,15,0,0
163921.83,-97.0873786407767,4,1,0,15,0,0
163926.44,-96.1538461538461,4,1,0,15,0,0
163931.05,-95.2380952380952,4,1,0,15,0,0
163935.66,-94.3396226415094,4,1,0,15,0,0
163940.27,-93.4579439252336,4,1,0,15,0,0
163944.88,-92.5925925925926,4,1,0,15,0,0
163949.49,-91.743119266055,4,1,0,15,0,0
163954.1,-90.9090909090909,4,1,0,15,0,0
163958.71,-90.0900900900901,4,1,0,15,0,0
163963.32,-89.2857142857143,4,1,0,15,0,0
163967.93,-88.495575221239,4,1,0,15,0,0
163972.54,-87.719298245614,4,1,0,15,0,0
163977.15,-86.9565217391304,4,1,0,15,0,0
163981.76,-86.2068965517241,4,1,0,15,0,0
163986.37,-85.4700854700855,4,1,0,15,0,0
163990.98,-84.7457627118644,4,1,0,15,0,0
163995.59,-84.0336134453782,4,1,0,15,0,0
164000.2,-83.3333333333333,4,1,0,15,0,0
164004.81,-82.6446280991736,4,1,0,15,0,0
164009.42,-81.9672131147541,4,1,0,15,0,0
164014.03,-81.3008130081301,4,1,0,15,0,0
164018.64,-80.6451612903226,4,1,0,15,0,0
164023.25,-80,4,1,0,15,0,0
164027.86,-79.3650793650794,4,1,0,15,0,0
164032.47,-78.740157480315,4,1,0,15,0,0
164037.08,-78.125,4,1,0,15,0,0
164041.69,-77.5193798449612,4,1,0,15,0,0
164046.3,-76.9230769230769,4,1,0,15,0,0
164050.91,-76.3358778625954,4,1,0,15,0,0
164055.52,-75.7575757575758,4,1,0,15,0,0
164060.13,-75.187969924812,4,1,0,15,0,0
164064.74,-74.6268656716418,4,1,0,15,0,0
164069.35,-74.0740740740741,4,1,0,15,0,0
164073.96,-73.5294117647059,4,1,0,15,0,0
164078.57,-72.992700729927,4,1,0,15,0,0
164083.18,-72.463768115942,4,1,0,15,0,0
164087.79,-71.9424460431655,4,1,0,15,0,0
164092.4,-71.4285714285714,4,1,0,15,0,0
164097.01,-70.9219858156028,4,1,0,15,0,0
164101.62,-70.4225352112676,4,1,0,15,0,0
164106.23,-69.9300699300699,4,1,0,15,0,0
164110.84,-69.4444444444444,4,1,0,15,0,0
164115.45,-68.9655172413793,4,1,0,15,0,0
164120.06,-68.4931506849315,4,1,0,15,0,0
164124.67,-68.0272108843538,4,1,0,15,0,0
164129.28,-67.5675675675676,4,1,0,15,0,0
164133.89,-67.1140939597315,4,1,0,15,0,0
164138.5,-66.6666666666667,4,1,0,15,0,0
164143.11,-66.2251655629139,4,1,0,15,0,0
164147.72,-65.7894736842105,4,1,0,15,0,0
164152.33,-65.359477124183,4,1,0,15,0,0
164156.94,-64.9350649350649,4,1,0,15,0,0
164161.55,-64.5161290322581,4,1,0,15,0,0
164166.16,-64.1025641025641,4,1,0,15,0,0
164170.77,-63.6942675159236,4,1,0,15,0,0
164175.38,-63.2911392405063,4,1,0,15,0,0
164179.99,-62.8930817610063,4,1,0,15,0,0
164184.6,-62.5,4,1,0,15,0,0
164189.21,-62.111801242236,4,1,0,15,0,0
164193.82,-61.7283950617284,4,1,0,15,0,0
164198.43,-61.3496932515337,4,1,0,15,0,0
164203.04,-60.9756097560976,4,1,0,15,0,0
164207.65,-60.6060606060606,4,1,0,15,0,0
164212.26,-60.2409638554217,4,1,0,15,0,0
164216.87,-59.8802395209581,4,1,0,15,0,0
164221.48,-59.5238095238095,4,1,0,15,0,0
164226.09,-59.1715976331361,4,1,0,15,0,0
164230.7,-58.8235294117647,4,1,0,15,0,0
164235.31,-58.4795321637427,4,1,0,15,0,0
164239.92,-58.1395348837209,4,1,0,15,0,0
164244.53,-57.8034682080925,4,1,0,15,0,0
164249.14,-57.4712643678161,4,1,0,15,0,0
164253.75,-57.1428571428571,4,1,0,15,0,0
164258.36,-56.8181818181818,4,1,0,15,0,0
164262.97,-56.4971751412429,4,1,0,15,0,0
164267.58,-56.1797752808989,4,1,0,15,0,0
164272.19,-55.8659217877095,4,1,0,15,0,0
164276.8,-55.5555555555556,4,1,0,15,0,0
164281.41,-55.2486187845304,4,1,0,15,0,0
164286.02,-54.9450549450549,4,1,0,15,0,0
164290.63,-54.6448087431694,4,1,0,15,0,0
164295.24,-54.3478260869565,4,1,0,15,0,0
164299.85,-54.054054054054,4,1,0,15,0,0
164304.46,-53.763440860215,4,1,0,15,0,0
164309.07,-53.475935828877,4,1,0,15,0,0
164313.68,-53.1914893617021,4,1,0,15,0,0
164318.29,-52.9100529100529,4,1,0,15,0,0
164322.9,-52.6315789473684,4,1,0,15,0,0
164327.51,-52.3560209424084,4,1,0,15,0,0
164332.12,-52.0833333333333,4,1,0,15,0,0
164336.73,-51.8134715025907,4,1,0,15,0,0
164341.34,-51.5463917525773,4,1,0,15,0,0
164345.95,-51.2820512820513,4,1,0,15,0,0
164350.56,-51.0204081632653,4,1,0,15,0,0
164355.17,-50.761421319797,4,1,0,15,0,0
164359.78,-50.5050505050505,4,1,0,15,0,0
164364.39,-50.251256281407,4,1,0,15,0,0
164369,-142.857142857143,4,1,0,15,0,0
165292.0625,-138.888888888889,4,1,0,15,0,0
166215.125,-135.135135135135,4,1,0,15,0,0
167138.1875,-131.578947368421,4,1,0,15,0,0
168061.25,-129.87012987013,4,1,0,15,0,0
168984.3125,-126.582278481013,4,1,0,15,0,0
169907.375,-123.456790123457,4,1,0,15,0,0
170830.4375,-120.481927710843,4,1,0,15,0,0
171753.5,-117.647058823529,4,1,0,15,0,0
172676.5625,-114.942528735632,4,1,0,15,0,0
173599.625,-112.359550561798,4,1,0,15,0,0
174522.6875,-109.89010989011,4,1,0,15,0,0
175445.75,-107.52688172043,4,1,0,15,0,0
176368.8125,-106.382978723404,4,1,0,15,0,0
177291.875,-104.166666666667,4,1,0,15,0,0
178214.9375,-102.040816326531,4,1,0,15,0,0
179138,-100,4,1,0,15,0,0
208215,-52.6316,4,2,0,5,0,0
208273,-1000,4,2,0,5,0,0
208331,-52.6316,4,2,0,5,0,0
208389,-1000,4,2,0,5,0,0
208446,-52.6316,4,2,0,5,0,0
208504,-1000,4,2,0,5,0,0
208561,-52.6316,4,2,0,5,0,0
208619,-1000,4,2,0,5,0,0
208677,-100,4,2,0,5,0,0
216061,-40,4,2,0,5,0,0
216075,-400,4,2,0,5,0,0
216104,-100,4,2,0,5,0,0
216292,-40,4,2,0,5,0,0
216320,-400,4,2,0,5,0,0
216378,-100,4,2,0,5,0,0
216522,-40,4,2,0,5,0,0
216537,-400,4,2,0,5,0,0
216566,-100,4,2,0,5,0,0
216753,-40,4,2,0,5,0,0
216782,-400,4,2,0,5,0,0
216840,-100,4,2,0,5,0,0
216984,-40,4,2,0,5,0,0
216998,-400,4,2,0,5,0,0
217027,-100,4,2,0,5,0,0
217215,-40,4,2,0,5,0,0
217243,-400,4,2,0,5,0,0
217301,-100,4,2,0,5,0,0
217445,-40,4,2,0,5,0,0
217460,-400,4,2,0,5,0,0
217489,-100,4,2,0,5,0,0
217676,-40,4,2,0,5,0,0
217705,-400,4,2,0,5,0,0
217763,-100,4,2,0,5,0,0
217907,-40,4,2,0,5,0,0
217921,-400,4,2,0,5,0,0
217950,-100,4,2,0,5,0,0
218138,-40,4,2,0,5,0,0
218166,-400,4,2,0,5,0,0
218224,-100,4,2,0,5,0,0
218368,-40,4,2,0,5,0,0
218383,-400,4,2,0,5,0,0
218412,-100,4,2,0,5,0,0
218599,-40,4,2,0,5,0,0
218628,-400,4,2,0,5,0,0
218686,-100,4,2,0,5,0,0
218830,-40,4,2,0,5,0,0
218844,-400,4,2,0,5,0,0
218873,-100,4,2,0,5,0,0
219061,-40,4,2,0,5,0,0
219089,-400,4,2,0,5,0,0
219147,-100,4,2,0,5,0,0
219292,-40,4,2,0,5,0,0
219306,-400,4,2,0,5,0,0
219335,-100,4,2,0,5,0,0
219523,-40,4,2,0,5,0,0
219551,-400,4,2,0,5,0,0
219609,-100,4,2,0,5,0,0
221600,-52.6316,4,2,0,5,0,0
221629,-1000,4,2,0,5,0,0
221658,-52.6316,4,2,0,5,0,0
221687,-1000,4,2,0,5,0,0
221715,-52.6316,4,2,0,5,0,0
221744,-1000,4,2,0,5,0,0
221773,-52.6316,4,2,0,5,0,0
221802,-1000,4,2,0,5,0,0
221831,-52.6316,4,2,0,5,0,0
221860,-1000,4,2,0,5,0,0
221888,-52.6316,4,2,0,5,0,0
221917,-1000,4,2,0,5,0,0
221946,-52.6316,4,2,0,5,0,0
221975,-1000,4,2,0,5,0,0
222004,-52.6316,4,2,0,5,0,0
222033,-1000,4,2,0,5,0,0
222061,-52.6316,4,2,0,5,0,0
222090,-1000,4,2,0,5,0,0
222119,-52.6316,4,2,0,5,0,0
222148,-1000,4,2,0,5,0,0
222177,-52.6316,4,2,0,5,0,0
222206,-1000,4,2,0,5,0,0
222234,-52.6316,4,2,0,5,0,0
222263,-1000,4,2,0,5,0,0
222292,-52.6316,4,2,0,5,0,0
222321,-1000,4,2,0,5,0,0
222350,-52.6316,4,2,0,5,0,0
222379,-1000,4,2,0,5,0,0
222408,-52.6316,4,2,0,5,0,0
222437,-1000,4,2,0,5,0,0
222465,-52.6316,4,2,0,5,0,0
222494,-1000,4,2,0,5,0,0
222523,-52.6316,4,2,0,5,0,0
222538,-1000,4,2,0,5,0,0
222552,-52.6316,4,2,0,5,0,0
222567,-1000,4,2,0,5,0,0
222581,-52.6316,4,2,0,5,0,0
222595,-1000,4,2,0,5,0,0
222609,-52.6316,4,2,0,5,0,0
222624,-1000,4,2,0,5,0,0
222638,-52.6316,4,2,0,5,0,0
222653,-1000,4,2,0,5,0,0
222667,-52.6316,4,2,0,5,0,0
222682,-1000,4,2,0,5,0,0
222696,-52.6316,4,2,0,5,0,0
222711,-1000,4,2,0,5,0,0
222725,-52.6316,4,2,0,5,0,0
222740,-1000,4,2,0,5,0,0
222754,-52.6316,4,2,0,5,0,0
222769,-1000,4,2,0,5,0,0
222783,-52.6316,4,2,0,5,0,0
222797,-1000,4,2,0,5,0,0
222811,-52.6316,4,2,0,5,0,0
222826,-1000,4,2,0,5,0,0
222840,-52.6316,4,2,0,5,0,0
222855,-1000,4,2,0,5,0,0
222869,-52.6316,4,2,0,5,0,0
222884,-1000,4,2,0,5,0,0
222898,-52.6316,4,2,0,5,0,0
222913,-1000,4,2,0,5,0,0
222927,-52.6316,4,2,0,5,0,0
222942,-1000,4,2,0,5,0,0
222956,-52.6316,4,2,0,5,0,0
222970,-1000,4,2,0,5,0,0
222984,-52.6316,4,2,0,5,0,0
222999,-1000,4,2,0,5,0,0
223013,-52.6316,4,2,0,5,0,0
223028,-1000,4,2,0,5,0,0
223042,-52.6316,4,2,0,5,0,0
223057,-1000,4,2,0,5,0,0
223071,-52.6316,4,2,0,5,0,0
223086,-1000,4,2,0,5,0,0
223100,-52.6316,4,2,0,5,0,0
223115,-1000,4,2,0,5,0,0
223129,-52.6316,4,2,0,5,0,0
223144,-1000,4,2,0,5,0,0
223158,-52.6316,4,2,0,5,0,0
223172,-1000,4,2,0,5,0,0
223186,-52.6316,4,2,0,5,0,0
223201,-1000,4,2,0,5,0,0
223215,-52.6316,4,2,0,5,0,0
223230,-1000,4,2,0,5,0,0
223244,-52.6316,4,2,0,5,0,0
223259,-1000,4,2,0,5,0,0
223273,-52.6316,4,2,0,5,0,0
223288,-1000,4,2,0,5,0,0
223302,-52.6316,4,2,0,5,0,0
223317,-1000,4,2,0,5,0,0
223331,-52.6316,4,2,0,5,0,0
223345,-1000,4,2,0,5,0,0
223359,-52.6316,4,2,0,5,0,0
223374,-1000,4,2,0,5,0,0
223388,-52.6316,4,2,0,5,0,0
223403,-1000,4,2,0,5,0,0
223417,-52.6316,4,2,0,5,0,0
223432,-1000,4,2,0,5,0,0
223446,-100,4,2,0,5,0,0
225061,-10,4,2,0,5,0,0
225090,-200,4,2,0,5,0,0
225148,-66.6666666666667,4,2,0,5,0,0
225292,-100,4,2,0,5,0,0
241908,-1000,4,2,0,5,0,0
243292,-66.6666666666667,4,2,0,5,0,0
243754,-50,4,2,0,5,0,0
243811,-100,4,2,0,5,0,0
244677,-50,4,2,0,5,0,0
244734,-100,4,2,0,5,0,0
245600,-66.6667,4,2,0,5,0,0
245658,-200,4,2,0,5,0,0
245715,-66.6667,4,2,0,5,0,0
245773,-200,4,2,0,5,0,0
245831,-66.6667,4,2,0,5,0,0
245889,-200,4,2,0,5,0,0
245946,-66.6667,4,2,0,5,0,0
246004,-200,4,2,0,5,0,0
246061,-66.6667,4,2,0,5,0,0
246119,-200,4,2,0,5,0,0
246177,-66.6667,4,2,0,5,0,0
246235,-200,4,2,0,5,0,0
246292,-66.6667,4,2,0,5,0,0
246350,-200,4,2,0,5,0,0
246408,-66.6667,4,2,0,5,0,0
246466,-200,4,2,0,5,0,0
246523,-52.6316,4,2,0,5,0,0
246552,-1000,4,2,0,5,0,0
246581,-52.6316,4,2,0,5,0,0
246610,-1000,4,2,0,5,0,0
246638,-52.6316,4,2,0,5,0,0
246667,-1000,4,2,0,5,0,0
246696,-52.6316,4,2,0,5,0,0
246725,-1000,4,2,0,5,0,0
246754,-52.6316,4,2,0,5,0,0
246783,-1000,4,2,0,5,0,0
246811,-52.6316,4,2,0,5,0,0
246840,-1000,4,2,0,5,0,0
246869,-52.6316,4,2,0,5,0,0
246898,-1000,4,2,0,5,0,0
246927,-52.6316,4,2,0,5,0,0
246956,-1000,4,2,0,5,0,0
246984,-52.6316,4,2,0,5,0,0
247004,-1000,4,2,0,5,0,0
247023,-52.6316,4,2,0,5,0,0
247042,-1000,4,2,0,5,0,0
247061,-52.6316,4,2,0,5,0,0
247081,-1000,4,2,0,5,0,0
247100,-52.6316,4,2,0,5,0,0
247119,-1000,4,2,0,5,0,0
247138,-52.6316,4,2,0,5,0,0
247158,-1000,4,2,0,5,0,0
247177,-52.6316,4,2,0,5,0,0
247196,-1000,4,2,0,5,0,0
247215,-52.6316,4,2,0,5,0,0
247235,-1000,4,2,0,5,0,0
247254,-52.6316,4,2,0,5,0,0
247273,-1000,4,2,0,5,0,0
247292,-52.6316,4,2,0,5,0,0
247312,-1000,4,2,0,5,0,0
247331,-52.6316,4,2,0,5,0,0
247350,-1000,4,2,0,5,0,0
247369,-52.6316,4,2,0,5,0,0
247389,-1000,4,2,0,5,0,0
247408,-52.6316,4,2,0,5,0,0
247427,-1000,4,2,0,5,0,0
247446,-100,4,2,0,5,0,0
248369,-10000,4,2,0,5,0,0
249061,-10,4,2,0,5,0,0
249090,-200,4,2,0,5,0,0
249148,-66.6666666666667,4,2,0,5,0,0
249292,-100,4,2,0,5,0,0
264177,-43.4783,4,2,0,5,0,0
264200,-750,4,2,0,5,0,0
264234,-43.4783,4,2,0,5,0,0
264257,-750,4,2,0,5,0,0
264292,-43.4783,4,2,0,5,0,0
264315,-750,4,2,0,5,0,0
264350,-43.4783,4,2,0,5,0,0
264373,-750,4,2,0,5,0,0
264408,-43.4783,4,2,0,5,0,0
264431,-750,4,2,0,5,0,0
264465,-43.4783,4,2,0,5,0,0
264488,-750,4,2,0,5,0,0
264523,-43.4783,4,2,0,5,0,0
264546,-750,4,2,0,5,0,0
264581,-43.4783,4,2,0,5,0,0
264604,-750,4,2,0,5,0,0
264638,-43.4783,4,2,0,5,0,0
264661,-750,4,2,0,5,0,0
264696,-43.4783,4,2,0,5,0,0
264719,-750,4,2,0,5,0,0
264754,-43.4783,4,2,0,5,0,0
264777,-750,4,2,0,5,0,0
264811,-43.4783,4,2,0,5,0,0
264834,-750,4,2,0,5,0,0
264869,-43.4783,4,2,0,5,0,0
264892,-750,4,2,0,5,0,0
264927,-43.4783,4,2,0,5,0,0
264950,-750,4,2,0,5,0,0
264984,-43.4783,4,2,0,5,0,0
265007,-750,4,2,0,5,0,0
265042,-43.4783,4,2,0,5,0,0
265065,-750,4,2,0,5,0,0
265100,-43.4783,4,2,0,5,0,0
265123,-750,4,2,0,5,0,0
265158,-43.4783,4,2,0,5,0,0
265181,-750,4,2,0,5,0,0
265215,-43.4783,4,2,0,5,0,0
265238,-750,4,2,0,5,0,0
265273,-43.4783,4,2,0,5,0,0
265296,-750,4,2,0,5,0,0
265331,-43.4783,4,2,0,5,0,0
265354,-750,4,2,0,5,0,0
265388,-43.4783,4,2,0,5,0,0
265411,-750,4,2,0,5,0,0
265446,-43.4783,4,2,0,5,0,0
265469,-750,4,2,0,5,0,0
265504,-43.4783,4,2,0,5,0,0
265527,-750,4,2,0,5,0,0
265561,-43.4783,4,2,0,5,0,0
265584,-750,4,2,0,5,0,0
265619,-43.4783,4,2,0,5,0,0
265642,-750,4,2,0,5,0,0
265677,-43.4783,4,2,0,5,0,0
265700,-750,4,2,0,5,0,0
265734,-43.4783,4,2,0,5,0,0
265757,-750,4,2,0,5,0,0
265792,-43.4783,4,2,0,5,0,0
265815,-750,4,2,0,5,0,0
265850,-43.4783,4,2,0,5,0,0
265873,-750,4,2,0,5,0,0
265908,-43.4783,4,2,0,5,0,0
265931,-750,4,2,0,5,0,0
265965,-43.4783,4,2,0,5,0,0
265988,-750,4,2,0,5,0,0
266023,-43.4783,4,2,0,5,0,0
266046,-750,4,2,0,5,0,0
266081,-43.4783,4,2,0,5,0,0
266104,-750,4,2,0,5,0,0
266138,-43.4783,4,2,0,5,0,0
266161,-750,4,2,0,5,0,0
266196,-43.4783,4,2,0,5,0,0
266219,-750,4,2,0,5,0,0
266254,-43.4783,4,2,0,5,0,0
266277,-750,4,2,0,5,0,0
266311,-43.4783,4,2,0,5,0,0
266334,-750,4,2,0,5,0,0
266369,-43.4783,4,2,0,5,0,0
266392,-750,4,2,0,5,0,0
266427,-43.4783,4,2,0,5,0,0
266450,-750,4,2,0,5,0,0
266484,-43.4783,4,2,0,5,0,0
266507,-750,4,2,0,5,0,0
266542,-43.4783,4,2,0,5,0,0
266565,-750,4,2,0,5,0,0
266600,-43.4783,4,2,0,5,0,0
266623,-750,4,2,0,5,0,0
266658,-43.4783,4,2,0,5,0,0
266681,-750,4,2,0,5,0,0
266715,-43.4783,4,2,0,5,0,0
266738,-750,4,2,0,5,0,0
266773,-43.4783,4,2,0,5,0,0
266796,-750,4,2,0,5,0,0
266831,-100,4,2,0,5,0,0

[HitObjects]
64,192,1908,128,0,2715:0:0:0:0:
448,192,1908,128,0,2023:0:0:0:0:
320,192,2023,128,0,2138:0:0:0:0:
192,192,2254,128,0,2311:0:0:0:0:
320,192,2484,128,0,2600:0:0:0:0:
448,192,2600,128,0,2715:0:0:0:0:
192,192,2715,128,0,2831:0:0:0:0:
320,192,2831,128,0,3638:0:0:0:0:
448,192,2831,128,0,2946:0:0:0:0:
64,192,2946,128,0,3061:0:0:0:0:
192,192,3061,128,0,3177:0:0:0:0:
448,192,3177,128,0,3234:0:0:0:0:
64,192,3408,128,0,3523:0:0:0:0:
192,192,3523,128,0,3638:0:0:0:0:
320,192,3754,128,0,4100:0:0:0:0:
448,192,3754,128,0,3869:0:0:0:0:
192,192,3869,128,0,3927:0:0:0:0:
64,192,4100,128,0,4158:0:0:0:0:
448,192,4215,128,0,5023:0:0:0:0:
64,192,4331,128,0,4446:0:0:0:0:
192,192,4446,128,0,4561:0:0:0:0:
320,192,4561,128,0,4677:0:0:0:0:
64,192,4677,128,0,4792:0:0:0:0:
320,192,4792,128,0,4908:0:0:0:0:
192,192,4908,128,0,5023:0:0:0:0:
64,192,5023,128,0,5081:0:0:0:0:
192,192,5138,128,0,5484:0:0:0:0:
320,192,5254,128,0,5369:0:0:0:0:
448,192,5369,128,0,5484:0:0:0:0:
64,192,5600,128,0,6408:0:0:0:0:
448,192,5600,128,0,5715:0:0:0:0:
320,192,5715,128,0,5773:0:0:0:0:
192,192,5946,128,0,6004:0:0:0:0:
320,192,6177,128,0,6292:0:0:0:0:
448,192,6292,128,0,6408:0:0:0:0:
192,192,6408,128,0,6523:0:0:0:0:
320,192,6523,128,0,7331:0:0:0:0:
448,192,6523,128,0,6638:0:0:0:0:
64,192,6638,128,0,6754:0:0:0:0:
192,192,6754,128,0,6869:0:0:0:0:
448,192,6869,128,0,6927:0:0:0:0:
64,192,7100,128,0,7215:0:0:0:0:
448,192,7215,128,0,7331:0:0:0:0:
64,192,7446,128,0,7561:0:0:0:0:
192,192,7446,128,0,7561:0:0:0:0:
448,192,7561,128,0,7677:0:0:0:0:
320,192,7677,128,0,7792:0:0:0:0:
64,192,7792,128,0,7908:0:0:0:0:
448,192,7908,128,0,8023:0:0:0:0:
192,192,7908,128,0,8023:0:0:0:0:
320,192,8023,128,0,8138:0:0:0:0:
64,192,8138,128,0,8254:0:0:0:0:
448,192,8254,128,0,8369:0:0:0:0:
320,192,8369,128,0,8484:0:0:0:0:
64,192,8369,128,0,8484:0:0:0:0:
192,192,8484,128,0,8600:0:0:0:0:
320,192,8600,128,0,8715:0:0:0:0:
448,192,8715,128,0,8831:0:0:0:0:
64,192,8715,128,0,8831:0:0:0:0:
192,192,8946,128,0,9061:0:0:0:0:
448,192,9061,128,0,9177:0:0:0:0:
320,192,9177,128,0,9292:0:0:0:0:
64,192,9292,128,0,10100:0:0:0:0:
448,192,9292,128,0,9408:0:0:0:0:
192,192,9408,128,0,9465:0:0:0:0:
192,192,9638,128,0,9696:0:0:0:0:
320,192,9869,128,0,9984:0:0:0:0:
448,192,9984,128,0,10100:0:0:0:0:
320,192,10100,128,0,10215:0:0:0:0:
192,192,10215,128,0,11023:0:0:0:0:
448,192,10215,128,0,10331:0:0:0:0:
64,192,10331,128,0,10446:0:0:0:0:
320,192,10446,128,0,10561:0:0:0:0:
448,192,10561,128,0,10619:0:0:0:0:
64,192,10792,128,0,10908:0:0:0:0:
320,192,10908,128,0,11023:0:0:0:0:
448,192,11138,128,0,11946:0:0:0:0:
320,192,11138,128,0,11254:0:0:0:0:
192,192,11254,128,0,11311:0:0:0:0:
64,192,11484,128,0,11542:0:0:0:0:
64,192,11715,128,0,11831:0:0:0:0:
192,192,11831,128,0,11946:0:0:0:0:
64,192,11946,128,0,12061:0:0:0:0:
320,192,12061,128,0,12408:0:0:0:0:
192,192,12061,128,0,12177:0:0:0:0:
448,192,12177,128,0,12292:0:0:0:0:
64,192,12292,128,0,12408:0:0:0:0:
448,192,12408,128,0,12523:0:0:0:0:
192,192,12523,128,0,12869:0:0:0:0:
320,192,12638,128,0,12754:0:0:0:0:
448,192,12754,128,0,12811:0:0:0:0:
64,192,12984,128,0,13792:0:0:0:0:
320,192,12984,128,0,13100:0:0:0:0:
192,192,13100,128,0,13215:0:0:0:0:
320,192,13215,128,0,13331:0:0:0:0:
448,192,13331,128,0,13446:0:0:0:0:
192,192,13561,128,0,13677:0:0:0:0:
320,192,13677,128,0,13792:0:0:0:0:
448,192,13792,128,0,13908:0:0:0:0:
320,192,13908,128,0,14715:0:0:0:0:
192,192,13908,128,0,14023:0:0:0:0:
64,192,14023,128,0,14081:0:0:0:0:
64,192,14254,128,0,14311:0:0:0:0:
64,192,14484,128,0,14600:0:0:0:0:
192,192,14600,128,0,14715:0:0:0:0:
448,192,14715,128,0,14831:0:0:0:0:
320,192,14831,128,0,15638:0:0:0:0:
64,192,14831,128,0,14946:0:0:0:0:
192,192,14946,128,0,15061:0:0:0:0:
64,192,15061,128,0,15177:0:0:0:0:
448,192,15177,128,0,15292:0:0:0:0:
64,192,15408,128,0,15523:0:0:0:0:
448,192,15523,128,0,15638:0:0:0:0:
64,192,15638,128,0,15754:0:0:0:0:
192,192,15754,128,0,16561:0:0:0:0:
448,192,15754,128,0,15869:0:0:0:0:
320,192,15869,128,0,15984:0:0:0:0:
64,192,15984,128,0,16100:0:0:0:0:
448,192,16100,128,0,16215:0:0:0:0:
320,192,16331,128,0,16446:0:0:0:0:
448,192,16446,128,0,16561:0:0:0:0:
64,192,16677,128,0,20369:0:0:0:0:
192,192,16677,128,0,16792:0:0:0:0:
448,192,16792,128,0,16908:0:0:0:0:
320,192,16908,128,0,17023:0:0:0:0:
192,192,17023,128,0,17138:0:0:0:0:
192,192,17254,128,0,17369:0:0:0:0:
448,192,17369,128,0,17484:0:0:0:0:
320,192,17484,128,0,17600:0:0:0:0:
192,192,17715,128,0,17773:0:0:0:0:
192,192,17831,128,0,17888:0:0:0:0:
320,192,17946,128,0,18004:0:0:0:0:
448,192,18061,128,0,18119:0:0:0:0:
320,192,18177,128,0,18234:0:0:0:0:
448,192,18292,128,0,18350:0:0:0:0:
192,192,18408,128,0,18465:0:0:0:0:
192,192,18523,128,0,18638:0:0:0:0:
448,192,18638,128,0,18754:0:0:0:0:
320,192,18754,128,0,18869:0:0:0:0:
192,192,18869,128,0,18984:0:0:0:0:
448,192,19100,128,0,19215:0:0:0:0:
320,192,19215,128,0,19331:0:0:0:0:
448,192,19331,128,0,19446:0:0:0:0:
448,192,19561,128,0,19619:0:0:0:0:
320,192,19677,128,0,19734:0:0:0:0:
192,192,19792,128,0,19850:0:0:0:0:
448,192,19908,128,0,19965:0:0:0:0:
320,192,20023,128,0,20081:0:0:0:0:
192,192,20138,128,0,20196:0:0:0:0:
448,192,20254,128,0,20311:0:0:0:0:
320,192,20369,128,0,20427:0:0:0:0:
448,192,20484,128,0,20542:0:0:0:0:
320,192,20600,128,0,20658:0:0:0:0:
448,192,20715,128,0,20773:0:0:0:0:
320,192,20831,128,0,20888:0:0:0:0:
192,192,20946,128,0,21004:0:0:0:0:
320,192,21061,128,0,21119:0:0:0:0:
192,192,21177,128,0,21234:0:0:0:0:
64,192,21292,128,0,21350:0:0:0:0:
448,192,21408,128,0,21465:0:0:0:0:
320,192,21523,128,0,21581:0:0:0:0:
448,192,21638,128,0,21696:0:0:0:0:
320,192,21754,128,0,21811:0:0:0:0:
192,192,21869,128,0,21927:0:0:0:0:
320,192,21984,128,0,22042:0:0:0:0:
192,192,22100,128,0,22158:0:0:0:0:
64,192,22215,128,0,22273:0:0:0:0:
448,192,22331,128,0,22388:0:0:0:0:
320,192,22446,128,0,22504:0:0:0:0:
448,192,22561,128,0,22619:0:0:0:0:
320,192,22677,128,0,22734:0:0:0:0:
192,192,22792,128,0,22850:0:0:0:0:
320,192,22908,128,0,22965:0:0:0:0:
192,192,23023,128,0,23081:0:0:0:0:
64,192,23138,128,0,23196:0:0:0:0:
448,192,23254,128,0,23311:0:0:0:0:
320,192,23369,128,0,23427:0:0:0:0:
448,192,23484,128,0,23542:0:0:0:0:
320,192,23600,128,0,23658:0:0:0:0:
192,192,23715,128,0,23773:0:0:0:0:
320,192,23831,128,0,23888:0:0:0:0:
192,192,23946,128,0,24004:0:0:0:0:
64,192,24061,128,0,24119:0:0:0:0:
448,192,24177,128,0,24234:0:0:0:0:
320,192,24292,128,0,24350:0:0:0:0:
448,192,24408,128,0,24465:0:0:0:0:
320,192,24523,128,0,24581:0:0:0:0:
192,192,24638,128,0,24696:0:0:0:0:
320,192,24754,128,0,24811:0:0:0:0:
192,192,24869,128,0,24927:0:0:0:0:
64,192,24984,128,0,25042:0:0:0:0:
448,192,25100,1,0,0:0:0:0:
320,192,25215,1,0,0:0:0:0:
448,192,25331,1,0,0:0:0:0:
320,192,25446,1,0,0:0:0:0:
192,192,25561,1,0,0:0:0:0:
320,192,25677,1,0,0:0:0:0:
192,192,25792,1,0,0:0:0:0:
64,192,25908,1,0,0:0:0:0:
448,192,26023,1,0,0:0:0:0:
320,192,26138,1,0,0:0:0:0:
448,192,26254,1,0,0:0:0:0:
320,192,26369,1,0,0:0:0:0:
192,192,26484,1,0,0:0:0:0:
320,192,26600,1,0,0:0:0:0:
192,192,26715,1,0,0:0:0:0:
64,192,26831,1,0,0:0:0:0:
320,192,27754,1,0,0:0:0:0:
448,192,27754,1,0,0:0:0:0:
192,192,27869,1,0,0:0:0:0:
64,192,28100,1,0,0:0:0:0:
320,192,28100,1,0,0:0:0:0:
448,192,28215,1,0,0:0:0:0:
64,192,28446,1,0,0:0:0:0:
192,192,28446,1,0,0:0:0:0:
192,192,28561,1,0,0:0:0:0:
448,192,31446,1,0,0:0:0:0:
192,192,31446,1,0,0:0:0:0:
320,192,31561,1,0,0:0:0:0:
192,192,31792,1,0,0:0:0:0:
64,192,31792,1,0,0:0:0:0:
448,192,31908,1,0,0:0:0:0:
320,192,32138,1,0,0:0:0:0:
448,192,32138,1,0,0:0:0:0:
320,192,32254,1,0,0:0:0:0:
64,192,32484,1,0,0:0:0:0:
192,192,32484,1,0,0:0:0:0:
192,192,32600,128,0,32715:0:0:0:0:
320,192,32715,128,0,32946:0:0:0:0:
192,192,32946,128,0,33004:0:0:0:0:
192,192,33061,128,0,33292:0:0:0:0:
64,192,34215,128,0,34677:0:0:0:0:
320,192,34677,1,0,0:0:0:0:
448,192,34677,1,0,0:0:0:0:
320,192,34792,1,0,0:0:0:0:
448,192,34792,1,0,0:0:0:0:
192,192,34908,1,0,0:0:0:0:
64,192,34908,1,0,0:0:0:0:
64,192,35023,1,0,0:0:0:0:
192,192,35023,1,0,0:0:0:0:
64,192,35138,1,0,0:0:0:0:
192,192,35138,1,0,0:0:0:0:
320,192,35138,1,0,0:0:0:0:
448,192,35138,1,0,0:0:0:0:
448,192,35369,1,0,0:0:0:0:
320,192,35427,1,0,0:0:0:0:
64,192,35484,1,0,0:0:0:0:
192,192,35600,1,0,0:0:0:0:
448,192,35715,1,0,0:0:0:0:
320,192,35715,1,0,0:0:0:0:
448,192,35831,1,0,0:0:0:0:
320,192,35946,1,0,0:0:0:0:
192,192,36061,128,0,36177:0:0:0:0:
320,192,36177,1,0,0:0:0:0:
64,192,36234,1,0,0:0:0:0:
192,192,36292,1,0,0:0:0:0:
448,192,36408,1,0,0:0:0:0:
448,192,36523,1,0,0:0:0:0:
192,192,36523,128,0,36638:0:0:0:0:
64,192,36638,128,0,36984:0:0:0:0:
192,192,36984,1,0,0:0:0:0:
320,192,36984,1,0,0:0:0:0:
448,192,36984,1,0,0:0:0:0:
64,192,37215,1,0,0:0:0:0:
320,192,37273,1,0,0:0:0:0:
192,192,37331,1,0,0:0:0:0:
448,192,37446,1,0,0:0:0:0:
320,192,37561,1,0,0:0:0:0:
64,192,37677,1,0,0:0:0:0:
192,192,37677,1,0,0:0:0:0:
64,192,37792,128,0,38023:0:0:0:0:
320,192,38023,128,0,38254:0:0:0:0:
192,192,38254,1,0,0:0:0:0:
448,192,38311,1,0,0:0:0:0:
64,192,38369,128,0,38600:0:0:0:0:
320,192,38600,128,0,38831:0:0:0:0:
64,192,38831,1,0,0:0:0:0:
192,192,38831,1,0,0:0:0:0:
448,192,38831,1,0,0:0:0:0:
448,192,39061,1,0,0:0:0:0:
320,192,39119,1,0,0:0:0:0:
64,192,39177,1,0,0:0:0:0:
192,192,39292,1,0,0:0:0:0:
320,192,39408,1,0,0:0:0:0:
64,192,39523,1,0,0:0:0:0:
192,192,39523,1,0,0:0:0:0:
448,192,39638,1,0,0:0:0:0:
64,192,39638,128,0,39869:0:0:0:0:
320,192,39869,128,0,40100:0:0:0:0:
192,192,40100,1,0,0:0:0:0:
192,192,40215,128,0,40446:0:0:0:0:
320,192,40446,128,0,40504:0:0:0:0:
320,192,40561,128,0,40677:0:0:0:0:
64,192,40677,1,0,0:0:0:0:
192,192,40677,1,0,0:0:0:0:
448,192,40677,1,0,0:0:0:0:
64,192,40908,1,0,0:0:0:0:
192,192,40965,1,0,0:0:0:0:
320,192,41023,1,0,0:0:0:0:
64,192,41138,1,0,0:0:0:0:
448,192,41254,1,0,0:0:0:0:
320,192,41369,1,0,0:0:0:0:
64,192,41369,1,0,0:0:0:0:
320,192,41484,1,0,0:0:0:0:
448,192,41600,1,0,0:0:0:0:
64,192,41715,1,0,0:0:0:0:
192,192,41773,1,0,0:0:0:0:
320,192,41831,1,0,0:0:0:0:
64,192,41888,1,0,0:0:0:0:
448,192,41946,1,0,0:0:0:0:
320,192,41946,1,0,0:0:0:0:
192,192,42061,1,0,0:0:0:0:
64,192,42061,1,0,0:0:0:0:
192,192,42177,1,0,0:0:0:0:
320,192,42177,1,0,0:0:0:0:
64,192,42292,1,0,0:0:0:0:
448,192,42292,1,0,0:0:0:0:
320,192,42408,1,0,0:0:0:0:
448,192,42408,1,0,0:0:0:0:
192,192,42523,1,0,0:0:0:0:
64,192,42523,1,0,0:0:0:0:
64,192,42638,1,0,0:0:0:0:
192,192,42638,1,0,0:0:0:0:
320,192,42869,1,0,0:0:0:0:
448,192,42869,1,0,0:0:0:0:
64,192,42984,1,0,0:0:0:0:
320,192,42984,1,0,0:0:0:0:
448,192,42984,1,0,0:0:0:0:
192,192,42984,1,0,0:0:0:0:
448,192,43215,1,0,0:0:0:0:
64,192,43215,1,0,0:0:0:0:
64,192,43331,1,0,0:0:0:0:
448,192,43331,1,0,0:0:0:0:
192,192,43561,1,0,0:0:0:0:
448,192,43561,1,0,0:0:0:0:
192,192,43677,1,0,0:0:0:0:
448,192,43677,1,0,0:0:0:0:
64,192,43908,1,0,0:0:0:0:
192,192,43908,1,0,0:0:0:0:
320,192,43908,1,0,0:0:0:0:
448,192,43908,1,0,0:0:0:0:
64,192,44023,1,0,0:0:0:0:
192,192,44023,1,0,0:0:0:0:
64,192,44138,1,0,0:0:0:0:
192,192,44138,1,0,0:0:0:0:
320,192,44369,1,0,0:0:0:0:
448,192,44369,1,0,0:0:0:0:
320,192,44484,1,0,0:0:0:0:
448,192,44484,1,0,0:0:0:0:
64,192,44715,1,0,0:0:0:0:
320,192,44715,1,0,0:0:0:0:
64,192,44831,1,0,0:0:0:0:
192,192,44831,1,0,0:0:0:0:
320,192,44831,1,0,0:0:0:0:
448,192,44831,1,0,0:0:0:0:
192,192,45061,1,0,0:0:0:0:
320,192,45061,1,0,0:0:0:0:
192,192,45177,1,0,0:0:0:0:
320,192,45177,1,0,0:0:0:0:
64,192,45408,1,0,0:0:0:0:
192,192,45408,1,0,0:0:0:0:
64,192,45523,1,0,0:0:0:0:
192,192,45523,1,0,0:0:0:0:
64,192,45754,1,0,0:0:0:0:
192,192,45754,1,0,0:0:0:0:
320,192,45754,1,0,0:0:0:0:
448,192,45754,1,0,0:0:0:0:
320,192,45869,1,0,0:0:0:0:
448,192,45869,1,0,0:0:0:0:
320,192,45984,1,0,0:0:0:0:
448,192,45984,1,0,0:0:0:0:
64,192,46100,1,0,0:0:0:0:
192,192,46100,1,0,0:0:0:0:
64,192,46215,1,0,0:0:0:0:
192,192,46215,1,0,0:0:0:0:
448,192,46215,1,0,0:0:0:0:
320,192,46215,1,0,0:0:0:0:
320,192,46331,1,0,0:0:0:0:
448,192,46331,1,0,0:0:0:0:
192,192,46331,1,0,0:0:0:0:
320,192,46446,1,0,0:0:0:0:
448,192,46446,1,0,0:0:0:0:
64,192,46446,1,0,0:0:0:0:
448,192,46561,1,0,0:0:0:0:
192,192,46561,1,0,0:0:0:0:
320,192,46561,1,0,0:0:0:0:
64,192,46677,1,0,0:0:0:0:
448,192,46677,1,0,0:0:0:0:
192,192,46677,1,0,0:0:0:0:
320,192,46677,1,0,0:0:0:0:
64,192,46792,1,0,0:0:0:0:
448,192,46792,1,0,0:0:0:0:
192,192,46792,1,0,0:0:0:0:
64,192,46908,1,0,0:0:0:0:
192,192,46908,1,0,0:0:0:0:
320,192,46908,1,0,0:0:0:0:
192,192,47023,1,0,0:0:0:0:
320,192,47023,1,0,0:0:0:0:
64,192,47023,1,0,0:0:0:0:
192,192,47138,1,0,0:0:0:0:
320,192,47138,1,0,0:0:0:0:
448,192,47138,1,0,0:0:0:0:
64,192,47196,1,0,0:0:0:0:
192,192,47254,1,0,0:0:0:0:
448,192,47254,1,0,0:0:0:0:
320,192,47311,1,0,0:0:0:0:
192,192,47369,1,0,0:0:0:0:
64,192,47369,1,0,0:0:0:0:
448,192,47427,1,0,0:0:0:0:
320,192,47484,1,0,0:0:0:0:
64,192,47484,1,0,0:0:0:0:
192,192,47542,1,0,0:0:0:0:
320,192,47600,1,0,0:0:0:0:
448,192,47600,1,0,0:0:0:0:
64,192,47658,1,0,0:0:0:0:
192,192,47715,1,0,0:0:0:0:
448,192,47715,1,0,0:0:0:0:
320,192,47773,1,0,0:0:0:0:
192,192,47831,1,0,0:0:0:0:
64,192,47831,1,0,0:0:0:0:
448,192,47888,1,0,0:0:0:0:
320,192,47946,1,0,0:0:0:0:
64,192,47946,1,0,0:0:0:0:
192,192,48004,1,0,0:0:0:0:
448,192,48061,1,0,0:0:0:0:
320,192,48100,1,0,0:0:0:0:
64,192,48138,1,0,0:0:0:0:
192,192,48177,1,0,0:0:0:0:
448,192,48215,1,0,0:0:0:0:
320,192,48254,1,0,0:0:0:0:
64,192,48292,1,0,0:0:0:0:
448,192,48331,1,0,0:0:0:0:
192,192,48369,1,0,0:0:0:0:
320,192,48408,1,0,0:0:0:0:
64,192,48446,1,0,0:0:0:0:
192,192,48484,1,0,0:0:0:0:
448,192,48523,1,0,0:0:0:0:
320,192,48561,1,0,0:0:0:0:
64,192,48600,1,0,0:0:0:0:
448,192,48638,1,0,0:0:0:0:
192,192,48677,1,0,0:0:0:0:
320,192,48715,1,0,0:0:0:0:
64,192,48754,1,0,0:0:0:0:
192,192,48792,1,0,0:0:0:0:
448,192,48831,1,0,0:0:0:0:
320,192,48869,1,0,0:0:0:0:
64,192,48908,1,0,0:0:0:0:
448,192,48946,1,0,0:0:0:0:
320,192,48984,1,0,0:0:0:0:
192,192,48984,1,0,0:0:0:0:
64,192,49042,1,0,0:0:0:0:
448,192,49100,1,0,0:0:0:0:
320,192,49158,1,0,0:0:0:0:
192,192,49215,1,0,0:0:0:0:
64,192,49215,1,0,0:0:0:0:
448,192,49273,1,0,0:0:0:0:
320,192,49331,1,0,0:0:0:0:
64,192,49388,1,0,0:0:0:0:
192,192,49446,1,0,0:0:0:0:
448,192,49446,1,0,0:0:0:0:
320,192,49504,1,0,0:0:0:0:
192,192,49561,1,0,0:0:0:0:
64,192,49619,1,0,0:0:0:0:
192,192,49677,1,0,0:0:0:0:
448,192,49677,1,0,0:0:0:0:
320,192,49677,1,0,0:0:0:0:
64,192,49908,1,0,0:0:0:0:
192,192,49908,1,0,0:0:0:0:
448,192,49908,1,0,0:0:0:0:
64,192,50023,1,0,0:0:0:0:
192,192,50023,1,0,0:0:0:0:
448,192,50138,1,0,0:0:0:0:
320,192,50138,1,0,0:0:0:0:
64,192,50138,1,0,0:0:0:0:
192,192,50254,1,0,0:0:0:0:
64,192,50369,1,0,0:0:0:0:
192,192,50369,1,0,0:0:0:0:
320,192,50369,1,0,0:0:0:0:
448,192,50484,1,0,0:0:0:0:
320,192,50484,1,0,0:0:0:0:
64,192,50600,1,0,0:0:0:0:
192,192,50600,1,0,0:0:0:0:
448,192,50600,1,0,0:0:0:0:
320,192,50658,1,0,0:0:0:0:
192,192,50715,1,0,0:0:0:0:
320,192,50831,1,0,0:0:0:0:
448,192,50831,1,0,0:0:0:0:
64,192,50831,1,0,0:0:0:0:
320,192,50946,1,0,0:0:0:0:
448,192,50946,1,0,0:0:0:0:
192,192,51004,1,0,0:0:0:0:
64,192,51061,1,0,0:0:0:0:
448,192,51061,1,0,0:0:0:0:
192,192,51177,1,0,0:0:0:0:
448,192,51292,1,0,0:0:0:0:
64,192,51292,1,0,0:0:0:0:
192,192,51292,1,0,0:0:0:0:
320,192,51350,1,0,0:0:0:0:
64,192,51408,1,0,0:0:0:0:
192,192,51523,1,0,0:0:0:0:
448,192,51523,1,0,0:0:0:0:
320,192,51523,1,0,0:0:0:0:
448,192,51638,1,0,0:0:0:0:
64,192,51638,1,0,0:0:0:0:
64,192,51754,1,0,0:0:0:0:
192,192,51754,1,0,0:0:0:0:
320,192,51754,1,0,0:0:0:0:
320,192,51869,1,0,0:0:0:0:
448,192,51984,1,0,0:0:0:0:
192,192,51984,1,0,0:0:0:0:
64,192,51984,1,0,0:0:0:0:
64,192,52100,1,0,0:0:0:0:
192,192,52100,1,0,0:0:0:0:
320,192,52215,1,0,0:0:0:0:
448,192,52215,1,0,0:0:0:0:
64,192,52215,1,0,0:0:0:0:
320,192,52331,1,0,0:0:0:0:
448,192,52331,1,0,0:0:0:0:
64,192,52446,1,0,0:0:0:0:
448,192,52446,1,0,0:0:0:0:
192,192,52504,1,0,0:0:0:0:
320,192,52561,1,0,0:0:0:0:
64,192,52677,1,0,0:0:0:0:
192,192,52677,1,0,0:0:0:0:
320,192,52677,1,0,0:0:0:0:
448,192,52792,1,0,0:0:0:0:
64,192,52792,1,0,0:0:0:0:
192,192,52850,1,0,0:0:0:0:
320,192,52908,1,0,0:0:0:0:
448,192,52908,1,0,0:0:0:0:
64,192,53023,1,0,0:0:0:0:
192,192,53023,1,0,0:0:0:0:
64,192,53138,1,0,0:0:0:0:
320,192,53138,1,0,0:0:0:0:
448,192,53138,1,0,0:0:0:0:
192,192,53196,1,0,0:0:0:0:
448,192,53254,1,0,0:0:0:0:
192,192,53311,1,0,0:0:0:0:
64,192,53369,1,0,0:0:0:0:
448,192,53408,1,0,0:0:0:0:
320,192,53446,1,0,0:0:0:0:
64,192,53484,1,0,0:0:0:0:
192,192,53523,1,0,0:0:0:0:
448,192,53561,1,0,0:0:0:0:
320,192,53600,1,0,0:0:0:0:
64,192,53600,1,0,0:0:0:0:
192,192,53715,1,0,0:0:0:0:
320,192,53831,1,0,0:0:0:0:
448,192,53831,1,0,0:0:0:0:
64,192,53831,1,0,0:0:0:0:
192,192,53946,1,0,0:0:0:0:
448,192,53946,1,0,0:0:0:0:
192,192,54061,1,0,0:0:0:0:
64,192,54061,1,0,0:0:0:0:
320,192,54061,1,0,0:0:0:0:
448,192,54177,1,0,0:0:0:0:
64,192,54177,1,0,0:0:0:0:
320,192,54292,1,0,0:0:0:0:
448,192,54292,1,0,0:0:0:0:
192,192,54350,1,0,0:0:0:0:
64,192,54408,1,0,0:0:0:0:
64,192,54523,1,0,0:0:0:0:
320,192,54523,1,0,0:0:0:0:
448,192,54523,1,0,0:0:0:0:
192,192,54638,1,0,0:0:0:0:
448,192,54638,1,0,0:0:0:0:
64,192,54696,1,0,0:0:0:0:
320,192,54754,1,0,0:0:0:0:
192,192,54754,1,0,0:0:0:0:
448,192,54869,1,0,0:0:0:0:
64,192,54984,1,0,0:0:0:0:
192,192,54984,1,0,0:0:0:0:
320,192,55042,1,0,0:0:0:0:
448,192,55100,1,0,0:0:0:0:
64,192,55215,1,0,0:0:0:0:
192,192,55215,1,0,0:0:0:0:
448,192,55215,1,0,0:0:0:0:
320,192,55331,1,0,0:0:0:0:
64,192,55331,1,0,0:0:0:0:
192,192,55446,1,0,0:0:0:0:
448,192,55446,1,0,0:0:0:0:
320,192,55446,1,0,0:0:0:0:
64,192,55561,1,0,0:0:0:0:
448,192,55561,1,0,0:0:0:0:
320,192,55619,1,0,0:0:0:0:
64,192,55677,1,0,0:0:0:0:
320,192,55734,1,0,0:0:0:0:
64,192,55792,1,0,0:0:0:0:
192,192,55792,1,0,0:0:0:0:
448,192,55908,1,0,0:0:0:0:
320,192,55908,1,0,0:0:0:0:
192,192,55965,1,0,0:0:0:0:
448,192,56023,1,0,0:0:0:0:
192,192,56081,1,0,0:0:0:0:
448,192,56138,1,0,0:0:0:0:
64,192,56138,1,0,0:0:0:0:
320,192,56254,1,0,0:0:0:0:
192,192,56254,1,0,0:0:0:0:
64,192,56369,1,0,0:0:0:0:
192,192,56408,1,0,0:0:0:0:
448,192,56446,1,0,0:0:0:0:
320,192,56484,1,0,0:0:0:0:
64,192,56523,1,0,0:0:0:0:
448,192,56561,1,0,0:0:0:0:
192,192,56600,1,0,0:0:0:0:
320,192,56638,1,0,0:0:0:0:
448,192,56715,1,0,0:0:0:0:
64,192,56831,1,0,0:0:0:0:
192,192,56888,1,0,0:0:0:0:
448,192,56946,1,0,0:0:0:0:
320,192,57004,1,0,0:0:0:0:
64,192,57061,1,0,0:0:0:0:
320,192,57100,1,0,0:0:0:0:
64,192,57138,1,0,0:0:0:0:
448,192,57177,1,0,0:0:0:0:
192,192,57215,1,0,0:0:0:0:
448,192,57254,1,0,0:0:0:0:
192,192,57292,1,0,0:0:0:0:
64,192,57292,1,0,0:0:0:0:
64,192,57408,1,0,0:0:0:0:
320,192,57408,1,0,0:0:0:0:
192,192,57523,1,0,0:0:0:0:
320,192,57523,1,0,0:0:0:0:
448,192,57523,1,0,0:0:0:0:
192,192,57638,1,0,0:0:0:0:
320,192,57754,1,0,0:0:0:0:
448,192,57754,1,0,0:0:0:0:
64,192,57754,1,0,0:0:0:0:
192,192,57869,1,0,0:0:0:0:
448,192,57869,1,0,0:0:0:0:
64,192,57984,1,0,0:0:0:0:
320,192,57984,1,0,0:0:0:0:
448,192,58042,1,0,0:0:0:0:
192,192,58100,1,0,0:0:0:0:
64,192,58215,1,0,0:0:0:0:
192,192,58215,1,0,0:0:0:0:
320,192,58215,1,0,0:0:0:0:
448,192,58331,1,0,0:0:0:0:
320,192,58331,1,0,0:0:0:0:
192,192,58388,1,0,0:0:0:0:
64,192,58446,1,0,0:0:0:0:
448,192,58446,1,0,0:0:0:0:
320,192,58561,1,0,0:0:0:0:
192,192,58561,1,0,0:0:0:0:
448,192,58677,1,0,0:0:0:0:
64,192,58677,1,0,0:0:0:0:
192,192,58677,1,0,0:0:0:0:
320,192,58734,1,0,0:0:0:0:
64,192,58792,1,0,0:0:0:0:
192,192,58831,1,0,0:0:0:0:
448,192,58869,1,0,0:0:0:0:
320,192,58908,1,0,0:0:0:0:
64,192,58908,1,0,0:0:0:0:
64,192,59138,1,0,0:0:0:0:
192,192,59138,1,0,0:0:0:0:
448,192,59138,1,0,0:0:0:0:
320,192,59254,1,0,0:0:0:0:
64,192,59369,1,0,0:0:0:0:
320,192,59369,1,0,0:0:0:0:
192,192,59369,1,0,0:0:0:0:
64,192,59484,1,0,0:0:0:0:
448,192,59484,1,0,0:0:0:0:
320,192,59600,1,0,0:0:0:0:
192,192,59600,1,0,0:0:0:0:
448,192,59600,1,0,0:0:0:0:
64,192,59715,1,0,0:0:0:0:
320,192,59715,1,0,0:0:0:0:
192,192,59831,1,0,0:0:0:0:
64,192,59831,1,0,0:0:0:0:
320,192,59888,1,0,0:0:0:0:
448,192,59946,1,0,0:0:0:0:
64,192,60061,1,0,0:0:0:0:
192,192,60061,1,0,0:0:0:0:
320,192,60061,1,0,0:0:0:0:
448,192,60177,1,0,0:0:0:0:
320,192,60177,1,0,0:0:0:0:
192,192,60234,1,0,0:0:0:0:
64,192,60292,1,0,0:0:0:0:
448,192,60292,1,0,0:0:0:0:
320,192,60408,1,0,0:0:0:0:
64,192,60408,1,0,0:0:0:0:
192,192,60523,128,0,60754:0:0:0:0:
320,192,60523,1,0,0:0:0:0:
64,192,60754,1,0,0:0:0:0:
320,192,60811,1,0,0:0:0:0:
64,192,60869,1,0,0:0:0:0:
320,192,60927,1,0,0:0:0:0:
64,192,60984,1,0,0:0:0:0:
192,192,60984,1,0,0:0:0:0:
320,192,61042,1,0,0:0:0:0:
448,192,61042,1,0,0:0:0:0:
192,192,61100,1,0,0:0:0:0:
64,192,61100,1,0,0:0:0:0:
320,192,61215,1,0,0:0:0:0:
448,192,61215,1,0,0:0:0:0:
64,192,61331,1,0,0:0:0:0:
320,192,61331,1,0,0:0:0:0:
192,192,61446,1,0,0:0:0:0:
448,192,61446,1,0,0:0:0:0:
64,192,61446,1,0,0:0:0:0:
320,192,61561,1,0,0:0:0:0:
448,192,61561,1,0,0:0:0:0:
64,192,61677,1,0,0:0:0:0:
448,192,61792,1,0,0:0:0:0:
64,192,61908,1,0,0:0:0:0:
192,192,61908,1,0,0:0:0:0:
320,192,61908,1,0,0:0:0:0:
64,192,62023,1,0,0:0:0:0:
192,192,62023,1,0,0:0:0:0:
320,192,62081,1,0,0:0:0:0:
448,192,62081,1,0,0:0:0:0:
192,192,62138,1,0,0:0:0:0:
64,192,62138,1,0,0:0:0:0:
320,192,62254,1,0,0:0:0:0:
448,192,62254,1,0,0:0:0:0:
448,192,62369,1,0,0:0:0:0:
64,192,62369,128,0,62600:0:0:0:0:
320,192,62600,128,0,62831:0:0:0:0:
64,192,62831,1,0,0:0:0:0:
192,192,62831,1,0,0:0:0:0:
448,192,62831,1,0,0:0:0:0:
64,192,62946,1,0,0:0:0:0:
320,192,62946,1,0,0:0:0:0:
448,192,62946,1,0,0:0:0:0:
192,192,63061,128,0,63292:0:0:0:0:
320,192,63292,1,0,0:0:0:0:
448,192,63292,1,0,0:0:0:0:
192,192,63350,1,0,0:0:0:0:
64,192,63350,1,0,0:0:0:0:
320,192,63408,1,0,0:0:0:0:
448,192,63408,1,0,0:0:0:0:
192,192,63465,1,0,0:0:0:0:
64,192,63465,1,0,0:0:0:0:
320,192,63523,1,0,0:0:0:0:
448,192,63523,128,0,63754:0:0:0:0:
64,192,63754,1,0,0:0:0:0:
192,192,63811,1,0,0:0:0:0:
320,192,63869,1,0,0:0:0:0:
64,192,63984,1,0,0:0:0:0:
320,192,64100,1,0,0:0:0:0:
192,192,64215,1,0,0:0:0:0:
320,192,64273,1,0,0:0:0:0:
448,192,64331,1,0,0:0:0:0:
192,192,64446,1,0,0:0:0:0:
448,192,64504,1,0,0:0:0:0:
192,192,64561,1,0,0:0:0:0:
448,192,64619,1,0,0:0:0:0:
64,192,64677,1,0,0:0:0:0:
192,192,64677,1,0,0:0:0:0:
320,192,64677,1,0,0:0:0:0:
320,192,64792,1,0,0:0:0:0:
192,192,64908,1,0,0:0:0:0:
320,192,64908,1,0,0:0:0:0:
448,192,64908,1,0,0:0:0:0:
64,192,64908,1,0,0:0:0:0:
192,192,65023,1,0,0:0:0:0:
64,192,65138,1,0,0:0:0:0:
448,192,65138,1,0,0:0:0:0:
320,192,65138,1,0,0:0:0:0:
320,192,65254,1,0,0:0:0:0:
448,192,65254,1,0,0:0:0:0:
192,192,65369,1,0,0:0:0:0:
64,192,65369,1,0,0:0:0:0:
320,192,65369,1,0,0:0:0:0:
448,192,65369,1,0,0:0:0:0:
192,192,65484,1,0,0:0:0:0:
192,192,65600,1,0,0:0:0:0:
64,192,65600,1,0,0:0:0:0:
320,192,65600,1,0,0:0:0:0:
64,192,65715,1,0,0:0:0:0:
64,192,65831,1,0,0:0:0:0:
192,192,65831,1,0,0:0:0:0:
320,192,65831,1,0,0:0:0:0:
448,192,65831,1,0,0:0:0:0:
320,192,65946,1,0,0:0:0:0:
448,192,65946,1,0,0:0:0:0:
64,192,66061,1,0,0:0:0:0:
192,192,66061,1,0,0:0:0:0:
448,192,66061,1,0,0:0:0:0:
320,192,66177,1,0,0:0:0:0:
192,192,66177,1,0,0:0:0:0:
64,192,66292,1,0,0:0:0:0:
192,192,66292,1,0,0:0:0:0:
320,192,66292,1,0,0:0:0:0:
448,192,66292,1,0,0:0:0:0:
448,192,66408,1,0,0:0:0:0:
64,192,66408,1,0,0:0:0:0:
192,192,66523,1,0,0:0:0:0:
320,192,66523,1,0,0:0:0:0:
448,192,66523,1,0,0:0:0:0:
192,192,66638,1,0,0:0:0:0:
320,192,66638,1,0,0:0:0:0:
64,192,66754,1,0,0:0:0:0:
192,192,66754,1,0,0:0:0:0:
448,192,66754,1,0,0:0:0:0:
320,192,66754,1,0,0:0:0:0:
448,192,66869,1,0,0:0:0:0:
64,192,66984,1,0,0:0:0:0:
192,192,66984,1,0,0:0:0:0:
320,192,66984,1,0,0:0:0:0:
64,192,67100,1,0,0:0:0:0:
192,192,67100,1,0,0:0:0:0:
64,192,67215,1,0,0:0:0:0:
192,192,67215,1,0,0:0:0:0:
320,192,67215,1,0,0:0:0:0:
448,192,67215,1,0,0:0:0:0:
448,192,67331,1,0,0:0:0:0:
320,192,67446,1,0,0:0:0:0:
448,192,67446,1,0,0:0:0:0:
192,192,67446,1,0,0:0:0:0:
64,192,67561,1,0,0:0:0:0:
64,192,67677,1,0,0:0:0:0:
192,192,67677,1,0,0:0:0:0:
320,192,67677,1,0,0:0:0:0:
448,192,67677,1,0,0:0:0:0:
320,192,67792,1,0,0:0:0:0:
64,192,67908,1,0,0:0:0:0:
192,192,67965,1,0,0:0:0:0:
448,192,68023,1,0,0:0:0:0:
320,192,68081,1,0,0:0:0:0:
192,192,68138,1,0,0:0:0:0:
64,192,68177,1,0,0:0:0:0:
448,192,68215,1,0,0:0:0:0:
320,192,68254,1,0,0:0:0:0:
64,192,68292,1,0,0:0:0:0:
192,192,68331,1,0,0:0:0:0:
448,192,68369,1,0,0:0:0:0:
320,192,68369,1,0,0:0:0:0:
448,192,68484,1,0,0:0:0:0:
192,192,68484,1,0,0:0:0:0:
64,192,68600,1,0,0:0:0:0:
320,192,68600,1,0,0:0:0:0:
192,192,68715,1,0,0:0:0:0:
320,192,68831,1,0,0:0:0:0:
448,192,68831,1,0,0:0:0:0:
64,192,68946,1,0,0:0:0:0:
448,192,68946,1,0,0:0:0:0:
320,192,68946,1,0,0:0:0:0:
64,192,69061,1,0,0:0:0:0:
192,192,69061,1,0,0:0:0:0:
448,192,69177,1,0,0:0:0:0:
320,192,69177,1,0,0:0:0:0:
64,192,69292,1,0,0:0:0:0:
448,192,69292,1,0,0:0:0:0:
192,192,69408,1,0,0:0:0:0:
320,192,69523,1,0,0:0:0:0:
448,192,69523,1,0,0:0:0:0:
64,192,69638,1,0,0:0:0:0:
448,192,69638,1,0,0:0:0:0:
192,192,69754,1,0,0:0:0:0:
320,192,69754,1,0,0:0:0:0:
64,192,69754,1,0,0:0:0:0:
320,192,69869,1,0,0:0:0:0:
448,192,69869,1,0,0:0:0:0:
64,192,69984,1,0,0:0:0:0:
192,192,69984,1,0,0:0:0:0:
320,192,70100,1,0,0:0:0:0:
64,192,70215,1,0,0:0:0:0:
448,192,70215,1,0,0:0:0:0:
192,192,70331,1,0,0:0:0:0:
64,192,70331,1,0,0:0:0:0:
320,192,70446,1,0,0:0:0:0:
448,192,70446,1,0,0:0:0:0:
64,192,70561,1,0,0:0:0:0:
320,192,70561,1,0,0:0:0:0:
64,192,70677,1,0,0:0:0:0:
192,192,70677,1,0,0:0:0:0:
448,192,70677,1,0,0:0:0:0:
320,192,70792,1,0,0:0:0:0:
64,192,70908,1,0,0:0:0:0:
320,192,70908,1,0,0:0:0:0:
64,192,71023,1,0,0:0:0:0:
192,192,71023,1,0,0:0:0:0:
192,192,71138,1,0,0:0:0:0:
64,192,71254,1,0,0:0:0:0:
448,192,71254,1,0,0:0:0:0:
320,192,71369,1,0,0:0:0:0:
448,192,71369,1,0,0:0:0:0:
320,192,71484,1,0,0:0:0:0:
64,192,71600,1,0,0:0:0:0:
320,192,71638,1,0,0:0:0:0:
192,192,71677,1,0,0:0:0:0:
64,192,71715,1,0,0:0:0:0:
320,192,71831,1,0,0:0:0:0:
64,192,71869,1,0,0:0:0:0:
192,192,71908,1,0,0:0:0:0:
448,192,71946,1,0,0:0:0:0:
64,192,72061,1,0,0:0:0:0:
192,192,72061,1,0,0:0:0:0:
320,192,72061,1,0,0:0:0:0:
320,192,72177,1,0,0:0:0:0:
192,192,72292,1,0,0:0:0:0:
320,192,72292,1,0,0:0:0:0:
448,192,72292,1,0,0:0:0:0:
64,192,72292,1,0,0:0:0:0:
192,192,72408,1,0,0:0:0:0:
64,192,72523,1,0,0:0:0:0:
448,192,72523,1,0,0:0:0:0:
320,192,72523,1,0,0:0:0:0:
320,192,72638,1,0,0:0:0:0:
448,192,72638,1,0,0:0:0:0:
192,192,72754,1,0,0:0:0:0:
64,192,72754,1,0,0:0:0:0:
320,192,72754,1,0,0:0:0:0:
448,192,72754,1,0,0:0:0:0:
192,192,72869,1,0,0:0:0:0:
192,192,72984,1,0,0:0:0:0:
64,192,72984,1,0,0:0:0:0:
320,192,72984,1,0,0:0:0:0:
64,192,73100,1,0,0:0:0:0:
64,192,73215,1,0,0:0:0:0:
192,192,73215,1,0,0:0:0:0:
320,192,73215,1,0,0:0:0:0:
448,192,73215,1,0,0:0:0:0:
320,192,73331,1,0,0:0:0:0:
448,192,73331,1,0,0:0:0:0:
64,192,73446,1,0,0:0:0:0:
192,192,73446,1,0,0:0:0:0:
448,192,73446,1,0,0:0:0:0:
320,192,73561,1,0,0:0:0:0:
192,192,73561,1,0,0:0:0:0:
64,192,73677,1,0,0:0:0:0:
192,192,73677,1,0,0:0:0:0:
320,192,73677,1,0,0:0:0:0:
448,192,73677,1,0,0:0:0:0:
448,192,73792,1,0,0:0:0:0:
64,192,73792,1,0,0:0:0:0:
192,192,73908,1,0,0:0:0:0:
320,192,73908,1,0,0:0:0:0:
448,192,73908,1,0,0:0:0:0:
192,192,74023,1,0,0:0:0:0:
320,192,74023,1,0,0:0:0:0:
64,192,74138,1,0,0:0:0:0:
192,192,74138,1,0,0:0:0:0:
448,192,74138,1,0,0:0:0:0:
320,192,74138,1,0,0:0:0:0:
448,192,74254,1,0,0:0:0:0:
64,192,74369,1,0,0:0:0:0:
192,192,74369,1,0,0:0:0:0:
320,192,74369,1,0,0:0:0:0:
64,192,74484,1,0,0:0:0:0:
192,192,74484,1,0,0:0:0:0:
64,192,74600,1,0,0:0:0:0:
192,192,74600,1,0,0:0:0:0:
320,192,74600,1,0,0:0:0:0:
448,192,74600,1,0,0:0:0:0:
448,192,74715,1,0,0:0:0:0:
320,192,74831,1,0,0:0:0:0:
448,192,74831,1,0,0:0:0:0:
192,192,74831,1,0,0:0:0:0:
64,192,74946,1,0,0:0:0:0:
64,192,75061,1,0,0:0:0:0:
192,192,75061,1,0,0:0:0:0:
320,192,75061,1,0,0:0:0:0:
448,192,75061,1,0,0:0:0:0:
320,192,75177,1,0,0:0:0:0:
64,192,75292,1,0,0:0:0:0:
192,192,75350,1,0,0:0:0:0:
448,192,75408,1,0,0:0:0:0:
320,192,75465,1,0,0:0:0:0:
64,192,75523,1,0,0:0:0:0:
192,192,75561,1,0,0:0:0:0:
448,192,75600,1,0,0:0:0:0:
320,192,75638,1,0,0:0:0:0:
64,192,75677,1,0,0:0:0:0:
448,192,75715,1,0,0:0:0:0:
192,192,75754,1,0,0:0:0:0:
320,192,75754,1,0,0:0:0:0:
64,192,75869,1,0,0:0:0:0:
192,192,75869,1,0,0:0:0:0:
64,192,75984,1,0,0:0:0:0:
320,192,75984,1,0,0:0:0:0:
448,192,75984,1,0,0:0:0:0:
64,192,76100,1,0,0:0:0:0:
192,192,76100,1,0,0:0:0:0:
320,192,76215,1,0,0:0:0:0:
448,192,76215,1,0,0:0:0:0:
64,192,76331,1,0,0:0:0:0:
192,192,76331,1,0,0:0:0:0:
448,192,76331,1,0,0:0:0:0:
320,192,76446,1,0,0:0:0:0:
192,192,76446,1,0,0:0:0:0:
64,192,76561,1,0,0:0:0:0:
320,192,76561,1,0,0:0:0:0:
192,192,76677,1,0,0:0:0:0:
64,192,76677,1,0,0:0:0:0:
448,192,76677,1,0,0:0:0:0:
192,192,76792,1,0,0:0:0:0:
320,192,76792,1,0,0:0:0:0:
448,192,76908,1,0,0:0:0:0:
64,192,76908,1,0,0:0:0:0:
448,192,77023,1,0,0:0:0:0:
64,192,77023,1,0,0:0:0:0:
320,192,77023,1,0,0:0:0:0:
192,192,77138,1,0,0:0:0:0:
320,192,77138,1,0,0:0:0:0:
192,192,77254,1,0,0:0:0:0:
448,192,77254,1,0,0:0:0:0:
64,192,77369,1,0,0:0:0:0:
320,192,77369,1,0,0:0:0:0:
448,192,77369,1,0,0:0:0:0:
64,192,77484,1,0,0:0:0:0:
192,192,77484,1,0,0:0:0:0:
448,192,77542,1,0,0:0:0:0:
320,192,77600,1,0,0:0:0:0:
64,192,77715,1,0,0:0:0:0:
320,192,77715,1,0,0:0:0:0:
64,192,77831,1,0,0:0:0:0:
192,192,77831,1,0,0:0:0:0:
448,192,77831,1,0,0:0:0:0:
320,192,77946,1,0,0:0:0:0:
448,192,77946,1,0,0:0:0:0:
192,192,78061,1,0,0:0:0:0:
64,192,78061,1,0,0:0:0:0:
64,192,78177,1,0,0:0:0:0:
448,192,78177,1,0,0:0:0:0:
192,192,78177,1,0,0:0:0:0:
320,192,78292,1,0,0:0:0:0:
448,192,78292,1,0,0:0:0:0:
448,192,78408,1,0,0:0:0:0:
64,192,78408,1,0,0:0:0:0:
64,192,78523,1,0,0:0:0:0:
320,192,78523,1,0,0:0:0:0:
192,192,78581,1,0,0:0:0:0:
448,192,78638,1,0,0:0:0:0:
320,192,78696,1,0,0:0:0:0:
192,192,78754,1,0,0:0:0:0:
64,192,78754,1,0,0:0:0:0:
64,192,78869,1,0,0:0:0:0:
448,192,78869,1,0,0:0:0:0:
320,192,78984,1,0,0:0:0:0:
448,192,78984,1,0,0:0:0:0:
64,192,79446,1,0,0:0:0:0:
192,192,79446,1,0,0:0:0:0:
320,192,79446,1,0,0:0:0:0:
448,192,79446,1,0,0:0:0:0:
192,192,80715,1,0,0:0:0:0:
192,192,81061,1,0,0:0:0:0:
64,192,81638,1,0,0:0:0:0:
320,192,81984,1,0,0:0:0:0:
64,192,82446,1,0,0:0:0:0:
192,192,82504,1,0,0:0:0:0:
320,192,82561,1,0,0:0:0:0:
448,192,82561,1,0,0:0:0:0:
320,192,82677,1,0,0:0:0:0:
448,192,82677,1,0,0:0:0:0:
64,192,82792,1,0,0:0:0:0:
192,192,82792,1,0,0:0:0:0:
64,192,82908,1,0,0:0:0:0:
192,192,82908,1,0,0:0:0:0:
64,192,83023,1,0,0:0:0:0:
448,192,83023,1,0,0:0:0:0:
320,192,83138,1,0,0:0:0:0:
448,192,83138,1,0,0:0:0:0:
192,192,83138,1,0,0:0:0:0:
64,192,83138,1,0,0:0:0:0:
320,192,83254,1,0,0:0:0:0:
192,192,83369,1,0,0:0:0:0:
192,192,83484,1,0,0:0:0:0:
320,192,83542,1,0,0:0:0:0:
448,192,83600,1,0,0:0:0:0:
192,192,83658,1,0,0:0:0:0:
64,192,83831,1,0,0:0:0:0:
64,192,83946,1,0,0:0:0:0:
192,192,84061,1,0,0:0:0:0:
320,192,84061,1,0,0:0:0:0:
448,192,84061,1,0,0:0:0:0:
64,192,84061,1,0,0:0:0:0:
320,192,84292,128,0,84408:0:0:0:0:
448,192,84408,128,0,84523:0:0:0:0:
64,192,84523,128,0,84638:0:0:0:0:
192,192,84638,128,0,84984:0:0:0:0:
448,192,84984,1,0,0:0:0:0:
320,192,85042,1,0,0:0:0:0:
192,192,85100,1,0,0:0:0:0:
64,192,85100,1,0,0:0:0:0:
64,192,85331,1,0,0:0:0:0:
320,192,85331,1,0,0:0:0:0:
192,192,85388,1,0,0:0:0:0:
448,192,85446,1,0,0:0:0:0:
320,192,85446,1,0,0:0:0:0:
64,192,85677,1,0,0:0:0:0:
448,192,85677,1,0,0:0:0:0:
320,192,85734,1,0,0:0:0:0:
192,192,85792,1,0,0:0:0:0:
64,192,85792,1,0,0:0:0:0:
448,192,85850,1,0,0:0:0:0:
320,192,85908,1,0,0:0:0:0:
192,192,85908,1,0,0:0:0:0:
320,192,86023,1,0,0:0:0:0:
320,192,86138,1,0,0:0:0:0:
320,192,86254,1,0,0:0:0:0:
320,192,86369,1,0,0:0:0:0:
64,192,86427,1,0,0:0:0:0:
448,192,86484,1,0,0:0:0:0:
64,192,86542,1,0,0:0:0:0:
448,192,86600,1,0,0:0:0:0:
320,192,86600,1,0,0:0:0:0:
192,192,86600,1,0,0:0:0:0:
64,192,86831,1,0,0:0:0:0:
320,192,86831,1,0,0:0:0:0:
448,192,86831,1,0,0:0:0:0:
192,192,86831,1,0,0:0:0:0:
64,192,86946,1,0,0:0:0:0:
192,192,86946,1,0,0:0:0:0:
64,192,87061,1,0,0:0:0:0:
320,192,87061,1,0,0:0:0:0:
448,192,87061,1,0,0:0:0:0:
192,192,87177,1,0,0:0:0:0:
448,192,87177,1,0,0:0:0:0:
320,192,87292,1,0,0:0:0:0:
64,192,87292,1,0,0:0:0:0:
448,192,87292,1,0,0:0:0:0:
64,192,87408,1,0,0:0:0:0:
192,192,87408,1,0,0:0:0:0:
320,192,87408,1,0,0:0:0:0:
192,192,87523,1,0,0:0:0:0:
448,192,87523,1,0,0:0:0:0:
320,192,87638,1,0,0:0:0:0:
64,192,87638,1,0,0:0:0:0:
192,192,87754,1,0,0:0:0:0:
320,192,87754,1,0,0:0:0:0:
448,192,87754,1,0,0:0:0:0:
64,192,87869,1,0,0:0:0:0:
448,192,87869,1,0,0:0:0:0:
192,192,87984,1,0,0:0:0:0:
320,192,87984,1,0,0:0:0:0:
448,192,87984,1,0,0:0:0:0:
64,192,88100,1,0,0:0:0:0:
192,192,88100,1,0,0:0:0:0:
320,192,88100,1,0,0:0:0:0:
448,192,88215,1,0,0:0:0:0:
64,192,88215,1,0,0:0:0:0:
320,192,88331,1,0,0:0:0:0:
448,192,88331,1,0,0:0:0:0:
64,192,88446,1,0,0:0:0:0:
192,192,88446,1,0,0:0:0:0:
320,192,88446,1,0,0:0:0:0:
64,192,88561,1,0,0:0:0:0:
320,192,88561,1,0,0:0:0:0:
448,192,88561,1,0,0:0:0:0:
192,192,88677,1,0,0:0:0:0:
448,192,88677,1,0,0:0:0:0:
192,192,88792,1,0,0:0:0:0:
64,192,88792,1,0,0:0:0:0:
64,192,88908,1,0,0:0:0:0:
320,192,88908,1,0,0:0:0:0:
448,192,88908,1,0,0:0:0:0:
192,192,89023,1,0,0:0:0:0:
448,192,89023,1,0,0:0:0:0:
64,192,89138,1,0,0:0:0:0:
320,192,89138,1,0,0:0:0:0:
448,192,89138,1,0,0:0:0:0:
320,192,89254,1,0,0:0:0:0:
64,192,89254,1,0,0:0:0:0:
192,192,89254,1,0,0:0:0:0:
448,192,89369,1,0,0:0:0:0:
192,192,89369,1,0,0:0:0:0:
448,192,89484,1,0,0:0:0:0:
64,192,89484,1,0,0:0:0:0:
64,192,89600,1,0,0:0:0:0:
320,192,89600,1,0,0:0:0:0:
192,192,89658,1,0,0:0:0:0:
320,192,89715,1,0,0:0:0:0:
64,192,89773,1,0,0:0:0:0:
192,192,89831,1,0,0:0:0:0:
448,192,89831,1,0,0:0:0:0:
320,192,89888,1,0,0:0:0:0:
192,192,89946,1,0,0:0:0:0:
64,192,89946,1,0,0:0:0:0:
448,192,90004,1,0,0:0:0:0:
320,192,90061,1,0,0:0:0:0:
64,192,90061,1,0,0:0:0:0:
192,192,90119,1,0,0:0:0:0:
320,192,90177,1,0,0:0:0:0:
448,192,90177,1,0,0:0:0:0:
64,192,90234,1,0,0:0:0:0:
192,192,90292,1,0,0:0:0:0:
448,192,90292,1,0,0:0:0:0:
320,192,90350,1,0,0:0:0:0:
192,192,90408,1,0,0:0:0:0:
64,192,90408,1,0,0:0:0:0:
448,192,90465,1,0,0:0:0:0:
320,192,90523,1,0,0:0:0:0:
64,192,90523,1,0,0:0:0:0:
192,192,90523,1,0,0:0:0:0:
320,192,90638,1,0,0:0:0:0:
448,192,90638,1,0,0:0:0:0:
64,192,90696,1,0,0:0:0:0:
192,192,90754,1,0,0:0:0:0:
320,192,90754,1,0,0:0:0:0:
448,192,90754,1,0,0:0:0:0:
192,192,90869,1,0,0:0:0:0:
448,192,90869,1,0,0:0:0:0:
320,192,90984,1,0,0:0:0:0:
64,192,90984,1,0,0:0:0:0:
192,192,90984,1,0,0:0:0:0:
64,192,91100,1,0,0:0:0:0:
448,192,91100,1,0,0:0:0:0:
320,192,91100,1,0,0:0:0:0:
192,192,91215,1,0,0:0:0:0:
448,192,91215,1,0,0:0:0:0:
320,192,91331,1,0,0:0:0:0:
64,192,91331,1,0,0:0:0:0:
192,192,91446,1,0,0:0:0:0:
320,192,91446,1,0,0:0:0:0:
448,192,91446,1,0,0:0:0:0:
64,192,91561,1,0,0:0:0:0:
448,192,91561,1,0,0:0:0:0:
192,192,91677,1,0,0:0:0:0:
320,192,91677,1,0,0:0:0:0:
448,192,91677,1,0,0:0:0:0:
64,192,91792,1,0,0:0:0:0:
192,192,91792,1,0,0:0:0:0:
320,192,91792,1,0,0:0:0:0:
448,192,91908,1,0,0:0:0:0:
64,192,91908,1,0,0:0:0:0:
320,192,92023,1,0,0:0:0:0:
448,192,92023,1,0,0:0:0:0:
64,192,92138,1,0,0:0:0:0:
192,192,92138,1,0,0:0:0:0:
320,192,92138,1,0,0:0:0:0:
64,192,92254,1,0,0:0:0:0:
320,192,92254,1,0,0:0:0:0:
448,192,92254,1,0,0:0:0:0:
192,192,92369,1,0,0:0:0:0:
448,192,92369,1,0,0:0:0:0:
192,192,92484,1,0,0:0:0:0:
64,192,92484,1,0,0:0:0:0:
64,192,92600,1,0,0:0:0:0:
320,192,92600,1,0,0:0:0:0:
448,192,92600,1,0,0:0:0:0:
192,192,92715,1,0,0:0:0:0:
448,192,92715,1,0,0:0:0:0:
64,192,92831,1,0,0:0:0:0:
320,192,92831,1,0,0:0:0:0:
448,192,92831,1,0,0:0:0:0:
192,192,92888,1,0,0:0:0:0:
320,192,92946,1,0,0:0:0:0:
192,192,93004,1,0,0:0:0:0:
448,192,93061,1,0,0:0:0:0:
320,192,93061,1,0,0:0:0:0:
64,192,93119,1,0,0:0:0:0:
448,192,93177,1,0,0:0:0:0:
64,192,93234,1,0,0:0:0:0:
448,192,93292,1,0,0:0:0:0:
320,192,93292,1,0,0:0:0:0:
192,192,93292,1,0,0:0:0:0:
192,192,93465,1,0,0:0:0:0:
448,192,93465,1,0,0:0:0:0:
320,192,93465,1,0,0:0:0:0:
192,192,93638,1,0,0:0:0:0:
448,192,93638,1,0,0:0:0:0:
320,192,93638,1,0,0:0:0:0:
192,192,93754,1,0,0:0:0:0:
448,192,93754,1,0,0:0:0:0:
320,192,93754,1,0,0:0:0:0:
64,192,94215,1,0,0:0:0:0:
320,192,94215,1,0,0:0:0:0:
448,192,94215,1,0,0:0:0:0:
448,192,94331,1,0,0:0:0:0:
320,192,94331,1,0,0:0:0:0:
64,192,94446,1,0,0:0:0:0:
192,192,94446,1,0,0:0:0:0:
448,192,94446,1,0,0:0:0:0:
64,192,94561,1,0,0:0:0:0:
192,192,94561,1,0,0:0:0:0:
64,192,94677,1,0,0:0:0:0:
320,192,94677,1,0,0:0:0:0:
192,192,94677,1,0,0:0:0:0:
192,192,94792,1,0,0:0:0:0:
320,192,94792,1,0,0:0:0:0:
64,192,94908,1,0,0:0:0:0:
448,192,94908,1,0,0:0:0:0:
320,192,94908,1,0,0:0:0:0:
64,192,95023,1,0,0:0:0:0:
448,192,95023,1,0,0:0:0:0:
192,192,95138,1,0,0:0:0:0:
320,192,95138,1,0,0:0:0:0:
64,192,95138,1,0,0:0:0:0:
64,192,95254,1,0,0:0:0:0:
192,192,95254,1,0,0:0:0:0:
320,192,95369,1,0,0:0:0:0:
448,192,95369,1,0,0:0:0:0:
192,192,95369,1,0,0:0:0:0:
320,192,95484,1,0,0:0:0:0:
448,192,95484,1,0,0:0:0:0:
64,192,95600,1,0,0:0:0:0:
64,192,95715,1,0,0:0:0:0:
320,192,95831,1,0,0:0:0:0:
320,192,95946,1,0,0:0:0:0:
64,192,96004,1,0,0:0:0:0:
192,192,96061,1,0,0:0:0:0:
448,192,96061,1,0,0:0:0:0:
320,192,96061,1,0,0:0:0:0:
192,192,96177,1,0,0:0:0:0:
448,192,96177,1,0,0:0:0:0:
320,192,96292,1,0,0:0:0:0:
192,192,96292,1,0,0:0:0:0:
64,192,96292,1,0,0:0:0:0:
64,192,96408,1,0,0:0:0:0:
320,192,96408,1,0,0:0:0:0:
64,192,96523,1,0,0:0:0:0:
192,192,96523,1,0,0:0:0:0:
448,192,96523,1,0,0:0:0:0:
192,192,96638,1,0,0:0:0:0:
448,192,96638,1,0,0:0:0:0:
192,192,96754,1,0,0:0:0:0:
320,192,96754,1,0,0:0:0:0:
64,192,96754,1,0,0:0:0:0:
192,192,96869,1,0,0:0:0:0:
448,192,96869,1,0,0:0:0:0:
64,192,96984,1,0,0:0:0:0:
320,192,96984,1,0,0:0:0:0:
448,192,96984,1,0,0:0:0:0:
192,192,97042,1,0,0:0:0:0:
320,192,97100,1,0,0:0:0:0:
192,192,97158,1,0,0:0:0:0:
64,192,97158,1,0,0:0:0:0:
448,192,97215,1,0,0:0:0:0:
320,192,97215,1,0,0:0:0:0:
192,192,97273,1,0,0:0:0:0:
64,192,97331,1,0,0:0:0:0:
448,192,97331,1,0,0:0:0:0:
320,192,97388,1,0,0:0:0:0:
192,192,97446,1,0,0:0:0:0:
64,192,97446,1,0,0:0:0:0:
192,192,97619,1,0,0:0:0:0:
64,192,97619,1,0,0:0:0:0:
192,192,97792,1,0,0:0:0:0:
64,192,97792,1,0,0:0:0:0:
64,192,97908,1,0,0:0:0:0:
192,192,97908,1,0,0:0:0:0:
448,192,97908,1,0,0:0:0:0:
320,192,97908,1,0,0:0:0:0:
320,192,98023,1,0,0:0:0:0:
448,192,98023,1,0,0:0:0:0:
64,192,98138,1,0,0:0:0:0:
192,192,98138,1,0,0:0:0:0:
320,192,98138,1,0,0:0:0:0:
448,192,98138,1,0,0:0:0:0:
64,192,98254,1,0,0:0:0:0:
192,192,98254,1,0,0:0:0:0:
64,192,98369,1,0,0:0:0:0:
192,192,98369,1,0,0:0:0:0:
320,192,98369,1,0,0:0:0:0:
448,192,98369,1,0,0:0:0:0:
320,192,98484,1,0,0:0:0:0:
448,192,98484,1,0,0:0:0:0:
64,192,98600,1,0,0:0:0:0:
448,192,98600,1,0,0:0:0:0:
320,192,98600,1,0,0:0:0:0:
192,192,98658,1,0,0:0:0:0:
320,192,98715,1,0,0:0:0:0:
448,192,98715,1,0,0:0:0:0:
192,192,98773,1,0,0:0:0:0:
320,192,98831,1,0,0:0:0:0:
448,192,98831,1,0,0:0:0:0:
192,192,98946,1,0,0:0:0:0:
64,192,98946,1,0,0:0:0:0:
64,192,99061,1,0,0:0:0:0:
192,192,99061,1,0,0:0:0:0:
448,192,99234,1,0,0:0:0:0:
64,192,99234,1,0,0:0:0:0:
320,192,99292,1,0,0:0:0:0:
192,192,99292,1,0,0:0:0:0:
192,192,99408,1,0,0:0:0:0:
320,192,99408,1,0,0:0:0:0:
64,192,99523,1,0,0:0:0:0:
448,192,99523,1,0,0:0:0:0:
320,192,99581,1,0,0:0:0:0:
192,192,99638,1,0,0:0:0:0:
64,192,99638,1,0,0:0:0:0:
448,192,99754,1,0,0:0:0:0:
320,192,99754,1,0,0:0:0:0:
192,192,99811,1,0,0:0:0:0:
64,192,99811,1,0,0:0:0:0:
320,192,99869,1,0,0:0:0:0:
448,192,99869,1,0,0:0:0:0:
64,192,99927,1,0,0:0:0:0:
192,192,99984,1,0,0:0:0:0:
320,192,99984,1,0,0:0:0:0:
448,192,99984,1,0,0:0:0:0:
64,192,100100,1,0,0:0:0:0:
448,192,100100,1,0,0:0:0:0:
64,192,100215,1,0,0:0:0:0:
192,192,100215,1,0,0:0:0:0:
320,192,100273,1,0,0:0:0:0:
448,192,100273,1,0,0:0:0:0:
192,192,100331,1,0,0:0:0:0:
64,192,100331,1,0,0:0:0:0:
448,192,100388,1,0,0:0:0:0:
320,192,100446,1,0,0:0:0:0:
192,192,100446,1,0,0:0:0:0:
64,192,100446,1,0,0:0:0:0:
64,192,100561,1,0,0:0:0:0:
320,192,100561,1,0,0:0:0:0:
448,192,100561,1,0,0:0:0:0:
64,192,100677,1,0,0:0:0:0:
192,192,100677,1,0,0:0:0:0:
448,192,100677,1,0,0:0:0:0:
64,192,101138,128,0,101369:0:0:0:0:
192,192,101254,128,0,101484:0:0:0:0:
320,192,101369,128,0,101600:0:0:0:0:
448,192,101484,128,0,101715:0:0:0:0:
64,192,101600,128,0,101946:0:0:0:0:
448,192,101908,1,0,0:0:0:0:
320,192,101984,1,0,0:0:0:0:
192,192,102061,128,0,102446:0:0:0:0:
320,192,102446,1,0,0:0:0:0:
448,192,102523,1,0,0:0:0:0:
64,192,102754,1,0,0:0:0:0:
64,192,102984,128,0,103215:0:0:0:0:
192,192,103100,128,0,103331:0:0:0:0:
320,192,103215,128,0,103446:0:0:0:0:
448,192,103331,128,0,103561:0:0:0:0:
192,192,103446,128,0,103677:0:0:0:0:
320,192,103754,1,0,0:0:0:0:
192,192,103831,1,0,0:0:0:0:
64,192,103908,128,0,104215:0:0:0:0:
192,192,104215,1,0,0:0:0:0:
320,192,104292,1,0,0:0:0:0:
448,192,104369,128,0,104715:0:0:0:0:
320,192,104600,128,0,104831:0:0:0:0:
64,192,104600,1,0,0:0:0:0:
64,192,104831,1,0,0:0:0:0:
192,192,104831,128,0,104946:0:0:0:0:
448,192,104831,1,0,0:0:0:0:
320,192,104946,128,0,105061:0:0:0:0:
448,192,105061,128,0,105292:0:0:0:0:
64,192,105061,1,0,0:0:0:0:
192,192,105061,1,0,0:0:0:0:
64,192,105292,1,0,0:0:0:0:
192,192,105292,1,0,0:0:0:0:
320,192,105350,1,0,0:0:0:0:
448,192,105408,1,0,0:0:0:0:
64,192,105523,1,0,0:0:0:0:
192,192,105523,1,0,0:0:0:0:
192,192,105638,1,0,0:0:0:0:
448,192,105638,1,0,0:0:0:0:
448,192,105754,1,0,0:0:0:0:
320,192,105754,1,0,0:0:0:0:
64,192,105811,1,0,0:0:0:0:
192,192,105869,1,0,0:0:0:0:
320,192,105869,1,0,0:0:0:0:
192,192,105984,1,0,0:0:0:0:
448,192,105984,1,0,0:0:0:0:
64,192,106100,1,0,0:0:0:0:
448,192,106138,1,0,0:0:0:0:
192,192,106177,1,0,0:0:0:0:
320,192,106215,1,0,0:0:0:0:
64,192,106254,1,0,0:0:0:0:
192,192,106292,1,0,0:0:0:0:
448,192,106331,1,0,0:0:0:0:
320,192,106446,1,0,0:0:0:0:
192,192,106446,1,0,0:0:0:0:
64,192,106561,1,0,0:0:0:0:
192,192,106561,1,0,0:0:0:0:
448,192,106619,1,0,0:0:0:0:
320,192,106677,1,0,0:0:0:0:
64,192,106677,1,0,0:0:0:0:
192,192,106792,1,0,0:0:0:0:
320,192,106792,1,0,0:0:0:0:
64,192,106908,1,0,0:0:0:0:
448,192,106908,1,0,0:0:0:0:
192,192,106946,1,0,0:0:0:0:
320,192,106984,1,0,0:0:0:0:
64,192,107023,1,0,0:0:0:0:
192,192,107061,1,0,0:0:0:0:
448,192,107100,1,0,0:0:0:0:
320,192,107138,1,0,0:0:0:0:
64,192,107138,1,0,0:0:0:0:
192,192,107196,1,0,0:0:0:0:
448,192,107254,1,0,0:0:0:0:
320,192,107254,1,0,0:0:0:0:
64,192,107369,1,0,0:0:0:0:
192,192,107369,1,0,0:0:0:0:
320,192,107427,1,0,0:0:0:0:
448,192,107484,1,0,0:0:0:0:
64,192,107542,1,0,0:0:0:0:
192,192,107600,1,0,0:0:0:0:
448,192,107600,1,0,0:0:0:0:
320,192,107658,1,0,0:0:0:0:
64,192,107715,1,0,0:0:0:0:
192,192,107754,1,0,0:0:0:0:
448,192,107792,1,0,0:0:0:0:
320,192,107831,1,0,0:0:0:0:
64,192,107888,1,0,0:0:0:0:
192,192,107946,1,0,0:0:0:0:
448,192,107946,1,0,0:0:0:0:
192,192,108061,1,0,0:0:0:0:
64,192,108061,1,0,0:0:0:0:
320,192,108119,1,0,0:0:0:0:
448,192,108177,1,0,0:0:0:0:
64,192,108177,1,0,0:0:0:0:
320,192,108292,1,0,0:0:0:0:
448,192,108292,1,0,0:0:0:0:
64,192,108350,1,0,0:0:0:0:
192,192,108408,1,0,0:0:0:0:
448,192,108465,1,0,0:0:0:0:
320,192,108523,1,0,0:0:0:0:
64,192,108523,1,0,0:0:0:0:
192,192,108638,1,0,0:0:0:0:
320,192,108638,1,0,0:0:0:0:
64,192,108754,1,0,0:0:0:0:
448,192,108754,1,0,0:0:0:0:
320,192,108869,1,0,0:0:0:0:
448,192,108869,1,0,0:0:0:0:
192,192,108984,1,0,0:0:0:0:
320,192,108984,1,0,0:0:0:0:
64,192,108984,128,0,109331:0:0:0:0:
448,192,109292,1,0,0:0:0:0:
320,192,109369,1,0,0:0:0:0:
192,192,109446,128,0,109831:0:0:0:0:
320,192,109831,1,0,0:0:0:0:
448,192,109908,1,0,0:0:0:0:
64,192,110138,1,0,0:0:0:0:
64,192,110369,128,0,110600:0:0:0:0:
192,192,110484,128,0,110715:0:0:0:0:
320,192,110600,128,0,110831:0:0:0:0:
448,192,110715,128,0,110946:0:0:0:0:
192,192,110831,128,0,111061:0:0:0:0:
320,192,111138,1,0,0:0:0:0:
192,192,111215,1,0,0:0:0:0:
64,192,111292,128,0,111600:0:0:0:0:
192,192,111600,1,0,0:0:0:0:
320,192,111677,1,0,0:0:0:0:
448,192,111754,128,0,112100:0:0:0:0:
320,192,111984,128,0,112215:0:0:0:0:
64,192,111984,1,0,0:0:0:0:
64,192,112215,1,0,0:0:0:0:
192,192,112215,128,0,112331:0:0:0:0:
448,192,112215,1,0,0:0:0:0:
320,192,112331,128,0,112446:0:0:0:0:
448,192,112446,128,0,112677:0:0:0:0:
64,192,112446,1,0,0:0:0:0:
192,192,112446,1,0,0:0:0:0:
320,192,112677,1,0,0:0:0:0:
64,192,112715,1,0,0:0:0:0:
192,192,112754,1,0,0:0:0:0:
320,192,112792,1,0,0:0:0:0:
64,192,112869,1,0,0:0:0:0:
192,192,112908,1,0,0:0:0:0:
448,192,112946,1,0,0:0:0:0:
320,192,112984,1,0,0:0:0:0:
192,192,113023,1,0,0:0:0:0:
448,192,113100,1,0,0:0:0:0:
64,192,113138,1,0,0:0:0:0:
320,192,113177,1,0,0:0:0:0:
192,192,113215,1,0,0:0:0:0:
448,192,113254,1,0,0:0:0:0:
320,192,113311,1,0,0:0:0:0:
64,192,113369,1,0,0:0:0:0:
192,192,113369,1,0,0:0:0:0:
448,192,113446,1,0,0:0:0:0:
320,192,113484,1,0,0:0:0:0:
64,192,113523,1,0,0:0:0:0:
192,192,113561,1,0,0:0:0:0:
320,192,113600,1,0,0:0:0:0:
448,192,113600,1,0,0:0:0:0:
192,192,113658,1,0,0:0:0:0:
64,192,113658,1,0,0:0:0:0:
320,192,113715,1,0,0:0:0:0:
448,192,113715,1,0,0:0:0:0:
192,192,113773,1,0,0:0:0:0:
64,192,113773,1,0,0:0:0:0:
320,192,113831,1,0,0:0:0:0:
448,192,113831,1,0,0:0:0:0:
192,192,113888,1,0,0:0:0:0:
64,192,113888,1,0,0:0:0:0:
320,192,113946,1,0,0:0:0:0:
448,192,113946,1,0,0:0:0:0:
64,192,114004,1,0,0:0:0:0:
320,192,114061,1,0,0:0:0:0:
448,192,114061,1,0,0:0:0:0:
192,192,114061,1,0,0:0:0:0:
64,192,114292,1,0,0:0:0:0:
192,192,114292,1,0,0:0:0:0:
320,192,114292,1,0,0:0:0:0:
320,192,114523,1,0,0:0:0:0:
448,192,114523,1,0,0:0:0:0:
64,192,114600,1,0,0:0:0:0:
192,192,114638,1,0,0:0:0:0:
320,192,114677,1,0,0:0:0:0:
64,192,114715,1,0,0:0:0:0:
192,192,114754,1,0,0:0:0:0:
448,192,114754,1,0,0:0:0:0:
448,192,114869,1,0,0:0:0:0:
320,192,114869,1,0,0:0:0:0:
64,192,114869,1,0,0:0:0:0:
64,192,114984,1,0,0:0:0:0:
192,192,114984,1,0,0:0:0:0:
320,192,114984,1,0,0:0:0:0:
64,192,115100,1,0,0:0:0:0:
192,192,115100,1,0,0:0:0:0:
320,192,115100,1,0,0:0:0:0:
64,192,115331,1,0,0:0:0:0:
192,192,115331,1,0,0:0:0:0:
320,192,115331,1,0,0:0:0:0:
64,192,115446,1,0,0:0:0:0:
448,192,115446,1,0,0:0:0:0:
320,192,115484,1,0,0:0:0:0:
192,192,115523,1,0,0:0:0:0:
448,192,115561,1,0,0:0:0:0:
320,192,115600,1,0,0:0:0:0:
64,192,115677,1,0,0:0:0:0:
192,192,115677,1,0,0:0:0:0:
320,192,115715,1,0,0:0:0:0:
448,192,115754,1,0,0:0:0:0:
64,192,115792,1,0,0:0:0:0:
192,192,115792,1,0,0:0:0:0:
320,192,115850,1,0,0:0:0:0:
448,192,115850,1,0,0:0:0:0:
192,192,115908,1,0,0:0:0:0:
64,192,115908,1,0,0:0:0:0:
448,192,115965,1,0,0:0:0:0:
320,192,115965,1,0,0:0:0:0:
192,192,116023,1,0,0:0:0:0:
64,192,116023,1,0,0:0:0:0:
320,192,116081,1,0,0:0:0:0:
448,192,116081,1,0,0:0:0:0:
192,192,116138,1,0,0:0:0:0:
64,192,116138,1,0,0:0:0:0:
320,192,116196,1,0,0:0:0:0:
448,192,116196,1,0,0:0:0:0:
192,192,116254,1,0,0:0:0:0:
64,192,116254,1,0,0:0:0:0:
448,192,116311,1,0,0:0:0:0:
320,192,116369,1,0,0:0:0:0:
192,192,116369,1,0,0:0:0:0:
64,192,116369,1,0,0:0:0:0:
448,192,119023,128,0,119600:0:0:0:0:
64,192,119600,1,0,0:0:0:0:
192,192,119600,1,0,0:0:0:0:
64,192,119715,1,0,0:0:0:0:
192,192,119715,1,0,0:0:0:0:
320,192,119831,1,0,0:0:0:0:
448,192,119831,1,0,0:0:0:0:
320,192,119946,1,0,0:0:0:0:
448,192,119946,1,0,0:0:0:0:
64,192,120061,1,0,0:0:0:0:
192,192,120061,1,0,0:0:0:0:
320,192,120061,1,0,0:0:0:0:
448,192,120061,1,0,0:0:0:0:
448,192,120292,1,0,0:0:0:0:
320,192,120350,1,0,0:0:0:0:
64,192,120408,1,0,0:0:0:0:
192,192,120523,1,0,0:0:0:0:
448,192,120638,1,0,0:0:0:0:
320,192,120638,1,0,0:0:0:0:
448,192,120754,1,0,0:0:0:0:
320,192,120869,1,0,0:0:0:0:
192,192,120984,128,0,121100:0:0:0:0:
320,192,121100,1,0,0:0:0:0:
64,192,121158,1,0,0:0:0:0:
192,192,121215,1,0,0:0:0:0:
448,192,121331,1,0,0:0:0:0:
448,192,121446,1,0,0:0:0:0:
192,192,121446,128,0,121561:0:0:0:0:
64,192,121561,128,0,121908:0:0:0:0:
192,192,121908,1,0,0:0:0:0:
320,192,121908,1,0,0:0:0:0:
448,192,121908,1,0,0:0:0:0:
64,192,122138,1,0,0:0:0:0:
320,192,122196,1,0,0:0:0:0:
192,192,122254,1,0,0:0:0:0:
448,192,122369,1,0,0:0:0:0:
320,192,122484,1,0,0:0:0:0:
64,192,122600,1,0,0:0:0:0:
192,192,122600,1,0,0:0:0:0:
64,192,122715,128,0,122946:0:0:0:0:
320,192,122946,128,0,123177:0:0:0:0:
192,192,123177,1,0,0:0:0:0:
448,192,123234,1,0,0:0:0:0:
64,192,123292,128,0,123523:0:0:0:0:
320,192,123523,128,0,123754:0:0:0:0:
64,192,123754,1,0,0:0:0:0:
192,192,123754,1,0,0:0:0:0:
448,192,123754,1,0,0:0:0:0:
448,192,123984,1,0,0:0:0:0:
320,192,124042,1,0,0:0:0:0:
64,192,124100,1,0,0:0:0:0:
192,192,124215,1,0,0:0:0:0:
320,192,124331,1,0,0:0:0:0:
64,192,124446,1,0,0:0:0:0:
192,192,124446,1,0,0:0:0:0:
448,192,124561,1,0,0:0:0:0:
64,192,124561,128,0,124792:0:0:0:0:
320,192,124792,128,0,125023:0:0:0:0:
192,192,125023,1,0,0:0:0:0:
192,192,125138,128,0,125369:0:0:0:0:
320,192,125369,128,0,125427:0:0:0:0:
320,192,125484,128,0,125600:0:0:0:0:
64,192,125600,1,0,0:0:0:0:
192,192,125600,1,0,0:0:0:0:
448,192,125600,1,0,0:0:0:0:
64,192,125831,1,0,0:0:0:0:
192,192,125888,1,0,0:0:0:0:
320,192,125946,1,0,0:0:0:0:
64,192,126061,1,0,0:0:0:0:
448,192,126177,1,0,0:0:0:0:
320,192,126292,1,0,0:0:0:0:
64,192,126292,1,0,0:0:0:0:
320,192,126408,1,0,0:0:0:0:
448,192,126523,1,0,0:0:0:0:
64,192,126638,1,0,0:0:0:0:
192,192,126696,1,0,0:0:0:0:
320,192,126754,1,0,0:0:0:0:
64,192,126811,1,0,0:0:0:0:
448,192,126869,1,0,0:0:0:0:
320,192,126869,1,0,0:0:0:0:
192,192,126984,1,0,0:0:0:0:
64,192,126984,1,0,0:0:0:0:
192,192,127100,1,0,0:0:0:0:
320,192,127100,1,0,0:0:0:0:
64,192,127215,1,0,0:0:0:0:
448,192,127215,1,0,0:0:0:0:
320,192,127331,1,0,0:0:0:0:
448,192,127331,1,0,0:0:0:0:
192,192,127446,1,0,0:0:0:0:
64,192,127446,1,0,0:0:0:0:
64,192,127561,1,0,0:0:0:0:
192,192,127561,1,0,0:0:0:0:
320,192,127792,1,0,0:0:0:0:
448,192,127792,1,0,0:0:0:0:
64,192,127908,1,0,0:0:0:0:
320,192,127908,1,0,0:0:0:0:
448,192,127908,1,0,0:0:0:0:
192,192,127908,1,0,0:0:0:0:
448,192,128138,1,0,0:0:0:0:
64,192,128138,1,0,0:0:0:0:
64,192,128254,1,0,0:0:0:0:
448,192,128254,1,0,0:0:0:0:
192,192,128484,1,0,0:0:0:0:
448,192,128484,1,0,0:0:0:0:
192,192,128600,1,0,0:0:0:0:
448,192,128600,1,0,0:0:0:0:
64,192,128831,1,0,0:0:0:0:
192,192,128831,1,0,0:0:0:0:
320,192,128831,1,0,0:0:0:0:
448,192,128831,1,0,0:0:0:0:
64,192,128946,1,0,0:0:0:0:
192,192,128946,1,0,0:0:0:0:
64,192,129061,1,0,0:0:0:0:
192,192,129061,1,0,0:0:0:0:
320,192,129292,1,0,0:0:0:0:
448,192,129292,1,0,0:0:0:0:
320,192,129408,1,0,0:0:0:0:
448,192,129408,1,0,0:0:0:0:
64,192,129638,1,0,0:0:0:0:
320,192,129638,1,0,0:0:0:0:
64,192,129754,1,0,0:0:0:0:
192,192,129754,1,0,0:0:0:0:
320,192,129754,1,0,0:0:0:0:
448,192,129754,1,0,0:0:0:0:
192,192,129984,1,0,0:0:0:0:
320,192,129984,1,0,0:0:0:0:
192,192,130100,1,0,0:0:0:0:
320,192,130100,1,0,0:0:0:0:
64,192,130331,1,0,0:0:0:0:
192,192,130331,1,0,0:0:0:0:
64,192,130446,1,0,0:0:0:0:
192,192,130446,1,0,0:0:0:0:
64,192,130677,1,0,0:0:0:0:
192,192,130677,1,0,0:0:0:0:
320,192,130677,1,0,0:0:0:0:
448,192,130677,1,0,0:0:0:0:
320,192,130792,1,0,0:0:0:0:
448,192,130792,1,0,0:0:0:0:
320,192,130908,1,0,0:0:0:0:
448,192,130908,1,0,0:0:0:0:
64,192,131023,1,0,0:0:0:0:
192,192,131023,1,0,0:0:0:0:
320,192,131138,1,0,0:0:0:0:
448,192,131138,1,0,0:0:0:0:
64,192,131215,1,0,0:0:0:0:
192,192,131215,1,0,0:0:0:0:
320,192,131292,1,0,0:0:0:0:
448,192,131292,1,0,0:0:0:0:
64,192,131369,1,0,0:0:0:0:
448,192,131369,1,0,0:0:0:0:
320,192,131446,1,0,0:0:0:0:
192,192,131446,1,0,0:0:0:0:
64,192,131523,1,0,0:0:0:0:
448,192,131523,1,0,0:0:0:0:
64,192,131600,1,0,0:0:0:0:
192,192,131600,1,0,0:0:0:0:
320,192,131677,1,0,0:0:0:0:
448,192,131677,1,0,0:0:0:0:
192,192,131754,1,0,0:0:0:0:
64,192,131754,1,0,0:0:0:0:
64,192,131831,1,0,0:0:0:0:
448,192,131831,1,0,0:0:0:0:
320,192,131908,1,0,0:0:0:0:
192,192,131908,1,0,0:0:0:0:
64,192,131984,1,0,0:0:0:0:
448,192,131984,1,0,0:0:0:0:
320,192,132061,1,0,0:0:0:0:
448,192,132061,1,0,0:0:0:0:
192,192,132061,1,0,0:0:0:0:
192,192,132215,1,0,0:0:0:0:
320,192,132215,1,0,0:0:0:0:
448,192,132215,1,0,0:0:0:0:
320,192,132369,1,0,0:0:0:0:
192,192,132369,1,0,0:0:0:0:
448,192,132369,1,0,0:0:0:0:
64,192,132523,1,0,0:0:0:0:
192,192,132523,1,0,0:0:0:0:
320,192,132523,1,0,0:0:0:0:
64,192,132677,1,0,0:0:0:0:
320,192,132677,1,0,0:0:0:0:
192,192,132677,1,0,0:0:0:0:
64,192,132831,1,0,0:0:0:0:
192,192,132831,1,0,0:0:0:0:
320,192,132831,1,0,0:0:0:0:
448,192,132984,1,0,0:0:0:0:
320,192,133023,1,0,0:0:0:0:
64,192,133061,1,0,0:0:0:0:
192,192,133100,1,0,0:0:0:0:
448,192,133138,1,0,0:0:0:0:
320,192,133177,1,0,0:0:0:0:
64,192,133215,1,0,0:0:0:0:
448,192,133254,1,0,0:0:0:0:
192,192,133292,1,0,0:0:0:0:
320,192,133331,1,0,0:0:0:0:
64,192,133369,1,0,0:0:0:0:
192,192,133408,1,0,0:0:0:0:
448,192,133446,1,0,0:0:0:0:
320,192,133484,1,0,0:0:0:0:
64,192,133523,1,0,0:0:0:0:
448,192,133561,1,0,0:0:0:0:
192,192,133600,1,0,0:0:0:0:
320,192,133638,1,0,0:0:0:0:
64,192,133677,1,0,0:0:0:0:
192,192,133715,1,0,0:0:0:0:
448,192,133754,1,0,0:0:0:0:
320,192,133792,1,0,0:0:0:0:
64,192,133831,1,0,0:0:0:0:
448,192,133869,1,0,0:0:0:0:
320,192,133908,1,0,0:0:0:0:
192,192,133908,1,0,0:0:0:0:
64,192,133965,1,0,0:0:0:0:
448,192,134023,1,0,0:0:0:0:
320,192,134081,1,0,0:0:0:0:
192,192,134138,1,0,0:0:0:0:
64,192,134138,1,0,0:0:0:0:
448,192,134196,1,0,0:0:0:0:
320,192,134254,1,0,0:0:0:0:
64,192,134311,1,0,0:0:0:0:
192,192,134369,1,0,0:0:0:0:
448,192,134369,1,0,0:0:0:0:
320,192,134427,1,0,0:0:0:0:
192,192,134484,1,0,0:0:0:0:
64,192,134542,1,0,0:0:0:0:
192,192,134600,1,0,0:0:0:0:
448,192,134600,1,0,0:0:0:0:
320,192,134600,1,0,0:0:0:0:
192,192,134831,1,0,0:0:0:0:
64,192,134831,1,0,0:0:0:0:
320,192,134908,1,0,0:0:0:0:
192,192,134984,1,0,0:0:0:0:
64,192,135061,1,0,0:0:0:0:
320,192,135061,1,0,0:0:0:0:
448,192,135061,1,0,0:0:0:0:
192,192,135138,1,0,0:0:0:0:
448,192,135215,1,0,0:0:0:0:
320,192,135292,1,0,0:0:0:0:
64,192,135292,1,0,0:0:0:0:
192,192,135369,1,0,0:0:0:0:
320,192,135446,1,0,0:0:0:0:
448,192,135523,1,0,0:0:0:0:
192,192,135523,1,0,0:0:0:0:
64,192,135523,1,0,0:0:0:0:
320,192,135600,1,0,0:0:0:0:
64,192,135677,1,0,0:0:0:0:
448,192,135754,1,0,0:0:0:0:
192,192,135754,1,0,0:0:0:0:
320,192,135831,1,0,0:0:0:0:
448,192,135908,1,0,0:0:0:0:
64,192,135984,1,0,0:0:0:0:
192,192,135984,1,0,0:0:0:0:
320,192,135984,1,0,0:0:0:0:
448,192,136061,1,0,0:0:0:0:
64,192,136138,1,0,0:0:0:0:
192,192,136215,1,0,0:0:0:0:
448,192,136215,1,0,0:0:0:0:
320,192,136292,1,0,0:0:0:0:
192,192,136369,1,0,0:0:0:0:
64,192,136369,1,0,0:0:0:0:
320,192,136677,1,0,0:0:0:0:
64,192,136677,1,0,0:0:0:0:
192,192,136754,1,0,0:0:0:0:
320,192,136831,1,0,0:0:0:0:
448,192,136908,1,0,0:0:0:0:
192,192,136908,1,0,0:0:0:0:
64,192,136908,1,0,0:0:0:0:
320,192,136984,1,0,0:0:0:0:
64,192,137061,1,0,0:0:0:0:
192,192,137138,1,0,0:0:0:0:
448,192,137138,1,0,0:0:0:0:
320,192,137215,1,0,0:0:0:0:
192,192,137292,1,0,0:0:0:0:
64,192,137369,1,0,0:0:0:0:
320,192,137369,1,0,0:0:0:0:
448,192,137369,1,0,0:0:0:0:
192,192,137446,1,0,0:0:0:0:
448,192,137523,1,0,0:0:0:0:
64,192,137600,1,0,0:0:0:0:
320,192,137600,1,0,0:0:0:0:
192,192,137677,1,0,0:0:0:0:
64,192,137754,1,0,0:0:0:0:
448,192,137831,1,0,0:0:0:0:
320,192,137831,1,0,0:0:0:0:
192,192,137831,1,0,0:0:0:0:
64,192,137908,1,0,0:0:0:0:
448,192,137984,1,0,0:0:0:0:
320,192,138061,1,0,0:0:0:0:
64,192,138061,1,0,0:0:0:0:
64,192,138138,1,0,0:0:0:0:
448,192,138215,1,0,0:0:0:0:
320,192,138215,1,0,0:0:0:0:
64,192,138292,1,0,0:0:0:0:
448,192,138523,1,0,0:0:0:0:
192,192,138523,1,0,0:0:0:0:
320,192,138600,1,0,0:0:0:0:
64,192,138677,1,0,0:0:0:0:
192,192,138754,1,0,0:0:0:0:
320,192,138754,1,0,0:0:0:0:
448,192,138754,1,0,0:0:0:0:
64,192,138831,1,0,0:0:0:0:
448,192,138908,1,0,0:0:0:0:
320,192,138984,1,0,0:0:0:0:
192,192,138984,1,0,0:0:0:0:
64,192,139061,1,0,0:0:0:0:
448,192,139138,1,0,0:0:0:0:
320,192,139215,1,0,0:0:0:0:
64,192,139215,1,0,0:0:0:0:
192,192,139215,1,0,0:0:0:0:
448,192,139292,1,0,0:0:0:0:
192,192,139369,1,0,0:0:0:0:
320,192,139446,1,0,0:0:0:0:
64,192,139446,1,0,0:0:0:0:
448,192,139523,1,0,0:0:0:0:
64,192,139600,1,0,0:0:0:0:
192,192,139677,1,0,0:0:0:0:
320,192,139677,1,0,0:0:0:0:
448,192,139677,1,0,0:0:0:0:
64,192,139754,1,0,0:0:0:0:
320,192,139831,1,0,0:0:0:0:
192,192,139908,1,0,0:0:0:0:
448,192,139908,1,0,0:0:0:0:
64,192,139984,1,0,0:0:0:0:
320,192,140061,1,0,0:0:0:0:
448,192,140061,1,0,0:0:0:0:
64,192,140369,1,0,0:0:0:0:
320,192,140369,1,0,0:0:0:0:
192,192,140446,1,0,0:0:0:0:
448,192,140523,1,0,0:0:0:0:
320,192,140600,1,0,0:0:0:0:
192,192,140600,1,0,0:0:0:0:
64,192,140600,1,0,0:0:0:0:
448,192,140677,1,0,0:0:0:0:
64,192,140754,1,0,0:0:0:0:
192,192,140831,1,0,0:0:0:0:
320,192,140831,1,0,0:0:0:0:
448,192,140908,1,0,0:0:0:0:
64,192,140984,1,0,0:0:0:0:
192,192,141061,1,0,0:0:0:0:
448,192,141061,1,0,0:0:0:0:
320,192,141061,1,0,0:0:0:0:
64,192,141138,1,0,0:0:0:0:
192,192,141292,1,0,0:0:0:0:
448,192,141292,1,0,0:0:0:0:
64,192,141292,1,0,0:0:0:0:
320,192,141292,1,0,0:0:0:0:
64,192,141446,1,0,0:0:0:0:
192,192,141446,1,0,0:0:0:0:
320,192,141446,1,0,0:0:0:0:
448,192,141446,1,0,0:0:0:0:
64,192,141600,1,0,0:0:0:0:
192,192,141600,1,0,0:0:0:0:
320,192,141600,1,0,0:0:0:0:
448,192,141600,1,0,0:0:0:0:
64,192,141754,1,0,0:0:0:0:
192,192,141754,1,0,0:0:0:0:
320,192,141754,1,0,0:0:0:0:
448,192,141754,1,0,0:0:0:0:
64,192,142215,1,0,0:0:0:0:
320,192,142215,1,0,0:0:0:0:
448,192,142215,1,0,0:0:0:0:
64,192,142331,1,0,0:0:0:0:
192,192,142331,1,0,0:0:0:0:
448,192,142331,1,0,0:0:0:0:
64,192,142446,1,0,0:0:0:0:
192,192,142446,1,0,0:0:0:0:
320,192,142446,1,0,0:0:0:0:
64,192,142561,1,0,0:0:0:0:
320,192,142561,1,0,0:0:0:0:
448,192,142561,1,0,0:0:0:0:
64,192,142677,1,0,0:0:0:0:
192,192,142677,1,0,0:0:0:0:
448,192,142677,1,0,0:0:0:0:
192,192,142792,1,0,0:0:0:0:
320,192,142792,1,0,0:0:0:0:
448,192,142792,1,0,0:0:0:0:
320,192,142908,1,0,0:0:0:0:
448,192,142908,1,0,0:0:0:0:
192,192,142965,1,0,0:0:0:0:
64,192,142965,1,0,0:0:0:0:
448,192,143023,1,0,0:0:0:0:
320,192,143023,1,0,0:0:0:0:
192,192,143138,1,0,0:0:0:0:
320,192,143138,1,0,0:0:0:0:
448,192,143138,1,0,0:0:0:0:
64,192,143254,1,0,0:0:0:0:
320,192,143254,1,0,0:0:0:0:
448,192,143311,1,0,0:0:0:0:
192,192,143311,1,0,0:0:0:0:
320,192,143369,1,0,0:0:0:0:
64,192,143369,1,0,0:0:0:0:
64,192,143484,1,0,0:0:0:0:
320,192,143484,1,0,0:0:0:0:
448,192,143484,1,0,0:0:0:0:
448,192,143600,1,0,0:0:0:0:
64,192,143600,1,0,0:0:0:0:
320,192,143658,1,0,0:0:0:0:
192,192,143658,1,0,0:0:0:0:
64,192,143715,1,0,0:0:0:0:
448,192,143715,1,0,0:0:0:0:
64,192,143831,1,0,0:0:0:0:
192,192,143831,1,0,0:0:0:0:
320,192,143831,1,0,0:0:0:0:
64,192,143946,1,0,0:0:0:0:
192,192,143946,1,0,0:0:0:0:
320,192,143946,1,0,0:0:0:0:
192,192,144061,1,0,0:0:0:0:
320,192,144061,1,0,0:0:0:0:
448,192,144061,1,0,0:0:0:0:
64,192,144177,1,0,0:0:0:0:
320,192,144177,1,0,0:0:0:0:
448,192,144177,1,0,0:0:0:0:
192,192,144292,1,0,0:0:0:0:
320,192,144292,1,0,0:0:0:0:
448,192,144292,1,0,0:0:0:0:
64,192,144408,1,0,0:0:0:0:
192,192,144408,1,0,0:0:0:0:
320,192,144408,1,0,0:0:0:0:
192,192,144523,1,0,0:0:0:0:
320,192,144523,1,0,0:0:0:0:
448,192,144523,1,0,0:0:0:0:
64,192,144638,1,0,0:0:0:0:
192,192,144638,1,0,0:0:0:0:
448,192,144638,1,0,0:0:0:0:
64,192,144754,1,0,0:0:0:0:
192,192,144754,1,0,0:0:0:0:
320,192,144811,1,0,0:0:0:0:
448,192,144811,1,0,0:0:0:0:
192,192,144869,1,0,0:0:0:0:
64,192,144869,1,0,0:0:0:0:
320,192,144984,1,0,0:0:0:0:
448,192,144984,1,0,0:0:0:0:
64,192,144984,1,0,0:0:0:0:
448,192,145100,1,0,0:0:0:0:
192,192,145100,1,0,0:0:0:0:
320,192,145158,1,0,0:0:0:0:
64,192,145158,1,0,0:0:0:0:
448,192,145215,1,0,0:0:0:0:
192,192,145215,1,0,0:0:0:0:
64,192,145331,1,0,0:0:0:0:
192,192,145331,1,0,0:0:0:0:
448,192,145331,1,0,0:0:0:0:
320,192,145446,1,0,0:0:0:0:
448,192,145446,1,0,0:0:0:0:
64,192,145504,1,0,0:0:0:0:
192,192,145561,1,0,0:0:0:0:
448,192,145561,1,0,0:0:0:0:
320,192,145619,1,0,0:0:0:0:
64,192,145677,1,0,0:0:0:0:
192,192,145715,1,0,0:0:0:0:
448,192,145754,1,0,0:0:0:0:
320,192,145792,1,0,0:0:0:0:
64,192,145831,1,0,0:0:0:0:
448,192,145869,1,0,0:0:0:0:
192,192,145908,1,0,0:0:0:0:
64,192,145908,1,0,0:0:0:0:
320,192,145908,1,0,0:0:0:0:
192,192,146023,1,0,0:0:0:0:
448,192,146023,1,0,0:0:0:0:
320,192,146023,1,0,0:0:0:0:
192,192,146138,1,0,0:0:0:0:
320,192,146138,1,0,0:0:0:0:
64,192,146138,1,0,0:0:0:0:
192,192,146254,1,0,0:0:0:0:
64,192,146254,1,0,0:0:0:0:
448,192,146254,1,0,0:0:0:0:
320,192,146369,1,0,0:0:0:0:
448,192,146369,1,0,0:0:0:0:
64,192,146369,1,0,0:0:0:0:
320,192,146484,1,0,0:0:0:0:
448,192,146484,1,0,0:0:0:0:
192,192,146484,1,0,0:0:0:0:
320,192,146600,1,0,0:0:0:0:
448,192,146600,1,0,0:0:0:0:
192,192,146658,1,0,0:0:0:0:
64,192,146658,1,0,0:0:0:0:
320,192,146715,1,0,0:0:0:0:
448,192,146715,1,0,0:0:0:0:
192,192,146831,1,0,0:0:0:0:
320,192,146831,1,0,0:0:0:0:
64,192,146831,1,0,0:0:0:0:
64,192,146946,1,0,0:0:0:0:
448,192,146946,1,0,0:0:0:0:
192,192,147004,1,0,0:0:0:0:
320,192,147004,1,0,0:0:0:0:
64,192,147061,1,0,0:0:0:0:
448,192,147061,1,0,0:0:0:0:
64,192,147177,1,0,0:0:0:0:
192,192,147177,1,0,0:0:0:0:
448,192,147177,1,0,0:0:0:0:
64,192,147292,1,0,0:0:0:0:
320,192,147292,1,0,0:0:0:0:
448,192,147292,1,0,0:0:0:0:
192,192,147408,1,0,0:0:0:0:
64,192,147408,1,0,0:0:0:0:
320,192,147408,1,0,0:0:0:0:
192,192,147523,1,0,0:0:0:0:
320,192,147523,1,0,0:0:0:0:
448,192,147523,1,0,0:0:0:0:
64,192,147638,1,0,0:0:0:0:
320,192,147638,1,0,0:0:0:0:
448,192,147638,1,0,0:0:0:0:
64,192,147754,1,0,0:0:0:0:
192,192,147754,1,0,0:0:0:0:
320,192,147754,1,0,0:0:0:0:
448,192,147754,1,0,0:0:0:0:
448,192,147869,1,0,0:0:0:0:
320,192,147869,1,0,0:0:0:0:
192,192,147869,1,0,0:0:0:0:
64,192,147869,1,0,0:0:0:0:
64,192,147984,1,0,0:0:0:0:
192,192,147984,1,0,0:0:0:0:
320,192,147984,1,0,0:0:0:0:
448,192,147984,1,0,0:0:0:0:
192,192,148100,1,0,0:0:0:0:
64,192,148100,1,0,0:0:0:0:
320,192,148100,1,0,0:0:0:0:
448,192,148100,1,0,0:0:0:0:
320,192,148215,1,0,0:0:0:0:
448,192,148215,1,0,0:0:0:0:
192,192,148215,1,0,0:0:0:0:
64,192,148215,1,0,0:0:0:0:
192,192,148331,1,0,0:0:0:0:
64,192,148331,1,0,0:0:0:0:
320,192,148331,1,0,0:0:0:0:
448,192,148331,1,0,0:0:0:0:
64,192,148446,1,0,0:0:0:0:
320,192,148446,1,0,0:0:0:0:
448,192,148504,1,0,0:0:0:0:
192,192,148504,1,0,0:0:0:0:
64,192,148561,1,0,0:0:0:0:
320,192,148561,1,0,0:0:0:0:
64,192,148677,1,0,0:0:0:0:
448,192,148677,1,0,0:0:0:0:
320,192,148734,1,0,0:0:0:0:
192,192,148792,1,0,0:0:0:0:
448,192,148850,1,0,0:0:0:0:
64,192,148908,1,0,0:0:0:0:
192,192,148946,1,0,0:0:0:0:
448,192,148984,1,0,0:0:0:0:
64,192,149061,1,0,0:0:0:0:
320,192,149100,1,0,0:0:0:0:
448,192,149138,1,0,0:0:0:0:
64,192,149177,1,0,0:0:0:0:
192,192,149215,1,0,0:0:0:0:
448,192,149254,1,0,0:0:0:0:
320,192,149292,1,0,0:0:0:0:
64,192,149331,1,0,0:0:0:0:
448,192,149369,1,0,0:0:0:0:
192,192,149408,1,0,0:0:0:0:
320,192,149446,1,0,0:0:0:0:
64,192,149484,1,0,0:0:0:0:
192,192,149523,1,0,0:0:0:0:
448,192,149561,1,0,0:0:0:0:
320,192,149600,1,0,0:0:0:0:
64,192,149600,1,0,0:0:0:0:
192,192,149600,1,0,0:0:0:0:
448,192,149658,1,0,0:0:0:0:
64,192,149715,1,0,0:0:0:0:
192,192,149773,1,0,0:0:0:0:
320,192,149831,1,0,0:0:0:0:
448,192,149831,1,0,0:0:0:0:
64,192,149831,1,0,0:0:0:0:
192,192,149888,1,0,0:0:0:0:
448,192,149946,1,0,0:0:0:0:
320,192,150004,1,0,0:0:0:0:
192,192,150061,1,0,0:0:0:0:
64,192,150061,1,0,0:0:0:0:
448,192,150119,1,0,0:0:0:0:
320,192,150177,1,0,0:0:0:0:
64,192,150234,1,0,0:0:0:0:
192,192,150292,1,0,0:0:0:0:
320,192,150292,1,0,0:0:0:0:
448,192,150292,1,0,0:0:0:0:
64,192,150350,1,0,0:0:0:0:
320,192,150408,1,0,0:0:0:0:
192,192,150465,1,0,0:0:0:0:
64,192,150523,1,0,0:0:0:0:
448,192,150523,1,0,0:0:0:0:
320,192,150581,1,0,0:0:0:0:
192,192,150638,1,0,0:0:0:0:
448,192,150696,1,0,0:0:0:0:
192,192,150754,1,0,0:0:0:0:
320,192,150754,1,0,0:0:0:0:
64,192,150754,1,0,0:0:0:0:
448,192,150811,1,0,0:0:0:0:
320,192,150869,1,0,0:0:0:0:
64,192,150927,1,0,0:0:0:0:
192,192,150984,1,0,0:0:0:0:
448,192,150984,1,0,0:0:0:0:
320,192,151042,1,0,0:0:0:0:
64,192,151100,1,0,0:0:0:0:
192,192,151158,1,0,0:0:0:0:
448,192,151215,1,0,0:0:0:0:
320,192,151215,1,0,0:0:0:0:
64,192,151215,1,0,0:0:0:0:
192,192,151273,1,0,0:0:0:0:
448,192,151331,1,0,0:0:0:0:
320,192,151388,1,0,0:0:0:0:
64,192,151446,1,0,0:0:0:0:
192,192,151446,1,0,0:0:0:0:
448,192,151504,1,0,0:0:0:0:
320,192,151561,1,0,0:0:0:0:
64,192,151619,1,0,0:0:0:0:
192,192,151677,1,0,0:0:0:0:
320,192,151677,1,0,0:0:0:0:
448,192,151677,1,0,0:0:0:0:
64,192,151734,1,0,0:0:0:0:
448,192,151792,1,0,0:0:0:0:
192,192,151850,1,0,0:0:0:0:
64,192,151908,1,0,0:0:0:0:
320,192,151908,1,0,0:0:0:0:
192,192,151965,1,0,0:0:0:0:
448,192,152023,1,0,0:0:0:0:
320,192,152081,1,0,0:0:0:0:
64,192,152138,1,0,0:0:0:0:
192,192,152138,1,0,0:0:0:0:
448,192,152138,1,0,0:0:0:0:
320,192,152196,1,0,0:0:0:0:
64,192,152254,1,0,0:0:0:0:
192,192,152311,1,0,0:0:0:0:
320,192,152369,1,0,0:0:0:0:
448,192,152369,1,0,0:0:0:0:
64,192,152427,1,0,0:0:0:0:
192,192,152484,1,0,0:0:0:0:
448,192,152542,1,0,0:0:0:0:
320,192,152600,1,0,0:0:0:0:
192,192,152600,1,0,0:0:0:0:
64,192,152600,1,0,0:0:0:0:
448,192,152658,1,0,0:0:0:0:
320,192,152715,1,0,0:0:0:0:
64,192,152773,1,0,0:0:0:0:
192,192,152831,1,0,0:0:0:0:
448,192,152831,1,0,0:0:0:0:
320,192,152888,1,0,0:0:0:0:
64,192,152946,1,0,0:0:0:0:
192,192,152946,1,0,0:0:0:0:
448,192,153004,1,0,0:0:0:0:
320,192,153061,1,0,0:0:0:0:
192,192,153061,1,0,0:0:0:0:
64,192,153061,1,0,0:0:0:0:
448,192,153119,1,0,0:0:0:0:
64,192,153177,1,0,0:0:0:0:
320,192,153177,1,0,0:0:0:0:
192,192,153234,1,0,0:0:0:0:
320,192,153292,1,0,0:0:0:0:
448,192,153292,1,0,0:0:0:0:
64,192,153350,1,0,0:0:0:0:
192,192,153408,1,0,0:0:0:0:
448,192,153465,1,0,0:0:0:0:
320,192,153523,1,0,0:0:0:0:
192,192,153523,1,0,0:0:0:0:
64,192,153523,1,0,0:0:0:0:
448,192,153581,1,0,0:0:0:0:
64,192,153638,1,0,0:0:0:0:
192,192,153696,1,0,0:0:0:0:
320,192,153754,1,0,0:0:0:0:
448,192,153754,1,0,0:0:0:0:
64,192,153811,1,0,0:0:0:0:
320,192,153869,1,0,0:0:0:0:
192,192,153927,1,0,0:0:0:0:
64,192,153984,1,0,0:0:0:0:
448,192,153984,1,0,0:0:0:0:
320,192,153984,1,0,0:0:0:0:
192,192,154042,1,0,0:0:0:0:
64,192,154100,1,0,0:0:0:0:
320,192,154158,1,0,0:0:0:0:
64,192,154215,1,0,0:0:0:0:
448,192,154215,1,0,0:0:0:0:
192,192,154273,1,0,0:0:0:0:
448,192,154331,1,0,0:0:0:0:
320,192,154388,1,0,0:0:0:0:
64,192,154446,1,0,0:0:0:0:
192,192,154446,1,0,0:0:0:0:
448,192,154446,1,0,0:0:0:0:
320,192,154504,1,0,0:0:0:0:
64,192,154561,1,0,0:0:0:0:
192,192,154619,1,0,0:0:0:0:
320,192,154677,1,0,0:0:0:0:
448,192,154677,1,0,0:0:0:0:
64,192,154734,1,0,0:0:0:0:
192,192,154792,1,0,0:0:0:0:
320,192,154850,1,0,0:0:0:0:
64,192,154908,1,0,0:0:0:0:
192,192,154908,1,0,0:0:0:0:
448,192,154908,1,0,0:0:0:0:
320,192,154965,1,0,0:0:0:0:
64,192,155023,1,0,0:0:0:0:
192,192,155081,1,0,0:0:0:0:
320,192,155138,1,0,0:0:0:0:
448,192,155138,1,0,0:0:0:0:
64,192,155138,1,0,0:0:0:0:
64,192,155254,1,0,0:0:0:0:
320,192,155254,1,0,0:0:0:0:
448,192,155254,1,0,0:0:0:0:
64,192,155484,1,0,0:0:0:0:
320,192,155484,1,0,0:0:0:0:
448,192,155484,1,0,0:0:0:0:
64,192,155600,1,0,0:0:0:0:
192,192,155600,1,0,0:0:0:0:
320,192,155600,1,0,0:0:0:0:
448,192,155600,1,0,0:0:0:0:
64,192,155831,1,0,0:0:0:0:
192,192,155831,1,0,0:0:0:0:
448,192,155831,1,0,0:0:0:0:
64,192,155946,1,0,0:0:0:0:
192,192,155946,1,0,0:0:0:0:
448,192,155946,1,0,0:0:0:0:
64,192,156177,1,0,0:0:0:0:
192,192,156177,1,0,0:0:0:0:
448,192,156177,1,0,0:0:0:0:
64,192,156292,1,0,0:0:0:0:
192,192,156292,1,0,0:0:0:0:
448,192,156292,1,0,0:0:0:0:
192,192,156523,1,0,0:0:0:0:
320,192,156523,1,0,0:0:0:0:
192,192,156638,1,0,0:0:0:0:
320,192,156638,1,0,0:0:0:0:
448,192,156754,1,0,0:0:0:0:
64,192,156754,1,0,0:0:0:0:
448,192,156869,1,0,0:0:0:0:
64,192,156869,1,0,0:0:0:0:
320,192,156984,1,0,0:0:0:0:
192,192,156984,1,0,0:0:0:0:
448,192,156984,1,0,0:0:0:0:
64,192,157042,1,0,0:0:0:0:
448,192,157100,1,0,0:0:0:0:
320,192,157158,1,0,0:0:0:0:
192,192,157215,1,0,0:0:0:0:
64,192,157215,1,0,0:0:0:0:
448,192,157215,1,0,0:0:0:0:
320,192,157273,1,0,0:0:0:0:
64,192,157331,1,0,0:0:0:0:
192,192,157388,1,0,0:0:0:0:
320,192,157446,1,0,0:0:0:0:
448,192,157446,1,0,0:0:0:0:
64,192,157504,1,0,0:0:0:0:
192,192,157561,1,0,0:0:0:0:
448,192,157619,1,0,0:0:0:0:
320,192,157677,1,0,0:0:0:0:
192,192,157677,1,0,0:0:0:0:
64,192,157677,1,0,0:0:0:0:
448,192,157734,1,0,0:0:0:0:
192,192,157792,1,0,0:0:0:0:
320,192,157850,1,0,0:0:0:0:
448,192,157908,1,0,0:0:0:0:
64,192,157908,1,0,0:0:0:0:
192,192,157965,1,0,0:0:0:0:
320,192,158023,1,0,0:0:0:0:
64,192,158081,1,0,0:0:0:0:
320,192,158138,1,0,0:0:0:0:
192,192,158138,1,0,0:0:0:0:
448,192,158138,1,0,0:0:0:0:
64,192,158196,1,0,0:0:0:0:
192,192,158254,1,0,0:0:0:0:
448,192,158311,1,0,0:0:0:0:
320,192,158369,1,0,0:0:0:0:
64,192,158369,1,0,0:0:0:0:
192,192,158427,1,0,0:0:0:0:
448,192,158484,1,0,0:0:0:0:
320,192,158542,1,0,0:0:0:0:
64,192,158600,1,0,0:0:0:0:
192,192,158600,1,0,0:0:0:0:
448,192,158600,1,0,0:0:0:0:
320,192,158658,1,0,0:0:0:0:
64,192,158715,1,0,0:0:0:0:
192,192,158773,1,0,0:0:0:0:
448,192,158831,1,0,0:0:0:0:
320,192,158831,1,0,0:0:0:0:
64,192,158888,1,0,0:0:0:0:
192,192,158946,1,0,0:0:0:0:
448,192,159004,1,0,0:0:0:0:
320,192,159061,1,0,0:0:0:0:
192,192,159061,1,0,0:0:0:0:
64,192,159061,1,0,0:0:0:0:
448,192,159119,1,0,0:0:0:0:
64,192,159177,1,0,0:0:0:0:
320,192,159234,1,0,0:0:0:0:
448,192,159292,1,0,0:0:0:0:
192,192,159292,1,0,0:0:0:0:
320,192,159350,1,0,0:0:0:0:
64,192,159408,1,0,0:0:0:0:
192,192,159465,1,0,0:0:0:0:
448,192,159523,1,0,0:0:0:0:
320,192,159523,1,0,0:0:0:0:
64,192,159523,1,0,0:0:0:0:
192,192,159581,1,0,0:0:0:0:
448,192,159638,1,0,0:0:0:0:
320,192,159696,1,0,0:0:0:0:
192,192,159754,1,0,0:0:0:0:
64,192,159754,1,0,0:0:0:0:
448,192,159811,1,0,0:0:0:0:
320,192,159869,1,0,0:0:0:0:
64,192,159927,1,0,0:0:0:0:
192,192,159984,1,0,0:0:0:0:
320,192,159984,1,0,0:0:0:0:
448,192,159984,1,0,0:0:0:0:
64,192,160042,1,0,0:0:0:0:
192,192,160100,1,0,0:0:0:0:
448,192,160158,1,0,0:0:0:0:
320,192,160215,1,0,0:0:0:0:
64,192,160215,1,0,0:0:0:0:
192,192,160273,1,0,0:0:0:0:
448,192,160331,1,0,0:0:0:0:
320,192,160331,1,0,0:0:0:0:
64,192,160388,1,0,0:0:0:0:
192,192,160446,1,0,0:0:0:0:
320,192,160446,1,0,0:0:0:0:
448,192,160446,1,0,0:0:0:0:
64,192,160504,1,0,0:0:0:0:
448,192,160561,1,0,0:0:0:0:
192,192,160561,1,0,0:0:0:0:
320,192,160619,1,0,0:0:0:0:
192,192,160677,1,0,0:0:0:0:
64,192,160677,1,0,0:0:0:0:
448,192,160734,1,0,0:0:0:0:
320,192,160792,1,0,0:0:0:0:
64,192,160850,1,0,0:0:0:0:
192,192,160908,1,0,0:0:0:0:
320,192,160908,1,0,0:0:0:0:
448,192,160908,1,0,0:0:0:0:
64,192,160965,1,0,0:0:0:0:
448,192,161023,1,0,0:0:0:0:
320,192,161081,1,0,0:0:0:0:
192,192,161138,1,0,0:0:0:0:
64,192,161138,1,0,0:0:0:0:
448,192,161196,1,0,0:0:0:0:
192,192,161254,1,0,0:0:0:0:
320,192,161311,1,0,0:0:0:0:
448,192,161369,1,0,0:0:0:0:
64,192,161369,1,0,0:0:0:0:
192,192,161369,1,0,0:0:0:0:
320,192,161427,1,0,0:0:0:0:
448,192,161484,1,0,0:0:0:0:
192,192,161542,1,0,0:0:0:0:
448,192,161600,1,0,0:0:0:0:
64,192,161600,1,0,0:0:0:0:
320,192,161658,1,0,0:0:0:0:
64,192,161715,1,0,0:0:0:0:
192,192,161773,1,0,0:0:0:0:
448,192,161831,1,0,0:0:0:0:
320,192,161831,1,0,0:0:0:0:
64,192,161831,1,0,0:0:0:0:
192,192,161888,1,0,0:0:0:0:
448,192,161946,1,0,0:0:0:0:
320,192,162004,1,0,0:0:0:0:
192,192,162061,1,0,0:0:0:0:
64,192,162061,1,0,0:0:0:0:
448,192,162119,1,0,0:0:0:0:
320,192,162177,1,0,0:0:0:0:
192,192,162234,1,0,0:0:0:0:
448,192,162292,1,0,0:0:0:0:
320,192,162292,1,0,0:0:0:0:
64,192,162292,1,0,0:0:0:0:
192,192,162350,1,0,0:0:0:0:
448,192,162408,1,0,0:0:0:0:
320,192,162465,1,0,0:0:0:0:
64,192,162523,1,0,0:0:0:0:
192,192,162561,1,0,0:0:0:0:
448,192,162600,1,0,0:0:0:0:
320,192,162638,1,0,0:0:0:0:
64,192,162715,1,0,0:0:0:0:
192,192,162754,1,0,0:0:0:0:
320,192,162792,1,0,0:0:0:0:
64,192,162831,1,0,0:0:0:0:
192,192,162869,1,0,0:0:0:0:
448,192,162946,1,0,0:0:0:0:
64,192,162984,1,0,0:0:0:0:
320,192,163023,1,0,0:0:0:0:
192,192,163061,1,0,0:0:0:0:
448,192,163100,1,0,0:0:0:0:
320,192,163138,1,0,0:0:0:0:
64,192,163177,1,0,0:0:0:0:
192,192,163215,1,0,0:0:0:0:
448,192,163254,1,0,0:0:0:0:
320,192,163292,1,0,0:0:0:0:
192,192,163331,1,0,0:0:0:0:
64,192,163446,1,0,0:0:0:0:
192,192,163484,1,0,0:0:0:0:
448,192,163523,1,0,0:0:0:0:
320,192,163561,1,0,0:0:0:0:
64,192,163600,1,0,0:0:0:0:
448,192,163638,1,0,0:0:0:0:
192,192,163677,1,0,0:0:0:0:
320,192,163715,1,0,0:0:0:0:
64,192,163754,1,0,0:0:0:0:
192,192,163792,1,0,0:0:0:0:
448,192,163831,1,0,0:0:0:0:
320,192,163869,1,0,0:0:0:0:
64,192,163908,128,0,164138:0:0:0:0:
192,192,164023,128,0,164138:0:0:0:0:
448,192,164138,128,0,164254:0:0:0:0:
320,192,164254,1,0,0:0:0:0:
64,192,164369,128,0,164427:0:0:0:0:
192,192,164369,128,0,164427:0:0:0:0:
320,192,164369,128,0,164427:0:0:0:0:
448,192,164369,128,0,164427:0:0:0:0:
64,192,171754,5,0,0:0:0:0:
192,192,171754,1,0,0:0:0:0:
64,192,172215,1,0,0:0:0:0:
192,192,172215,1,0,0:0:0:0:
320,192,172677,1,0,0:0:0:0:
448,192,172677,1,0,0:0:0:0:
320,192,173138,1,0,0:0:0:0:
448,192,173138,1,0,0:0:0:0:
64,192,173600,1,0,0:0:0:0:
320,192,173600,1,0,0:0:0:0:
64,192,174061,1,0,0:0:0:0:
320,192,174061,1,0,0:0:0:0:
192,192,174523,1,0,0:0:0:0:
448,192,174523,1,0,0:0:0:0:
192,192,174984,1,0,0:0:0:0:
448,192,174984,1,0,0:0:0:0:
64,192,175215,1,0,0:0:0:0:
320,192,175331,1,0,0:0:0:0:
64,192,175446,1,0,0:0:0:0:
448,192,175446,1,0,0:0:0:0:
192,192,175561,1,0,0:0:0:0:
320,192,175792,1,0,0:0:0:0:
64,192,175908,1,0,0:0:0:0:
448,192,175908,1,0,0:0:0:0:
320,192,176138,1,0,0:0:0:0:
192,192,176254,1,0,0:0:0:0:
320,192,176369,1,0,0:0:0:0:
448,192,176369,1,0,0:0:0:0:
64,192,176484,1,0,0:0:0:0:
192,192,176600,1,0,0:0:0:0:
64,192,176715,1,0,0:0:0:0:
320,192,176831,1,0,0:0:0:0:
448,192,176831,1,0,0:0:0:0:
64,192,177061,1,0,0:0:0:0:
192,192,177177,1,0,0:0:0:0:
64,192,177292,1,0,0:0:0:0:
320,192,177292,1,0,0:0:0:0:
448,192,177408,1,0,0:0:0:0:
192,192,177523,1,0,0:0:0:0:
320,192,177638,1,0,0:0:0:0:
64,192,177754,1,0,0:0:0:0:
448,192,177754,1,0,0:0:0:0:
192,192,177869,1,0,0:0:0:0:
64,192,177984,1,0,0:0:0:0:
320,192,178100,1,0,0:0:0:0:
192,192,178215,1,0,0:0:0:0:
448,192,178215,1,0,0:0:0:0:
448,192,178331,1,0,0:0:0:0:
64,192,178446,1,0,0:0:0:0:
192,192,178561,1,0,0:0:0:0:
192,192,178677,1,0,0:0:0:0:
320,192,178677,1,0,0:0:0:0:
448,192,178792,1,0,0:0:0:0:
320,192,178908,1,0,0:0:0:0:
64,192,179023,1,0,0:0:0:0:
192,192,179138,1,0,0:0:0:0:
448,192,179254,1,0,0:0:0:0:
64,192,179369,1,0,0:0:0:0:
320,192,179484,1,0,0:0:0:0:
192,192,179600,1,0,0:0:0:0:
320,192,179715,1,0,0:0:0:0:
64,192,179831,1,0,0:0:0:0:
192,192,179946,1,0,0:0:0:0:
448,192,180061,1,0,0:0:0:0:
448,192,180177,1,0,0:0:0:0:
64,192,180292,1,0,0:0:0:0:
320,192,180408,1,0,0:0:0:0:
64,192,180523,1,0,0:0:0:0:
192,192,180638,1,0,0:0:0:0:
448,192,180754,1,0,0:0:0:0:
448,192,180869,1,0,0:0:0:0:
192,192,180984,1,0,0:0:0:0:
192,192,181100,1,0,0:0:0:0:
64,192,181215,1,0,0:0:0:0:
448,192,181331,1,0,0:0:0:0:
192,192,181446,1,0,0:0:0:0:
320,192,181561,1,0,0:0:0:0:
64,192,181677,1,0,0:0:0:0:
192,192,181792,1,0,0:0:0:0:
192,192,181908,1,0,0:0:0:0:
448,192,182023,1,0,0:0:0:0:
320,192,182138,1,0,0:0:0:0:
448,192,182254,1,0,0:0:0:0:
192,192,182369,1,0,0:0:0:0:
320,192,182484,1,0,0:0:0:0:
64,192,182600,1,0,0:0:0:0:
320,192,182715,1,0,0:0:0:0:
320,192,182831,1,0,0:0:0:0:
64,192,182946,1,0,0:0:0:0:
448,192,183061,1,0,0:0:0:0:
192,192,183177,1,0,0:0:0:0:
320,192,183292,1,0,0:0:0:0:
192,192,183408,1,0,0:0:0:0:
64,192,183523,1,0,0:0:0:0:
64,192,183638,1,0,0:0:0:0:
448,192,183754,1,0,0:0:0:0:
192,192,183869,1,0,0:0:0:0:
64,192,183984,1,0,0:0:0:0:
448,192,184100,1,0,0:0:0:0:
320,192,184215,1,0,0:0:0:0:
64,192,184331,1,0,0:0:0:0:
448,192,184446,1,0,0:0:0:0:
320,192,184561,1,0,0:0:0:0:
320,192,184677,1,0,0:0:0:0:
64,192,184792,1,0,0:0:0:0:
192,192,184908,1,0,0:0:0:0:
448,192,185023,1,0,0:0:0:0:
320,192,185138,1,0,0:0:0:0:
64,192,185254,1,0,0:0:0:0:
448,192,185369,1,0,0:0:0:0:
192,192,185484,1,0,0:0:0:0:
192,192,185600,1,0,0:0:0:0:
448,192,185715,1,0,0:0:0:0:
64,192,185831,1,0,0:0:0:0:
320,192,185946,1,0,0:0:0:0:
192,192,186061,1,0,0:0:0:0:
448,192,186177,1,0,0:0:0:0:
64,192,186292,1,0,0:0:0:0:
320,192,186408,1,0,0:0:0:0:
192,192,186523,1,0,0:0:0:0:
448,192,186523,1,0,0:0:0:0:
320,192,186638,1,0,0:0:0:0:
192,192,186638,1,0,0:0:0:0:
64,192,186869,1,0,0:0:0:0:
448,192,186869,1,0,0:0:0:0:
192,192,187100,1,0,0:0:0:0:
320,192,187100,1,0,0:0:0:0:
192,192,187215,1,0,0:0:0:0:
448,192,187215,1,0,0:0:0:0:
320,192,187331,1,0,0:0:0:0:
448,192,187331,1,0,0:0:0:0:
320,192,187446,1,0,0:0:0:0:
64,192,187446,1,0,0:0:0:0:
192,192,187561,1,0,0:0:0:0:
64,192,187561,1,0,0:0:0:0:
448,192,187677,1,0,0:0:0:0:
192,192,187677,1,0,0:0:0:0:
320,192,187792,1,0,0:0:0:0:
448,192,187792,1,0,0:0:0:0:
64,192,187908,1,0,0:0:0:0:
320,192,187908,1,0,0:0:0:0:
192,192,188023,1,0,0:0:0:0:
448,192,188023,1,0,0:0:0:0:
320,192,188138,1,0,0:0:0:0:
448,192,188138,1,0,0:0:0:0:
64,192,188254,1,0,0:0:0:0:
320,192,188254,1,0,0:0:0:0:
64,192,188369,1,0,0:0:0:0:
192,192,188369,1,0,0:0:0:0:
320,192,188484,1,0,0:0:0:0:
448,192,188484,1,0,0:0:0:0:
192,192,188600,1,0,0:0:0:0:
320,192,188600,1,0,0:0:0:0:
64,192,188715,1,0,0:0:0:0:
448,192,188715,1,0,0:0:0:0:
64,192,188831,1,0,0:0:0:0:
192,192,188831,1,0,0:0:0:0:
192,192,188946,1,0,0:0:0:0:
448,192,188946,1,0,0:0:0:0:
320,192,189061,1,0,0:0:0:0:
448,192,189061,1,0,0:0:0:0:
64,192,189177,1,0,0:0:0:0:
192,192,189177,1,0,0:0:0:0:
448,192,189292,1,0,0:0:0:0:
192,192,189292,1,0,0:0:0:0:
320,192,189408,1,0,0:0:0:0:
64,192,189523,1,0,0:0:0:0:
448,192,189638,1,0,0:0:0:0:
192,192,189754,1,0,0:0:0:0:
448,192,189869,1,0,0:0:0:0:
64,192,189984,1,0,0:0:0:0:
320,192,189984,1,0,0:0:0:0:
192,192,190100,1,0,0:0:0:0:
320,192,190100,1,0,0:0:0:0:
448,192,190215,1,0,0:0:0:0:
64,192,190215,1,0,0:0:0:0:
192,192,190331,1,0,0:0:0:0:
448,192,190446,1,0,0:0:0:0:
64,192,190561,1,0,0:0:0:0:
320,192,190619,1,0,0:0:0:0:
448,192,190619,1,0,0:0:0:0:
192,192,190677,1,0,0:0:0:0:
64,192,190792,1,0,0:0:0:0:
320,192,190908,1,0,0:0:0:0:
64,192,191023,1,0,0:0:0:0:
448,192,191138,1,0,0:0:0:0:
192,192,191254,1,0,0:0:0:0:
64,192,191369,1,0,0:0:0:0:
320,192,191369,1,0,0:0:0:0:
192,192,191484,1,0,0:0:0:0:
192,192,191600,1,0,0:0:0:0:
448,192,191600,1,0,0:0:0:0:
64,192,191715,1,0,0:0:0:0:
320,192,191831,1,0,0:0:0:0:
448,192,191831,1,0,0:0:0:0:
192,192,191946,1,0,0:0:0:0:
320,192,192061,1,0,0:0:0:0:
448,192,192061,1,0,0:0:0:0:
64,192,192177,1,0,0:0:0:0:
192,192,192292,1,0,0:0:0:0:
448,192,192408,1,0,0:0:0:0:
320,192,192523,1,0,0:0:0:0:
64,192,192638,1,0,0:0:0:0:
192,192,192754,1,0,0:0:0:0:
448,192,192754,1,0,0:0:0:0:
320,192,192869,1,0,0:0:0:0:
192,192,192984,1,0,0:0:0:0:
448,192,192984,1,0,0:0:0:0:
64,192,193100,1,0,0:0:0:0:
320,192,193215,1,0,0:0:0:0:
192,192,193331,1,0,0:0:0:0:
64,192,193446,128,0,193600:0:0:0:0:
192,192,193523,128,0,193677:0:0:0:0:
448,192,193600,128,0,193754:0:0:0:0:
320,192,193677,128,0,193831:0:0:0:0:
64,192,193677,1,0,0:0:0:0:
192,192,193754,1,0,0:0:0:0:
448,192,193831,1,0,0:0:0:0:
192,192,193908,1,0,0:0:0:0:
448,192,193908,128,0,194023:0:0:0:0:
64,192,193908,128,0,194715:0:0:0:0:
320,192,194023,128,0,194138:0:0:0:0:
192,192,194254,128,0,194311:0:0:0:0:
320,192,194484,128,0,194600:0:0:0:0:
448,192,194600,128,0,194715:0:0:0:0:
192,192,194715,128,0,194831:0:0:0:0:
448,192,194831,128,0,194946:0:0:0:0:
320,192,194831,128,0,195638:0:0:0:0:
64,192,194946,128,0,195061:0:0:0:0:
192,192,195061,128,0,195177:0:0:0:0:
448,192,195177,128,0,195234:0:0:0:0:
64,192,195408,128,0,195523:0:0:0:0:
192,192,195523,128,0,195638:0:0:0:0:
448,192,195754,128,0,195869:0:0:0:0:
320,192,195754,128,0,196100:0:0:0:0:
192,192,195869,128,0,195927:0:0:0:0:
64,192,196100,128,0,196158:0:0:0:0:
448,192,196215,128,0,197023:0:0:0:0:
64,192,196331,128,0,196446:0:0:0:0:
192,192,196446,128,0,196561:0:0:0:0:
320,192,196561,128,0,196677:0:0:0:0:
64,192,196677,128,0,196792:0:0:0:0:
320,192,196792,128,0,196908:0:0:0:0:
192,192,196908,128,0,197023:0:0:0:0:
64,192,197023,128,0,197081:0:0:0:0:
192,192,197138,128,0,197484:0:0:0:0:
320,192,197254,128,0,197369:0:0:0:0:
448,192,197369,128,0,197484:0:0:0:0:
448,192,197600,128,0,197715:0:0:0:0:
64,192,197600,128,0,198408:0:0:0:0:
320,192,197715,128,0,197773:0:0:0:0:
192,192,197946,128,0,198004:0:0:0:0:
320,192,198177,128,0,198292:0:0:0:0:
448,192,198292,128,0,198408:0:0:0:0:
192,192,198408,128,0,198523:0:0:0:0:
448,192,198523,128,0,198638:0:0:0:0:
320,192,198523,128,0,199331:0:0:0:0:
64,192,198638,128,0,198754:0:0:0:0:
192,192,198754,128,0,198869:0:0:0:0:
448,192,198869,128,0,198927:0:0:0:0:
64,192,199100,128,0,199215:0:0:0:0:
448,192,199215,128,0,199331:0:0:0:0:
192,192,199446,128,0,199561:0:0:0:0:
64,192,199446,128,0,199561:0:0:0:0:
448,192,199561,128,0,199677:0:0:0:0:
320,192,199677,128,0,199792:0:0:0:0:
64,192,199792,128,0,199908:0:0:0:0:
192,192,199908,128,0,200023:0:0:0:0:
448,192,199908,128,0,200023:0:0:0:0:
320,192,200023,128,0,200138:0:0:0:0:
64,192,200138,128,0,200254:0:0:0:0:
448,192,200254,128,0,200369:0:0:0:0:
64,192,200369,128,0,200484:0:0:0:0:
320,192,200369,128,0,200484:0:0:0:0:
192,192,200484,128,0,200600:0:0:0:0:
320,192,200600,128,0,200715:0:0:0:0:
64,192,200715,128,0,200831:0:0:0:0:
448,192,200715,128,0,200831:0:0:0:0:
192,192,200946,128,0,201061:0:0:0:0:
448,192,201061,128,0,201177:0:0:0:0:
320,192,201177,128,0,201292:0:0:0:0:
448,192,201292,128,0,201408:0:0:0:0:
64,192,201292,128,0,202100:0:0:0:0:
192,192,201408,128,0,201465:0:0:0:0:
192,192,201638,128,0,201696:0:0:0:0:
320,192,201869,128,0,201984:0:0:0:0:
448,192,201984,128,0,202100:0:0:0:0:
320,192,202100,128,0,202215:0:0:0:0:
448,192,202215,128,0,202331:0:0:0:0:
192,192,202215,128,0,203023:0:0:0:0:
64,192,202331,128,0,202446:0:0:0:0:
320,192,202446,128,0,202561:0:0:0:0:
448,192,202561,128,0,202619:0:0:0:0:
64,192,202792,128,0,202908:0:0:0:0:
320,192,202908,128,0,203023:0:0:0:0:
320,192,203138,128,0,203254:0:0:0:0:
448,192,203138,128,0,203946:0:0:0:0:
192,192,203254,128,0,203311:0:0:0:0:
64,192,203484,128,0,203542:0:0:0:0:
64,192,203715,128,0,203831:0:0:0:0:
192,192,203831,128,0,203946:0:0:0:0:
64,192,203946,128,0,204061:0:0:0:0:
192,192,204061,128,0,204177:0:0:0:0:
320,192,204061,128,0,204408:0:0:0:0:
448,192,204177,128,0,204292:0:0:0:0:
64,192,204292,128,0,204408:0:0:0:0:
448,192,204408,128,0,204523:0:0:0:0:
192,192,204523,128,0,204869:0:0:0:0:
320,192,204638,128,0,204754:0:0:0:0:
448,192,204754,128,0,204811:0:0:0:0:
320,192,204984,128,0,205100:0:0:0:0:
64,192,204984,128,0,205792:0:0:0:0:
192,192,205100,128,0,205215:0:0:0:0:
320,192,205215,128,0,205331:0:0:0:0:
448,192,205331,128,0,205446:0:0:0:0:
192,192,205561,128,0,205677:0:0:0:0:
320,192,205677,128,0,205792:0:0:0:0:
448,192,205792,128,0,205908:0:0:0:0:
192,192,205908,128,0,206023:0:0:0:0:
320,192,205908,128,0,206715:0:0:0:0:
64,192,206023,128,0,206081:0:0:0:0:
64,192,206254,128,0,206311:0:0:0:0:
64,192,206484,128,0,206600:0:0:0:0:
192,192,206600,128,0,206715:0:0:0:0:
448,192,206715,128,0,206831:0:0:0:0:
64,192,206831,128,0,206946:0:0:0:0:
320,192,206831,128,0,208677:0:0:0:0:
192,192,206946,128,0,207061:0:0:0:0:
64,192,207061,128,0,207177:0:0:0:0:
448,192,207177,128,0,207292:0:0:0:0:
64,192,207408,128,0,207523:0:0:0:0:
448,192,207523,128,0,207638:0:0:0:0:
64,192,207638,128,0,207754:0:0:0:0:
448,192,207754,128,0,207869:0:0:0:0:
192,192,207927,128,0,208042:0:0:0:0:
448,192,208100,128,0,208215:0:0:0:0:
64,192,208215,1,0,0:0:0:0:
192,192,208215,1,0,0:0:0:0:
64,192,208331,1,0,0:0:0:0:
192,192,208331,1,0,0:0:0:0:
64,192,208446,1,0,0:0:0:0:
192,192,208446,1,0,0:0:0:0:
64,192,208561,1,0,0:0:0:0:
192,192,208561,1,0,0:0:0:0:
64,192,208677,1,0,0:0:0:0:
192,192,208677,1,0,0:0:0:0:
448,192,208677,1,0,0:0:0:0:
320,192,208792,1,0,0:0:0:0:
64,192,209023,1,0,0:0:0:0:
448,192,209254,1,0,0:0:0:0:
64,192,209292,1,0,0:0:0:0:
192,192,209331,1,0,0:0:0:0:
320,192,209369,1,0,0:0:0:0:
64,192,209484,1,0,0:0:0:0:
320,192,209600,1,0,0:0:0:0:
192,192,209715,1,0,0:0:0:0:
320,192,209831,1,0,0:0:0:0:
448,192,209984,1,0,0:0:0:0:
64,192,210061,1,0,0:0:0:0:
192,192,210100,1,0,0:0:0:0:
320,192,210138,1,0,0:0:0:0:
64,192,210215,1,0,0:0:0:0:
448,192,210254,1,0,0:0:0:0:
192,192,210292,1,0,0:0:0:0:
320,192,210331,1,0,0:0:0:0:
448,192,210369,1,0,0:0:0:0:
64,192,210446,1,0,0:0:0:0:
192,192,210484,1,0,0:0:0:0:
320,192,210523,1,0,0:0:0:0:
192,192,210638,1,0,0:0:0:0:
64,192,210869,1,0,0:0:0:0:
448,192,211100,1,0,0:0:0:0:
192,192,211138,1,0,0:0:0:0:
64,192,211177,1,0,0:0:0:0:
320,192,211215,1,0,0:0:0:0:
448,192,211254,1,0,0:0:0:0:
192,192,211331,1,0,0:0:0:0:
64,192,211446,1,0,0:0:0:0:
448,192,211561,1,0,0:0:0:0:
192,192,211600,1,0,0:0:0:0:
320,192,211638,1,0,0:0:0:0:
192,192,211792,1,0,0:0:0:0:
320,192,212023,1,0,0:0:0:0:
192,192,212061,1,0,0:0:0:0:
448,192,212100,1,0,0:0:0:0:
64,192,212196,1,0,0:0:0:0:
320,192,212254,1,0,0:0:0:0:
448,192,212369,1,0,0:0:0:0:
192,192,212484,1,0,0:0:0:0:
64,192,212715,1,0,0:0:0:0:
448,192,212946,1,0,0:0:0:0:
192,192,212984,1,0,0:0:0:0:
320,192,213023,1,0,0:0:0:0:
448,192,213061,1,0,0:0:0:0:
64,192,213177,1,0,0:0:0:0:
192,192,213292,1,0,0:0:0:0:
64,192,213408,1,0,0:0:0:0:
320,192,213523,1,0,0:0:0:0:
448,192,213638,1,0,0:0:0:0:
192,192,213754,1,0,0:0:0:0:
64,192,213792,1,0,0:0:0:0:
448,192,213831,1,0,0:0:0:0:
192,192,213869,1,0,0:0:0:0:
320,192,213908,1,0,0:0:0:0:
448,192,213946,1,0,0:0:0:0:
64,192,214023,1,0,0:0:0:0:
320,192,214061,1,0,0:0:0:0:
192,192,214100,1,0,0:0:0:0:
448,192,214138,1,0,0:0:0:0:
64,192,214177,1,0,0:0:0:0:
192,192,214215,1,0,0:0:0:0:
448,192,214446,1,0,0:0:0:0:
64,192,214561,1,0,0:0:0:0:
320,192,214677,1,0,0:0:0:0:
448,192,214792,1,0,0:0:0:0:
192,192,214908,1,0,0:0:0:0:
448,192,215023,1,0,0:0:0:0:
64,192,215138,1,0,0:0:0:0:
192,192,215177,1,0,0:0:0:0:
448,192,215215,1,0,0:0:0:0:
320,192,215254,1,0,0:0:0:0:
192,192,215369,1,0,0:0:0:0:
448,192,215446,1,0,0:0:0:0:
320,192,215484,1,0,0:0:0:0:
64,192,215523,1,0,0:0:0:0:
192,192,215561,1,0,0:0:0:0:
448,192,215600,128,0,215715:0:0:0:0:
192,192,215715,128,0,215831:0:0:0:0:
320,192,215831,128,0,215946:0:0:0:0:
64,192,215946,128,0,216061:0:0:0:0:
192,192,216061,1,0,0:0:0:0:
320,192,216061,1,0,0:0:0:0:
448,192,216061,1,0,0:0:0:0:
320,192,216177,1,0,0:0:0:0:
448,192,216177,1,0,0:0:0:0:
64,192,216292,1,0,0:0:0:0:
192,192,216292,1,0,0:0:0:0:
448,192,216292,1,0,0:0:0:0:
320,192,216292,1,0,0:0:0:0:
64,192,216408,1,0,0:0:0:0:
192,192,216408,1,0,0:0:0:0:
64,192,216523,1,0,0:0:0:0:
192,192,216523,1,0,0:0:0:0:
320,192,216523,1,0,0:0:0:0:
448,192,216523,1,0,0:0:0:0:
320,192,216638,1,0,0:0:0:0:
448,192,216638,1,0,0:0:0:0:
64,192,216754,1,0,0:0:0:0:
192,192,216754,1,0,0:0:0:0:
320,192,216754,1,0,0:0:0:0:
448,192,216754,1,0,0:0:0:0:
64,192,216869,1,0,0:0:0:0:
192,192,216869,1,0,0:0:0:0:
64,192,216984,1,0,0:0:0:0:
192,192,216984,1,0,0:0:0:0:
320,192,216984,1,0,0:0:0:0:
448,192,216984,1,0,0:0:0:0:
448,192,217100,1,0,0:0:0:0:
320,192,217100,1,0,0:0:0:0:
64,192,217215,1,0,0:0:0:0:
192,192,217215,1,0,0:0:0:0:
320,192,217215,1,0,0:0:0:0:
448,192,217215,1,0,0:0:0:0:
64,192,217331,1,0,0:0:0:0:
192,192,217331,1,0,0:0:0:0:
64,192,217446,1,0,0:0:0:0:
320,192,217446,1,0,0:0:0:0:
448,192,217446,1,0,0:0:0:0:
64,192,217561,1,0,0:0:0:0:
320,192,217561,1,0,0:0:0:0:
448,192,217561,1,0,0:0:0:0:
64,192,217677,1,0,0:0:0:0:
192,192,217677,1,0,0:0:0:0:
448,192,217677,1,0,0:0:0:0:
64,192,217792,1,0,0:0:0:0:
192,192,217792,1,0,0:0:0:0:
448,192,217792,1,0,0:0:0:0:
64,192,217908,1,0,0:0:0:0:
192,192,217908,1,0,0:0:0:0:
320,192,217908,1,0,0:0:0:0:
448,192,217908,1,0,0:0:0:0:
64,192,218023,1,0,0:0:0:0:
448,192,218023,1,0,0:0:0:0:
64,192,218138,1,0,0:0:0:0:
192,192,218138,1,0,0:0:0:0:
320,192,218138,1,0,0:0:0:0:
448,192,218138,1,0,0:0:0:0:
192,192,218254,1,0,0:0:0:0:
320,192,218254,1,0,0:0:0:0:
64,192,218369,1,0,0:0:0:0:
192,192,218369,1,0,0:0:0:0:
320,192,218369,1,0,0:0:0:0:
448,192,218369,1,0,0:0:0:0:
64,192,218484,1,0,0:0:0:0:
448,192,218484,1,0,0:0:0:0:
192,192,218600,1,0,0:0:0:0:
64,192,218600,1,0,0:0:0:0:
320,192,218600,1,0,0:0:0:0:
448,192,218600,1,0,0:0:0:0:
192,192,218715,1,0,0:0:0:0:
320,192,218715,1,0,0:0:0:0:
64,192,218831,1,0,0:0:0:0:
192,192,218831,1,0,0:0:0:0:
320,192,218831,1,0,0:0:0:0:
448,192,218831,1,0,0:0:0:0:
64,192,218946,1,0,0:0:0:0:
448,192,218946,1,0,0:0:0:0:
64,192,219061,1,0,0:0:0:0:
192,192,219061,1,0,0:0:0:0:
320,192,219061,1,0,0:0:0:0:
448,192,219061,1,0,0:0:0:0:
192,192,219177,1,0,0:0:0:0:
320,192,219177,1,0,0:0:0:0:
192,192,219292,1,0,0:0:0:0:
320,192,219292,1,0,0:0:0:0:
448,192,219292,1,0,0:0:0:0:
192,192,219408,1,0,0:0:0:0:
320,192,219408,1,0,0:0:0:0:
448,192,219408,1,0,0:0:0:0:
64,192,219523,1,0,0:0:0:0:
192,192,219523,1,0,0:0:0:0:
320,192,219523,1,0,0:0:0:0:
64,192,219638,1,0,0:0:0:0:
192,192,219638,1,0,0:0:0:0:
320,192,219638,1,0,0:0:0:0:
320,192,219754,1,0,0:0:0:0:
448,192,219754,1,0,0:0:0:0:
192,192,219811,1,0,0:0:0:0:
64,192,219869,1,0,0:0:0:0:
320,192,219869,1,0,0:0:0:0:
448,192,219927,1,0,0:0:0:0:
192,192,219984,1,0,0:0:0:0:
320,192,220042,1,0,0:0:0:0:
448,192,220100,1,0,0:0:0:0:
64,192,220100,1,0,0:0:0:0:
192,192,220158,1,0,0:0:0:0:
320,192,220215,1,0,0:0:0:0:
64,192,220273,1,0,0:0:0:0:
320,192,220331,1,0,0:0:0:0:
448,192,220331,1,0,0:0:0:0:
192,192,220388,1,0,0:0:0:0:
64,192,220446,1,0,0:0:0:0:
448,192,220446,1,0,0:0:0:0:
320,192,220504,1,0,0:0:0:0:
192,192,220561,1,0,0:0:0:0:
64,192,220561,1,0,0:0:0:0:
448,192,220619,1,0,0:0:0:0:
320,192,220677,1,0,0:0:0:0:
192,192,220677,1,0,0:0:0:0:
64,192,220734,1,0,0:0:0:0:
448,192,220792,1,0,0:0:0:0:
320,192,220792,1,0,0:0:0:0:
192,192,220850,1,0,0:0:0:0:
320,192,220908,1,0,0:0:0:0:
448,192,220908,1,0,0:0:0:0:
64,192,220965,1,0,0:0:0:0:
192,192,221023,1,0,0:0:0:0:
448,192,221023,1,0,0:0:0:0:
320,192,221081,1,0,0:0:0:0:
192,192,221138,1,0,0:0:0:0:
64,192,221138,1,0,0:0:0:0:
448,192,221196,1,0,0:0:0:0:
320,192,221254,1,0,0:0:0:0:
64,192,221254,1,0,0:0:0:0:
192,192,221311,1,0,0:0:0:0:
320,192,221369,1,0,0:0:0:0:
448,192,221369,1,0,0:0:0:0:
64,192,221427,1,0,0:0:0:0:
192,192,221484,1,0,0:0:0:0:
320,192,221484,1,0,0:0:0:0:
448,192,221542,1,0,0:0:0:0:
64,192,221600,1,0,0:0:0:0:
192,192,221600,1,0,0:0:0:0:
320,192,221658,1,0,0:0:0:0:
448,192,221715,1,0,0:0:0:0:
64,192,221715,1,0,0:0:0:0:
192,192,221773,1,0,0:0:0:0:
320,192,221831,1,0,0:0:0:0:
448,192,221831,1,0,0:0:0:0:
64,192,221888,1,0,0:0:0:0:
192,192,221946,1,0,0:0:0:0:
320,192,221946,1,0,0:0:0:0:
448,192,222004,1,0,0:0:0:0:
64,192,222061,1,0,0:0:0:0:
320,192,222061,1,0,0:0:0:0:
192,192,222119,1,0,0:0:0:0:
64,192,222177,1,0,0:0:0:0:
448,192,222177,1,0,0:0:0:0:
320,192,222234,1,0,0:0:0:0:
192,192,222292,1,0,0:0:0:0:
64,192,222292,1,0,0:0:0:0:
448,192,222350,1,0,0:0:0:0:
320,192,222408,1,0,0:0:0:0:
192,192,222408,1,0,0:0:0:0:
64,192,222465,1,0,0:0:0:0:
448,192,222523,5,0,0:0:0:0:
320,192,222552,1,0,0:0:0:0:
64,192,222581,1,0,0:0:0:0:
192,192,222609,1,0,0:0:0:0:
448,192,222638,1,0,0:0:0:0:
320,192,222667,1,0,0:0:0:0:
64,192,222696,1,0,0:0:0:0:
192,192,222725,1,0,0:0:0:0:
448,192,222754,1,0,0:0:0:0:
320,192,222783,1,0,0:0:0:0:
64,192,222811,1,0,0:0:0:0:
192,192,222840,1,0,0:0:0:0:
448,192,222869,1,0,0:0:0:0:
320,192,222898,1,0,0:0:0:0:
64,192,222927,1,0,0:0:0:0:
192,192,222956,1,0,0:0:0:0:
448,192,222984,1,0,0:0:0:0:
320,192,223013,1,0,0:0:0:0:
64,192,223042,1,0,0:0:0:0:
192,192,223071,1,0,0:0:0:0:
448,192,223100,1,0,0:0:0:0:
320,192,223129,1,0,0:0:0:0:
64,192,223158,1,0,0:0:0:0:
192,192,223186,1,0,0:0:0:0:
448,192,223215,1,0,0:0:0:0:
320,192,223244,1,0,0:0:0:0:
64,192,223273,1,0,0:0:0:0:
192,192,223302,1,0,0:0:0:0:
448,192,223331,1,0,0:0:0:0:
320,192,223359,1,0,0:0:0:0:
192,192,223388,1,0,0:0:0:0:
448,192,223417,1,0,0:0:0:0:
64,192,223446,5,0,0:0:0:0:
192,192,223484,1,0,0:0:0:0:
448,192,223523,1,0,0:0:0:0:
320,192,223561,1,0,0:0:0:0:
64,192,223600,1,0,0:0:0:0:
192,192,223638,1,0,0:0:0:0:
448,192,223677,1,0,0:0:0:0:
64,192,223715,1,0,0:0:0:0:
320,192,223754,1,0,0:0:0:0:
192,192,223792,1,0,0:0:0:0:
448,192,223831,1,0,0:0:0:0:
320,192,223869,1,0,0:0:0:0:
64,192,223908,1,0,0:0:0:0:
192,192,223946,1,0,0:0:0:0:
448,192,223984,1,0,0:0:0:0:
64,192,224023,1,0,0:0:0:0:
320,192,224061,1,0,0:0:0:0:
192,192,224100,1,0,0:0:0:0:
448,192,224138,1,0,0:0:0:0:
320,192,224177,1,0,0:0:0:0:
64,192,224215,1,0,0:0:0:0:
192,192,224254,1,0,0:0:0:0:
448,192,224292,1,0,0:0:0:0:
64,192,224331,1,0,0:0:0:0:
192,192,224369,1,0,0:0:0:0:
320,192,224369,1,0,0:0:0:0:
448,192,224427,1,0,0:0:0:0:
64,192,224484,1,0,0:0:0:0:
192,192,224542,1,0,0:0:0:0:
320,192,224600,1,0,0:0:0:0:
448,192,224600,1,0,0:0:0:0:
64,192,224658,1,0,0:0:0:0:
192,192,224715,1,0,0:0:0:0:
448,192,224773,1,0,0:0:0:0:
320,192,224831,1,0,0:0:0:0:
64,192,224831,1,0,0:0:0:0:
192,192,224888,1,0,0:0:0:0:
320,192,224946,1,0,0:0:0:0:
448,192,225004,1,0,0:0:0:0:
320,192,225061,1,0,0:0:0:0:
64,192,225061,1,0,0:0:0:0:
192,192,225061,1,0,0:0:0:0:
64,192,225292,1,0,0:0:0:0:
192,192,225292,1,0,0:0:0:0:
320,192,225292,1,0,0:0:0:0:
448,192,225292,1,0,0:0:0:0:
320,192,225408,1,0,0:0:0:0:
448,192,225408,1,0,0:0:0:0:
64,192,225523,1,0,0:0:0:0:
192,192,225523,1,0,0:0:0:0:
448,192,225523,1,0,0:0:0:0:
64,192,225638,1,0,0:0:0:0:
192,192,225638,1,0,0:0:0:0:
64,192,225754,1,0,0:0:0:0:
320,192,225754,1,0,0:0:0:0:
448,192,225754,1,0,0:0:0:0:
192,192,225869,1,0,0:0:0:0:
320,192,225869,1,0,0:0:0:0:
64,192,225984,1,0,0:0:0:0:
192,192,225984,1,0,0:0:0:0:
448,192,225984,1,0,0:0:0:0:
64,192,226100,1,0,0:0:0:0:
320,192,226100,1,0,0:0:0:0:
192,192,226215,1,0,0:0:0:0:
320,192,226215,1,0,0:0:0:0:
448,192,226215,1,0,0:0:0:0:
64,192,226331,1,0,0:0:0:0:
448,192,226331,1,0,0:0:0:0:
192,192,226446,1,0,0:0:0:0:
64,192,226446,1,0,0:0:0:0:
320,192,226446,1,0,0:0:0:0:
192,192,226561,1,0,0:0:0:0:
320,192,226561,1,0,0:0:0:0:
320,192,226677,1,0,0:0:0:0:
64,192,226677,1,0,0:0:0:0:
448,192,226677,1,0,0:0:0:0:
192,192,226734,1,0,0:0:0:0:
320,192,226792,1,0,0:0:0:0:
448,192,226792,1,0,0:0:0:0:
192,192,226850,1,0,0:0:0:0:
448,192,226908,1,0,0:0:0:0:
64,192,226908,1,0,0:0:0:0:
320,192,226965,1,0,0:0:0:0:
64,192,227023,1,0,0:0:0:0:
448,192,227023,1,0,0:0:0:0:
192,192,227081,1,0,0:0:0:0:
64,192,227138,1,0,0:0:0:0:
448,192,227138,1,0,0:0:0:0:
320,192,227138,1,0,0:0:0:0:
64,192,227254,1,0,0:0:0:0:
192,192,227254,1,0,0:0:0:0:
320,192,227369,1,0,0:0:0:0:
448,192,227369,1,0,0:0:0:0:
192,192,227369,1,0,0:0:0:0:
64,192,227484,1,0,0:0:0:0:
448,192,227484,1,0,0:0:0:0:
192,192,227600,1,0,0:0:0:0:
320,192,227600,1,0,0:0:0:0:
64,192,227600,1,0,0:0:0:0:
192,192,227715,1,0,0:0:0:0:
448,192,227715,1,0,0:0:0:0:
320,192,227831,1,0,0:0:0:0:
448,192,227831,1,0,0:0:0:0:
64,192,227831,1,0,0:0:0:0:
192,192,227888,1,0,0:0:0:0:
64,192,227946,1,0,0:0:0:0:
448,192,227946,1,0,0:0:0:0:
320,192,228004,1,0,0:0:0:0:
192,192,228061,1,0,0:0:0:0:
64,192,228061,1,0,0:0:0:0:
448,192,228061,1,0,0:0:0:0:
320,192,228177,1,0,0:0:0:0:
192,192,228177,1,0,0:0:0:0:
64,192,228292,1,0,0:0:0:0:
320,192,228292,1,0,0:0:0:0:
448,192,228292,1,0,0:0:0:0:
192,192,228408,1,0,0:0:0:0:
448,192,228408,1,0,0:0:0:0:
320,192,228523,1,0,0:0:0:0:
192,192,228523,1,0,0:0:0:0:
64,192,228523,1,0,0:0:0:0:
448,192,228638,1,0,0:0:0:0:
64,192,228638,1,0,0:0:0:0:
192,192,228754,1,0,0:0:0:0:
64,192,228754,1,0,0:0:0:0:
320,192,228811,1,0,0:0:0:0:
448,192,228811,1,0,0:0:0:0:
192,192,228869,1,0,0:0:0:0:
64,192,228869,1,0,0:0:0:0:
448,192,228927,1,0,0:0:0:0:
192,192,228984,1,0,0:0:0:0:
64,192,228984,1,0,0:0:0:0:
320,192,228984,1,0,0:0:0:0:
320,192,229100,1,0,0:0:0:0:
448,192,229100,1,0,0:0:0:0:
64,192,229215,1,0,0:0:0:0:
192,192,229215,1,0,0:0:0:0:
448,192,229215,1,0,0:0:0:0:
320,192,229331,1,0,0:0:0:0:
64,192,229331,1,0,0:0:0:0:
448,192,229446,1,0,0:0:0:0:
192,192,229446,1,0,0:0:0:0:
320,192,229446,1,0,0:0:0:0:
448,192,229561,1,0,0:0:0:0:
64,192,229561,1,0,0:0:0:0:
192,192,229677,1,0,0:0:0:0:
320,192,229677,1,0,0:0:0:0:
64,192,229677,1,0,0:0:0:0:
192,192,229792,1,0,0:0:0:0:
448,192,229792,1,0,0:0:0:0:
320,192,229908,1,0,0:0:0:0:
448,192,229908,1,0,0:0:0:0:
64,192,229908,1,0,0:0:0:0:
192,192,230023,1,0,0:0:0:0:
64,192,230023,1,0,0:0:0:0:
192,192,230138,1,0,0:0:0:0:
448,192,230138,1,0,0:0:0:0:
320,192,230138,1,0,0:0:0:0:
448,192,230254,1,0,0:0:0:0:
64,192,230254,1,0,0:0:0:0:
320,192,230369,1,0,0:0:0:0:
192,192,230369,1,0,0:0:0:0:
64,192,230369,1,0,0:0:0:0:
448,192,230427,1,0,0:0:0:0:
320,192,230484,1,0,0:0:0:0:
192,192,230484,1,0,0:0:0:0:
64,192,230542,1,0,0:0:0:0:
448,192,230600,1,0,0:0:0:0:
192,192,230600,1,0,0:0:0:0:
320,192,230658,1,0,0:0:0:0:
448,192,230715,1,0,0:0:0:0:
64,192,230715,1,0,0:0:0:0:
192,192,230773,1,0,0:0:0:0:
320,192,230831,1,0,0:0:0:0:
448,192,230831,1,0,0:0:0:0:
64,192,230888,1,0,0:0:0:0:
448,192,230946,1,0,0:0:0:0:
320,192,230946,1,0,0:0:0:0:
192,192,230946,1,0,0:0:0:0:
64,192,231061,1,0,0:0:0:0:
192,192,231061,1,0,0:0:0:0:
320,192,231177,1,0,0:0:0:0:
448,192,231177,1,0,0:0:0:0:
64,192,231292,1,0,0:0:0:0:
192,192,231292,1,0,0:0:0:0:
448,192,231350,1,0,0:0:0:0:
64,192,231408,1,0,0:0:0:0:
320,192,231408,1,0,0:0:0:0:
192,192,231408,1,0,0:0:0:0:
320,192,231523,1,0,0:0:0:0:
448,192,231523,1,0,0:0:0:0:
64,192,231638,1,0,0:0:0:0:
192,192,231638,1,0,0:0:0:0:
448,192,231638,1,0,0:0:0:0:
320,192,231696,1,0,0:0:0:0:
192,192,231754,1,0,0:0:0:0:
64,192,231754,1,0,0:0:0:0:
64,192,231869,1,0,0:0:0:0:
320,192,231869,1,0,0:0:0:0:
448,192,231869,1,0,0:0:0:0:
192,192,231927,1,0,0:0:0:0:
320,192,231984,1,0,0:0:0:0:
448,192,231984,1,0,0:0:0:0:
64,192,232100,1,0,0:0:0:0:
192,192,232100,1,0,0:0:0:0:
64,192,232215,1,0,0:0:0:0:
320,192,232215,1,0,0:0:0:0:
448,192,232215,1,0,0:0:0:0:
192,192,232331,1,0,0:0:0:0:
64,192,232331,1,0,0:0:0:0:
320,192,232388,1,0,0:0:0:0:
448,192,232446,5,0,0:0:0:0:
64,192,232484,1,0,0:0:0:0:
192,192,232523,1,0,0:0:0:0:
448,192,232561,1,0,0:0:0:0:
320,192,232600,1,0,0:0:0:0:
192,192,232638,1,0,0:0:0:0:
64,192,232677,5,0,0:0:0:0:
320,192,232677,1,0,0:0:0:0:
448,192,232677,1,0,0:0:0:0:
448,192,232792,1,0,0:0:0:0:
192,192,232792,1,0,0:0:0:0:
320,192,232792,1,0,0:0:0:0:
64,192,232908,1,0,0:0:0:0:
192,192,232908,1,0,0:0:0:0:
320,192,232908,1,0,0:0:0:0:
64,192,233023,1,0,0:0:0:0:
192,192,233023,1,0,0:0:0:0:
448,192,233023,1,0,0:0:0:0:
192,192,233138,1,0,0:0:0:0:
320,192,233138,1,0,0:0:0:0:
448,192,233138,1,0,0:0:0:0:
64,192,233254,1,0,0:0:0:0:
320,192,233254,1,0,0:0:0:0:
448,192,233254,1,0,0:0:0:0:
64,192,233369,1,0,0:0:0:0:
192,192,233369,1,0,0:0:0:0:
320,192,233427,1,0,0:0:0:0:
64,192,233484,1,0,0:0:0:0:
192,192,233484,1,0,0:0:0:0:
448,192,233542,1,0,0:0:0:0:
192,192,233600,1,0,0:0:0:0:
64,192,233600,1,0,0:0:0:0:
320,192,233600,1,0,0:0:0:0:
320,192,233715,1,0,0:0:0:0:
448,192,233715,1,0,0:0:0:0:
64,192,233715,1,0,0:0:0:0:
192,192,233831,1,0,0:0:0:0:
320,192,233831,1,0,0:0:0:0:
448,192,233831,1,0,0:0:0:0:
64,192,233946,1,0,0:0:0:0:
192,192,233946,1,0,0:0:0:0:
320,192,233946,1,0,0:0:0:0:
64,192,234061,1,0,0:0:0:0:
448,192,234061,1,0,0:0:0:0:
320,192,234119,1,0,0:0:0:0:
64,192,234177,1,0,0:0:0:0:
448,192,234177,1,0,0:0:0:0:
192,192,234234,1,0,0:0:0:0:
64,192,234292,1,0,0:0:0:0:
448,192,234292,1,0,0:0:0:0:
320,192,234292,1,0,0:0:0:0:
64,192,234408,1,0,0:0:0:0:
192,192,234446,1,0,0:0:0:0:
448,192,234484,1,0,0:0:0:0:
320,192,234523,1,0,0:0:0:0:
64,192,234523,1,0,0:0:0:0:
192,192,234523,1,0,0:0:0:0:
320,192,234638,1,0,0:0:0:0:
448,192,234638,1,0,0:0:0:0:
320,192,234754,1,0,0:0:0:0:
448,192,234754,1,0,0:0:0:0:
64,192,234754,1,0,0:0:0:0:
64,192,234869,1,0,0:0:0:0:
192,192,234869,1,0,0:0:0:0:
64,192,234984,1,0,0:0:0:0:
192,192,234984,1,0,0:0:0:0:
448,192,234984,1,0,0:0:0:0:
192,192,235100,1,0,0:0:0:0:
448,192,235100,1,0,0:0:0:0:
320,192,235215,1,0,0:0:0:0:
192,192,235215,1,0,0:0:0:0:
64,192,235215,1,0,0:0:0:0:
64,192,235331,1,0,0:0:0:0:
320,192,235331,1,0,0:0:0:0:
448,192,235388,1,0,0:0:0:0:
64,192,235446,1,0,0:0:0:0:
192,192,235446,1,0,0:0:0:0:
320,192,235446,1,0,0:0:0:0:
192,192,235561,1,0,0:0:0:0:
448,192,235561,1,0,0:0:0:0:
64,192,235619,1,0,0:0:0:0:
320,192,235677,1,0,0:0:0:0:
448,192,235677,1,0,0:0:0:0:
192,192,235677,1,0,0:0:0:0:
64,192,235734,1,0,0:0:0:0:
320,192,235792,1,0,0:0:0:0:
448,192,235792,1,0,0:0:0:0:
64,192,235908,1,0,0:0:0:0:
320,192,235908,1,0,0:0:0:0:
448,192,235908,1,0,0:0:0:0:
192,192,235965,1,0,0:0:0:0:
64,192,236023,1,0,0:0:0:0:
448,192,236081,1,0,0:0:0:0:
320,192,236138,1,0,0:0:0:0:
192,192,236138,1,0,0:0:0:0:
64,192,236177,1,0,0:0:0:0:
448,192,236215,1,0,0:0:0:0:
320,192,236254,1,0,0:0:0:0:
64,192,236292,1,0,0:0:0:0:
192,192,236331,1,0,0:0:0:0:
448,192,236369,1,0,0:0:0:0:
320,192,236369,1,0,0:0:0:0:
64,192,236484,1,0,0:0:0:0:
192,192,236484,1,0,0:0:0:0:
448,192,236542,1,0,0:0:0:0:
320,192,236600,1,0,0:0:0:0:
192,192,236600,1,0,0:0:0:0:
64,192,236600,1,0,0:0:0:0:
320,192,236715,1,0,0:0:0:0:
448,192,236715,1,0,0:0:0:0:
320,192,236831,1,0,0:0:0:0:
448,192,236831,1,0,0:0:0:0:
192,192,236831,1,0,0:0:0:0:
64,192,236888,1,0,0:0:0:0:
192,192,236946,1,0,0:0:0:0:
448,192,236946,1,0,0:0:0:0:
64,192,237061,1,0,0:0:0:0:
320,192,237061,1,0,0:0:0:0:
192,192,237061,1,0,0:0:0:0:
448,192,237177,1,0,0:0:0:0:
64,192,237177,1,0,0:0:0:0:
192,192,237234,1,0,0:0:0:0:
320,192,237292,1,0,0:0:0:0:
448,192,237292,1,0,0:0:0:0:
64,192,237292,1,0,0:0:0:0:
192,192,237408,1,0,0:0:0:0:
320,192,237408,1,0,0:0:0:0:
448,192,237523,1,0,0:0:0:0:
320,192,237523,1,0,0:0:0:0:
192,192,237523,1,0,0:0:0:0:
64,192,237581,1,0,0:0:0:0:
320,192,237638,1,0,0:0:0:0:
448,192,237638,1,0,0:0:0:0:
64,192,237754,1,0,0:0:0:0:
192,192,237754,1,0,0:0:0:0:
448,192,237754,1,0,0:0:0:0:
320,192,237869,1,0,0:0:0:0:
192,192,237908,1,0,0:0:0:0:
448,192,237946,1,0,0:0:0:0:
320,192,237984,1,0,0:0:0:0:
64,192,237984,1,0,0:0:0:0:
64,192,238100,1,0,0:0:0:0:
320,192,238100,1,0,0:0:0:0:
448,192,238138,1,0,0:0:0:0:
192,192,238177,1,0,0:0:0:0:
64,192,238215,1,0,0:0:0:0:
320,192,238215,1,0,0:0:0:0:
448,192,238331,1,0,0:0:0:0:
192,192,238331,1,0,0:0:0:0:
64,192,238369,1,0,0:0:0:0:
320,192,238408,1,0,0:0:0:0:
448,192,238446,1,0,0:0:0:0:
192,192,238446,1,0,0:0:0:0:
64,192,238561,1,0,0:0:0:0:
448,192,238561,1,0,0:0:0:0:
64,192,238677,1,0,0:0:0:0:
192,192,238677,1,0,0:0:0:0:
448,192,238715,1,0,0:0:0:0:
320,192,238754,1,0,0:0:0:0:
192,192,238792,1,0,0:0:0:0:
64,192,238792,1,0,0:0:0:0:
320,192,238908,1,0,0:0:0:0:
448,192,238908,1,0,0:0:0:0:
320,192,239023,1,0,0:0:0:0:
448,192,239023,1,0,0:0:0:0:
64,192,239061,1,0,0:0:0:0:
192,192,239100,1,0,0:0:0:0:
320,192,239138,1,0,0:0:0:0:
448,192,239138,1,0,0:0:0:0:
64,192,239254,1,0,0:0:0:0:
192,192,239254,1,0,0:0:0:0:
320,192,239311,1,0,0:0:0:0:
448,192,239369,1,0,0:0:0:0:
64,192,239369,1,0,0:0:0:0:
192,192,239427,1,0,0:0:0:0:
320,192,239484,1,0,0:0:0:0:
448,192,239484,1,0,0:0:0:0:
192,192,239542,1,0,0:0:0:0:
64,192,239600,1,0,0:0:0:0:
192,192,239638,1,0,0:0:0:0:
448,192,239677,1,0,0:0:0:0:
320,192,239715,1,0,0:0:0:0:
64,192,239754,1,0,0:0:0:0:
448,192,239792,1,0,0:0:0:0:
320,192,239831,1,0,0:0:0:0:
64,192,239859,1,0,0:0:0:0:
192,192,239888,1,0,0:0:0:0:
320,192,239917,1,0,0:0:0:0:
448,192,239946,1,0,0:0:0:0:
64,192,239975,1,0,0:0:0:0:
192,192,240004,1,0,0:0:0:0:
320,192,240033,1,0,0:0:0:0:
64,192,240061,128,0,241908:0:0:0:0:
448,192,240061,128,0,241908:0:0:0:0:
64,192,243754,1,0,0:0:0:0:
192,192,243754,1,0,0:0:0:0:
320,192,243754,1,0,0:0:0:0:
448,192,243754,1,0,0:0:0:0:
64,192,244100,1,0,0:0:0:0:
320,192,244158,1,0,0:0:0:0:
192,192,244215,1,0,0:0:0:0:
192,192,244331,1,0,0:0:0:0:
320,192,244388,1,0,0:0:0:0:
192,192,244446,1,0,0:0:0:0:
192,192,244561,1,0,0:0:0:0:
192,192,244677,1,0,0:0:0:0:
64,192,244677,1,0,0:0:0:0:
320,192,244677,1,0,0:0:0:0:
448,192,244677,1,0,0:0:0:0:
448,192,244792,1,0,0:0:0:0:
448,192,244908,1,0,0:0:0:0:
448,192,245023,1,0,0:0:0:0:
192,192,245138,1,0,0:0:0:0:
64,192,245254,1,0,0:0:0:0:
64,192,245369,1,0,0:0:0:0:
64,192,245484,1,0,0:0:0:0:
64,192,245600,5,0,0:0:0:0:
192,192,245600,1,0,0:0:0:0:
448,192,245600,1,0,0:0:0:0:
320,192,245600,1,0,0:0:0:0:
448,192,245715,1,0,0:0:0:0:
320,192,245715,1,0,0:0:0:0:
192,192,245831,1,0,0:0:0:0:
320,192,245831,1,0,0:0:0:0:
448,192,245831,1,0,0:0:0:0:
64,192,245831,1,0,0:0:0:0:
192,192,245946,1,0,0:0:0:0:
64,192,245946,1,0,0:0:0:0:
320,192,246061,1,0,0:0:0:0:
192,192,246061,1,0,0:0:0:0:
448,192,246061,1,0,0:0:0:0:
64,192,246061,1,0,0:0:0:0:
320,192,246177,1,0,0:0:0:0:
448,192,246177,1,0,0:0:0:0:
64,192,246292,1,0,0:0:0:0:
320,192,246292,1,0,0:0:0:0:
192,192,246292,1,0,0:0:0:0:
448,192,246292,1,0,0:0:0:0:
64,192,246408,1,0,0:0:0:0:
192,192,246408,1,0,0:0:0:0:
64,192,246523,1,0,0:0:0:0:
448,192,246523,1,0,0:0:0:0:
192,192,246581,1,0,0:0:0:0:
320,192,246638,1,0,0:0:0:0:
448,192,246638,1,0,0:0:0:0:
64,192,246696,1,0,0:0:0:0:
192,192,246754,1,0,0:0:0:0:
320,192,246754,1,0,0:0:0:0:
448,192,246811,1,0,0:0:0:0:
64,192,246869,1,0,0:0:0:0:
192,192,246869,1,0,0:0:0:0:
320,192,246927,1,0,0:0:0:0:
448,192,246984,1,0,0:0:0:0:
64,192,246984,1,0,0:0:0:0:
192,192,247023,1,0,0:0:0:0:
320,192,247061,1,0,0:0:0:0:
64,192,247100,1,0,0:0:0:0:
192,192,247138,1,0,0:0:0:0:
448,192,247177,1,0,0:0:0:0:
320,192,247215,1,0,0:0:0:0:
192,192,247254,1,0,0:0:0:0:
64,192,247292,1,0,0:0:0:0:
448,192,247331,1,0,0:0:0:0:
320,192,247369,1,0,0:0:0:0:
192,192,247408,1,0,0:0:0:0:
64,192,247446,1,0,0:0:0:0:
448,192,247446,1,0,0:0:0:0:
320,192,247484,1,0,0:0:0:0:
192,192,247523,1,0,0:0:0:0:
448,192,247561,1,0,0:0:0:0:
64,192,247600,1,0,0:0:0:0:
320,192,247638,1,0,0:0:0:0:
192,192,247677,1,0,0:0:0:0:
448,192,247715,1,0,0:0:0:0:
320,192,247754,1,0,0:0:0:0:
64,192,247792,1,0,0:0:0:0:
192,192,247831,1,0,0:0:0:0:
448,192,247869,1,0,0:0:0:0:
64,192,247908,1,0,0:0:0:0:
320,192,247946,1,0,0:0:0:0:
192,192,247984,1,0,0:0:0:0:
448,192,248023,1,0,0:0:0:0:
320,192,248081,1,0,0:0:0:0:
192,192,248138,1,0,0:0:0:0:
448,192,248254,1,0,0:0:0:0:
448,192,248369,128,0,249061:0:0:0:0:
64,192,249061,128,0,249119:0:0:0:0:
192,192,249061,128,0,249119:0:0:0:0:
320,192,249061,128,0,249119:0:0:0:0:
448,192,249292,1,0,0:0:0:0:
192,192,249292,1,0,0:0:0:0:
320,192,249350,1,0,0:0:0:0:
64,192,249408,1,0,0:0:0:0:
192,192,249408,1,0,0:0:0:0:
448,192,249465,1,0,0:0:0:0:
320,192,249523,1,0,0:0:0:0:
64,192,249523,1,0,0:0:0:0:
192,192,249581,1,0,0:0:0:0:
320,192,249638,1,0,0:0:0:0:
448,192,249638,1,0,0:0:0:0:
64,192,249696,1,0,0:0:0:0:
192,192,249754,1,0,0:0:0:0:
448,192,249754,1,0,0:0:0:0:
320,192,249811,1,0,0:0:0:0:
64,192,249869,1,0,0:0:0:0:
192,192,249869,1,0,0:0:0:0:
448,192,249927,1,0,0:0:0:0:
320,192,249984,1,0,0:0:0:0:
64,192,249984,1,0,0:0:0:0:
192,192,250042,1,0,0:0:0:0:
320,192,250100,1,0,0:0:0:0:
448,192,250100,1,0,0:0:0:0:
64,192,250158,1,0,0:0:0:0:
192,192,250215,1,0,0:0:0:0:
448,192,250215,1,0,0:0:0:0:
320,192,250273,1,0,0:0:0:0:
192,192,250331,1,0,0:0:0:0:
64,192,250331,1,0,0:0:0:0:
448,192,250388,1,0,0:0:0:0:
320,192,250446,1,0,0:0:0:0:
64,192,250446,1,0,0:0:0:0:
192,192,250504,1,0,0:0:0:0:
320,192,250561,1,0,0:0:0:0:
448,192,250561,1,0,0:0:0:0:
64,192,250619,1,0,0:0:0:0:
448,192,250677,1,0,0:0:0:0:
320,192,250677,1,0,0:0:0:0:
192,192,250734,1,0,0:0:0:0:
64,192,250734,1,0,0:0:0:0:
320,192,250792,1,0,0:0:0:0:
448,192,250792,1,0,0:0:0:0:
192,192,250850,1,0,0:0:0:0:
64,192,250850,1,0,0:0:0:0:
320,192,250908,1,0,0:0:0:0:
448,192,250908,1,0,0:0:0:0:
64,192,250965,1,0,0:0:0:0:
192,192,250965,1,0,0:0:0:0:
448,192,251023,1,0,0:0:0:0:
320,192,251023,1,0,0:0:0:0:
64,192,251081,1,0,0:0:0:0:
192,192,251138,1,0,0:0:0:0:
320,192,251138,1,0,0:0:0:0:
448,192,251138,1,0,0:0:0:0:
64,192,251196,1,0,0:0:0:0:
192,192,251254,1,0,0:0:0:0:
448,192,251254,1,0,0:0:0:0:
320,192,251311,1,0,0:0:0:0:
192,192,251369,1,0,0:0:0:0:
64,192,251369,1,0,0:0:0:0:
448,192,251427,1,0,0:0:0:0:
320,192,251484,1,0,0:0:0:0:
192,192,251484,1,0,0:0:0:0:
64,192,251542,1,0,0:0:0:0:
448,192,251600,1,0,0:0:0:0:
320,192,251600,1,0,0:0:0:0:
192,192,251658,1,0,0:0:0:0:
64,192,251715,1,0,0:0:0:0:
448,192,251715,1,0,0:0:0:0:
320,192,251773,1,0,0:0:0:0:
192,192,251831,1,0,0:0:0:0:
64,192,251831,1,0,0:0:0:0:
448,192,251888,1,0,0:0:0:0:
320,192,251946,1,0,0:0:0:0:
192,192,251946,1,0,0:0:0:0:
64,192,252004,1,0,0:0:0:0:
448,192,252061,1,0,0:0:0:0:
320,192,252061,1,0,0:0:0:0:
192,192,252119,1,0,0:0:0:0:
64,192,252177,1,0,0:0:0:0:
448,192,252177,1,0,0:0:0:0:
320,192,252234,1,0,0:0:0:0:
192,192,252292,1,0,0:0:0:0:
64,192,252292,1,0,0:0:0:0:
448,192,252350,1,0,0:0:0:0:
320,192,252408,1,0,0:0:0:0:
192,192,252408,1,0,0:0:0:0:
64,192,252465,1,0,0:0:0:0:
448,192,252523,1,0,0:0:0:0:
320,192,252523,1,0,0:0:0:0:
192,192,252581,1,0,0:0:0:0:
64,192,252581,1,0,0:0:0:0:
320,192,252638,1,0,0:0:0:0:
448,192,252638,1,0,0:0:0:0:
192,192,252696,1,0,0:0:0:0:
64,192,252696,1,0,0:0:0:0:
320,192,252754,1,0,0:0:0:0:
448,192,252754,1,0,0:0:0:0:
192,192,252811,1,0,0:0:0:0:
64,192,252811,1,0,0:0:0:0:
320,192,252869,1,0,0:0:0:0:
448,192,252869,1,0,0:0:0:0:
64,192,252927,1,0,0:0:0:0:
192,192,252984,1,0,0:0:0:0:
320,192,252984,1,0,0:0:0:0:
448,192,252984,1,0,0:0:0:0:
64,192,253042,1,0,0:0:0:0:
192,192,253100,1,0,0:0:0:0:
320,192,253100,1,0,0:0:0:0:
448,192,253158,1,0,0:0:0:0:
64,192,253215,1,0,0:0:0:0:
192,192,253215,1,0,0:0:0:0:
320,192,253273,1,0,0:0:0:0:
448,192,253331,1,0,0:0:0:0:
64,192,253331,1,0,0:0:0:0:
192,192,253388,1,0,0:0:0:0:
320,192,253446,1,0,0:0:0:0:
448,192,253446,1,0,0:0:0:0:
64,192,253504,1,0,0:0:0:0:
192,192,253561,1,0,0:0:0:0:
320,192,253561,1,0,0:0:0:0:
448,192,253619,1,0,0:0:0:0:
64,192,253677,1,0,0:0:0:0:
192,192,253677,1,0,0:0:0:0:
320,192,253734,1,0,0:0:0:0:
448,192,253792,1,0,0:0:0:0:
64,192,253792,1,0,0:0:0:0:
192,192,253850,1,0,0:0:0:0:
320,192,253908,1,0,0:0:0:0:
448,192,253908,1,0,0:0:0:0:
64,192,253965,1,0,0:0:0:0:
192,192,254023,1,0,0:0:0:0:
320,192,254023,1,0,0:0:0:0:
448,192,254081,1,0,0:0:0:0:
64,192,254138,1,0,0:0:0:0:
192,192,254138,1,0,0:0:0:0:
320,192,254196,1,0,0:0:0:0:
448,192,254254,1,0,0:0:0:0:
64,192,254254,1,0,0:0:0:0:
192,192,254311,1,0,0:0:0:0:
320,192,254369,1,0,0:0:0:0:
448,192,254369,1,0,0:0:0:0:
192,192,254427,1,0,0:0:0:0:
64,192,254427,1,0,0:0:0:0:
320,192,254484,1,0,0:0:0:0:
448,192,254484,1,0,0:0:0:0:
192,192,254542,1,0,0:0:0:0:
64,192,254542,1,0,0:0:0:0:
448,192,254600,1,0,0:0:0:0:
320,192,254600,1,0,0:0:0:0:
192,192,254658,1,0,0:0:0:0:
64,192,254658,1,0,0:0:0:0:
448,192,254715,1,0,0:0:0:0:
320,192,254715,1,0,0:0:0:0:
64,192,254773,1,0,0:0:0:0:
192,192,254831,1,0,0:0:0:0:
320,192,254831,1,0,0:0:0:0:
448,192,254831,1,0,0:0:0:0:
64,192,254888,1,0,0:0:0:0:
192,192,254946,1,0,0:0:0:0:
448,192,254946,1,0,0:0:0:0:
320,192,255004,1,0,0:0:0:0:
64,192,255061,1,0,0:0:0:0:
192,192,255100,1,0,0:0:0:0:
448,192,255138,1,0,0:0:0:0:
320,192,255177,1,0,0:0:0:0:
192,192,255215,1,0,0:0:0:0:
64,192,255254,1,0,0:0:0:0:
320,192,255292,1,0,0:0:0:0:
192,192,255350,1,0,0:0:0:0:
448,192,255408,1,0,0:0:0:0:
320,192,255446,1,0,0:0:0:0:
64,192,255484,1,0,0:0:0:0:
192,192,255523,1,0,0:0:0:0:
448,192,255581,1,0,0:0:0:0:
320,192,255638,1,0,0:0:0:0:
192,192,255677,1,0,0:0:0:0:
64,192,255715,1,0,0:0:0:0:
448,192,255754,1,0,0:0:0:0:
320,192,255869,1,0,0:0:0:0:
64,192,255984,1,0,0:0:0:0:
320,192,256100,1,0,0:0:0:0:
192,192,256215,1,0,0:0:0:0:
192,192,256331,1,0,0:0:0:0:
448,192,256446,1,0,0:0:0:0:
64,192,256484,1,0,0:0:0:0:
320,192,256523,1,0,0:0:0:0:
192,192,256561,1,0,0:0:0:0:
448,192,256600,1,0,0:0:0:0:
320,192,256638,1,0,0:0:0:0:
64,192,256677,1,0,0:0:0:0:
192,192,256677,1,0,0:0:0:0:
448,192,256734,1,0,0:0:0:0:
320,192,256792,1,0,0:0:0:0:
64,192,256792,1,0,0:0:0:0:
192,192,256850,1,0,0:0:0:0:
448,192,256908,1,0,0:0:0:0:
320,192,256946,1,0,0:0:0:0:
64,192,256984,1,0,0:0:0:0:
192,192,257023,1,0,0:0:0:0:
448,192,257023,1,0,0:0:0:0:
320,192,257081,1,0,0:0:0:0:
64,192,257138,1,0,0:0:0:0:
192,192,257138,1,0,0:0:0:0:
448,192,257177,1,0,0:0:0:0:
320,192,257215,1,0,0:0:0:0:
192,192,257254,1,0,0:0:0:0:
64,192,257254,1,0,0:0:0:0:
448,192,257292,1,0,0:0:0:0:
320,192,257331,1,0,0:0:0:0:
192,192,257369,1,0,0:0:0:0:
64,192,257369,1,0,0:0:0:0:
448,192,257427,1,0,0:0:0:0:
64,192,257484,1,0,0:0:0:0:
320,192,257523,1,0,0:0:0:0:
192,192,257561,1,0,0:0:0:0:
448,192,257600,1,0,0:0:0:0:
64,192,257600,1,0,0:0:0:0:
320,192,257658,1,0,0:0:0:0:
192,192,257658,128,0,257658:0:0:0:0:
64,192,257715,1,0,0:0:0:0:
448,192,257773,1,0,0:0:0:0:
320,192,257831,1,0,0:0:0:0:
64,192,257869,1,0,0:0:0:0:
192,192,257908,1,0,0:0:0:0:
448,192,257946,1,0,0:0:0:0:
64,192,258023,1,0,0:0:0:0:
192,192,258061,1,0,0:0:0:0:
448,192,258100,1,0,0:0:0:0:
320,192,258138,1,0,0:0:0:0:
64,192,258177,1,0,0:0:0:0:
448,192,258215,1,0,0:0:0:0:
192,192,258254,1,0,0:0:0:0:
64,192,258292,128,0,258523:0:0:0:0:
448,192,258523,1,0,0:0:0:0:
320,192,258523,1,0,0:0:0:0:
192,192,258581,1,0,0:0:0:0:
448,192,258638,1,0,0:0:0:0:
64,192,258677,1,0,0:0:0:0:
192,192,258715,1,0,0:0:0:0:
320,192,258754,1,0,0:0:0:0:
64,192,258792,1,0,0:0:0:0:
192,192,258831,1,0,0:0:0:0:
448,192,258869,1,0,0:0:0:0:
320,192,258869,1,0,0:0:0:0:
64,192,258984,1,0,0:0:0:0:
192,192,259023,1,0,0:0:0:0:
448,192,259061,1,0,0:0:0:0:
64,192,259100,1,0,0:0:0:0:
320,192,259100,1,0,0:0:0:0:
192,192,259158,1,0,0:0:0:0:
448,192,259215,1,0,0:0:0:0:
320,192,259215,1,0,0:0:0:0:
64,192,259273,1,0,0:0:0:0:
192,192,259331,1,0,0:0:0:0:
448,192,259331,1,0,0:0:0:0:
320,192,259369,1,0,0:0:0:0:
64,192,259408,1,0,0:0:0:0:
192,192,259446,1,0,0:0:0:0:
320,192,259484,1,0,0:0:0:0:
448,192,259523,1,0,0:0:0:0:
64,192,259561,1,0,0:0:0:0:
320,192,259619,1,0,0:0:0:0:
192,192,259677,1,0,0:0:0:0:
64,192,259715,1,0,0:0:0:0:
448,192,259754,1,0,0:0:0:0:
320,192,259792,1,0,0:0:0:0:
192,192,259792,1,0,0:0:0:0:
64,192,259850,1,0,0:0:0:0:
320,192,259908,1,0,0:0:0:0:
448,192,259908,1,0,0:0:0:0:
320,192,260023,1,0,0:0:0:0:
448,192,260138,1,0,0:0:0:0:
192,192,260196,1,0,0:0:0:0:
448,192,260254,1,0,0:0:0:0:
192,192,260311,1,0,0:0:0:0:
448,192,260369,1,0,0:0:0:0:
64,192,260369,1,0,0:0:0:0:
320,192,260408,1,0,0:0:0:0:
192,192,260446,1,0,0:0:0:0:
64,192,260484,1,0,0:0:0:0:
448,192,260484,1,0,0:0:0:0:
320,192,260523,1,0,0:0:0:0:
192,192,260600,1,0,0:0:0:0:
64,192,260638,1,0,0:0:0:0:
448,192,260677,1,0,0:0:0:0:
320,192,260715,1,0,0:0:0:0:
64,192,260773,1,0,0:0:0:0:
192,192,260831,1,0,0:0:0:0:
320,192,260869,1,0,0:0:0:0:
448,192,260908,1,0,0:0:0:0:
64,192,260946,1,0,0:0:0:0:
192,192,260984,1,0,0:0:0:0:
320,192,261023,1,0,0:0:0:0:
64,192,261061,128,0,261119:0:0:0:0:
448,192,261061,128,0,261119:0:0:0:0:
64,192,261177,128,0,261234:0:0:0:0:
448,192,261177,128,0,261234:0:0:0:0:
448,192,261292,1,0,0:0:0:0:
320,192,261311,1,0,0:0:0:0:
192,192,261331,1,0,0:0:0:0:
64,192,261350,1,0,0:0:0:0:
448,192,261408,1,0,0:0:0:0:
320,192,261427,1,0,0:0:0:0:
64,192,261446,1,0,0:0:0:0:
192,192,261465,1,0,0:0:0:0:
320,192,261523,1,0,0:0:0:0:
448,192,261542,1,0,0:0:0:0:
192,192,261561,1,0,0:0:0:0:
64,192,261581,1,0,0:0:0:0:
448,192,261638,1,0,0:0:0:0:
320,192,261658,1,0,0:0:0:0:
192,192,261677,1,0,0:0:0:0:
64,192,261696,1,0,0:0:0:0:
448,192,261754,1,0,0:0:0:0:
320,192,261811,1,0,0:0:0:0:
64,192,261869,1,0,0:0:0:0:
192,192,261927,1,0,0:0:0:0:
448,192,261984,1,0,0:0:0:0:
320,192,262023,1,0,0:0:0:0:
64,192,262061,1,0,0:0:0:0:
192,192,262100,1,0,0:0:0:0:
320,192,262138,1,0,0:0:0:0:
448,192,262177,1,0,0:0:0:0:
64,192,262215,1,0,0:0:0:0:
192,192,262215,1,0,0:0:0:0:
320,192,262273,1,0,0:0:0:0:
448,192,262273,1,0,0:0:0:0:
192,192,262331,1,0,0:0:0:0:
64,192,262331,1,0,0:0:0:0:
448,192,262388,1,0,0:0:0:0:
320,192,262446,5,0,0:0:0:0:
192,192,262446,1,0,0:0:0:0:
64,192,262446,1,0,0:0:0:0:
448,192,262484,1,0,0:0:0:0:
64,192,262523,1,0,0:0:0:0:
192,192,262561,1,0,0:0:0:0:
320,192,262600,1,0,0:0:0:0:
448,192,262638,1,0,0:0:0:0:
64,192,262677,1,0,0:0:0:0:
192,192,262677,1,0,0:0:0:0:
320,192,262734,1,0,0:0:0:0:
448,192,262734,1,0,0:0:0:0:
192,192,262792,1,0,0:0:0:0:
64,192,262792,1,0,0:0:0:0:
448,192,262850,1,0,0:0:0:0:
320,192,262908,1,0,0:0:0:0:
192,192,262908,1,0,0:0:0:0:
64,192,262908,1,0,0:0:0:0:
448,192,262946,1,0,0:0:0:0:
64,192,262984,1,0,0:0:0:0:
192,192,263023,1,0,0:0:0:0:
320,192,263061,1,0,0:0:0:0:
448,192,263100,1,0,0:0:0:0:
64,192,263138,1,0,0:0:0:0:
192,192,263138,1,0,0:0:0:0:
320,192,263196,1,0,0:0:0:0:
448,192,263254,1,0,0:0:0:0:
64,192,263254,1,0,0:0:0:0:
192,192,263311,1,0,0:0:0:0:
320,192,263369,1,0,0:0:0:0:
448,192,263369,1,0,0:0:0:0:
64,192,263427,1,0,0:0:0:0:
192,192,263484,1,0,0:0:0:0:
320,192,263484,1,0,0:0:0:0:
448,192,263542,1,0,0:0:0:0:
64,192,263600,5,0,0:0:0:0:
192,192,263629,1,0,0:0:0:0:
448,192,263658,1,0,0:0:0:0:
320,192,263686,1,0,0:0:0:0:
192,192,263715,1,0,0:0:0:0:
64,192,263744,1,0,0:0:0:0:
448,192,263773,1,0,0:0:0:0:
320,192,263802,1,0,0:0:0:0:
64,192,263831,1,0,0:0:0:0:
192,192,263859,1,0,0:0:0:0:
320,192,263888,1,0,0:0:0:0:
448,192,263917,1,0,0:0:0:0:
64,192,263946,1,0,0:0:0:0:
192,192,263975,1,0,0:0:0:0:
448,192,264004,1,0,0:0:0:0:
320,192,264033,1,0,0:0:0:0:
192,192,264061,1,0,0:0:0:0:
64,192,264061,1,0,0:0:0:0:
320,192,264177,1,0,0:0:0:0:
448,192,264292,1,0,0:0:0:0:
192,192,264408,128,0,266831:0:0:0:0:
64,192,264408,128,0,266831:0:0:0:0:
