osu file format v14

[General]
AudioFilename: audio.mp3
AudioLeadIn: 0
PreviewTime: 149192
Countdown: 0
SampleSet: Normal
StackLeniency: 0.7
Mode: 3
LetterboxInBreaks: 0
SpecialStyle: 0
WidescreenStoryboard: 0

[Editor]
DistanceSpacing: 0.8
BeatDivisor: 4
GridSize: 32
TimelineZoom: 2.5

[Metadata]
Title:Villain Virus [feat. Camellia]
TitleUnicode:Villain Virus [feat. かめりあ]
Artist:Kobaryo
ArtistUnicode:Kobaryo
Creator:[RT]Alleyne
Version:Music Virus
Source:osu!
Tags:Instrumental Electronic Speedcore Hardcore J-core MIXPEED ACTION Psycho Filth Records gabba gabber Japan stream featured artist FA cametek kamelcamellia
BeatmapID:1912526
BeatmapSetID:915764

[Difficulty]
HPDrainRate:9
CircleSize:4
OverallDifficulty:8.5
ApproachRate:5
SliderMultiplier:1.4
SliderTickRate:1

[Events]
//Background and Video events
0,0,"BG.jpg",0,0
//Break Periods
//Storyboard Layer 0 (Background)
//Storyboard Layer 1 (Fail)
//Storyboard Layer 2 (Pass)
//Storyboard Layer 3 (Foreground)
//Storyboard Layer 4 (Overlay)
//Storyboard Sound Samples

[TimingPoints]
1962,230.769230769231,4,1,1,70,1,0
20423,-105.263157894737,4,1,1,70,0,0
22269,-111.111111111111,4,1,1,70,0,0
24115,-117.647058823529,4,1,1,70,0,0
25962,-125,4,1,1,70,0,0
27808,-133.333333333333,4,1,1,70,0,0
33577,-117.647058823529,4,1,1,70,0,0
34269,-153.846153846154,4,1,1,70,0,0
34385,-111.111111111111,4,1,1,70,0,0
34500,-86.9565217391304,4,1,1,70,0,0
34615,-71.4285714285714,4,1,1,70,0,0
34731,-200,4,1,1,70,0,0
34788,-66.6666666666667,4,1,1,70,0,0
34846,-200,4,1,1,70,0,0
34904,-66.6666666666667,4,1,1,70,0,0
34962,-200,4,1,1,70,0,0
35019,-66.6666666666667,4,1,1,70,0,0
35077,-200,4,1,1,70,0,0
35135,-66.6666666666667,4,1,1,70,0,0
35192,-100,4,1,1,70,0,0
36808,-125,4,1,1,70,0,0
36923,-100,4,1,1,70,0,0
36981,-71.4285714285714,4,1,1,70,0,0
37038,-21.0526315789474,4,1,1,70,0,0
37053,-133.333333333333,4,1,1,70,0,0
37269,-100,4,1,1,70,0,0
38654,-125,4,1,1,70,0,0
38769,-100,4,1,1,70,0,0
38827,-71.4285714285714,4,1,1,70,0,0
38884,-21.0526315789474,4,1,1,70,0,0
38899,-133.333333333333,4,1,1,70,0,0
39115,-100,4,1,1,70,0,0
40500,-125,4,1,1,70,0,0
40615,-100,4,1,1,70,0,0
40673,-71.4285714285714,4,1,1,70,0,0
40730,-21.0526315789474,4,1,1,70,0,0
40745,-133.333333333333,4,1,1,70,0,0
40961,-100,4,1,1,70,0,0
42577,-66.6666666666667,4,1,1,70,0,0
42634,-200,4,1,1,70,0,0
42692,-66.6666666666667,4,1,1,70,0,0
42750,-120.481927710843,4,1,1,70,0,0
42923,-66.6666666666667,4,1,1,70,0,0
42980,-200,4,1,1,70,0,0
43038,-40,4,1,1,70,0,0
43067,-400,4,1,1,70,0,0
43125,-100,4,1,1,70,0,0
43269,-66.6666666666667,4,1,1,70,0,0
43327,-200,4,1,1,70,0,0
43384,-66.6666666666667,4,1,1,70,0,0
43442,-120.481927710843,4,1,1,70,0,0
43615,-66.6666666666667,4,1,1,70,0,0
43673,-200,4,1,1,70,0,0
43730,-66.6666666666667,4,1,1,70,0,0
43788,-120.481927710843,4,1,1,70,0,0
43962,-40,4,1,1,70,0,0
43981,-142.857142857143,4,1,1,70,0,0
44077,-66.6666666666667,4,1,1,70,0,0
44134,-200,4,1,1,70,0,0
44192,-66.6666666666667,4,1,1,70,0,0
44250,-120.481927710843,4,1,1,70,0,0
44423,-66.6666666666667,4,1,1,70,0,0
44480,-200,4,1,1,70,0,0
44538,-66.6666666666667,4,1,1,70,0,0
44596,-120.481927710843,4,1,1,70,0,0
44769,-66.6666666666667,4,1,1,70,0,0
44827,-200,4,1,1,70,0,0
44884,-40,4,1,1,70,0,0
44913,-400,4,1,1,70,0,0
44971,-100,4,1,1,70,0,0
45115,-66.6666666666667,4,1,1,70,0,0
45173,-200,4,1,1,70,0,0
45230,-66.6666666666667,4,1,1,70,0,0
45288,-120.481927710843,4,1,1,70,0,0
45461,-66.6666666666667,4,1,1,70,0,0
45519,-200,4,1,1,70,0,0
45577,-66.6666666666667,4,1,1,70,0,0
45634,-120.481927710843,4,1,1,70,0,0
45808,-40,4,1,1,70,0,0
45827,-142.857142857143,4,1,1,70,0,0
45923,-66.6666666666667,4,1,1,70,0,0
45981,-200,4,1,1,70,0,0
46038,-66.6666666666667,4,1,1,70,0,0
46096,-200,4,1,1,70,0,0
46154,-66.6666666666667,4,1,1,70,0,0
46212,-200,4,1,1,70,0,0
46269,-40,4,1,1,70,0,0
46298,-400,4,1,1,70,0,0
46356,-100,4,1,1,70,0,0
46731,-40,4,1,1,70,0,0
46760,-400,4,1,1,70,0,0
46817,-100,4,1,1,70,0,0
49731,-40,4,1,1,70,0,0
49788,-133.333333333333,4,1,1,70,0,0
49846,-200,4,1,1,70,0,0
49904,-400,4,1,1,70,0,0
49962,-100,4,1,1,70,0,0
56423,-66.6666666666667,4,1,1,70,0,0
56481,-200,4,1,1,70,0,0
56538,-66.6666666666667,4,1,1,70,0,0
56596,-200,4,1,1,70,0,0
56654,-66.6666666666667,4,1,1,70,0,0
56712,-200,4,1,1,70,0,0
56769,-66.6666666666667,4,1,1,70,0,0
56827,-200,4,1,1,70,0,0
56885,-66.6666666666667,4,1,1,70,0,0
56942,-200,4,1,1,70,0,0
57000,-66.6666666666667,4,1,1,70,0,0
57058,-200,4,1,1,70,0,0
57115,-166.666666666667,4,1,1,70,0,0
57288,-45.4545454545455,4,1,1,70,0,0
57346,-100,4,1,1,70,0,0
58962,-166.666666666667,4,1,1,70,0,0
59135,-45.4545454545455,4,1,1,70,0,0
59192,-100,4,1,1,70,0,0
60577,-142.857142857143,4,1,1,70,0,0
60635,-111.111111111111,4,1,1,70,0,0
60692,-90.9090909090909,4,1,1,70,0,0
60750,-76.9230769230769,4,1,1,70,0,0
60808,-100,4,1,1,70,0,0
61731,-40,4,1,1,70,0,0
61760,-200,4,1,1,70,0,0
61846,-40,4,1,1,70,0,0
61875,-200,4,1,1,70,0,0
61962,-100,4,1,1,70,0,0
62654,-33.3333333333333,4,1,1,70,0,0
62682,-62.5,4,1,1,70,0,0
62711,-83.3333333333333,4,1,1,70,0,0
62769,-400,4,1,1,70,0,0
62884,-100,4,1,1,70,0,0
63115,-33.3333333333333,4,1,1,70,0,0
63143,-62.5,4,1,1,70,0,0
63172,-83.3333333333333,4,1,1,70,0,0
63230,-400,4,1,1,70,0,0
63345,-100,4,1,1,70,0,0
63577,-40,4,1,1,70,0,0
63606,-133.333333333333,4,1,1,70,0,0
63635,-200,4,1,1,70,0,0
63663,-400,4,1,1,70,0,0
63692,-100,4,1,1,70,0,0
64731,-100,4,1,1,70,0,1
64962,-40,4,1,1,70,0,1
64981,-400,4,1,1,70,0,1
65019,-100,4,1,1,70,0,1
65192,-40,4,1,1,70,0,1
65212,-400,4,1,1,70,0,1
65250,-100,4,1,1,70,0,1
65308,-40,4,1,1,70,0,1
65327,-400,4,1,1,70,0,1
65365,-100,4,1,1,70,0,1
65423,-40,4,1,1,70,0,1
65442,-400,4,1,1,70,0,1
65481,-100,4,1,1,70,0,1
65654,-40,4,1,1,70,0,1
65673,-400,4,1,1,70,0,1
65712,-100,4,1,1,70,0,1
65885,-40,4,1,1,70,0,1
65904,-400,4,1,1,70,0,1
65942,-100,4,1,1,70,0,1
66000,-40,4,1,1,70,0,1
66019,-400,4,1,1,70,0,1
66058,-100,4,1,1,70,0,1
66115,-40,4,1,1,70,0,1
66135,-400,4,1,1,70,0,1
66173,-100,4,1,1,70,0,1
66346,-40,4,1,1,70,0,1
66365,-400,4,1,1,70,0,1
66404,-100,4,1,1,70,0,1
66462,-40,4,1,1,70,0,1
66481,-400,4,1,1,70,0,1
66519,-100,4,1,1,70,0,1
66808,-40,4,1,1,70,0,1
66827,-400,4,1,1,70,0,1
66865,-100,4,1,1,70,0,1
67038,-40,4,1,1,70,0,1
67058,-400,4,1,1,70,0,1
67096,-100,4,1,1,70,0,1
67154,-40,4,1,1,70,0,1
67173,-400,4,1,1,70,0,1
67212,-100,4,1,1,70,0,1
67269,-40,4,1,1,70,0,1
67288,-400,4,1,1,70,0,1
67327,-100,4,1,1,70,0,1
67500,-40,4,1,1,70,0,1
67519,-400,4,1,1,70,0,1
67558,-100,4,1,1,70,0,1
67731,-40,4,1,1,70,0,1
67750,-400,4,1,1,70,0,1
67788,-100,4,1,1,70,0,1
67846,-40,4,1,1,70,0,1
67865,-400,4,1,1,70,0,1
67904,-100,4,1,1,70,0,1
67962,-40,4,1,1,70,0,1
67990,-66.6666666666667,4,1,1,70,0,1
68077,-400,4,1,1,70,0,1
68192,-40,4,1,1,70,0,1
68221,-66.6666666666667,4,1,1,70,0,1
68308,-400,4,1,1,70,0,1
68423,-66.6666666666667,4,1,1,70,0,0
68481,-200,4,1,1,70,0,0
68538,-66.6666666666667,4,1,1,70,0,0
68596,-200,4,1,1,70,0,0
68654,-100,4,1,1,70,0,0
68769,-66.6666666666667,4,1,1,70,0,0
68827,-200,4,1,1,70,0,0
68885,-40,4,1,1,70,0,0
68904,-400,4,1,1,70,0,0
68942,-100,4,1,1,70,0,0
69115,-66.6666666666667,4,1,1,70,0,0
69173,-200,4,1,1,70,0,0
69231,-66.6666666666667,4,1,1,70,0,0
69288,-200,4,1,1,70,0,0
69346,-100,4,1,1,70,0,0
69462,-66.6666666666667,4,1,1,70,0,0
69519,-200,4,1,1,70,0,0
69577,-66.6666666666667,4,1,1,70,0,0
69635,-200,4,1,1,70,0,0
69692,-100,4,1,1,70,0,0
69808,-40,4,1,1,70,0,0
69827,-400,4,1,1,70,0,0
69865,-100,4,1,1,70,0,0
69923,-66.6666666666667,4,1,1,70,0,0
69980,-200,4,1,1,70,0,0
70038,-66.6666666666667,4,1,1,70,0,0
70096,-200,4,1,1,70,0,0
70153,-100,4,1,1,70,0,0
70269,-66.6666666666667,4,1,1,70,0,0
70327,-200,4,1,1,70,0,0
70384,-66.6666666666667,4,1,1,70,0,0
70442,-200,4,1,1,70,0,0
70500,-100,4,1,1,70,0,0
70615,-66.6666666666667,4,1,1,70,0,0
70673,-200,4,1,1,70,0,0
70730,-40,4,1,1,70,0,0
70750,-400,4,1,1,70,0,0
70788,-100,4,1,1,70,0,0
70961,-66.6666666666667,4,1,1,70,0,0
71019,-200,4,1,1,70,0,0
71077,-66.6666666666667,4,1,1,70,0,0
71134,-200,4,1,1,70,0,0
71192,-100,4,1,1,70,0,0
71307,-66.6666666666667,4,1,1,70,0,0
71365,-200,4,1,1,70,0,0
71423,-66.6666666666667,4,1,1,70,0,0
71480,-200,4,1,1,70,0,0
71538,-100,4,1,1,70,0,0
71654,-111.111111111111,4,1,1,70,0,0
72115,-100,4,1,1,70,0,1
72346,-40,4,1,1,70,0,1
72365,-400,4,1,1,70,0,1
72404,-100,4,1,1,70,0,1
72577,-40,4,1,1,70,0,1
72596,-400,4,1,1,70,0,1
72635,-100,4,1,1,70,0,1
72692,-40,4,1,1,70,0,1
72712,-400,4,1,1,70,0,1
72750,-100,4,1,1,70,0,1
72808,-40,4,1,1,70,0,1
72827,-400,4,1,1,70,0,1
72865,-100,4,1,1,70,0,1
73038,-40,4,1,1,70,0,1
73058,-400,4,1,1,70,0,1
73096,-100,4,1,1,70,0,1
73269,-40,4,1,1,70,0,1
73288,-400,4,1,1,70,0,1
73327,-100,4,1,1,70,0,1
73385,-40,4,1,1,70,0,1
73404,-400,4,1,1,70,0,1
73442,-100,4,1,1,70,0,1
73500,-40,4,1,1,70,0,1
73519,-400,4,1,1,70,0,1
73558,-100,4,1,1,70,0,1
73731,-40,4,1,1,70,0,1
73750,-400,4,1,1,70,0,1
73788,-100,4,1,1,70,0,1
73846,-40,4,1,1,70,0,1
73865,-396.825396825397,4,1,1,70,0,1
73904,-100,4,1,1,70,0,1
74192,-40,4,1,1,70,0,1
74212,-400,4,1,1,70,0,1
74250,-100,4,1,1,70,0,1
74423,-40,4,1,1,70,0,1
74442,-400,4,1,1,70,0,1
74481,-100,4,1,1,70,0,1
74538,-40,4,1,1,70,0,1
74558,-400,4,1,1,70,0,1
74596,-100,4,1,1,70,0,1
74654,-40,4,1,1,70,0,1
74673,-400,4,1,1,70,0,1
74712,-100,4,1,1,70,0,1
74885,-40,4,1,1,70,0,1
74904,-400,4,1,1,70,0,1
74942,-100,4,1,1,70,0,1
75115,-40,4,1,1,70,0,1
75135,-400,4,1,1,70,0,1
75173,-100,4,1,1,70,0,1
75231,-40,4,1,1,70,0,1
75250,-400,4,1,1,70,0,1
75288,-100,4,1,1,70,0,1
75346,-40,4,1,1,70,0,1
75375,-66.6666666666667,4,1,1,70,0,1
75462,-400,4,1,1,70,0,1
75577,-30.7692307692308,4,1,1,70,0,1
75591,-400,4,1,1,70,0,1
75635,-30.7692307692308,4,1,1,70,0,1
75649,-400,4,1,1,70,0,1
75692,-30.7692307692308,4,1,1,70,0,1
75707,-400,4,1,1,70,0,1
75750,-30.7692307692308,4,1,1,70,0,1
75764,-400,4,1,1,70,0,1
75808,-66.6666666666667,4,1,1,70,0,0
75865,-200,4,1,1,70,0,0
75923,-66.6666666666667,4,1,1,70,0,0
75981,-200,4,1,1,70,0,0
76038,-40,4,1,1,70,0,0
76058,-400,4,1,1,70,0,0
76096,-100,4,1,1,70,0,0
76154,-66.6666666666667,4,1,1,70,0,0
76212,-200,4,1,1,70,0,0
76269,-66.6666666666667,4,1,1,70,0,0
76327,-200,4,1,1,70,0,0
76385,-40,4,1,1,70,0,0
76404,-400,4,1,1,70,0,0
76442,-100,4,1,1,70,0,0
76500,-66.6666666666667,4,1,1,70,0,0
76558,-200,4,1,1,70,0,0
76615,-66.6666666666667,4,1,1,70,0,0
76673,-200,4,1,1,70,0,0
76731,-40,4,1,1,70,0,0
76750,-400,4,1,1,70,0,0
76788,-100,4,1,1,70,0,0
76846,-66.6666666666667,4,1,1,70,0,0
76904,-200,4,1,1,70,0,0
76962,-66.6666666666667,4,1,1,70,0,0
77019,-200,4,1,1,70,0,0
77077,-40,4,1,1,70,0,0
77096,-400,4,1,1,70,0,0
77135,-100,4,1,1,70,0,0
77192,-200,4,1,1,70,0,0
77250,-66.6666666666667,4,1,1,70,0,0
77308,-200,4,1,1,70,0,0
77365,-66.6666666666667,4,1,1,70,0,0
77423,-40,4,1,1,70,0,0
77442,-400,4,1,1,70,0,0
77481,-100,4,1,1,70,0,0
77538,-66.6666666666667,4,1,1,70,0,0
77567,-200,4,1,1,70,0,0
77596,-66.6666666666667,4,1,1,70,0,0
77625,-200,4,1,1,70,0,0
77654,-66.6666666666667,4,1,1,70,0,0
77712,-200,4,1,1,70,0,0
77769,-66.6666666666667,4,1,1,70,0,0
77827,-200,4,1,1,70,0,0
77885,-40,4,1,1,70,0,0
77904,-400,4,1,1,70,0,0
77942,-100,4,1,1,70,0,0
78000,-66.6666666666667,4,1,1,70,0,0
78058,-200,4,1,1,70,0,0
78115,-66.6666666666667,4,1,1,70,0,0
78173,-200,4,1,1,70,0,0
78231,-40,4,1,1,70,0,0
78250,-400,4,1,1,70,0,0
78288,-100,4,1,1,70,0,0
78346,-66.6666666666667,4,1,1,70,0,0
78404,-200,4,1,1,70,0,0
78462,-66.6666666666667,4,1,1,70,0,0
78519,-200,4,1,1,70,0,0
78577,-100,4,1,1,70,0,0
83192,-36.3636363636364,4,1,1,70,0,0
83221,-133.333333333333,4,1,1,70,0,0
83423,-100,4,1,1,70,0,0
84115,-36.3636363636364,4,1,1,70,0,0
84144,-133.333333333333,4,1,1,70,0,0
84346,-100,4,1,1,70,0,0
85038,-35.7142857142857,4,1,1,70,0,0
85058,-1000,4,1,1,70,0,0
85096,-35.7142857142857,4,1,1,70,0,0
85115,-1000,4,1,1,70,0,0
85154,-100,4,1,1,70,0,0
85385,-35.7142857142857,4,1,1,70,0,0
85405,-1000,4,1,1,70,0,0
85443,-35.7142857142857,4,1,1,70,0,0
85462,-1000,4,1,1,70,0,0
85501,-100,4,1,1,70,0,0
85731,-35.7142857142857,4,1,1,70,0,0
85751,-1000,4,1,1,70,0,0
85789,-35.7142857142857,4,1,1,70,0,0
85808,-1000,4,1,1,70,0,0
85847,-100,4,1,1,70,0,0
86654,-40,4,1,1,70,0,0
86673,-400,4,1,1,70,0,0
86712,-40,4,1,1,70,0,0
86731,-400,4,1,1,70,0,0
86769,-40,4,1,1,70,0,0
86788,-400,4,1,1,70,0,0
86827,-40,4,1,1,70,0,0
86846,-400,4,1,1,70,0,0
86885,-100,4,1,1,70,0,1
93346,-62.5,4,1,1,70,0,1
93404,-250,4,1,1,70,0,1
93462,-62.5,4,1,1,70,0,1
93490,-250,4,1,1,70,0,1
93519,-62.5,4,1,1,70,0,1
93548,-250,4,1,1,70,0,1
93577,-62.5,4,1,1,70,0,1
93635,-250,4,1,1,70,0,1
93692,-62.5,4,1,1,70,0,1
93750,-250,4,1,1,70,0,1
93808,-55.5555555555556,4,1,1,70,0,1
93865,-500,4,1,1,70,0,1
93923,-55.5555555555556,4,1,1,70,0,1
93981,-500,4,1,1,70,0,1
94038,-55.5555555555556,4,1,1,70,0,1
94096,-500,4,1,1,70,0,1
94154,-55.5555555555556,4,1,1,70,0,1
94212,-500,4,1,1,70,0,1
94269,-100,4,1,1,70,0,1
95654,-66.6666666666667,4,1,1,70,0,1
95712,-200,4,1,1,70,0,1
95769,-66.6666666666667,4,1,1,70,0,1
95827,-200,4,1,1,70,0,1
95885,-66.6666666666667,4,1,1,70,0,1
95942,-200,4,1,1,70,0,1
96000,-100,4,1,1,70,0,1
97500,-66.6666666666667,4,1,1,70,0,1
97558,-200,4,1,1,70,0,1
97615,-66.6666666666667,4,1,1,70,0,1
97644,-200,4,1,1,70,0,1
97673,-66.6666666666667,4,1,1,70,0,1
97702,-200,4,1,1,70,0,1
97731,-66.6666666666667,4,1,1,70,0,1
97788,-200,4,1,1,70,0,1
97846,-66.6666666666667,4,1,1,70,0,1
97904,-200,4,1,1,70,0,1
97962,-100,4,1,1,70,0,1
101654,-102.040816326531,4,1,1,70,0,0
101769,-104.166666666667,4,1,1,70,0,0
101885,-106.382978723404,4,1,1,70,0,0
102000,-108.695652173913,4,1,1,70,0,0
102115,-111.111111111111,4,1,1,70,0,0
104885,-108.695652173913,4,1,1,70,0,0
105000,-106.382978723404,4,1,1,70,0,0
105115,-104.166666666667,4,1,1,70,0,0
105231,-102.040816326531,4,1,1,70,0,0
105346,-100,4,1,1,70,0,1
109038,-102.040816326531,4,1,1,70,0,0
109154,-104.166666666667,4,1,1,70,0,0
109269,-106.382978723404,4,1,1,70,0,0
109385,-108.695652173913,4,1,1,70,0,0
109500,-111.111111111111,4,1,1,70,0,0
112269,-108.695652173913,4,1,1,70,0,0
112385,-106.382978723404,4,1,1,70,0,0
112500,-104.166666666667,4,1,1,70,0,0
112615,-102.040816326531,4,1,1,70,0,0
112731,-100,4,1,1,70,0,1
116423,-100,4,1,1,70,0,0
119192,-153.846153846154,4,1,1,70,0,0
119308,-111.111111111111,4,1,1,70,0,0
119423,-86.9565217391304,4,1,1,70,0,0
119538,-71.4285714285714,4,1,1,70,0,0
119654,-200,4,1,1,70,0,0
119712,-66.6666666666667,4,1,1,70,0,0
119769,-200,4,1,1,70,0,0
119827,-66.6666666666667,4,1,1,70,0,0
119885,-200,4,1,1,70,0,0
119942,-66.6666666666667,4,1,1,70,0,0
120000,-200,4,1,1,70,0,0
120058,-66.6666666666667,4,1,1,70,0,0
120115,-100,4,1,1,70,0,0
121731,-125,4,1,1,70,0,0
121846,-100,4,1,1,70,0,0
121904,-71.4285714285714,4,1,1,70,0,0
121961,-21.0526315789474,4,1,1,70,0,0
121976,-133.333333333333,4,1,1,70,0,0
122192,-100,4,1,1,70,0,0
123577,-125,4,1,1,70,0,0
123692,-100,4,1,1,70,0,0
123750,-71.4285714285714,4,1,1,70,0,0
123807,-21.0526315789474,4,1,1,70,0,0
123822,-133.333333333333,4,1,1,70,0,0
124038,-100,4,1,1,70,0,0
125423,-125,4,1,1,70,0,0
125538,-100,4,1,1,70,0,0
125596,-71.4285714285714,4,1,1,70,0,0
125653,-21.0526315789474,4,1,1,70,0,0
125668,-133.333333333333,4,1,1,70,0,0
125884,-100,4,1,1,70,0,0
127500,-66.6666666666667,4,1,1,70,0,0
127557,-200,4,1,1,70,0,0
127615,-66.6666666666667,4,1,1,70,0,0
127673,-120.481927710843,4,1,1,70,0,0
127846,-66.6666666666667,4,1,1,70,0,0
127903,-200,4,1,1,70,0,0
127961,-40,4,1,1,70,0,0
127990,-400,4,1,1,70,0,0
128048,-100,4,1,1,70,0,0
128192,-66.6666666666667,4,1,1,70,0,0
128250,-200,4,1,1,70,0,0
128307,-66.6666666666667,4,1,1,70,0,0
128365,-120.481927710843,4,1,1,70,0,0
128538,-66.6666666666667,4,1,1,70,0,0
128596,-200,4,1,1,70,0,0
128653,-66.6666666666667,4,1,1,70,0,0
128711,-120.481927710843,4,1,1,70,0,0
128885,-40,4,1,1,70,0,0
128904,-142.857142857143,4,1,1,70,0,0
129000,-66.6666666666667,4,1,1,70,0,0
129057,-200,4,1,1,70,0,0
129115,-66.6666666666667,4,1,1,70,0,0
129173,-120.481927710843,4,1,1,70,0,0
129346,-66.6666666666667,4,1,1,70,0,0
129403,-200,4,1,1,70,0,0
129461,-66.6666666666667,4,1,1,70,0,0
129519,-120.481927710843,4,1,1,70,0,0
129692,-66.6666666666667,4,1,1,70,0,0
129750,-200,4,1,1,70,0,0
129808,-40,4,1,1,70,0,0
129837,-400,4,1,1,70,0,0
129894,-100,4,1,1,70,0,0
130038,-66.6666666666667,4,1,1,70,0,0
130096,-200,4,1,1,70,0,0
130153,-66.6666666666667,4,1,1,70,0,0
130211,-120.481927710843,4,1,1,70,0,0
130384,-66.6666666666667,4,1,1,70,0,0
130442,-200,4,1,1,70,0,0
130500,-66.6666666666667,4,1,1,70,0,0
130557,-120.481927710843,4,1,1,70,0,0
130731,-40,4,1,1,70,0,0
130750,-142.857142857143,4,1,1,70,0,0
130846,-66.6666666666667,4,1,1,70,0,0
130904,-200,4,1,1,70,0,0
130962,-66.6666666666667,4,1,1,70,0,0
131019,-200,4,1,1,70,0,0
131077,-66.6666666666667,4,1,1,70,0,0
131135,-200,4,1,1,70,0,0
131192,-66.6666666666667,4,1,1,70,0,0
131231,-200,4,1,1,70,0,0
131269,-66.6666666666667,4,1,1,70,0,0
131308,-200,4,1,1,70,0,0
131346,-66.6666666666667,4,1,1,70,0,0
131385,-200,4,1,1,70,0,0
131423,-66.6666666666667,4,1,1,70,0,0
131462,-200,4,1,1,70,0,0
131500,-66.6666666666667,4,1,1,70,0,0
131538,-200,4,1,1,70,0,0
131577,-66.6666666666667,4,1,1,70,0,0
131615,-200,4,1,1,70,0,0
131654,-66.6666666666667,4,1,1,70,0,0
131692,-200,4,1,1,70,0,0
131731,-66.6666666666667,4,1,1,70,0,0
131769,-200,4,1,1,70,0,0
131808,-66.6666666666667,4,1,1,70,0,0
131846,-200,4,1,1,70,0,0
131885,-66.6666666666667,4,1,1,70,0,0
131923,-200,4,1,1,70,0,0
131962,-66.6666666666667,4,1,1,70,0,0
132000,-200,4,1,1,70,0,0
132038,-66.6666666666667,4,1,1,70,0,0
132077,-200,4,1,1,70,0,0
132115,-66.6666666666667,4,1,1,70,0,0
132192,-200,4,1,1,70,0,0
132269,-66.6666666666667,4,1,1,70,0,0
132346,-200,4,1,1,70,0,0
132423,-66.6666666666667,4,1,1,70,0,0
132500,-200,4,1,1,70,0,0
132577,-66.6666666666667,4,1,1,70,0,0
132654,-200,4,1,1,70,0,0
132731,-66.6666666666667,4,1,1,70,0,0
132808,-200,4,1,1,70,0,0
132885,-66.6666666666667,4,1,1,70,0,0
132962,-200,4,1,1,70,0,0
133038,-100,4,1,1,70,0,0
134654,-40,4,1,1,70,0,0
134712,-133.333333333333,4,1,1,70,0,0
134769,-200,4,1,1,70,0,0
134827,-400,4,1,1,70,0,0
134885,-100,4,1,1,70,0,1
135115,-40,4,1,1,70,0,1
135135,-400,4,1,1,70,0,1
135173,-100,4,1,1,70,0,1
135577,-40,4,1,1,70,0,1
135596,-400,4,1,1,70,0,1
135635,-100,4,1,1,70,0,1
136038,-40,4,1,1,70,0,1
136058,-400,4,1,1,70,0,1
136096,-100,4,1,1,70,0,1
136500,-40,4,1,1,70,0,1
136558,-133.333333333333,4,1,1,70,0,1
136615,-200,4,1,1,70,0,1
136673,-400,4,1,1,70,0,1
136731,-100,4,1,1,70,0,1
136962,-40,4,1,1,70,0,1
136981,-400,4,1,1,70,0,1
137019,-100,4,1,1,70,0,1
137423,-40,4,1,1,70,0,1
137442,-400,4,1,1,70,0,1
137481,-100,4,1,1,70,0,1
137885,-40,4,1,1,70,0,1
137904,-400,4,1,1,70,0,1
137942,-100,4,1,1,70,0,1
138346,-40,4,1,1,70,0,1
138404,-133.333333333333,4,1,1,70,0,1
138462,-200,4,1,1,70,0,1
138519,-400,4,1,1,70,0,1
138577,-100,4,1,1,70,0,1
138808,-40,4,1,1,70,0,1
138827,-400,4,1,1,70,0,1
138865,-100,4,1,1,70,0,1
139269,-40,4,1,1,70,0,1
139288,-400,4,1,1,70,0,1
139327,-100,4,1,1,70,0,1
139731,-40,4,1,1,70,0,1
139750,-400,4,1,1,70,0,1
139788,-100,4,1,1,70,0,1
140192,-40,4,1,1,70,0,1
140250,-133.333333333333,4,1,1,70,0,1
140308,-200,4,1,1,70,0,1
140365,-400,4,1,1,70,0,1
140423,-100,4,1,1,70,0,1
140654,-40,4,1,1,70,0,1
140673,-400,4,1,1,70,0,1
140712,-100,4,1,1,70,0,1
141115,-40,4,1,1,70,0,1
141135,-400,4,1,1,70,0,1
141173,-100,4,1,1,70,0,1
141346,-40,4,1,1,70,0,1
141385,-200,4,1,1,70,0,1
141500,-40,4,1,1,70,0,1
141538,-200,4,1,1,70,0,1
141654,-40,4,1,1,70,0,1
141692,-200,4,1,1,70,0,1
141808,-40,4,1,1,70,0,1
141923,-142.857142857143,4,1,1,70,0,1
142038,-200,4,1,1,70,0,1
142154,-333.333333333334,4,1,1,70,0,1
142269,-100,4,1,1,70,0,0
148731,-111.111111111111,4,1,1,70,0,0
149192,-108.695652173913,4,1,1,70,0,0
149308,-106.382978723404,4,1,1,70,0,0
149423,-104.166666666667,4,1,1,70,0,0
149538,-102.040816326531,4,1,1,70,0,0
149654,-100,4,1,1,70,0,1
155192,-66.6666666666667,4,1,1,70,0,1
155250,-200,4,1,1,70,0,1
155308,-66.6666666666667,4,1,1,70,0,1
155365,-200,4,1,1,70,0,1
155423,-100,4,1,1,70,0,1
155538,-66.6666666666667,4,1,1,70,0,1
155596,-200,4,1,1,70,0,1
155653,-40,4,1,1,70,0,1
155673,-400,4,1,1,70,0,1
155711,-100,4,1,1,70,0,1
155769,-66.6666666666667,4,1,1,70,0,1
155827,-200,4,1,1,70,0,1
155884,-66.6666666666667,4,1,1,70,0,1
155942,-200,4,1,1,70,0,1
156000,-66.6666666666667,4,1,1,70,0,1
156057,-200,4,1,1,70,0,1
156115,-100,4,1,1,70,0,1
156230,-66.6666666666667,4,1,1,70,0,1
156288,-200,4,1,1,70,0,1
156346,-66.6666666666667,4,1,1,70,0,1
156403,-200,4,1,1,70,0,1
156461,-100,4,1,1,70,0,1
156577,-100,4,1,1,70,0,0
156692,-30.7692307692308,4,1,1,70,0,0
156707,-400,4,1,1,70,0,0
156793,-30.7692307692308,4,1,1,70,0,0
156822,-400,4,1,1,70,0,0
156909,-30.7692307692308,4,1,1,70,0,0
156938,-400,4,1,1,70,0,0
157024,-30.7692307692308,4,1,1,70,0,0
157038,-100,4,1,1,70,0,1
163962,-400,4,1,1,70,0,1
164062,-13.7931034482759,4,1,1,70,0,1
164077,-400,4,1,1,70,0,1
164178,-13.7931034482759,4,1,1,70,0,1
164193,-400,4,1,1,70,0,1
164293,-13.7931034482759,4,1,1,70,0,1
164308,-400,4,1,1,70,0,1
164408,-13.7931034482759,4,1,1,70,0,1
164423,-125,4,1,1,70,0,0
171808,-119.047619047619,4,1,1,70,0,0
172269,-117.647058823529,4,1,1,70,0,0
172731,-116.279069767442,4,1,1,70,0,0
173192,-114.942528735632,4,1,1,70,0,0
173654,-113.636363636364,4,1,1,70,0,0
174115,-112.359550561798,4,1,1,70,0,0
174577,-111.111111111111,4,1,1,70,0,0
175038,-109.89010989011,4,1,1,70,0,0
175500,-108.695652173913,4,1,1,70,0,0
175962,-107.52688172043,4,1,1,70,0,0
176423,-106.382978723404,4,1,1,70,0,0
176885,-105.263157894737,4,1,1,70,0,0
177346,-104.166666666667,4,1,1,70,0,0
177808,-103.092783505155,4,1,1,70,0,0
178269,-102.040816326531,4,1,1,70,0,0
178731,-101.010101010101,4,1,1,70,0,0
179192,-100,4,1,1,70,0,0
225115,-40,4,1,1,70,0,0
225172,-133.333333333333,4,1,1,70,0,0
225230,-200,4,1,1,70,0,0
225288,-400,4,1,1,70,0,0
225346,-100,4,1,1,70,0,1
240115,-100,4,1,1,70,0,0
243808,-36.3636363636364,4,1,1,70,0,0
243837,-133.333333333333,4,1,1,70,0,0
244038,-100,4,1,1,70,0,0
244731,-36.3636363636364,4,1,1,70,0,0
244760,-133.333333333333,4,1,1,70,0,0
244962,-100,4,1,1,70,0,0
245654,-66.6666666666667,4,1,1,70,0,0
245712,-200,4,1,1,70,0,0
245769,-66.6666666666667,4,1,1,70,0,0
245827,-200,4,1,1,70,0,0
245885,-66.6666666666667,4,1,1,70,0,0
245942,-200,4,1,1,70,0,0
246000,-66.6666666666667,4,1,1,70,0,0
246058,-200,4,1,1,70,0,0
246115,-66.6666666666667,4,1,1,70,0,0
246173,-200,4,1,1,70,0,0
246231,-66.6666666666667,4,1,1,70,0,0
246288,-200,4,1,1,70,0,0
246346,-66.6666666666667,4,1,1,70,0,0
246404,-200,4,1,1,70,0,0
246462,-66.6666666666667,4,1,1,70,0,0
246519,-200,4,1,1,70,0,0
246577,-66.6666666666667,4,1,1,70,0,0
246606,-200,4,1,1,70,0,0
246635,-66.6666666666667,4,1,1,70,0,0
246663,-200,4,1,1,70,0,0
246692,-66.6666666666667,4,1,1,70,0,0
246721,-200,4,1,1,70,0,0
246750,-66.6666666666667,4,1,1,70,0,0
246779,-200,4,1,1,70,0,0
246808,-66.6666666666667,4,1,1,70,0,0
246837,-200,4,1,1,70,0,0
246865,-66.6666666666667,4,1,1,70,0,0
246894,-200,4,1,1,70,0,0
246923,-66.6666666666667,4,1,1,70,0,0
246952,-200,4,1,1,70,0,0
246981,-66.6666666666667,4,1,1,70,0,0
247010,-200,4,1,1,70,0,0
247038,-66.6666666666667,4,1,1,70,0,0
247067,-200,4,1,1,70,0,0
247096,-66.6666666666667,4,1,1,70,0,0
247124,-200,4,1,1,70,0,0
247153,-66.6666666666667,4,1,1,70,0,0
247182,-200,4,1,1,70,0,0
247211,-66.6666666666667,4,1,1,70,0,0
247240,-200,4,1,1,70,0,0
247269,-66.6666666666667,4,1,1,70,0,0
247298,-200,4,1,1,70,0,0
247326,-66.6666666666667,4,1,1,70,0,0
247355,-200,4,1,1,70,0,0
247384,-66.6666666666667,4,1,1,70,0,0
247413,-200,4,1,1,70,0,0
247442,-66.6666666666667,4,1,1,70,0,0
247471,-200,4,1,1,70,0,0
247500,-100,4,1,1,70,0,0
248423,-66.6666666666667,4,1,1,70,0,0
248481,-200,4,1,1,70,0,0
248538,-100,4,1,1,70,0,0
249115,-166.666666666667,4,1,1,70,0,0
249288,-45.4545454545455,4,1,1,70,0,0
249346,-100,4,1,1,70,0,1
255808,-100,4,1,1,70,0,0
256500,-40,4,1,1,70,0,0
256558,-200,4,1,1,70,0,0
256731,-100,4,1,1,70,0,1
258346,-33.3333333333333,4,1,1,70,0,0
258404,-200,4,1,1,70,0,0
258519,-100,4,1,1,70,0,0
258577,-100,4,1,1,70,0,1
259962,-66.6666666666667,4,1,1,70,0,0
260019,-200,4,1,1,70,0,0
260077,-66.6666666666667,4,1,1,70,0,0
260135,-200,4,1,1,70,0,0
260192,-66.6666666666667,4,1,1,70,0,0
260250,-200,4,1,1,70,0,0
260308,-66.6666666666667,4,1,1,70,0,0
260365,-200,4,1,1,70,0,0
260423,-100,4,1,1,70,0,1
261115,-40,4,1,1,70,0,0
261144,-400,4,1,1,70,0,0
261202,-100,4,1,1,70,0,0
261231,-40,4,1,1,70,0,0
261260,-400,4,1,1,70,0,0
261317,-100,4,1,1,70,0,0
261346,-100,4,1,1,70,0,1
261808,-100,4,1,1,70,0,0
262038,-33.3333333333333,4,1,1,70,0,0
262096,-133.333333333333,4,1,1,70,0,0
262212,-100,4,1,1,70,0,0
262269,-100,4,1,1,70,0,1
263654,-40,4,1,1,70,0,1
263683,-400,4,1,1,70,0,1
263740,-40,4,1,1,70,0,1
263769,-400,4,1,1,70,0,1
263827,-40,4,1,1,70,0,1
263856,-400,4,1,1,70,0,1
263913,-40,4,1,1,70,0,1
263942,-400,4,1,1,70,0,1
264000,-40,4,1,1,70,0,1
264029,-400,4,1,1,70,0,1
264087,-40,4,1,1,70,0,1
264115,-100,4,1,1,70,0,0

[HitObjects]
64,192,1962,128,0,2885:0:0:0:0:
192,192,1962,1,0,0:0:0:0:
320,192,2077,1,0,0:0:0:0:
448,192,2308,1,0,0:0:0:0:
192,192,2538,1,0,0:0:0:0:
448,192,2654,1,0,0:0:0:0:
320,192,2769,1,0,0:0:0:0:
192,192,2885,1,0,0:0:0:0:
448,192,2885,128,0,4269:0:0:0:0:
320,192,3000,1,0,0:0:0:0:
192,192,3115,1,0,0:0:0:0:
64,192,3231,1,0,0:0:0:0:
320,192,3462,1,0,0:0:0:0:
192,192,3577,1,0,0:0:0:0:
320,192,3808,1,0,0:0:0:0:
64,192,3923,1,0,0:0:0:0:
320,192,4154,1,0,0:0:0:0:
192,192,4269,128,0,5192:0:0:0:0:
448,192,4385,1,0,0:0:0:0:
320,192,4500,1,0,0:0:0:0:
64,192,4615,1,0,0:0:0:0:
320,192,4731,1,0,0:0:0:0:
64,192,4846,1,0,0:0:0:0:
320,192,4962,1,0,0:0:0:0:
448,192,5077,1,0,0:0:0:0:
320,192,5192,128,0,5654:0:0:0:0:
64,192,5308,1,0,0:0:0:0:
192,192,5423,1,0,0:0:0:0:
64,192,5654,128,0,6577:0:0:0:0:
448,192,5654,1,0,0:0:0:0:
192,192,5769,1,0,0:0:0:0:
320,192,6000,1,0,0:0:0:0:
192,192,6231,1,0,0:0:0:0:
448,192,6346,1,0,0:0:0:0:
320,192,6462,1,0,0:0:0:0:
192,192,6577,1,0,0:0:0:0:
448,192,6577,128,0,7500:0:0:0:0:
320,192,6692,1,0,0:0:0:0:
64,192,6808,1,0,0:0:0:0:
192,192,6923,1,0,0:0:0:0:
64,192,7154,1,0,0:0:0:0:
320,192,7269,1,0,0:0:0:0:
192,192,7500,1,0,0:0:0:0:
64,192,7615,128,0,7673:0:0:0:0:
320,192,7615,128,0,7673:0:0:0:0:
448,192,7731,1,0,0:0:0:0:
192,192,7846,1,0,0:0:0:0:
64,192,7962,128,0,8019:0:0:0:0:
448,192,7962,128,0,8019:0:0:0:0:
320,192,8077,1,0,0:0:0:0:
64,192,8192,1,0,0:0:0:0:
192,192,8308,128,0,8365:0:0:0:0:
320,192,8308,128,0,8365:0:0:0:0:
64,192,8423,1,0,0:0:0:0:
320,192,8538,128,0,8596:0:0:0:0:
448,192,8538,128,0,8596:0:0:0:0:
192,192,8654,1,0,0:0:0:0:
448,192,8769,1,0,0:0:0:0:
64,192,9000,1,0,0:0:0:0:
320,192,9115,1,0,0:0:0:0:
192,192,9231,1,0,0:0:0:0:
64,192,9346,128,0,10269:0:0:0:0:
448,192,9346,1,0,0:0:0:0:
320,192,9462,1,0,0:0:0:0:
448,192,9692,1,0,0:0:0:0:
192,192,9923,1,0,0:0:0:0:
448,192,10038,1,0,0:0:0:0:
192,192,10154,1,0,0:0:0:0:
320,192,10269,1,0,0:0:0:0:
448,192,10269,128,0,11192:0:0:0:0:
192,192,10385,1,0,0:0:0:0:
64,192,10500,1,0,0:0:0:0:
320,192,10615,1,0,0:0:0:0:
64,192,10846,1,0,0:0:0:0:
192,192,10962,1,0,0:0:0:0:
64,192,11192,128,0,12115:0:0:0:0:
320,192,11192,1,0,0:0:0:0:
192,192,11308,1,0,0:0:0:0:
448,192,11538,1,0,0:0:0:0:
192,192,11769,1,0,0:0:0:0:
320,192,11885,1,0,0:0:0:0:
448,192,12000,1,0,0:0:0:0:
192,192,12115,1,0,0:0:0:0:
320,192,12115,128,0,12577:0:0:0:0:
448,192,12231,1,0,0:0:0:0:
192,192,12346,1,0,0:0:0:0:
64,192,12462,1,0,0:0:0:0:
192,192,12577,128,0,13038:0:0:0:0:
448,192,12692,1,0,0:0:0:0:
320,192,12808,1,0,0:0:0:0:
64,192,13038,1,0,0:0:0:0:
448,192,13038,128,0,13962:0:0:0:0:
320,192,13154,1,0,0:0:0:0:
192,192,13269,1,0,0:0:0:0:
64,192,13385,1,0,0:0:0:0:
320,192,13615,1,0,0:0:0:0:
192,192,13731,1,0,0:0:0:0:
64,192,13846,1,0,0:0:0:0:
192,192,13962,1,0,0:0:0:0:
320,192,13962,128,0,15808:0:0:0:0:
448,192,14077,1,0,0:0:0:0:
64,192,14308,1,0,0:0:0:0:
448,192,14538,1,0,0:0:0:0:
64,192,14654,1,0,0:0:0:0:
192,192,14769,1,0,0:0:0:0:
448,192,14885,1,0,0:0:0:0:
64,192,15000,1,0,0:0:0:0:
448,192,15115,1,0,0:0:0:0:
192,192,15231,1,0,0:0:0:0:
64,192,15462,1,0,0:0:0:0:
448,192,15577,1,0,0:0:0:0:
192,192,15692,1,0,0:0:0:0:
64,192,15808,128,0,16731:0:0:0:0:
448,192,15808,1,0,0:0:0:0:
320,192,15923,1,0,0:0:0:0:
192,192,16038,1,0,0:0:0:0:
448,192,16154,1,0,0:0:0:0:
192,192,16385,1,0,0:0:0:0:
320,192,16500,1,0,0:0:0:0:
320,192,16731,1,0,0:0:0:0:
448,192,16731,1,0,0:0:0:0:
64,192,16846,1,0,0:0:0:0:
192,192,16962,1,0,0:0:0:0:
320,192,17077,1,0,0:0:0:0:
448,192,17308,1,0,0:0:0:0:
192,192,17423,1,0,0:0:0:0:
320,192,17538,1,0,0:0:0:0:
64,192,17769,1,0,0:0:0:0:
64,192,17885,1,0,0:0:0:0:
320,192,18000,1,0,0:0:0:0:
448,192,18115,1,0,0:0:0:0:
320,192,18231,1,0,0:0:0:0:
448,192,18346,1,0,0:0:0:0:
64,192,18462,1,0,0:0:0:0:
448,192,18577,1,0,0:0:0:0:
192,192,18692,1,0,0:0:0:0:
320,192,18808,1,0,0:0:0:0:
448,192,18923,1,0,0:0:0:0:
64,192,19154,1,0,0:0:0:0:
320,192,19269,1,0,0:0:0:0:
192,192,19385,1,0,0:0:0:0:
320,192,19615,1,0,0:0:0:0:
320,192,19731,1,0,0:0:0:0:
192,192,19846,1,0,0:0:0:0:
64,192,19962,1,0,0:0:0:0:
448,192,20077,1,0,0:0:0:0:
192,192,20192,1,0,0:0:0:0:
320,192,20308,1,0,0:0:0:0:
64,192,20423,128,0,20827:0:0:0:0:
192,192,20423,1,0,0:0:0:0:
448,192,20423,1,0,0:0:0:0:
320,192,20538,1,0,0:0:0:0:
448,192,20654,1,0,0:0:0:0:
320,192,20769,1,0,0:0:0:0:
64,192,20885,128,0,21173:0:0:0:0:
192,192,20885,1,0,0:0:0:0:
448,192,21000,1,0,0:0:0:0:
192,192,21115,1,0,0:0:0:0:
64,192,21231,128,0,24058:0:0:0:0:
320,192,21231,1,0,0:0:0:0:
192,192,21346,1,0,0:0:0:0:
320,192,21462,1,0,0:0:0:0:
448,192,21577,1,0,0:0:0:0:
320,192,21692,1,0,0:0:0:0:
192,192,21808,1,0,0:0:0:0:
448,192,21923,1,0,0:0:0:0:
192,192,22038,1,0,0:0:0:0:
320,192,22154,1,0,0:0:0:0:
192,192,22269,1,0,0:0:0:0:
320,192,22385,1,0,0:0:0:0:
448,192,22500,1,0,0:0:0:0:
320,192,22615,1,0,0:0:0:0:
192,192,22731,1,0,0:0:0:0:
448,192,22846,1,0,0:0:0:0:
192,192,22962,1,0,0:0:0:0:
320,192,23077,1,0,0:0:0:0:
192,192,23192,1,0,0:0:0:0:
320,192,23308,1,0,0:0:0:0:
448,192,23423,1,0,0:0:0:0:
320,192,23538,1,0,0:0:0:0:
192,192,23654,1,0,0:0:0:0:
448,192,23769,1,0,0:0:0:0:
192,192,23885,1,0,0:0:0:0:
320,192,24000,1,0,0:0:0:0:
64,192,24115,128,0,24519:0:0:0:0:
192,192,24115,1,0,0:0:0:0:
320,192,24231,1,0,0:0:0:0:
448,192,24346,1,0,0:0:0:0:
320,192,24462,1,0,0:0:0:0:
64,192,24577,128,0,24865:0:0:0:0:
192,192,24577,1,0,0:0:0:0:
448,192,24692,1,0,0:0:0:0:
192,192,24808,1,0,0:0:0:0:
64,192,24923,128,0,27808:0:0:0:0:
320,192,24923,1,0,0:0:0:0:
192,192,25038,1,0,0:0:0:0:
320,192,25154,1,0,0:0:0:0:
448,192,25269,1,0,0:0:0:0:
320,192,25385,1,0,0:0:0:0:
192,192,25500,1,0,0:0:0:0:
448,192,25615,1,0,0:0:0:0:
192,192,25731,1,0,0:0:0:0:
320,192,25846,1,0,0:0:0:0:
192,192,25962,1,0,0:0:0:0:
320,192,26077,1,0,0:0:0:0:
448,192,26192,1,0,0:0:0:0:
320,192,26308,1,0,0:0:0:0:
192,192,26423,1,0,0:0:0:0:
448,192,26538,1,0,0:0:0:0:
192,192,26654,1,0,0:0:0:0:
320,192,26769,1,0,0:0:0:0:
192,192,26885,1,0,0:0:0:0:
320,192,27000,1,0,0:0:0:0:
448,192,27115,1,0,0:0:0:0:
320,192,27231,1,0,0:0:0:0:
192,192,27346,1,0,0:0:0:0:
448,192,27462,1,0,0:0:0:0:
192,192,27577,1,0,0:0:0:0:
320,192,27692,1,0,0:0:0:0:
192,192,27808,128,0,28154:0:0:0:0:
448,192,27808,128,0,29654:0:0:0:0:
64,192,28154,128,0,28269:0:0:0:0:
320,192,28269,128,0,28385:0:0:0:0:
64,192,28385,1,0,0:0:0:0:
192,192,28442,1,0,0:0:0:0:
320,192,28500,128,0,28615:0:0:0:0:
64,192,28615,128,0,28962:0:0:0:0:
192,192,28962,128,0,29192:0:0:0:0:
448,192,31500,128,0,31846:0:0:0:0:
320,192,31846,128,0,31962:0:0:0:0:
64,192,31962,128,0,32077:0:0:0:0:
192,192,32077,1,0,0:0:0:0:
448,192,32135,1,0,0:0:0:0:
320,192,32192,128,0,32308:0:0:0:0:
192,192,32308,128,0,33577:0:0:0:0:
192,192,34269,128,0,34731:0:0:0:0:
320,192,34731,1,0,0:0:0:70:1.wav
320,192,34846,1,0,0:0:0:70:1.wav
320,192,34962,1,0,0:0:0:70:1.wav
320,192,35077,1,0,0:0:0:70:1.wav
64,192,35192,128,0,35423:0:0:0:70:1.wav
192,192,35192,1,0,0:0:0:70:3.wav
448,192,35192,1,0,0:0:0:70:4.wav
192,192,35423,1,0,0:0:0:0:
320,192,35538,128,0,35654:0:0:0:0:
448,192,35654,128,0,35769:0:0:0:0:
192,192,35769,1,0,0:0:0:0:
320,192,35827,1,0,0:0:0:0:
64,192,35885,128,0,36000:0:0:0:0:
320,192,36000,128,0,36577:0:0:0:0:
448,192,36577,128,0,37038:0:0:0:0:
64,192,37038,128,0,37269:0:0:0:70:3.wav
192,192,37038,1,0,0:0:0:70:4.wav
320,192,37038,1,0,0:0:0:0:
448,192,37269,1,0,0:0:0:0:
192,192,37385,128,0,37500:0:0:0:0:
448,192,37500,128,0,37615:0:0:0:0:
64,192,37615,1,0,0:0:0:0:
192,192,37673,1,0,0:0:0:0:
320,192,37731,128,0,37846:0:0:0:0:
192,192,37846,128,0,38423:0:0:0:0:
320,192,38423,128,0,38538:0:0:0:0:
64,192,38538,128,0,38654:0:0:0:0:
192,192,38654,128,0,38769:0:0:0:0:
448,192,38769,128,0,38885:0:0:0:0:
64,192,38885,1,0,0:0:0:70:3.wav
192,192,38885,1,0,0:0:0:70:4.wav
320,192,38885,128,0,39115:0:0:0:0:
448,192,39115,1,0,0:0:0:0:
192,192,39231,128,0,39346:0:0:0:0:
64,192,39346,128,0,39462:0:0:0:0:
192,192,39462,1,0,0:0:0:0:
320,192,39519,1,0,0:0:0:0:
448,192,39577,128,0,39692:0:0:0:0:
320,192,39692,128,0,40269:0:0:0:0:
192,192,40269,128,0,40731:0:0:0:0:
64,192,40731,1,0,0:0:0:70:3.wav
320,192,40731,1,0,0:0:0:70:4.wav
448,192,40731,128,0,40962:0:0:0:0:
320,192,40962,128,0,41077:0:0:0:0:
64,192,41077,128,0,41192:0:0:0:0:
192,192,41192,128,0,41423:0:0:0:0:
64,192,41423,1,0,0:0:0:0:
448,192,41423,128,0,41538:0:0:0:0:
320,192,41538,128,0,42577:0:0:0:0:
448,192,41885,1,0,0:0:0:0:
64,192,41942,1,0,0:0:0:0:
192,192,42000,1,0,0:0:0:0:
448,192,42000,128,0,42577:0:0:0:0:
64,192,42115,1,0,0:0:0:0:
192,192,42231,1,0,0:0:0:0:
64,192,42346,1,0,0:0:0:0:
192,192,42462,1,0,0:0:0:0:
64,192,42577,1,0,0:0:0:70:3.wav
192,192,42577,1,0,0:0:0:0:
320,192,42692,1,0,0:0:0:70:3.wav
448,192,42692,1,0,0:0:0:0:
64,192,42923,1,0,0:0:0:70:3.wav
448,192,42923,1,0,0:0:0:0:
64,192,43038,1,0,0:0:0:70:6.wav
192,192,43038,1,0,0:0:0:0:
320,192,43038,1,0,0:0:0:0:
192,192,43269,1,0,0:0:0:70:3.wav
448,192,43269,1,0,0:0:0:0:
64,192,43385,1,0,0:0:0:70:3.wav
320,192,43385,1,0,0:0:0:0:
320,192,43615,1,0,0:0:0:70:3.wav
448,192,43615,1,0,0:0:0:0:
64,192,43731,1,0,0:0:0:70:3.wav
192,192,43731,1,0,0:0:0:0:
192,192,43962,1,0,0:0:0:70:6.wav
320,192,43962,1,0,0:0:0:0:
448,192,43962,1,0,0:0:0:0:
320,192,44077,1,0,0:0:0:70:3.wav
448,192,44077,1,0,0:0:0:0:
64,192,44192,1,0,0:0:0:70:3.wav
192,192,44192,1,0,0:0:0:0:
64,192,44423,1,0,0:0:0:70:3.wav
320,192,44423,1,0,0:0:0:0:
192,192,44538,1,0,0:0:0:70:3.wav
448,192,44538,1,0,0:0:0:0:
64,192,44769,1,0,0:0:0:70:3.wav
192,192,44769,1,0,0:0:0:0:
192,192,44885,1,0,0:0:0:70:6.wav
320,192,44885,1,0,0:0:0:0:
448,192,44885,1,0,0:0:0:0:
320,192,45115,1,0,0:0:0:70:3.wav
448,192,45115,1,0,0:0:0:0:
64,192,45231,1,0,0:0:0:70:3.wav
192,192,45231,1,0,0:0:0:0:
64,192,45462,1,0,0:0:0:70:3.wav
448,192,45462,1,0,0:0:0:0:
192,192,45577,1,0,0:0:0:70:3.wav
320,192,45577,1,0,0:0:0:0:
64,192,45808,1,0,0:0:0:70:6.wav
192,192,45808,1,0,0:0:0:0:
448,192,45808,1,0,0:0:0:0:
64,192,45923,1,0,0:0:0:70:3.wav
448,192,45923,1,0,0:0:0:0:
192,192,46038,1,0,0:0:0:70:3.wav
320,192,46038,1,0,0:0:0:0:
64,192,46154,1,0,0:0:0:70:3.wav
448,192,46154,1,0,0:0:0:0:
64,192,46269,1,0,0:0:0:70:3.wav
192,192,46269,1,0,0:0:0:70:6.wav
320,192,46269,1,0,0:0:0:0:
192,192,46385,1,0,0:0:0:70:3.wav
448,192,46385,1,0,0:0:0:0:
64,192,46500,1,0,0:0:0:70:3.wav
448,192,46500,1,0,0:0:0:0:
192,192,46615,1,0,0:0:0:70:3.wav
320,192,46615,1,0,0:0:0:0:
64,192,46731,1,0,0:0:0:70:3.wav
192,192,46731,1,0,0:0:0:70:6.wav
448,192,46731,1,0,0:0:0:0:
64,192,46846,1,0,0:0:0:70:3.wav
320,192,46846,1,0,0:0:0:0:
192,192,46962,1,0,0:0:0:70:3.wav
320,192,46962,1,0,0:0:0:0:
64,192,47077,1,0,0:0:0:70:3.wav
192,192,47077,1,0,0:0:0:0:
320,192,47192,1,0,0:0:0:70:3.wav
448,192,47192,1,0,0:0:0:0:
64,192,47250,1,0,0:0:0:70:3.wav
192,192,47250,1,0,0:0:0:0:
320,192,47308,1,0,0:0:0:70:3.wav
448,192,47308,1,0,0:0:0:0:
64,192,47365,1,0,0:0:0:70:3.wav
192,192,47365,1,0,0:0:0:0:
320,192,47423,1,0,0:0:0:70:3.wav
448,192,47423,1,0,0:0:0:0:
64,192,47481,1,0,0:0:0:70:3.wav
192,192,47481,1,0,0:0:0:0:
320,192,47538,1,0,0:0:0:70:3.wav
448,192,47538,1,0,0:0:0:0:
64,192,47596,1,0,0:0:0:70:3.wav
192,192,47596,1,0,0:0:0:0:
320,192,47654,1,0,0:0:0:70:3.wav
448,192,47654,1,0,0:0:0:0:
64,192,47712,1,0,0:0:0:70:3.wav
192,192,47712,1,0,0:0:0:0:
320,192,47769,1,0,0:0:0:70:3.wav
448,192,47769,1,0,0:0:0:0:
64,192,47827,1,0,0:0:0:70:3.wav
192,192,47827,1,0,0:0:0:0:
320,192,47885,1,0,0:0:0:70:3.wav
448,192,47885,1,0,0:0:0:0:
64,192,47942,1,0,0:0:0:70:3.wav
192,192,47942,1,0,0:0:0:0:
320,192,48000,1,0,0:0:0:70:3.wav
448,192,48000,1,0,0:0:0:0:
64,192,48058,1,0,0:0:0:70:3.wav
192,192,48058,1,0,0:0:0:0:
320,192,48115,1,0,0:0:0:0:
448,192,48115,128,0,49731:0:0:0:0:
64,192,49038,1,0,0:0:0:0:
320,192,49038,1,0,0:0:0:0:
192,192,49096,1,0,0:0:0:0:
64,192,49154,1,0,0:0:0:0:
320,192,49212,1,0,0:0:0:0:
64,192,49269,1,0,0:0:0:0:
192,192,49269,1,0,0:0:0:0:
320,192,49327,1,0,0:0:0:0:
192,192,49385,1,0,0:0:0:0:
64,192,49442,1,0,0:0:0:0:
192,192,49500,1,0,0:0:0:0:
320,192,49500,1,0,0:0:0:0:
64,192,49558,1,0,0:0:0:0:
320,192,49615,1,0,0:0:0:0:
192,192,49673,1,0,0:0:0:0:
64,192,49731,128,0,49962:0:0:0:70:6.wav
320,192,49731,1,0,0:0:0:0:
192,192,49962,1,0,0:0:0:70:3.wav
320,192,49962,1,0,0:0:0:70:4.wav
448,192,49962,1,0,0:0:0:0:
64,192,50077,1,0,0:0:0:70:3.wav
448,192,50077,1,0,0:0:0:0:
64,192,50192,1,0,0:0:0:70:3.wav
192,192,50192,1,0,0:0:0:0:
320,192,50192,1,0,0:0:0:0:
320,192,50308,1,0,0:0:0:70:3.wav
448,192,50308,1,0,0:0:0:0:
64,192,50423,1,0,0:0:0:70:3.wav
192,192,50423,1,0,0:0:0:0:
448,192,50423,1,0,0:0:0:0:
64,192,50538,1,0,0:0:0:70:3.wav
192,192,50538,1,0,0:0:0:0:
320,192,50538,1,0,0:0:0:0:
320,192,50654,1,0,0:0:0:70:3.wav
448,192,50654,1,0,0:0:0:0:
64,192,50712,1,0,0:0:0:70:3.wav
192,192,50712,1,0,0:0:0:0:
320,192,50769,1,0,0:0:0:70:3.wav
448,192,50769,1,0,0:0:0:0:
192,192,50885,1,0,0:0:0:70:3.wav
448,192,50885,1,0,0:0:0:0:
64,192,51000,1,0,0:0:0:70:3.wav
192,192,51000,1,0,0:0:0:0:
320,192,51058,1,0,0:0:0:70:3.wav
448,192,51058,1,0,0:0:0:0:
64,192,51115,1,0,0:0:0:70:3.wav
192,192,51115,1,0,0:0:0:0:
64,192,51231,1,0,0:0:0:70:3.wav
448,192,51231,1,0,0:0:0:0:
320,192,51346,1,0,0:0:0:70:3.wav
448,192,51346,1,0,0:0:0:0:
64,192,51404,1,0,0:0:0:70:3.wav
192,192,51404,1,0,0:0:0:0:
320,192,51462,1,0,0:0:0:70:3.wav
448,192,51462,1,0,0:0:0:0:
64,192,51577,1,0,0:0:0:70:3.wav
320,192,51577,1,0,0:0:0:0:
64,192,51692,1,0,0:0:0:70:3.wav
192,192,51692,1,0,0:0:0:0:
448,192,51692,1,0,0:0:0:0:
192,192,51808,1,0,0:0:0:70:3.wav
320,192,51808,1,0,0:0:0:0:
64,192,51923,1,0,0:0:0:70:3.wav
320,192,51923,1,0,0:0:0:0:
448,192,51923,1,0,0:0:0:0:
64,192,52038,1,0,0:0:0:70:3.wav
192,192,52038,1,0,0:0:0:0:
448,192,52038,1,0,0:0:0:0:
192,192,52154,1,0,0:0:0:70:3.wav
320,192,52154,1,0,0:0:0:0:
64,192,52269,1,0,0:0:0:70:3.wav
320,192,52269,1,0,0:0:0:0:
448,192,52269,1,0,0:0:0:0:
64,192,52385,1,0,0:0:0:70:3.wav
192,192,52385,1,0,0:0:0:0:
448,192,52385,1,0,0:0:0:0:
192,192,52500,1,0,0:0:0:70:3.wav
320,192,52500,1,0,0:0:0:0:
64,192,52558,1,0,0:0:0:70:3.wav
448,192,52558,1,0,0:0:0:0:
192,192,52615,1,0,0:0:0:70:3.wav
320,192,52615,1,0,0:0:0:0:
320,192,52731,1,0,0:0:0:70:3.wav
448,192,52731,1,0,0:0:0:0:
64,192,52846,1,0,0:0:0:70:3.wav
448,192,52846,1,0,0:0:0:0:
192,192,52904,1,0,0:0:0:70:3.wav
320,192,52904,1,0,0:0:0:0:
64,192,52962,1,0,0:0:0:70:3.wav
448,192,52962,1,0,0:0:0:0:
64,192,53077,1,0,0:0:0:70:3.wav
320,192,53077,1,0,0:0:0:0:
320,192,53192,1,0,0:0:0:70:3.wav
448,192,53192,1,0,0:0:0:0:
64,192,53250,1,0,0:0:0:70:3.wav
192,192,53250,1,0,0:0:0:0:
320,192,53308,128,0,53423:0:0:0:0:
64,192,53423,1,0,0:0:0:0:
192,192,53452,1,0,0:0:0:0:
320,192,53481,1,0,0:0:0:0:
448,192,53510,1,0,0:0:0:0:
64,192,53538,128,0,53654:0:0:0:0:
320,192,53654,1,0,0:0:0:70:3.wav
448,192,53654,1,0,0:0:0:0:
64,192,53769,1,0,0:0:0:70:3.wav
192,192,53769,1,0,0:0:0:0:
448,192,53769,1,0,0:0:0:0:
64,192,53885,1,0,0:0:0:70:3.wav
192,192,53885,1,0,0:0:0:0:
320,192,53885,1,0,0:0:0:0:
320,192,54000,1,0,0:0:0:70:3.wav
448,192,54000,1,0,0:0:0:0:
64,192,54115,1,0,0:0:0:70:3.wav
192,192,54115,1,0,0:0:0:0:
448,192,54115,1,0,0:0:0:0:
64,192,54231,1,0,0:0:0:70:3.wav
192,192,54231,1,0,0:0:0:0:
320,192,54231,1,0,0:0:0:0:
320,192,54346,1,0,0:0:0:70:3.wav
448,192,54346,1,0,0:0:0:0:
64,192,54404,1,0,0:0:0:70:3.wav
192,192,54404,1,0,0:0:0:0:
320,192,54462,1,0,0:0:0:70:3.wav
448,192,54462,1,0,0:0:0:0:
64,192,54577,1,0,0:0:0:70:3.wav
448,192,54577,1,0,0:0:0:0:
64,192,54692,1,0,0:0:0:70:3.wav
192,192,54692,1,0,0:0:0:0:
320,192,54750,1,0,0:0:0:70:3.wav
448,192,54750,1,0,0:0:0:0:
64,192,54808,1,0,0:0:0:70:3.wav
192,192,54808,1,0,0:0:0:0:
192,192,54923,1,0,0:0:0:70:3.wav
448,192,54923,1,0,0:0:0:0:
64,192,55038,1,0,0:0:0:70:3.wav
448,192,55038,1,0,0:0:0:0:
192,192,55096,1,0,0:0:0:70:3.wav
320,192,55096,1,0,0:0:0:0:
64,192,55154,1,0,0:0:0:70:3.wav
448,192,55154,1,0,0:0:0:0:
64,192,55269,1,0,0:0:0:70:3.wav
192,192,55269,1,0,0:0:0:0:
192,192,55385,1,0,0:0:0:70:3.wav
320,192,55385,1,0,0:0:0:0:
448,192,55385,1,0,0:0:0:0:
64,192,55500,1,0,0:0:0:0:
320,192,55500,1,0,0:0:0:0:
448,192,55500,1,0,0:0:0:0:
192,192,55615,1,0,0:0:0:0:
320,192,55615,1,0,0:0:0:0:
448,192,55673,1,0,0:0:0:0:
64,192,55731,1,0,0:0:0:0:
192,192,55731,1,0,0:0:0:0:
320,192,55788,1,0,0:0:0:0:
64,192,55846,1,0,0:0:0:0:
448,192,55846,1,0,0:0:0:0:
192,192,55962,1,0,0:0:0:0:
320,192,55962,1,0,0:0:0:0:
64,192,56019,1,0,0:0:0:0:
320,192,56077,1,0,0:0:0:0:
448,192,56077,1,0,0:0:0:0:
192,192,56135,1,0,0:0:0:0:
64,192,56192,1,0,0:0:0:0:
448,192,56192,1,0,0:0:0:0:
192,192,56308,1,0,0:0:0:0:
320,192,56308,1,0,0:0:0:0:
64,192,56423,128,0,56885:0:0:0:0:
448,192,56423,1,0,0:0:0:0:
192,192,56538,1,0,0:0:0:0:
448,192,56538,1,0,0:0:0:0:
320,192,56654,1,0,0:0:0:0:
192,192,56769,1,0,0:0:0:0:
320,192,56885,1,0,0:0:0:0:
448,192,56885,1,0,0:0:0:0:
192,192,57000,1,0,0:0:0:0:
64,192,57115,1,0,0:0:0:70:6.wav
320,192,57115,1,0,0:0:0:0:
448,192,57115,128,0,57346:0:0:0:0:
64,192,57346,1,0,0:0:0:70:3.wav
192,192,57346,1,0,0:0:0:70:4.wav
320,192,57346,1,0,0:0:0:0:
192,192,57462,1,0,0:0:0:70:3.wav
448,192,57462,1,0,0:0:0:0:
64,192,57577,1,0,0:0:0:70:3.wav
320,192,57577,1,0,0:0:0:0:
448,192,57577,1,0,0:0:0:0:
64,192,57692,1,0,0:0:0:70:3.wav
192,192,57692,1,0,0:0:0:0:
192,192,57808,1,0,0:0:0:70:3.wav
320,192,57808,1,0,0:0:0:0:
448,192,57808,1,0,0:0:0:0:
64,192,57923,1,0,0:0:0:70:3.wav
320,192,57923,1,0,0:0:0:0:
448,192,57923,1,0,0:0:0:0:
64,192,58038,1,0,0:0:0:70:3.wav
192,192,58038,1,0,0:0:0:0:
320,192,58096,1,0,0:0:0:70:3.wav
448,192,58096,1,0,0:0:0:0:
64,192,58154,1,0,0:0:0:70:3.wav
192,192,58154,1,0,0:0:0:0:
192,192,58269,1,0,0:0:0:70:3.wav
448,192,58269,1,0,0:0:0:0:
320,192,58385,1,0,0:0:0:70:3.wav
448,192,58385,1,0,0:0:0:0:
64,192,58442,1,0,0:0:0:70:3.wav
192,192,58442,1,0,0:0:0:0:
320,192,58500,1,0,0:0:0:70:3.wav
448,192,58500,1,0,0:0:0:0:
64,192,58615,1,0,0:0:0:70:3.wav
320,192,58615,1,0,0:0:0:0:
64,192,58731,1,0,0:0:0:70:3.wav
192,192,58731,1,0,0:0:0:0:
320,192,58788,1,0,0:0:0:70:3.wav
448,192,58788,1,0,0:0:0:0:
192,192,58846,128,0,58962:0:0:0:0:
64,192,58962,128,0,59192:0:0:0:0:
192,192,59192,1,0,0:0:0:70:3.wav
320,192,59192,1,0,0:0:0:70:4.wav
448,192,59192,1,0,0:0:0:0:
64,192,59308,1,0,0:0:0:70:3.wav
320,192,59308,1,0,0:0:0:0:
64,192,59423,1,0,0:0:0:70:3.wav
192,192,59423,1,0,0:0:0:0:
448,192,59423,1,0,0:0:0:0:
320,192,59538,1,0,0:0:0:70:3.wav
448,192,59538,1,0,0:0:0:0:
64,192,59654,1,0,0:0:0:70:3.wav
192,192,59654,1,0,0:0:0:0:
320,192,59654,1,0,0:0:0:0:
64,192,59769,1,0,0:0:0:70:3.wav
192,192,59769,1,0,0:0:0:0:
448,192,59769,1,0,0:0:0:0:
320,192,59885,1,0,0:0:0:70:3.wav
448,192,59885,1,0,0:0:0:0:
64,192,59942,1,0,0:0:0:70:3.wav
192,192,59942,1,0,0:0:0:0:
320,192,60000,1,0,0:0:0:70:3.wav
448,192,60000,1,0,0:0:0:0:
64,192,60115,1,0,0:0:0:70:3.wav
192,192,60115,1,0,0:0:0:0:
320,192,60173,1,0,0:0:0:70:3.wav
448,192,60173,1,0,0:0:0:0:
64,192,60231,1,0,0:0:0:70:3.wav
192,192,60231,1,0,0:0:0:0:
320,192,60346,1,0,0:0:0:70:3.wav
448,192,60346,1,0,0:0:0:0:
64,192,60404,1,0,0:0:0:70:3.wav
192,192,60404,1,0,0:0:0:0:
320,192,60462,1,0,0:0:0:70:3.wav
448,192,60462,1,0,0:0:0:0:
64,192,60577,128,0,61038:0:0:0:0:
320,192,60808,1,0,0:0:0:0:
192,192,60865,1,0,0:0:0:0:
320,192,60923,1,0,0:0:0:0:
192,192,60981,1,0,0:0:0:0:
320,192,61038,1,0,0:0:0:70:3.wav
448,192,61038,1,0,0:0:0:70:4.wav
64,192,61096,1,0,0:0:0:70:3.wav
192,192,61096,1,0,0:0:0:0:
320,192,61154,1,0,0:0:0:70:3.wav
448,192,61154,1,0,0:0:0:0:
64,192,61212,1,0,0:0:0:70:3.wav
192,192,61212,1,0,0:0:0:0:
320,192,61269,1,0,0:0:0:70:3.wav
448,192,61269,1,0,0:0:0:0:
64,192,61385,1,0,0:0:0:70:3.wav
192,192,61385,1,0,0:0:0:0:
64,192,61500,1,0,0:0:0:70:3.wav
320,192,61500,1,0,0:0:0:0:
448,192,61500,1,0,0:0:0:0:
192,192,61615,1,0,0:0:0:70:3.wav
320,192,61615,1,0,0:0:0:0:
448,192,61615,1,0,0:0:0:0:
64,192,61962,1,0,0:0:0:70:3.wav
192,192,61962,1,0,0:0:0:70:4.wav
448,192,61962,1,0,0:0:0:0:
320,192,62077,1,0,0:0:0:70:3.wav
448,192,62077,1,0,0:0:0:0:
64,192,62135,1,0,0:0:0:70:3.wav
192,192,62135,1,0,0:0:0:0:
320,192,62192,1,0,0:0:0:70:3.wav
448,192,62192,1,0,0:0:0:0:
64,192,62308,1,0,0:0:0:70:3.wav
192,192,62308,1,0,0:0:0:0:
320,192,62365,1,0,0:0:0:70:3.wav
448,192,62365,1,0,0:0:0:0:
64,192,62423,1,0,0:0:0:0:
192,192,62423,128,0,62885:0:0:0:0:
64,192,62654,128,0,62885:0:0:0:0:
320,192,62885,1,0,0:0:0:70:3.wav
448,192,62885,1,0,0:0:0:70:4.wav
192,192,63000,1,0,0:0:0:70:3.wav
320,192,63000,1,0,0:0:0:0:
64,192,63115,128,0,63346:0:0:0:0:
320,192,63346,1,0,0:0:0:70:3.wav
448,192,63346,1,0,0:0:0:70:4.wav
64,192,63404,1,0,0:0:0:70:3.wav
192,192,63404,1,0,0:0:0:0:
320,192,63462,1,0,0:0:0:70:3.wav
448,192,63462,1,0,0:0:0:0:
64,192,63519,1,0,0:0:0:70:3.wav
192,192,63519,1,0,0:0:0:0:
448,192,63577,128,0,63808:0:0:0:0:
64,192,63692,1,0,0:0:0:0:
192,192,63750,1,0,0:0:0:0:
320,192,63808,1,0,0:0:0:0:
192,192,63923,1,0,0:0:0:0:
448,192,63981,1,0,0:0:0:0:
64,192,64038,1,0,0:0:0:0:
192,192,64154,1,0,0:0:0:0:
320,192,64154,128,0,64500:0:0:0:0:
64,192,64212,1,0,0:0:0:0:
448,192,64269,1,0,0:0:0:0:
192,192,64385,1,0,0:0:0:0:
64,192,64500,1,0,0:0:0:0:
192,192,64529,1,0,0:0:0:0:
448,192,64558,1,0,0:0:0:0:
320,192,64587,1,0,0:0:0:0:
64,192,64615,1,0,0:0:0:0:
192,192,64644,1,0,0:0:0:0:
448,192,64673,1,0,0:0:0:0:
320,192,64702,1,0,0:0:0:0:
64,192,64731,1,0,0:0:0:70:3.wav
192,192,64731,1,0,0:0:0:70:4.wav
64,192,64846,1,0,0:0:0:0:
192,192,64962,1,0,0:0:0:70:3.wav
320,192,64962,1,0,0:0:0:80:5.wav
448,192,64962,1,0,0:0:0:0:
320,192,65077,1,0,0:0:0:0:
64,192,65192,1,0,0:0:0:70:3.wav
192,192,65192,1,0,0:0:0:0:
448,192,65192,1,0,0:0:0:0:
320,192,65308,1,0,0:0:0:0:
448,192,65308,1,0,0:0:0:0:
64,192,65423,128,0,65538:0:0:0:70:3.wav
192,192,65423,1,0,0:0:0:80:5.wav
320,192,65423,1,0,0:0:0:0:
192,192,65538,1,0,0:0:0:0:
64,192,65654,1,0,0:0:0:70:3.wav
320,192,65654,1,0,0:0:0:0:
448,192,65654,128,0,65769:0:0:0:0:
64,192,65769,1,0,0:0:0:0:
192,192,65885,1,0,0:0:0:70:3.wav
320,192,65885,1,0,0:0:0:80:5.wav
448,192,65885,1,0,0:0:0:0:
64,192,66000,1,0,0:0:0:0:
192,192,66000,1,0,0:0:0:0:
64,192,66115,1,0,0:0:0:70:3.wav
320,192,66115,1,0,0:0:0:0:
448,192,66115,128,0,66231:0:0:0:0:
320,192,66231,1,0,0:0:0:0:
64,192,66346,1,0,0:0:0:70:3.wav
192,192,66346,1,0,0:0:0:80:5.wav
448,192,66346,1,0,0:0:0:0:
320,192,66462,1,0,0:0:0:0:
448,192,66462,1,0,0:0:0:0:
64,192,66577,1,0,0:0:0:70:3.wav
192,192,66577,1,0,0:0:0:0:
320,192,66577,1,0,0:0:0:0:
192,192,66692,1,0,0:0:0:0:
448,192,66692,1,0,0:0:0:0:
64,192,66808,1,0,0:0:0:70:3.wav
320,192,66808,1,0,0:0:0:80:5.wav
448,192,66808,1,0,0:0:0:0:
64,192,66923,1,0,0:0:0:0:
192,192,67038,1,0,0:0:0:70:3.wav
320,192,67038,1,0,0:0:0:0:
448,192,67038,1,0,0:0:0:0:
64,192,67154,1,0,0:0:0:0:
192,192,67154,1,0,0:0:0:0:
64,192,67269,128,0,67385:0:0:0:70:3.wav
320,192,67269,1,0,0:0:0:80:5.wav
448,192,67269,1,0,0:0:0:0:
320,192,67385,1,0,0:0:0:0:
64,192,67500,1,0,0:0:0:70:3.wav
192,192,67500,1,0,0:0:0:0:
448,192,67500,128,0,67615:0:0:0:0:
192,192,67615,1,0,0:0:0:0:
64,192,67731,1,0,0:0:0:70:3.wav
320,192,67731,1,0,0:0:0:80:5.wav
448,192,67731,1,0,0:0:0:0:
192,192,67846,1,0,0:0:0:0:
320,192,67846,1,0,0:0:0:0:
64,192,67962,128,0,68423:0:0:0:0:
448,192,67962,1,0,0:0:0:0:
192,192,68192,128,0,68423:0:0:0:0:
320,192,68423,1,0,0:0:0:70:3.wav
448,192,68423,1,0,0:0:0:70:4.wav
64,192,68538,1,0,0:0:0:70:3.wav
192,192,68538,1,0,0:0:0:0:
320,192,68654,1,0,0:0:0:0:
64,192,68769,1,0,0:0:0:70:3.wav
448,192,68769,1,0,0:0:0:0:
64,192,68885,1,0,0:0:0:70:6.wav
192,192,68885,1,0,0:0:0:0:
320,192,68885,1,0,0:0:0:0:
192,192,69000,1,0,0:0:0:0:
320,192,69115,1,0,0:0:0:70:3.wav
448,192,69115,1,0,0:0:0:0:
64,192,69231,1,0,0:0:0:70:3.wav
192,192,69231,1,0,0:0:0:0:
448,192,69346,1,0,0:0:0:0:
192,192,69462,1,0,0:0:0:70:3.wav
320,192,69462,1,0,0:0:0:0:
64,192,69577,1,0,0:0:0:70:3.wav
448,192,69577,1,0,0:0:0:0:
192,192,69692,1,0,0:0:0:0:
64,192,69808,1,0,0:0:0:70:6.wav
320,192,69808,1,0,0:0:0:0:
448,192,69808,1,0,0:0:0:0:
64,192,69923,1,0,0:0:0:70:3.wav
448,192,69923,1,0,0:0:0:0:
192,192,70038,1,0,0:0:0:70:3.wav
320,192,70038,1,0,0:0:0:0:
448,192,70154,1,0,0:0:0:0:
64,192,70269,1,0,0:0:0:70:3.wav
192,192,70269,1,0,0:0:0:0:
320,192,70385,1,0,0:0:0:70:3.wav
448,192,70385,1,0,0:0:0:0:
64,192,70500,1,0,0:0:0:0:
192,192,70615,1,0,0:0:0:70:3.wav
320,192,70615,1,0,0:0:0:0:
64,192,70731,1,0,0:0:0:70:6.wav
320,192,70731,1,0,0:0:0:0:
448,192,70731,1,0,0:0:0:0:
192,192,70846,1,0,0:0:0:0:
320,192,70962,1,0,0:0:0:70:3.wav
448,192,70962,1,0,0:0:0:0:
64,192,71077,1,0,0:0:0:70:3.wav
192,192,71077,1,0,0:0:0:0:
320,192,71192,1,0,0:0:0:0:
64,192,71308,1,0,0:0:0:70:3.wav
448,192,71308,1,0,0:0:0:0:
192,192,71423,1,0,0:0:0:70:3.wav
320,192,71423,1,0,0:0:0:0:
448,192,71538,1,0,0:0:0:0:
64,192,71654,128,0,72115:0:0:0:0:
192,192,71654,1,0,0:0:0:0:
320,192,71731,1,0,0:0:0:0:
448,192,71808,1,0,0:0:0:0:
192,192,71885,1,0,0:0:0:0:
320,192,71962,1,0,0:0:0:0:
448,192,72038,1,0,0:0:0:0:
192,192,72115,1,0,0:0:0:70:3.wav
320,192,72115,1,0,0:0:0:70:4.wav
192,192,72231,1,0,0:0:0:0:
64,192,72346,1,0,0:0:0:70:3.wav
320,192,72346,1,0,0:0:0:80:5.wav
448,192,72346,1,0,0:0:0:0:
448,192,72462,1,0,0:0:0:0:
64,192,72577,1,0,0:0:0:70:3.wav
192,192,72577,1,0,0:0:0:0:
320,192,72577,1,0,0:0:0:0:
192,192,72692,1,0,0:0:0:0:
448,192,72692,1,0,0:0:0:0:
64,192,72808,128,0,72923:0:0:0:70:3.wav
320,192,72808,1,0,0:0:0:80:5.wav
448,192,72808,1,0,0:0:0:0:
320,192,72923,1,0,0:0:0:0:
64,192,73038,1,0,0:0:0:70:3.wav
192,192,73038,1,0,0:0:0:0:
448,192,73038,128,0,73154:0:0:0:0:
192,192,73154,1,0,0:0:0:0:
64,192,73269,1,0,0:0:0:70:3.wav
320,192,73269,1,0,0:0:0:80:5.wav
448,192,73269,1,0,0:0:0:0:
192,192,73385,1,0,0:0:0:0:
320,192,73385,1,0,0:0:0:0:
64,192,73500,1,0,0:0:0:70:3.wav
192,192,73500,1,0,0:0:0:0:
448,192,73500,128,0,73615:0:0:0:0:
64,192,73615,1,0,0:0:0:0:
192,192,73731,1,0,0:0:0:70:3.wav
320,192,73731,1,0,0:0:0:80:5.wav
448,192,73731,1,0,0:0:0:0:
64,192,73846,1,0,0:0:0:0:
320,192,73846,1,0,0:0:0:0:
64,192,73962,1,0,0:0:0:70:3.wav
192,192,73962,1,0,0:0:0:0:
448,192,73962,1,0,0:0:0:0:
192,192,74077,1,0,0:0:0:0:
320,192,74077,1,0,0:0:0:0:
64,192,74192,1,0,0:0:0:70:3.wav
320,192,74192,1,0,0:0:0:80:5.wav
448,192,74192,1,0,0:0:0:0:
448,192,74308,1,0,0:0:0:0:
64,192,74423,1,0,0:0:0:70:3.wav
192,192,74423,1,0,0:0:0:0:
320,192,74423,1,0,0:0:0:0:
192,192,74538,1,0,0:0:0:0:
448,192,74538,1,0,0:0:0:0:
64,192,74654,128,0,74769:0:0:0:70:3.wav
320,192,74654,1,0,0:0:0:80:5.wav
448,192,74654,1,0,0:0:0:0:
320,192,74769,1,0,0:0:0:0:
64,192,74885,1,0,0:0:0:70:3.wav
192,192,74885,1,0,0:0:0:0:
448,192,74885,128,0,75000:0:0:0:0:
192,192,75000,1,0,0:0:0:0:
64,192,75115,1,0,0:0:0:70:3.wav
320,192,75115,1,0,0:0:0:80:5.wav
448,192,75115,1,0,0:0:0:0:
64,192,75231,1,0,0:0:0:0:
192,192,75231,1,0,0:0:0:0:
192,192,75346,1,0,0:0:0:0:
448,192,75346,128,0,75808:0:0:0:0:
320,192,75577,128,0,75808:0:0:0:0:
64,192,75808,1,0,0:0:0:70:3.wav
192,192,75808,1,0,0:0:0:70:4.wav
320,192,75923,1,0,0:0:0:70:3.wav
448,192,75923,1,0,0:0:0:0:
64,192,76038,1,0,0:0:0:70:6.wav
192,192,76038,1,0,0:0:0:0:
448,192,76038,1,0,0:0:0:0:
192,192,76154,1,0,0:0:0:70:3.wav
320,192,76154,1,0,0:0:0:0:
64,192,76269,1,0,0:0:0:70:3.wav
448,192,76269,1,0,0:0:0:0:
192,192,76385,1,0,0:0:0:70:6.wav
320,192,76385,1,0,0:0:0:0:
448,192,76385,1,0,0:0:0:0:
64,192,76500,1,0,0:0:0:70:3.wav
320,192,76500,1,0,0:0:0:0:
192,192,76615,1,0,0:0:0:70:3.wav
448,192,76615,1,0,0:0:0:0:
64,192,76731,1,0,0:0:0:70:6.wav
192,192,76731,1,0,0:0:0:0:
320,192,76731,1,0,0:0:0:0:
64,192,76846,1,0,0:0:0:70:3.wav
448,192,76846,1,0,0:0:0:0:
192,192,76962,1,0,0:0:0:70:3.wav
320,192,76962,1,0,0:0:0:0:
64,192,77077,1,0,0:0:0:70:6.wav
320,192,77077,1,0,0:0:0:0:
448,192,77077,1,0,0:0:0:0:
192,192,77192,1,0,0:0:0:70:3.wav
448,192,77192,1,0,0:0:0:0:
64,192,77308,1,0,0:0:0:70:3.wav
320,192,77308,1,0,0:0:0:0:
192,192,77423,1,0,0:0:0:70:6.wav
320,192,77423,1,0,0:0:0:0:
448,192,77423,1,0,0:0:0:0:
64,192,77538,1,0,0:0:0:70:3.wav
448,192,77538,1,0,0:0:0:0:
192,192,77596,1,0,0:0:0:70:3.wav
320,192,77596,1,0,0:0:0:0:
64,192,77654,1,0,0:0:0:70:3.wav
448,192,77654,1,0,0:0:0:0:
192,192,77769,1,0,0:0:0:70:3.wav
320,192,77769,1,0,0:0:0:0:
64,192,77885,1,0,0:0:0:70:6.wav
192,192,77885,1,0,0:0:0:0:
448,192,77885,1,0,0:0:0:0:
64,192,78000,1,0,0:0:0:70:3.wav
320,192,78000,1,0,0:0:0:0:
192,192,78115,1,0,0:0:0:70:3.wav
448,192,78115,1,0,0:0:0:0:
64,192,78231,1,0,0:0:0:70:6.wav
320,192,78231,1,0,0:0:0:0:
448,192,78231,1,0,0:0:0:0:
64,192,78346,1,0,0:0:0:70:3.wav
192,192,78346,1,0,0:0:0:0:
320,192,78462,1,0,0:0:0:70:3.wav
448,192,78462,1,0,0:0:0:0:
64,192,78577,1,0,0:0:0:0:
448,192,78577,128,0,78808:0:0:0:0:
192,192,78635,1,0,0:0:0:0:
320,192,78692,1,0,0:0:0:0:
192,192,78750,1,0,0:0:0:0:
64,192,78808,128,0,78923:0:0:0:0:
320,192,78808,1,0,0:0:0:0:
192,192,78923,1,0,0:0:0:0:
64,192,79038,1,0,0:0:0:70:2.wav
320,192,79038,1,0,0:0:0:0:
448,192,79038,128,0,79269:0:0:0:0:
320,192,79269,128,0,79500:0:0:0:0:
64,192,79500,128,0,83192:0:0:0:70:3.wav
192,192,79500,1,0,0:0:0:70:4.wav
448,192,79500,1,0,0:0:0:0:
192,192,80769,1,0,0:0:0:0:
448,192,81000,1,0,0:0:0:0:
448,192,81115,1,0,0:0:0:0:
320,192,81577,1,0,0:0:0:0:
192,192,81692,1,0,0:0:0:0:
448,192,82038,1,0,0:0:0:0:
192,192,82500,1,0,0:0:0:0:
320,192,82558,1,0,0:0:0:0:
192,192,82615,1,0,0:0:0:0:
448,192,82615,1,0,0:0:0:0:
320,192,82731,1,0,0:0:0:0:
448,192,82788,1,0,0:0:0:0:
192,192,82846,1,0,0:0:0:0:
448,192,82962,1,0,0:0:0:0:
320,192,83077,1,0,0:0:0:0:
192,192,83192,1,0,0:0:0:70:3.wav
320,192,83192,128,0,83423:0:0:0:70:4.wav
448,192,83192,1,0,0:0:0:0:
448,192,83423,1,0,0:0:0:0:
64,192,83538,128,0,83654:0:0:0:0:
192,192,83654,128,0,83769:0:0:0:0:
320,192,83769,1,0,0:0:0:0:
64,192,83827,1,0,0:0:0:0:
448,192,83885,128,0,84000:0:0:0:0:
320,192,84000,128,0,84577:0:0:0:0:
64,192,84115,1,0,0:0:0:70:3.wav
192,192,84115,1,0,0:0:0:70:4.wav
448,192,84115,1,0,0:0:0:0:
448,192,84577,128,0,85038:0:0:0:0:
64,192,85038,1,0,0:0:0:70:1.wav
192,192,85038,1,0,0:0:0:0:
320,192,85096,1,0,0:0:0:70:1.wav
448,192,85096,1,0,0:0:0:0:
64,192,85154,1,0,0:0:0:70:3.wav
320,192,85212,1,0,0:0:0:70:3.wav
64,192,85269,1,0,0:0:0:70:3.wav
320,192,85385,1,0,0:0:0:70:1.wav
448,192,85385,1,0,0:0:0:0:
64,192,85442,1,0,0:0:0:70:1.wav
192,192,85442,1,0,0:0:0:0:
448,192,85500,1,0,0:0:0:70:3.wav
192,192,85558,1,0,0:0:0:70:3.wav
448,192,85615,1,0,0:0:0:70:3.wav
64,192,85731,1,0,0:0:0:70:1.wav
192,192,85731,1,0,0:0:0:0:
320,192,85788,1,0,0:0:0:70:1.wav
448,192,85788,1,0,0:0:0:0:
64,192,85846,1,0,0:0:0:70:3.wav
320,192,85904,1,0,0:0:0:70:3.wav
64,192,85962,1,0,0:0:0:70:1.wav
192,192,85962,1,0,0:0:0:70:6.wav
448,192,85962,128,0,86077:0:0:0:0:
320,192,86077,1,0,0:0:0:0:
64,192,86192,128,0,86308:0:0:0:0:
192,192,86192,1,0,0:0:0:0:
320,192,86308,1,0,0:0:0:0:
192,192,86423,128,0,86538:0:0:0:0:
448,192,86423,1,0,0:0:0:0:
320,192,86481,1,0,0:0:0:0:
448,192,86538,1,0,0:0:0:0:
64,192,86654,128,0,86885:0:0:0:70:3.wav
192,192,86654,1,0,0:0:0:0:
320,192,86654,1,0,0:0:0:0:
192,192,86885,1,0,0:0:0:70:3.wav
320,192,86885,1,0,0:0:0:70:4.wav
448,192,86885,1,0,0:0:0:0:
64,192,87000,1,0,0:0:0:80:5.wav
448,192,87000,1,0,0:0:0:0:
64,192,87115,1,0,0:0:0:70:3.wav
192,192,87115,1,0,0:0:0:0:
320,192,87115,1,0,0:0:0:0:
320,192,87231,1,0,0:0:0:80:5.wav
448,192,87231,1,0,0:0:0:0:
64,192,87346,1,0,0:0:0:70:3.wav
192,192,87346,1,0,0:0:0:0:
448,192,87346,1,0,0:0:0:0:
64,192,87462,1,0,0:0:0:80:5.wav
192,192,87462,1,0,0:0:0:0:
320,192,87462,1,0,0:0:0:0:
320,192,87577,1,0,0:0:0:70:3.wav
448,192,87577,1,0,0:0:0:0:
64,192,87692,1,0,0:0:0:80:5.wav
448,192,87692,1,0,0:0:0:0:
64,192,87808,1,0,0:0:0:70:3.wav
192,192,87808,1,0,0:0:0:0:
320,192,87808,1,0,0:0:0:0:
192,192,87923,1,0,0:0:0:80:5.wav
448,192,87923,1,0,0:0:0:0:
64,192,88038,1,0,0:0:0:70:3.wav
320,192,88038,1,0,0:0:0:0:
448,192,88038,1,0,0:0:0:0:
64,192,88154,1,0,0:0:0:80:5.wav
192,192,88154,1,0,0:0:0:0:
320,192,88154,1,0,0:0:0:0:
192,192,88269,1,0,0:0:0:70:3.wav
448,192,88269,1,0,0:0:0:0:
64,192,88385,1,0,0:0:0:80:5.wav
448,192,88385,1,0,0:0:0:0:
64,192,88500,1,0,0:0:0:70:3.wav
192,192,88500,1,0,0:0:0:0:
320,192,88500,1,0,0:0:0:0:
320,192,88615,1,0,0:0:0:80:5.wav
448,192,88615,1,0,0:0:0:0:
192,192,88673,1,0,0:0:0:0:
64,192,88731,1,0,0:0:0:70:3.wav
448,192,88731,1,0,0:0:0:0:
64,192,88846,1,0,0:0:0:80:5.wav
192,192,88846,1,0,0:0:0:0:
192,192,88962,1,0,0:0:0:70:3.wav
320,192,88962,1,0,0:0:0:0:
448,192,88962,1,0,0:0:0:0:
64,192,89077,1,0,0:0:0:80:5.wav
448,192,89077,1,0,0:0:0:0:
64,192,89192,1,0,0:0:0:70:3.wav
192,192,89192,1,0,0:0:0:0:
320,192,89192,1,0,0:0:0:0:
192,192,89308,1,0,0:0:0:80:5.wav
320,192,89308,1,0,0:0:0:0:
448,192,89308,1,0,0:0:0:0:
64,192,89423,1,0,0:0:0:70:3.wav
448,192,89423,1,0,0:0:0:0:
64,192,89538,1,0,0:0:0:80:5.wav
320,192,89538,1,0,0:0:0:0:
192,192,89654,1,0,0:0:0:70:3.wav
448,192,89654,1,0,0:0:0:0:
320,192,89654,1,0,0:0:0:0:
64,192,89712,1,0,0:0:0:0:
448,192,89769,1,0,0:0:0:80:5.wav
192,192,89769,1,0,0:0:0:0:
320,192,89827,1,0,0:0:0:0:
64,192,89885,1,0,0:0:0:70:3.wav
448,192,89885,1,0,0:0:0:0:
192,192,89942,1,0,0:0:0:0:
64,192,90000,1,0,0:0:0:80:5.wav
320,192,90000,1,0,0:0:0:0:
448,192,90058,1,0,0:0:0:0:
64,192,90115,1,0,0:0:0:70:3.wav
192,192,90115,1,0,0:0:0:0:
448,192,90173,1,0,0:0:0:0:
192,192,90231,1,0,0:0:0:80:5.wav
320,192,90231,1,0,0:0:0:0:
64,192,90288,1,0,0:0:0:0:
320,192,90346,1,0,0:0:0:70:3.wav
448,192,90346,1,0,0:0:0:0:
192,192,90404,1,0,0:0:0:0:
64,192,90462,1,0,0:0:0:80:5.wav
448,192,90462,1,0,0:0:0:0:
320,192,90519,1,0,0:0:0:0:
64,192,90577,1,0,0:0:0:70:3.wav
192,192,90577,1,0,0:0:0:0:
320,192,90635,1,0,0:0:0:70:3.wav
448,192,90635,1,0,0:0:0:0:
64,192,90692,1,0,0:0:0:70:3.wav
192,192,90692,1,0,0:0:0:80:5.wav
192,192,90808,1,0,0:0:0:70:3.wav
320,192,90808,1,0,0:0:0:0:
448,192,90808,1,0,0:0:0:0:
64,192,90923,1,0,0:0:0:70:3.wav
320,192,90923,1,0,0:0:0:80:5.wav
448,192,90923,1,0,0:0:0:0:
64,192,91038,1,0,0:0:0:70:3.wav
192,192,91038,1,0,0:0:0:0:
448,192,91038,1,0,0:0:0:0:
64,192,91154,1,0,0:0:0:80:5.wav
192,192,91154,1,0,0:0:0:0:
320,192,91154,1,0,0:0:0:0:
320,192,91269,1,0,0:0:0:70:3.wav
448,192,91269,1,0,0:0:0:0:
64,192,91385,1,0,0:0:0:80:5.wav
448,192,91385,1,0,0:0:0:0:
64,192,91500,1,0,0:0:0:70:3.wav
192,192,91500,1,0,0:0:0:0:
320,192,91500,1,0,0:0:0:0:
192,192,91615,1,0,0:0:0:80:5.wav
448,192,91615,1,0,0:0:0:0:
64,192,91731,1,0,0:0:0:70:3.wav
320,192,91731,1,0,0:0:0:0:
448,192,91731,1,0,0:0:0:0:
64,192,91846,1,0,0:0:0:80:5.wav
192,192,91846,1,0,0:0:0:0:
320,192,91846,1,0,0:0:0:0:
192,192,91962,1,0,0:0:0:70:3.wav
448,192,91962,1,0,0:0:0:0:
64,192,92077,1,0,0:0:0:80:5.wav
448,192,92077,1,0,0:0:0:0:
64,192,92192,1,0,0:0:0:70:3.wav
192,192,92192,1,0,0:0:0:0:
320,192,92192,1,0,0:0:0:0:
192,192,92308,1,0,0:0:0:80:5.wav
448,192,92308,1,0,0:0:0:0:
64,192,92365,1,0,0:0:0:0:
320,192,92423,1,0,0:0:0:70:3.wav
448,192,92423,1,0,0:0:0:0:
64,192,92538,1,0,0:0:0:80:5.wav
320,192,92538,1,0,0:0:0:0:
64,192,92654,1,0,0:0:0:70:3.wav
192,192,92654,1,0,0:0:0:0:
448,192,92654,1,0,0:0:0:0:
192,192,92769,1,0,0:0:0:80:5.wav
320,192,92769,1,0,0:0:0:0:
64,192,92885,1,0,0:0:0:70:3.wav
320,192,92885,1,0,0:0:0:0:
448,192,92885,1,0,0:0:0:0:
192,192,92942,1,0,0:0:0:0:
320,192,93000,1,0,0:0:0:80:5.wav
448,192,93000,1,0,0:0:0:0:
64,192,93058,1,0,0:0:0:0:
192,192,93115,1,0,0:0:0:70:3.wav
448,192,93115,1,0,0:0:0:0:
320,192,93173,1,0,0:0:0:0:
64,192,93231,1,0,0:0:0:80:5.wav
192,192,93231,1,0,0:0:0:0:
320,192,93288,1,0,0:0:0:0:
64,192,93346,1,0,0:0:0:70:3.wav
192,192,93346,1,0,0:0:0:70:6.wav
448,192,93346,1,0,0:0:0:0:
448,192,93462,1,0,0:0:0:0:
64,192,93519,1,0,0:0:0:70:3.wav
192,192,93519,1,0,0:0:0:70:6.wav
320,192,93519,1,0,0:0:0:0:
448,192,93577,128,0,93692:0:0:0:0:
64,192,93692,1,0,0:0:0:70:3.wav
192,192,93692,1,0,0:0:0:70:6.wav
320,192,93692,1,0,0:0:0:0:
64,192,93808,128,0,94269:0:0:0:70:3.wav
320,192,93808,1,0,0:0:0:70:6.wav
448,192,93808,1,0,0:0:0:0:
192,192,93923,1,0,0:0:0:0:
320,192,94038,1,0,0:0:0:0:
448,192,94154,1,0,0:0:0:0:
192,192,94269,1,0,0:0:0:70:3.wav
320,192,94269,1,0,0:0:0:70:4.wav
64,192,94385,1,0,0:0:0:70:3.wav
320,192,94385,128,0,94500:0:0:0:80:5.wav
448,192,94385,1,0,0:0:0:0:
64,192,94500,1,0,0:0:0:70:3.wav
192,192,94500,1,0,0:0:0:0:
192,192,94615,1,0,0:0:0:80:5.wav
448,192,94615,128,0,94731:0:0:0:0:
64,192,94731,1,0,0:0:0:70:3.wav
320,192,94731,1,0,0:0:0:0:
64,192,94846,128,0,94962:0:0:0:80:5.wav
192,192,94846,1,0,0:0:0:0:
320,192,94962,1,0,0:0:0:70:3.wav
448,192,94962,1,0,0:0:0:0:
192,192,95077,128,0,95192:0:0:0:80:5.wav
320,192,95077,1,0,0:0:0:0:
64,192,95192,1,0,0:0:0:70:3.wav
448,192,95192,1,0,0:0:0:0:
320,192,95308,128,0,95423:0:0:0:80:5.wav
448,192,95308,1,0,0:0:0:0:
64,192,95423,1,0,0:0:0:70:3.wav
192,192,95423,1,0,0:0:0:0:
192,192,95538,128,0,95654:0:0:0:80:5.wav
320,192,95538,1,0,0:0:0:0:
64,192,95654,1,0,0:0:0:70:3.wav
448,192,95654,1,0,0:0:0:0:
192,192,95769,1,0,0:0:0:0:
320,192,95885,1,0,0:0:0:0:
64,192,96000,1,0,0:0:0:70:3.wav
192,192,96000,1,0,0:0:0:0:
320,192,96058,1,0,0:0:0:70:3.wav
448,192,96058,1,0,0:0:0:0:
64,192,96115,1,0,0:0:0:70:3.wav
192,192,96115,1,0,0:0:0:0:
192,192,96231,128,0,96346:0:0:0:80:5.wav
320,192,96231,1,0,0:0:0:0:
448,192,96231,1,0,0:0:0:0:
64,192,96346,1,0,0:0:0:0:
320,192,96462,1,0,0:0:0:70:3.wav
448,192,96462,128,0,96577:0:0:0:80:5.wav
64,192,96577,1,0,0:0:0:70:3.wav
192,192,96577,1,0,0:0:0:0:
64,192,96692,1,0,0:0:0:80:5.wav
320,192,96692,128,0,96808:0:0:0:0:
192,192,96808,1,0,0:0:0:70:3.wav
448,192,96808,1,0,0:0:0:0:
64,192,96923,128,0,97038:0:0:0:80:5.wav
320,192,96923,1,0,0:0:0:0:
192,192,97038,1,0,0:0:0:70:3.wav
448,192,97038,1,0,0:0:0:0:
320,192,97096,1,0,0:0:0:0:
192,192,97154,1,0,0:0:0:80:5.wav
448,192,97154,128,0,97269:0:0:0:0:
64,192,97212,1,0,0:0:0:70:3.wav
192,192,97269,1,0,0:0:0:80:5.wav
320,192,97269,1,0,0:0:0:0:
64,192,97385,128,0,97500:0:0:0:70:3.wav
320,192,97385,1,0,0:0:0:80:5.wav
448,192,97385,1,0,0:0:0:0:
192,192,97500,1,0,0:0:0:70:3.wav
448,192,97500,1,0,0:0:0:0:
320,192,97615,1,0,0:0:0:0:
64,192,97673,1,0,0:0:0:70:3.wav
192,192,97673,1,0,0:0:0:0:
320,192,97731,1,0,0:0:0:0:
448,192,97731,1,0,0:0:0:0:
64,192,97846,1,0,0:0:0:70:3.wav
448,192,97846,1,0,0:0:0:0:
64,192,97962,1,0,0:0:0:70:3.wav
192,192,97962,1,0,0:0:0:70:4.wav
320,192,97962,1,0,0:0:0:0:
192,192,98077,128,0,98192:0:0:0:80:5.wav
448,192,98077,1,0,0:0:0:0:
64,192,98192,1,0,0:0:0:70:3.wav
320,192,98192,1,0,0:0:0:0:
448,192,98192,1,0,0:0:0:0:
192,192,98308,1,0,0:0:0:80:5.wav
320,192,98308,128,0,98423:0:0:0:0:
64,192,98423,1,0,0:0:0:70:3.wav
192,192,98423,1,0,0:0:0:0:
448,192,98423,1,0,0:0:0:0:
64,192,98538,128,0,98654:0:0:0:80:5.wav
320,192,98538,1,0,0:0:0:0:
192,192,98654,1,0,0:0:0:70:3.wav
448,192,98654,1,0,0:0:0:0:
320,192,98712,1,0,0:0:0:70:3.wav
64,192,98769,1,0,0:0:0:70:3.wav
192,192,98769,1,0,0:0:0:80:5.wav
448,192,98769,128,0,98885:0:0:0:0:
320,192,98827,1,0,0:0:0:70:3.wav
64,192,98885,1,0,0:0:0:70:3.wav
192,192,98885,1,0,0:0:0:0:
320,192,99000,128,0,99115:0:0:0:70:3.wav
448,192,99000,1,0,0:0:0:80:5.wav
64,192,99115,1,0,0:0:0:70:3.wav
192,192,99115,1,0,0:0:0:0:
448,192,99115,1,0,0:0:0:0:
192,192,99231,128,0,99346:0:0:0:80:5.wav
320,192,99231,1,0,0:0:0:0:
64,192,99346,1,0,0:0:0:70:3.wav
320,192,99346,1,0,0:0:0:0:
448,192,99346,1,0,0:0:0:0:
64,192,99462,128,0,99577:0:0:0:70:3.wav
192,192,99462,1,0,0:0:0:80:5.wav
320,192,99577,1,0,0:0:0:70:3.wav
448,192,99577,1,0,0:0:0:0:
64,192,99635,1,0,0:0:0:70:3.wav
192,192,99635,1,0,0:0:0:0:
320,192,99692,1,0,0:0:0:70:3.wav
448,192,99692,128,0,99808:0:0:0:80:5.wav
64,192,99808,1,0,0:0:0:70:3.wav
192,192,99808,1,0,0:0:0:0:
320,192,99865,1,0,0:0:0:70:3.wav
448,192,99865,1,0,0:0:0:0:
64,192,99923,128,0,99981:0:0:0:70:3.wav
192,192,99923,1,0,0:0:0:80:5.wav
320,192,99981,1,0,0:0:0:70:3.wav
448,192,99981,1,0,0:0:0:0:
64,192,100038,128,0,100096:0:0:0:70:3.wav
192,192,100038,1,0,0:0:0:0:
192,192,100154,128,0,100212:0:0:0:70:3.wav
320,192,100154,1,0,0:0:0:0:
320,192,100269,1,0,0:0:0:70:3.wav
448,192,100269,128,0,100327:0:0:0:0:
64,192,100327,1,0,0:0:0:70:3.wav
192,192,100327,1,0,0:0:0:0:
320,192,100385,1,0,0:0:0:70:3.wav
448,192,100385,128,0,100442:0:0:0:0:
64,192,100442,1,0,0:0:0:70:3.wav
192,192,100442,1,0,0:0:0:0:
320,192,100500,1,0,0:0:0:70:3.wav
448,192,100500,128,0,100558:0:0:0:0:
64,192,100615,1,0,0:0:0:70:3.wav
192,192,100615,128,0,100673:0:0:0:0:
320,192,100731,128,0,100962:0:0:0:70:3.wav
448,192,100731,1,0,0:0:0:0:
192,192,100962,1,0,0:0:0:0:
64,192,101077,1,0,0:0:0:0:
448,192,101192,1,0,0:0:0:0:
192,192,101308,1,0,0:0:0:0:
320,192,101423,1,0,0:0:0:0:
64,192,101538,1,0,0:0:0:0:
192,192,101654,1,0,0:0:0:70:3.wav
320,192,101654,1,0,0:0:0:70:4.wav
448,192,101654,128,0,103500:0:0:0:0:
192,192,101962,1,0,0:0:0:0:
64,192,102038,1,0,0:0:0:0:
320,192,102115,1,0,0:0:0:0:
64,192,102423,1,0,0:0:0:0:
320,192,102500,1,0,0:0:0:0:
192,192,102577,1,0,0:0:0:0:
64,192,102808,1,0,0:0:0:0:
320,192,103038,1,0,0:0:0:0:
64,192,103154,1,0,0:0:0:0:
192,192,103269,1,0,0:0:0:0:
320,192,103385,1,0,0:0:0:0:
64,192,103500,1,0,0:0:0:0:
64,192,103808,1,0,0:0:0:0:
192,192,103885,1,0,0:0:0:0:
320,192,103962,1,0,0:0:0:0:
448,192,103962,1,0,0:0:0:0:
320,192,104269,1,0,0:0:0:0:
192,192,104346,1,0,0:0:0:0:
64,192,104423,1,0,0:0:0:0:
320,192,104654,1,0,0:0:0:70:3.wav
448,192,104654,1,0,0:0:0:0:
64,192,104885,1,0,0:0:0:70:6.wav
192,192,104885,1,0,0:0:0:0:
448,192,104885,1,0,0:0:0:0:
320,192,105000,1,0,0:0:0:70:3.wav
448,192,105000,1,0,0:0:0:0:
64,192,105115,1,0,0:0:0:70:3.wav
192,192,105115,1,0,0:0:0:0:
320,192,105231,1,0,0:0:0:0:
64,192,105346,1,0,0:0:0:70:3.wav
192,192,105346,1,0,0:0:0:70:4.wav
320,192,105404,1,0,0:0:0:70:3.wav
448,192,105404,1,0,0:0:0:0:
64,192,105462,1,0,0:0:0:70:3.wav
192,192,105462,1,0,0:0:0:0:
320,192,105577,1,0,0:0:0:70:3.wav
448,192,105577,1,0,0:0:0:0:
192,192,105692,1,0,0:0:0:70:3.wav
320,192,105692,1,0,0:0:0:0:
64,192,105808,1,0,0:0:0:70:3.wav
192,192,105808,1,0,0:0:0:0:
320,192,105865,1,0,0:0:0:70:3.wav
448,192,105865,1,0,0:0:0:0:
64,192,105923,1,0,0:0:0:70:3.wav
192,192,105923,1,0,0:0:0:0:
64,192,106038,1,0,0:0:0:70:3.wav
320,192,106038,1,0,0:0:0:0:
448,192,106154,1,0,0:0:0:0:
320,192,106183,1,0,0:0:0:0:
64,192,106212,1,0,0:0:0:0:
192,192,106240,1,0,0:0:0:0:
448,192,106269,1,0,0:0:0:0:
320,192,106298,1,0,0:0:0:0:
64,192,106327,1,0,0:0:0:0:
192,192,106356,1,0,0:0:0:0:
320,192,106385,1,0,0:0:0:70:3.wav
448,192,106385,1,0,0:0:0:0:
192,192,106500,1,0,0:0:0:70:3.wav
320,192,106500,1,0,0:0:0:0:
64,192,106615,1,0,0:0:0:70:3.wav
448,192,106615,1,0,0:0:0:0:
192,192,106673,1,0,0:0:0:70:3.wav
320,192,106673,1,0,0:0:0:0:
64,192,106731,1,0,0:0:0:70:3.wav
448,192,106731,1,0,0:0:0:0:
320,192,106846,1,0,0:0:0:70:3.wav
448,192,106846,1,0,0:0:0:0:
64,192,106962,1,0,0:0:0:0:
192,192,106990,1,0,0:0:0:0:
320,192,107019,1,0,0:0:0:0:
448,192,107048,1,0,0:0:0:0:
64,192,107077,1,0,0:0:0:70:3.wav
192,192,107077,1,0,0:0:0:0:
320,192,107135,1,0,0:0:0:70:3.wav
448,192,107135,1,0,0:0:0:0:
64,192,107192,1,0,0:0:0:70:3.wav
192,192,107192,1,0,0:0:0:0:
320,192,107250,1,0,0:0:0:70:3.wav
448,192,107250,1,0,0:0:0:0:
64,192,107308,1,0,0:0:0:70:3.wav
192,192,107308,1,0,0:0:0:0:
320,192,107423,1,0,0:0:0:70:3.wav
448,192,107423,1,0,0:0:0:0:
64,192,107481,1,0,0:0:0:70:3.wav
192,192,107481,1,0,0:0:0:0:
320,192,107538,1,0,0:0:0:70:3.wav
448,192,107538,1,0,0:0:0:0:
64,192,107596,1,0,0:0:0:70:3.wav
192,192,107596,1,0,0:0:0:0:
320,192,107654,1,0,0:0:0:70:3.wav
448,192,107654,1,0,0:0:0:0:
64,192,107769,1,0,0:0:0:0:
192,192,107798,1,0,0:0:0:0:
320,192,107827,1,0,0:0:0:0:
448,192,107856,1,0,0:0:0:0:
64,192,107885,1,0,0:0:0:70:3.wav
192,192,107885,1,0,0:0:0:0:
320,192,108000,1,0,0:0:0:70:3.wav
448,192,108000,1,0,0:0:0:0:
64,192,108058,1,0,0:0:0:70:3.wav
192,192,108058,1,0,0:0:0:0:
320,192,108115,1,0,0:0:0:70:3.wav
448,192,108115,1,0,0:0:0:0:
64,192,108173,1,0,0:0:0:70:3.wav
192,192,108173,1,0,0:0:0:0:
320,192,108231,1,0,0:0:0:70:3.wav
448,192,108231,1,0,0:0:0:0:
64,192,108346,1,0,0:0:0:70:3.wav
192,192,108346,1,0,0:0:0:0:
320,192,108404,1,0,0:0:0:70:3.wav
448,192,108404,1,0,0:0:0:0:
64,192,108462,1,0,0:0:0:70:3.wav
192,192,108462,1,0,0:0:0:0:
320,192,108519,1,0,0:0:0:70:3.wav
448,192,108519,1,0,0:0:0:0:
64,192,108577,1,0,0:0:0:70:3.wav
192,192,108577,1,0,0:0:0:0:
320,192,108692,1,0,0:0:0:70:3.wav
448,192,108692,1,0,0:0:0:0:
64,192,108750,1,0,0:0:0:70:3.wav
192,192,108750,1,0,0:0:0:0:
320,192,108808,1,0,0:0:0:0:
64,192,108865,1,0,0:0:0:70:3.wav
192,192,108865,1,0,0:0:0:0:
320,192,108923,1,0,0:0:0:70:3.wav
448,192,108923,1,0,0:0:0:0:
64,192,109038,1,0,0:0:0:70:3.wav
192,192,109038,1,0,0:0:0:70:4.wav
448,192,109038,128,0,110885:0:0:0:0:
64,192,109346,1,0,0:0:0:0:
192,192,109423,1,0,0:0:0:0:
320,192,109500,1,0,0:0:0:0:
320,192,109808,1,0,0:0:0:0:
192,192,109885,1,0,0:0:0:0:
64,192,109962,1,0,0:0:0:0:
320,192,110192,1,0,0:0:0:0:
64,192,110423,1,0,0:0:0:0:
320,192,110538,1,0,0:0:0:0:
192,192,110654,1,0,0:0:0:0:
64,192,110769,1,0,0:0:0:0:
320,192,110885,1,0,0:0:0:0:
64,192,111192,1,0,0:0:0:0:
192,192,111269,1,0,0:0:0:0:
320,192,111346,1,0,0:0:0:0:
448,192,111346,1,0,0:0:0:0:
192,192,111654,1,0,0:0:0:0:
320,192,111731,1,0,0:0:0:0:
448,192,111808,1,0,0:0:0:0:
64,192,112038,1,0,0:0:0:70:3.wav
192,192,112038,1,0,0:0:0:0:
64,192,112269,1,0,0:0:0:70:6.wav
320,192,112269,1,0,0:0:0:0:
448,192,112269,1,0,0:0:0:0:
192,192,112385,1,0,0:0:0:70:3.wav
320,192,112385,1,0,0:0:0:0:
64,192,112500,1,0,0:0:0:70:3.wav
448,192,112500,1,0,0:0:0:0:
192,192,112615,1,0,0:0:0:0:
64,192,112731,128,0,112788:0:0:0:70:4.wav
448,192,112788,128,0,112846:0:0:0:0:
64,192,112846,1,0,0:0:0:70:3.wav
192,192,112846,1,0,0:0:0:0:
320,192,112904,128,0,112962:0:0:0:0:
192,192,112962,128,0,113019:0:0:0:0:
320,192,113019,1,0,0:0:0:70:3.wav
448,192,113019,1,0,0:0:0:0:
64,192,113077,1,0,0:0:0:0:
192,192,113106,1,0,0:0:0:0:
320,192,113135,1,0,0:0:0:0:
448,192,113163,1,0,0:0:0:0:
64,192,113192,1,0,0:0:0:70:3.wav
192,192,113192,1,0,0:0:0:0:
320,192,113250,1,0,0:0:0:70:3.wav
64,192,113308,1,0,0:0:0:70:3.wav
448,192,113308,1,0,0:0:0:0:
192,192,113365,1,0,0:0:0:70:3.wav
448,192,113423,1,0,0:0:0:0:
320,192,113452,1,0,0:0:0:0:
192,192,113481,1,0,0:0:0:0:
64,192,113510,1,0,0:0:0:0:
448,192,113538,1,0,0:0:0:0:
320,192,113567,1,0,0:0:0:0:
192,192,113596,1,0,0:0:0:0:
64,192,113625,1,0,0:0:0:0:
320,192,113654,1,0,0:0:0:70:3.wav
448,192,113654,1,0,0:0:0:0:
64,192,113712,1,0,0:0:0:70:3.wav
192,192,113712,1,0,0:0:0:0:
320,192,113769,1,0,0:0:0:70:3.wav
448,192,113769,1,0,0:0:0:0:
64,192,113827,1,0,0:0:0:70:3.wav
192,192,113827,1,0,0:0:0:0:
320,192,113885,1,0,0:0:0:70:3.wav
448,192,113885,1,0,0:0:0:0:
64,192,113942,1,0,0:0:0:70:3.wav
192,192,113942,1,0,0:0:0:0:
320,192,114000,1,0,0:0:0:70:3.wav
448,192,114000,1,0,0:0:0:0:
64,192,114058,1,0,0:0:0:70:3.wav
192,192,114058,1,0,0:0:0:0:
320,192,114115,1,0,0:0:0:70:3.wav
448,192,114115,1,0,0:0:0:0:
192,192,114269,1,0,0:0:0:0:
64,192,114346,1,0,0:0:0:70:3.wav
320,192,114346,1,0,0:0:0:0:
448,192,114346,1,0,0:0:0:0:
192,192,114423,1,0,0:0:0:0:
320,192,114577,1,0,0:0:0:70:3.wav
448,192,114577,1,0,0:0:0:0:
64,192,114635,1,0,0:0:0:70:3.wav
192,192,114635,1,0,0:0:0:0:
448,192,114692,1,0,0:0:0:0:
320,192,114721,1,0,0:0:0:0:
192,192,114750,1,0,0:0:0:0:
64,192,114779,1,0,0:0:0:0:
320,192,114808,1,0,0:0:0:70:3.wav
448,192,114808,1,0,0:0:0:0:
64,192,114923,1,0,0:0:0:70:3.wav
192,192,114923,1,0,0:0:0:0:
320,192,115038,1,0,0:0:0:70:3.wav
448,192,115038,1,0,0:0:0:0:
64,192,115154,1,0,0:0:0:0:
192,192,115212,1,0,0:0:0:70:3.wav
320,192,115212,1,0,0:0:0:0:
448,192,115346,1,0,0:0:0:0:
64,192,115385,1,0,0:0:0:70:3.wav
192,192,115385,1,0,0:0:0:0:
320,192,115423,1,0,0:0:0:0:
64,192,115500,1,0,0:0:0:0:
448,192,115500,128,0,115615:0:0:0:0:
320,192,115615,1,0,0:0:0:0:
64,192,115673,1,0,0:0:0:0:
192,192,115731,128,0,115846:0:0:0:0:
64,192,115846,1,0,0:0:0:0:
320,192,115904,1,0,0:0:0:0:
448,192,115962,128,0,116019:0:0:0:0:
192,192,116019,1,0,0:0:0:0:
320,192,116077,128,0,116135:0:0:0:0:
64,192,116135,1,0,0:0:0:0:
192,192,116192,128,0,116250:0:0:0:0:
448,192,116250,1,0,0:0:0:0:
64,192,116308,128,0,116365:0:0:0:0:
320,192,116365,1,0,0:0:0:0:
64,192,116423,1,0,0:0:0:70:3.wav
192,192,116423,1,0,0:0:0:70:4.wav
448,192,116423,128,0,119654:0:0:0:0:
64,192,119192,128,0,119654:0:0:0:0:
192,192,119654,1,0,0:0:0:70:1.wav
192,192,119769,1,0,0:0:0:70:1.wav
192,192,119885,1,0,0:0:0:70:1.wav
192,192,120000,1,0,0:0:0:70:1.wav
64,192,120115,1,0,0:0:0:70:1.wav
320,192,120115,1,0,0:0:0:70:3.wav
448,192,120115,128,0,120346:0:0:0:70:4.wav
320,192,120346,1,0,0:0:0:0:
192,192,120462,128,0,120577:0:0:0:0:
64,192,120577,128,0,120692:0:0:0:0:
192,192,120692,1,0,0:0:0:0:
320,192,120750,1,0,0:0:0:0:
448,192,120808,128,0,120923:0:0:0:0:
192,192,120923,128,0,121500:0:0:0:0:
320,192,121500,128,0,121962:0:0:0:0:
64,192,121962,1,0,0:0:0:70:3.wav
192,192,121962,1,0,0:0:0:70:4.wav
448,192,121962,128,0,122192:0:0:0:0:
192,192,122192,1,0,0:0:0:0:
320,192,122308,128,0,122423:0:0:0:0:
64,192,122423,128,0,122538:0:0:0:0:
448,192,122538,1,0,0:0:0:0:
320,192,122596,1,0,0:0:0:0:
192,192,122654,128,0,122769:0:0:0:0:
320,192,122769,128,0,123346:0:0:0:0:
192,192,123346,128,0,123462:0:0:0:0:
448,192,123462,128,0,123577:0:0:0:0:
64,192,123577,128,0,123692:0:0:0:0:
320,192,123692,128,0,123808:0:0:0:0:
64,192,123808,1,0,0:0:0:70:3.wav
192,192,123808,128,0,124038:0:0:0:70:4.wav
448,192,123808,1,0,0:0:0:0:
64,192,124038,1,0,0:0:0:0:
320,192,124154,128,0,124269:0:0:0:0:
448,192,124269,128,0,124385:0:0:0:0:
320,192,124385,1,0,0:0:0:0:
192,192,124442,1,0,0:0:0:0:
64,192,124500,128,0,124615:0:0:0:0:
192,192,124615,128,0,125192:0:0:0:0:
448,192,125192,128,0,125654:0:0:0:0:
64,192,125654,1,0,0:0:0:70:3.wav
192,192,125654,1,0,0:0:0:70:4.wav
320,192,125654,128,0,125885:0:0:0:0:
64,192,125885,128,0,126000:0:0:0:0:
448,192,126000,128,0,126115:0:0:0:0:
320,192,126115,128,0,126346:0:0:0:0:
64,192,126346,128,0,126462:0:0:0:0:
448,192,126346,1,0,0:0:0:0:
192,192,126462,128,0,127500:0:0:0:0:
448,192,126808,1,0,0:0:0:0:
320,192,126865,1,0,0:0:0:0:
64,192,126923,1,0,0:0:0:0:
320,192,127038,1,0,0:0:0:0:
448,192,127154,1,0,0:0:0:0:
448,192,127269,1,0,0:0:0:0:
64,192,127385,1,0,0:0:0:0:
320,192,127500,1,0,0:0:0:70:3.wav
448,192,127500,1,0,0:0:0:0:
64,192,127615,1,0,0:0:0:70:3.wav
192,192,127615,1,0,0:0:0:0:
64,192,127846,1,0,0:0:0:70:3.wav
192,192,127846,1,0,0:0:0:0:
192,192,127962,1,0,0:0:0:70:6.wav
320,192,127962,1,0,0:0:0:0:
448,192,127962,1,0,0:0:0:0:
64,192,128192,1,0,0:0:0:70:3.wav
320,192,128192,1,0,0:0:0:0:
192,192,128308,1,0,0:0:0:70:3.wav
448,192,128308,1,0,0:0:0:0:
64,192,128538,1,0,0:0:0:70:3.wav
448,192,128538,1,0,0:0:0:0:
192,192,128654,1,0,0:0:0:70:3.wav
320,192,128654,1,0,0:0:0:0:
64,192,128885,1,0,0:0:0:70:6.wav
320,192,128885,1,0,0:0:0:0:
448,192,128885,1,0,0:0:0:0:
320,192,129000,1,0,0:0:0:70:3.wav
448,192,129000,1,0,0:0:0:0:
64,192,129115,1,0,0:0:0:70:3.wav
192,192,129115,1,0,0:0:0:0:
192,192,129346,1,0,0:0:0:70:3.wav
320,192,129346,1,0,0:0:0:0:
64,192,129462,1,0,0:0:0:70:3.wav
448,192,129462,1,0,0:0:0:0:
64,192,129692,1,0,0:0:0:70:3.wav
192,192,129692,1,0,0:0:0:0:
192,192,129808,1,0,0:0:0:70:6.wav
320,192,129808,1,0,0:0:0:0:
448,192,129808,1,0,0:0:0:0:
64,192,130038,1,0,0:0:0:70:3.wav
192,192,130038,1,0,0:0:0:0:
320,192,130154,1,0,0:0:0:70:3.wav
448,192,130154,1,0,0:0:0:0:
192,192,130385,1,0,0:0:0:70:3.wav
320,192,130385,1,0,0:0:0:0:
64,192,130500,1,0,0:0:0:70:3.wav
448,192,130500,1,0,0:0:0:0:
64,192,130731,1,0,0:0:0:70:6.wav
320,192,130731,1,0,0:0:0:0:
448,192,130731,1,0,0:0:0:0:
64,192,130846,1,0,0:0:0:70:3.wav
448,192,130846,1,0,0:0:0:0:
192,192,130962,1,0,0:0:0:70:3.wav
320,192,130962,1,0,0:0:0:0:
320,192,131077,1,0,0:0:0:70:3.wav
448,192,131077,1,0,0:0:0:0:
64,192,131192,1,0,0:0:0:70:3.wav
192,192,131192,1,0,0:0:0:0:
320,192,131269,1,0,0:0:0:70:3.wav
448,192,131269,1,0,0:0:0:0:
64,192,131346,1,0,0:0:0:70:3.wav
192,192,131346,1,0,0:0:0:0:
320,192,131423,1,0,0:0:0:70:3.wav
448,192,131423,1,0,0:0:0:0:
64,192,131500,1,0,0:0:0:70:3.wav
192,192,131500,1,0,0:0:0:0:
320,192,131577,1,0,0:0:0:70:3.wav
448,192,131577,1,0,0:0:0:0:
64,192,131654,1,0,0:0:0:70:3.wav
192,192,131654,1,0,0:0:0:0:
320,192,131731,1,0,0:0:0:70:3.wav
448,192,131731,1,0,0:0:0:0:
64,192,131808,1,0,0:0:0:70:3.wav
192,192,131808,1,0,0:0:0:0:
320,192,131885,1,0,0:0:0:70:3.wav
448,192,131885,1,0,0:0:0:0:
64,192,131962,1,0,0:0:0:70:3.wav
192,192,131962,1,0,0:0:0:0:
320,192,132038,1,0,0:0:0:70:3.wav
448,192,132038,1,0,0:0:0:0:
64,192,132115,1,0,0:0:0:70:3.wav
192,192,132115,1,0,0:0:0:80:5.wav
192,192,132269,1,0,0:0:0:70:3.wav
320,192,132269,1,0,0:0:0:80:5.wav
448,192,132269,1,0,0:0:0:0:
64,192,132423,1,0,0:0:0:70:3.wav
320,192,132423,1,0,0:0:0:80:5.wav
448,192,132423,1,0,0:0:0:0:
64,192,132577,1,0,0:0:0:70:3.wav
192,192,132577,1,0,0:0:0:80:5.wav
448,192,132577,1,0,0:0:0:0:
64,192,132731,1,0,0:0:0:70:3.wav
192,192,132731,1,0,0:0:0:80:5.wav
320,192,132731,1,0,0:0:0:0:
192,192,132885,1,0,0:0:0:70:3.wav
320,192,132885,1,0,0:0:0:80:5.wav
448,192,132885,1,0,0:0:0:0:
448,192,133038,128,0,134654:0:0:0:0:
64,192,133962,1,0,0:0:0:0:
320,192,133962,1,0,0:0:0:0:
192,192,134038,1,0,0:0:0:0:
64,192,134115,1,0,0:0:0:0:
192,192,134192,1,0,0:0:0:0:
320,192,134192,1,0,0:0:0:0:
64,192,134269,1,0,0:0:0:0:
320,192,134346,1,0,0:0:0:0:
64,192,134423,1,0,0:0:0:0:
192,192,134423,1,0,0:0:0:0:
320,192,134500,1,0,0:0:0:0:
192,192,134577,1,0,0:0:0:0:
64,192,134654,1,0,0:0:0:70:6.wav
320,192,134654,1,0,0:0:0:0:
64,192,134885,1,0,0:0:0:70:3.wav
192,192,134885,1,0,0:0:0:70:4.wav
320,192,134962,1,0,0:0:0:70:3.wav
448,192,134962,1,0,0:0:0:0:
64,192,135038,1,0,0:0:0:70:3.wav
192,192,135115,1,0,0:0:0:70:3.wav
320,192,135115,1,0,0:0:0:80:5.wav
448,192,135115,1,0,0:0:0:0:
64,192,135192,1,0,0:0:0:70:3.wav
320,192,135269,1,0,0:0:0:70:3.wav
448,192,135269,1,0,0:0:0:0:
64,192,135346,1,0,0:0:0:70:3.wav
192,192,135346,1,0,0:0:0:0:
320,192,135423,1,0,0:0:0:70:3.wav
448,192,135423,1,0,0:0:0:0:
64,192,135500,1,0,0:0:0:70:3.wav
192,192,135577,1,0,0:0:0:70:3.wav
320,192,135577,1,0,0:0:0:80:5.wav
448,192,135577,1,0,0:0:0:0:
64,192,135654,1,0,0:0:0:70:3.wav
320,192,135731,1,0,0:0:0:70:3.wav
448,192,135731,1,0,0:0:0:0:
64,192,135808,1,0,0:0:0:70:3.wav
192,192,135808,1,0,0:0:0:0:
320,192,135885,1,0,0:0:0:70:3.wav
448,192,135885,1,0,0:0:0:0:
64,192,135962,1,0,0:0:0:70:3.wav
192,192,136038,1,0,0:0:0:70:3.wav
320,192,136038,1,0,0:0:0:80:5.wav
448,192,136038,1,0,0:0:0:0:
64,192,136115,1,0,0:0:0:70:3.wav
320,192,136192,1,0,0:0:0:70:3.wav
448,192,136192,1,0,0:0:0:0:
64,192,136269,1,0,0:0:0:70:3.wav
192,192,136269,1,0,0:0:0:0:
320,192,136346,1,0,0:0:0:70:3.wav
448,192,136346,1,0,0:0:0:0:
64,192,136423,1,0,0:0:0:70:3.wav
192,192,136423,1,0,0:0:0:0:
320,192,136731,1,0,0:0:0:70:3.wav
448,192,136731,1,0,0:0:0:0:
64,192,136808,1,0,0:0:0:70:3.wav
192,192,136808,1,0,0:0:0:0:
448,192,136885,1,0,0:0:0:70:3.wav
64,192,136962,1,0,0:0:0:70:3.wav
192,192,136962,1,0,0:0:0:80:5.wav
320,192,136962,1,0,0:0:0:0:
448,192,137038,1,0,0:0:0:70:3.wav
64,192,137115,1,0,0:0:0:70:3.wav
192,192,137115,1,0,0:0:0:0:
320,192,137192,1,0,0:0:0:70:3.wav
448,192,137192,1,0,0:0:0:0:
64,192,137269,1,0,0:0:0:70:3.wav
192,192,137269,1,0,0:0:0:0:
448,192,137346,1,0,0:0:0:70:3.wav
64,192,137423,1,0,0:0:0:70:3.wav
192,192,137423,1,0,0:0:0:80:5.wav
320,192,137423,1,0,0:0:0:0:
448,192,137500,1,0,0:0:0:70:3.wav
64,192,137577,1,0,0:0:0:70:3.wav
192,192,137577,1,0,0:0:0:0:
320,192,137654,1,0,0:0:0:70:3.wav
448,192,137654,1,0,0:0:0:0:
64,192,137731,1,0,0:0:0:70:3.wav
192,192,137731,1,0,0:0:0:0:
448,192,137808,1,0,0:0:0:70:3.wav
64,192,137885,1,0,0:0:0:70:3.wav
192,192,137885,1,0,0:0:0:80:5.wav
320,192,137885,1,0,0:0:0:0:
448,192,137962,1,0,0:0:0:70:3.wav
64,192,138038,1,0,0:0:0:70:3.wav
192,192,138038,1,0,0:0:0:0:
320,192,138115,1,0,0:0:0:70:3.wav
448,192,138115,1,0,0:0:0:0:
64,192,138192,1,0,0:0:0:70:3.wav
192,192,138192,1,0,0:0:0:0:
320,192,138269,1,0,0:0:0:70:3.wav
448,192,138269,1,0,0:0:0:0:
64,192,138577,1,0,0:0:0:70:3.wav
192,192,138577,1,0,0:0:0:0:
320,192,138654,1,0,0:0:0:70:3.wav
448,192,138654,1,0,0:0:0:0:
192,192,138731,1,0,0:0:0:70:3.wav
64,192,138808,1,0,0:0:0:70:3.wav
320,192,138808,1,0,0:0:0:80:5.wav
448,192,138808,1,0,0:0:0:0:
192,192,138885,1,0,0:0:0:70:3.wav
320,192,138962,1,0,0:0:0:70:3.wav
448,192,138962,1,0,0:0:0:0:
64,192,139038,1,0,0:0:0:70:3.wav
192,192,139038,1,0,0:0:0:0:
320,192,139115,1,0,0:0:0:70:3.wav
448,192,139115,1,0,0:0:0:0:
192,192,139192,1,0,0:0:0:70:3.wav
64,192,139269,1,0,0:0:0:70:3.wav
320,192,139269,1,0,0:0:0:80:5.wav
448,192,139269,1,0,0:0:0:0:
192,192,139346,1,0,0:0:0:70:3.wav
320,192,139423,1,0,0:0:0:70:3.wav
448,192,139423,1,0,0:0:0:0:
64,192,139500,1,0,0:0:0:70:3.wav
192,192,139500,1,0,0:0:0:0:
320,192,139577,1,0,0:0:0:70:3.wav
448,192,139577,1,0,0:0:0:0:
192,192,139654,1,0,0:0:0:70:3.wav
64,192,139731,1,0,0:0:0:70:3.wav
320,192,139731,1,0,0:0:0:80:5.wav
448,192,139731,1,0,0:0:0:0:
192,192,139808,1,0,0:0:0:70:3.wav
320,192,139885,1,0,0:0:0:70:3.wav
448,192,139885,1,0,0:0:0:0:
64,192,139962,1,0,0:0:0:70:3.wav
192,192,139962,1,0,0:0:0:0:
320,192,140038,1,0,0:0:0:70:3.wav
448,192,140038,1,0,0:0:0:0:
64,192,140115,1,0,0:0:0:70:3.wav
192,192,140115,1,0,0:0:0:0:
320,192,140423,1,0,0:0:0:70:3.wav
448,192,140423,1,0,0:0:0:0:
64,192,140500,1,0,0:0:0:70:3.wav
192,192,140500,1,0,0:0:0:0:
320,192,140577,1,0,0:0:0:70:3.wav
64,192,140654,1,0,0:0:0:70:3.wav
192,192,140654,1,0,0:0:0:80:5.wav
448,192,140654,1,0,0:0:0:0:
320,192,140731,1,0,0:0:0:70:3.wav
64,192,140808,1,0,0:0:0:70:3.wav
192,192,140808,1,0,0:0:0:0:
320,192,140885,1,0,0:0:0:70:3.wav
448,192,140885,1,0,0:0:0:0:
64,192,140962,1,0,0:0:0:70:3.wav
192,192,140962,1,0,0:0:0:0:
320,192,141038,1,0,0:0:0:70:3.wav
64,192,141115,1,0,0:0:0:70:3.wav
192,192,141115,1,0,0:0:0:80:5.wav
448,192,141115,1,0,0:0:0:0:
320,192,141192,1,0,0:0:0:70:3.wav
64,192,141269,1,0,0:0:0:70:3.wav
192,192,141346,1,0,0:0:0:70:3.wav
320,192,141346,1,0,0:0:0:80:5.wav
448,192,141346,1,0,0:0:0:0:
64,192,141500,1,0,0:0:0:70:3.wav
192,192,141500,1,0,0:0:0:80:5.wav
448,192,141500,1,0,0:0:0:0:
64,192,141654,1,0,0:0:0:70:3.wav
320,192,141654,1,0,0:0:0:80:5.wav
448,192,141654,1,0,0:0:0:0:
64,192,141808,128,0,142269:0:0:0:70:3.wav
192,192,141808,1,0,0:0:0:80:5.wav
320,192,141808,1,0,0:0:0:0:
192,192,142269,1,0,0:0:0:70:3.wav
320,192,142269,1,0,0:0:0:70:4.wav
448,192,142269,1,0,0:0:0:0:
64,192,142385,1,0,0:0:0:70:3.wav
320,192,142385,1,0,0:0:0:0:
64,192,142500,1,0,0:0:0:70:3.wav
192,192,142500,1,0,0:0:0:0:
448,192,142500,1,0,0:0:0:0:
192,192,142615,1,0,0:0:0:70:3.wav
320,192,142615,1,0,0:0:0:0:
64,192,142731,1,0,0:0:0:70:3.wav
320,192,142731,1,0,0:0:0:0:
448,192,142731,1,0,0:0:0:0:
64,192,142846,1,0,0:0:0:70:3.wav
192,192,142846,1,0,0:0:0:0:
448,192,142846,1,0,0:0:0:0:
192,192,142962,1,0,0:0:0:70:3.wav
320,192,142962,1,0,0:0:0:0:
64,192,143019,1,0,0:0:0:70:3.wav
448,192,143019,1,0,0:0:0:0:
192,192,143077,1,0,0:0:0:70:3.wav
320,192,143077,1,0,0:0:0:0:
64,192,143192,1,0,0:0:0:70:3.wav
320,192,143192,1,0,0:0:0:0:
64,192,143308,1,0,0:0:0:70:3.wav
192,192,143308,1,0,0:0:0:0:
320,192,143365,1,0,0:0:0:70:3.wav
448,192,143365,1,0,0:0:0:0:
64,192,143423,1,0,0:0:0:70:3.wav
192,192,143423,1,0,0:0:0:0:
192,192,143538,1,0,0:0:0:70:3.wav
320,192,143538,1,0,0:0:0:0:
320,192,143654,1,0,0:0:0:70:3.wav
448,192,143654,1,0,0:0:0:0:
64,192,143712,1,0,0:0:0:70:3.wav
192,192,143712,1,0,0:0:0:0:
320,192,143769,1,0,0:0:0:70:3.wav
448,192,143769,1,0,0:0:0:0:
192,192,143885,1,0,0:0:0:70:3.wav
448,192,143885,1,0,0:0:0:0:
64,192,144000,1,0,0:0:0:70:3.wav
192,192,144000,1,0,0:0:0:0:
320,192,144000,1,0,0:0:0:0:
64,192,144115,1,0,0:0:0:70:3.wav
320,192,144115,1,0,0:0:0:0:
448,192,144115,1,0,0:0:0:0:
192,192,144231,1,0,0:0:0:70:3.wav
448,192,144231,1,0,0:0:0:0:
64,192,144346,1,0,0:0:0:70:3.wav
192,192,144346,1,0,0:0:0:0:
320,192,144346,1,0,0:0:0:0:
64,192,144462,1,0,0:0:0:70:3.wav
448,192,144462,1,0,0:0:0:0:
192,192,144577,1,0,0:0:0:70:3.wav
320,192,144577,1,0,0:0:0:0:
448,192,144577,1,0,0:0:0:0:
64,192,144692,1,0,0:0:0:70:3.wav
192,192,144692,1,0,0:0:0:0:
320,192,144692,1,0,0:0:0:0:
320,192,144808,1,0,0:0:0:70:3.wav
448,192,144808,1,0,0:0:0:0:
64,192,144865,1,0,0:0:0:70:3.wav
192,192,144865,1,0,0:0:0:0:
320,192,144923,1,0,0:0:0:70:3.wav
448,192,144923,1,0,0:0:0:0:
192,192,145038,1,0,0:0:0:70:3.wav
448,192,145038,1,0,0:0:0:0:
64,192,145154,1,0,0:0:0:70:3.wav
192,192,145154,1,0,0:0:0:0:
320,192,145212,1,0,0:0:0:70:3.wav
448,192,145212,1,0,0:0:0:0:
64,192,145269,1,0,0:0:0:70:3.wav
192,192,145269,1,0,0:0:0:0:
64,192,145385,1,0,0:0:0:70:3.wav
448,192,145385,1,0,0:0:0:0:
320,192,145500,1,0,0:0:0:70:3.wav
448,192,145500,1,0,0:0:0:0:
64,192,145558,1,0,0:0:0:70:3.wav
192,192,145558,1,0,0:0:0:0:
320,192,145615,1,0,0:0:0:70:3.wav
448,192,145615,1,0,0:0:0:0:
64,192,145731,1,0,0:0:0:0:
192,192,145760,1,0,0:0:0:0:
320,192,145788,1,0,0:0:0:0:
448,192,145817,1,0,0:0:0:0:
64,192,145846,128,0,145962:0:0:0:0:
192,192,145962,1,0,0:0:0:70:3.wav
320,192,145962,1,0,0:0:0:0:
448,192,145962,1,0,0:0:0:0:
64,192,146077,1,0,0:0:0:70:3.wav
320,192,146077,1,0,0:0:0:0:
64,192,146192,1,0,0:0:0:70:3.wav
192,192,146192,1,0,0:0:0:0:
448,192,146192,1,0,0:0:0:0:
192,192,146308,1,0,0:0:0:70:3.wav
320,192,146308,1,0,0:0:0:0:
64,192,146423,1,0,0:0:0:70:3.wav
320,192,146423,1,0,0:0:0:0:
448,192,146423,1,0,0:0:0:0:
64,192,146538,1,0,0:0:0:70:3.wav
192,192,146538,1,0,0:0:0:0:
448,192,146538,1,0,0:0:0:0:
192,192,146654,1,0,0:0:0:70:3.wav
320,192,146654,1,0,0:0:0:0:
64,192,146712,1,0,0:0:0:70:3.wav
448,192,146712,1,0,0:0:0:0:
192,192,146769,1,0,0:0:0:70:3.wav
320,192,146769,1,0,0:0:0:0:
320,192,146885,1,0,0:0:0:70:3.wav
448,192,146885,1,0,0:0:0:0:
64,192,147000,1,0,0:0:0:70:3.wav
448,192,147000,1,0,0:0:0:0:
192,192,147058,1,0,0:0:0:70:3.wav
320,192,147058,1,0,0:0:0:0:
64,192,147115,1,0,0:0:0:70:3.wav
448,192,147115,1,0,0:0:0:0:
64,192,147231,1,0,0:0:0:70:3.wav
320,192,147231,1,0,0:0:0:0:
320,192,147346,1,0,0:0:0:70:3.wav
448,192,147346,1,0,0:0:0:0:
64,192,147404,1,0,0:0:0:70:3.wav
192,192,147404,1,0,0:0:0:0:
320,192,147462,1,0,0:0:0:70:3.wav
448,192,147462,1,0,0:0:0:0:
192,192,147577,1,0,0:0:0:70:3.wav
448,192,147577,1,0,0:0:0:0:
64,192,147692,1,0,0:0:0:70:3.wav
192,192,147692,1,0,0:0:0:0:
320,192,147692,1,0,0:0:0:0:
320,192,147808,1,0,0:0:0:0:
448,192,147808,1,0,0:0:0:0:
64,192,147923,1,0,0:0:0:0:
192,192,147923,1,0,0:0:0:0:
320,192,148038,1,0,0:0:0:0:
448,192,148038,1,0,0:0:0:0:
64,192,148154,1,0,0:0:0:0:
192,192,148154,1,0,0:0:0:0:
320,192,148269,1,0,0:0:0:0:
448,192,148269,1,0,0:0:0:0:
64,192,148385,1,0,0:0:0:0:
192,192,148385,1,0,0:0:0:0:
320,192,148500,1,0,0:0:0:0:
448,192,148500,1,0,0:0:0:0:
64,192,148558,1,0,0:0:0:0:
192,192,148558,1,0,0:0:0:0:
320,192,148615,1,0,0:0:0:0:
448,192,148615,1,0,0:0:0:0:
64,192,148731,128,0,149654:0:0:0:0:
192,192,148731,1,0,0:0:0:0:
320,192,148788,1,0,0:0:0:0:
192,192,148846,1,0,0:0:0:0:
320,192,148904,1,0,0:0:0:0:
192,192,148962,128,0,149019:0:0:0:0:
448,192,149077,1,0,0:0:0:0:
192,192,149192,128,0,149250:0:0:0:0:
320,192,149192,1,0,0:0:0:0:
320,192,149308,128,0,149365:0:0:0:0:
192,192,149423,1,0,0:0:0:0:
448,192,149423,128,0,149481:0:0:0:0:
320,192,149538,128,0,149596:0:0:0:0:
320,192,149654,1,0,0:0:0:70:4.wav
448,192,149654,1,0,0:0:0:0:
192,192,149654,128,0,149712:0:0:0:70:3.wav
448,192,149769,1,0,0:0:0:0:
192,192,149885,1,0,0:0:0:70:3.wav
320,192,149885,1,0,0:0:0:80:5.wav
448,192,149962,128,0,150038:0:0:0:0:
64,192,150000,1,0,0:0:0:0:
320,192,150038,128,0,150115:0:0:0:0:
64,192,150115,128,0,150192:0:0:0:70:3.wav
192,192,150115,1,0,0:0:0:0:
448,192,150115,1,0,0:0:0:0:
320,192,150231,1,0,0:0:0:0:
192,192,150346,1,0,0:0:0:70:3.wav
448,192,150346,1,0,0:0:0:80:5.wav
320,192,150423,128,0,150500:0:0:0:0:
64,192,150462,1,0,0:0:0:0:
192,192,150500,128,0,150577:0:0:0:0:
64,192,150577,128,0,150635:0:0:0:70:3.wav
320,192,150577,1,0,0:0:0:0:
448,192,150577,1,0,0:0:0:0:
192,192,150692,1,0,0:0:0:0:
64,192,150808,1,0,0:0:0:70:3.wav
320,192,150808,128,0,150865:0:0:0:80:5.wav
448,192,150808,1,0,0:0:0:0:
192,192,150923,1,0,0:0:0:0:
64,192,151038,128,0,151096:0:0:0:70:1.wav
320,192,151038,1,0,0:0:0:70:3.wav
448,192,151038,1,0,0:0:0:0:
192,192,151154,1,0,0:0:0:70:1.wav
320,192,151154,128,0,151212:0:0:0:0:
64,192,151269,1,0,0:0:0:70:1.wav
192,192,151269,128,0,151327:0:0:0:70:3.wav
448,192,151269,1,0,0:0:0:80:5.wav
320,192,151385,1,0,0:0:0:70:1.wav
448,192,151385,128,0,151442:0:0:0:0:
64,192,151500,128,0,151558:0:0:0:70:3.wav
192,192,151500,1,0,0:0:0:0:
320,192,151500,1,0,0:0:0:0:
448,192,151615,1,0,0:0:0:0:
192,192,151731,1,0,0:0:0:70:3.wav
320,192,151731,1,0,0:0:0:80:5.wav
64,192,151808,128,0,151885:0:0:0:0:
448,192,151846,1,0,0:0:0:0:
192,192,151885,128,0,151962:0:0:0:0:
64,192,151962,1,0,0:0:0:70:3.wav
320,192,151962,1,0,0:0:0:0:
448,192,151962,128,0,152019:0:0:0:0:
192,192,152077,1,0,0:0:0:0:
64,192,152192,1,0,0:0:0:70:3.wav
320,192,152192,1,0,0:0:0:80:5.wav
448,192,152269,128,0,152346:0:0:0:0:
192,192,152308,1,0,0:0:0:0:
320,192,152346,128,0,152423:0:0:0:0:
64,192,152423,128,0,152481:0:0:0:70:3.wav
192,192,152423,1,0,0:0:0:0:
448,192,152423,1,0,0:0:0:0:
320,192,152538,1,0,0:0:0:0:
64,192,152654,1,0,0:0:0:70:3.wav
192,192,152654,128,0,152712:0:0:0:80:5.wav
448,192,152654,1,0,0:0:0:0:
320,192,152769,1,0,0:0:0:0:
64,192,152885,128,0,152942:0:0:0:70:1.wav
192,192,152885,1,0,0:0:0:70:3.wav
448,192,152885,1,0,0:0:0:0:
192,192,153000,1,0,0:0:0:70:1.wav
320,192,153000,128,0,153058:0:0:0:0:
64,192,153115,1,0,0:0:0:70:1.wav
320,192,153115,1,0,0:0:0:70:3.wav
448,192,153115,128,0,153173:0:0:0:80:5.wav
64,192,153231,1,0,0:0:0:70:1.wav
192,192,153231,128,0,153288:0:0:0:0:
192,192,153346,1,0,0:0:0:70:3.wav
320,192,153346,1,0,0:0:0:0:
448,192,153346,128,0,153404:0:0:0:0:
64,192,153462,1,0,0:0:0:0:
192,192,153577,1,0,0:0:0:70:3.wav
320,192,153577,1,0,0:0:0:80:5.wav
64,192,153654,128,0,153731:0:0:0:0:
448,192,153692,1,0,0:0:0:0:
320,192,153731,128,0,153808:0:0:0:0:
64,192,153808,1,0,0:0:0:70:3.wav
192,192,153808,128,0,153865:0:0:0:0:
448,192,153808,1,0,0:0:0:0:
320,192,153923,1,0,0:0:0:0:
192,192,154038,1,0,0:0:0:70:3.wav
448,192,154038,1,0,0:0:0:80:5.wav
64,192,154115,128,0,154192:0:0:0:0:
320,192,154154,1,0,0:0:0:0:
192,192,154192,128,0,154269:0:0:0:0:
64,192,154269,1,0,0:0:0:70:3.wav
320,192,154269,1,0,0:0:0:0:
448,192,154269,128,0,154327:0:0:0:0:
192,192,154385,1,0,0:0:0:0:
64,192,154500,1,0,0:0:0:70:3.wav
448,192,154500,1,0,0:0:0:80:5.wav
192,192,154577,128,0,154654:0:0:0:0:
320,192,154615,1,0,0:0:0:0:
448,192,154654,128,0,154731:0:0:0:0:
64,192,154731,128,0,154788:0:0:0:70:3.wav
192,192,154731,1,0,0:0:0:0:
320,192,154731,1,0,0:0:0:0:
448,192,154846,1,0,0:0:0:0:
64,192,154962,1,0,0:0:0:70:3.wav
192,192,154962,1,0,0:0:0:80:5.wav
64,192,155077,1,0,0:0:0:0:
448,192,155077,128,0,155135:0:0:0:0:
192,192,155192,1,0,0:0:0:70:3.wav
448,192,155192,1,0,0:0:0:0:
320,192,155192,1,0,0:0:0:70:4.wav
192,192,155308,1,0,0:0:0:0:
320,192,155308,1,0,0:0:0:0:
64,192,155308,1,0,0:0:0:70:3.wav
448,192,155423,1,0,0:0:0:0:
64,192,155538,1,0,0:0:0:70:3.wav
192,192,155538,1,0,0:0:0:0:
192,192,155654,1,0,0:0:0:70:6.wav
320,192,155654,1,0,0:0:0:0:
448,192,155654,1,0,0:0:0:0:
64,192,155769,1,0,0:0:0:0:
192,192,155885,1,0,0:0:0:70:3.wav
320,192,155885,1,0,0:0:0:0:
64,192,156000,1,0,0:0:0:70:3.wav
448,192,156000,1,0,0:0:0:0:
320,192,156115,1,0,0:0:0:0:
64,192,156231,1,0,0:0:0:70:3.wav
192,192,156231,1,0,0:0:0:0:
320,192,156346,1,0,0:0:0:70:3.wav
448,192,156346,1,0,0:0:0:0:
64,192,156462,1,0,0:0:0:0:
64,192,156577,128,0,156750:0:0:0:70:6.wav
192,192,156577,1,0,0:0:0:0:
448,192,156577,1,0,0:0:0:0:
192,192,156692,128,0,156750:0:0:0:0:
320,192,156692,1,0,0:0:0:0:
320,192,156808,128,0,156865:0:0:0:0:
448,192,156808,128,0,156865:0:0:0:0:
64,192,156923,128,0,156981:0:0:0:0:
448,192,156923,128,0,156981:0:0:0:0:
64,192,157038,1,0,0:0:0:70:3.wav
192,192,157038,1,0,0:0:0:70:4.wav
320,192,157038,128,0,157096:0:0:0:0:
448,192,157154,1,0,0:0:0:0:
192,192,157269,1,0,0:0:0:70:3.wav
320,192,157269,1,0,0:0:0:80:5.wav
64,192,157346,128,0,157404:0:0:0:0:
448,192,157385,1,0,0:0:0:0:
192,192,157423,128,0,157481:0:0:0:0:
64,192,157500,1,0,0:0:0:70:3.wav
320,192,157500,1,0,0:0:0:0:
448,192,157500,128,0,157558:0:0:0:0:
192,192,157615,1,0,0:0:0:0:
320,192,157731,1,0,0:0:0:70:3.wav
448,192,157731,1,0,0:0:0:80:5.wav
192,192,157808,128,0,157865:0:0:0:0:
64,192,157846,1,0,0:0:0:0:
320,192,157885,128,0,157942:0:0:0:0:
64,192,157962,1,0,0:0:0:70:3.wav
192,192,157962,1,0,0:0:0:0:
448,192,157962,128,0,158019:0:0:0:0:
320,192,158077,1,0,0:0:0:0:
64,192,158192,1,0,0:0:0:70:3.wav
192,192,158192,128,0,158250:0:0:0:80:5.wav
448,192,158192,1,0,0:0:0:0:
320,192,158308,1,0,0:0:0:0:
64,192,158423,1,0,0:0:0:70:1.wav
192,192,158423,1,0,0:0:0:70:3.wav
448,192,158423,128,0,158481:0:0:0:0:
192,192,158538,1,0,0:0:0:70:1.wav
320,192,158538,128,0,158596:0:0:0:0:
64,192,158654,128,0,158712:0:0:0:70:1.wav
320,192,158654,1,0,0:0:0:70:3.wav
448,192,158654,1,0,0:0:0:80:5.wav
192,192,158769,128,0,158827:0:0:0:70:1.wav
448,192,158769,1,0,0:0:0:0:
64,192,158885,128,0,158942:0:0:0:70:3.wav
192,192,158885,1,0,0:0:0:0:
320,192,158885,1,0,0:0:0:0:
448,192,159000,1,0,0:0:0:0:
192,192,159115,1,0,0:0:0:70:3.wav
320,192,159115,1,0,0:0:0:80:5.wav
448,192,159192,128,0,159250:0:0:0:0:
64,192,159231,1,0,0:0:0:0:
320,192,159269,128,0,159327:0:0:0:0:
64,192,159346,128,0,159404:0:0:0:70:3.wav
192,192,159346,1,0,0:0:0:0:
448,192,159346,1,0,0:0:0:0:
320,192,159462,1,0,0:0:0:0:
192,192,159577,1,0,0:0:0:70:3.wav
448,192,159577,1,0,0:0:0:80:5.wav
64,192,159654,128,0,159712:0:0:0:0:
320,192,159692,1,0,0:0:0:0:
192,192,159731,128,0,159788:0:0:0:0:
64,192,159808,1,0,0:0:0:70:3.wav
320,192,159808,1,0,0:0:0:0:
448,192,159808,128,0,159865:0:0:0:0:
192,192,159923,1,0,0:0:0:0:
64,192,160038,128,0,160096:0:0:0:70:3.wav
320,192,160038,1,0,0:0:0:80:5.wav
448,192,160038,1,0,0:0:0:0:
192,192,160154,1,0,0:0:0:0:
64,192,160269,1,0,0:0:0:70:1.wav
320,192,160269,1,0,0:0:0:70:3.wav
448,192,160269,128,0,160327:0:0:0:0:
192,192,160385,128,0,160442:0:0:0:70:1.wav
320,192,160385,1,0,0:0:0:0:
64,192,160500,128,0,160558:0:0:0:70:1.wav
192,192,160500,1,0,0:0:0:70:3.wav
448,192,160500,1,0,0:0:0:80:5.wav
64,192,160615,1,0,0:0:0:70:1.wav
320,192,160615,128,0,160673:0:0:0:0:
192,192,160731,1,0,0:0:0:70:3.wav
320,192,160731,1,0,0:0:0:0:
448,192,160731,128,0,160788:0:0:0:0:
64,192,160846,1,0,0:0:0:0:
320,192,160962,1,0,0:0:0:70:3.wav
448,192,160962,1,0,0:0:0:80:5.wav
64,192,161038,128,0,161096:0:0:0:0:
192,192,161077,1,0,0:0:0:0:
320,192,161115,128,0,161173:0:0:0:0:
64,192,161192,1,0,0:0:0:70:3.wav
192,192,161192,1,0,0:0:0:0:
448,192,161192,128,0,161250:0:0:0:0:
320,192,161308,1,0,0:0:0:0:
64,192,161423,1,0,0:0:0:70:3.wav
192,192,161423,1,0,0:0:0:80:5.wav
320,192,161500,128,0,161558:0:0:0:0:
448,192,161538,1,0,0:0:0:0:
192,192,161577,128,0,161635:0:0:0:0:
64,192,161654,128,0,161712:0:0:0:70:3.wav
320,192,161654,1,0,0:0:0:0:
448,192,161654,1,0,0:0:0:0:
192,192,161769,1,0,0:0:0:0:
320,192,161808,128,0,161865:0:0:0:0:
64,192,161885,1,0,0:0:0:70:3.wav
192,192,161885,1,0,0:0:0:80:5.wav
448,192,161962,128,0,162019:0:0:0:0:
320,192,162000,1,0,0:0:0:0:
64,192,162115,128,0,162173:0:0:0:70:3.wav
192,192,162115,1,0,0:0:0:0:
448,192,162115,1,0,0:0:0:0:
320,192,162231,1,0,0:0:0:0:
192,192,162269,128,0,162327:0:0:0:0:
64,192,162346,1,0,0:0:0:70:3.wav
448,192,162346,1,0,0:0:0:80:5.wav
320,192,162423,128,0,162481:0:0:0:0:
192,192,162462,1,0,0:0:0:0:
64,192,162577,128,0,162635:0:0:0:0:
448,192,162577,128,0,162808:0:0:0:0:
192,192,162692,1,0,0:0:0:0:
64,192,162808,1,0,0:0:0:0:
320,192,162808,128,0,163038:0:0:0:0:
192,192,162923,1,0,0:0:0:0:
64,192,163038,128,0,163269:0:0:0:0:
448,192,163038,1,0,0:0:0:0:
320,192,163154,1,0,0:0:0:0:
192,192,163269,128,0,163500:0:0:0:0:
448,192,163269,1,0,0:0:0:0:
64,192,163346,128,0,163404:0:0:0:0:
320,192,163423,128,0,163481:0:0:0:0:
64,192,163500,128,0,163962:0:0:0:0:
448,192,163500,128,0,163558:0:0:0:0:
448,192,163962,1,0,0:0:0:0:
64,192,164077,1,0,0:0:0:0:
320,192,164192,1,0,0:0:0:0:
192,192,164308,1,0,0:0:0:0:
64,192,164423,128,0,167192:0:0:0:70:3.wav
192,192,164423,1,0,0:0:0:70:4.wav
320,192,164423,1,0,0:0:0:0:
448,192,164423,1,0,0:0:0:0:
192,192,167192,128,0,168115:0:0:0:0:
448,192,168115,128,0,171808:0:0:0:0:
64,192,171808,128,0,174577:0:0:0:35:3.wav
192,192,171808,1,0,0:0:0:0:
192,192,172269,1,0,0:0:0:35:3.wav
448,192,172269,1,0,0:0:0:0:
320,192,172731,1,0,0:0:0:35:3.wav
448,192,172731,1,0,0:0:0:0:
192,192,173192,1,0,0:0:0:35:3.wav
320,192,173192,1,0,0:0:0:0:
192,192,173654,1,0,0:0:0:35:3.wav
448,192,173654,1,0,0:0:0:0:
320,192,174115,1,0,0:0:0:35:3.wav
448,192,174115,1,0,0:0:0:0:
192,192,174577,1,0,0:0:0:35:3.wav
448,192,174577,128,0,175500:0:0:0:0:
320,192,174808,1,0,0:0:0:0:
64,192,174923,1,0,0:0:0:0:
192,192,175038,1,0,0:0:0:35:3.wav
320,192,175038,1,0,0:0:0:0:
64,192,175269,1,0,0:0:0:0:
320,192,175385,1,0,0:0:0:0:
64,192,175500,1,0,0:0:0:35:3.wav
192,192,175500,128,0,177346:0:0:0:0:
448,192,175731,1,0,0:0:0:0:
320,192,175846,1,0,0:0:0:0:
64,192,175962,1,0,0:0:0:35:3.wav
448,192,175962,1,0,0:0:0:0:
320,192,176192,1,0,0:0:0:0:
448,192,176308,1,0,0:0:0:0:
64,192,176423,1,0,0:0:0:35:3.wav
320,192,176423,1,0,0:0:0:0:
448,192,176538,1,0,0:0:0:0:
64,192,176654,1,0,0:0:0:0:
320,192,176769,1,0,0:0:0:0:
64,192,176885,1,0,0:0:0:35:3.wav
448,192,176885,1,0,0:0:0:0:
320,192,177115,1,0,0:0:0:0:
64,192,177231,1,0,0:0:0:0:
320,192,177346,1,0,0:0:0:35:3.wav
448,192,177346,128,0,179192:0:0:0:0:
192,192,177462,1,0,0:0:0:0:
64,192,177577,1,0,0:0:0:0:
320,192,177692,1,0,0:0:0:0:
64,192,177808,1,0,0:0:0:35:3.wav
192,192,177808,1,0,0:0:0:0:
320,192,178038,1,0,0:0:0:0:
192,192,178154,1,0,0:0:0:0:
64,192,178269,1,0,0:0:0:35:3.wav
320,192,178269,1,0,0:0:0:0:
192,192,178500,1,0,0:0:0:0:
320,192,178615,1,0,0:0:0:0:
64,192,178731,1,0,0:0:0:35:3.wav
192,192,178731,1,0,0:0:0:0:
320,192,178962,128,0,179192:0:0:0:0:
64,192,179192,1,0,0:0:0:0:
192,192,179308,1,0,0:0:0:0:
448,192,179538,1,0,0:0:0:0:
64,192,179769,1,0,0:0:0:0:
448,192,179885,1,0,0:0:0:0:
192,192,180000,1,0,0:0:0:0:
448,192,180115,1,0,0:0:0:0:
64,192,180231,1,0,0:0:0:0:
192,192,180346,1,0,0:0:0:0:
448,192,180462,1,0,0:0:0:0:
64,192,180692,1,0,0:0:0:0:
320,192,180808,1,0,0:0:0:0:
448,192,181038,128,0,181096:0:0:0:0:
64,192,181154,128,0,181212:0:0:0:0:
192,192,181385,128,0,181442:0:0:0:0:
448,192,181615,128,0,181673:0:0:0:0:
192,192,181731,128,0,181788:0:0:0:0:
448,192,181846,128,0,181904:0:0:0:0:
320,192,181962,128,0,182019:0:0:0:0:
64,192,182077,128,0,182135:0:0:0:0:
320,192,182192,128,0,182250:0:0:0:0:
192,192,182308,128,0,182365:0:0:0:0:
192,192,182538,128,0,182596:0:0:0:0:
64,192,182654,128,0,182712:0:0:0:0:
192,192,182885,1,0,0:0:0:0:
320,192,183000,1,0,0:0:0:0:
448,192,183231,1,0,0:0:0:0:
64,192,183462,1,0,0:0:0:0:
320,192,183577,1,0,0:0:0:0:
448,192,183692,1,0,0:0:0:0:
192,192,183808,1,0,0:0:0:0:
64,192,183923,1,0,0:0:0:0:
448,192,184038,1,0,0:0:0:0:
192,192,184154,1,0,0:0:0:0:
320,192,184385,1,0,0:0:0:0:
192,192,184500,1,0,0:0:0:0:
64,192,184615,1,0,0:0:0:0:
320,192,184731,128,0,184788:0:0:0:0:
192,192,184846,128,0,184904:0:0:0:0:
64,192,185077,128,0,185135:0:0:0:0:
192,192,185308,128,0,185365:0:0:0:0:
320,192,185423,128,0,185481:0:0:0:0:
64,192,185538,128,0,185596:0:0:0:0:
320,192,185654,128,0,185712:0:0:0:0:
448,192,185769,128,0,185827:0:0:0:0:
192,192,185885,128,0,185942:0:0:0:0:
320,192,186000,128,0,186058:0:0:0:0:
448,192,186115,128,0,186173:0:0:0:0:
192,192,186231,128,0,186288:0:0:0:0:
320,192,186346,128,0,186404:0:0:0:0:
64,192,186462,128,0,186519:0:0:0:0:
192,192,186577,128,0,186635:0:0:0:0:
448,192,186577,1,0,0:0:0:0:
64,192,186692,1,0,0:0:0:0:
320,192,186692,128,0,186750:0:0:0:0:
64,192,186923,1,0,0:0:0:0:
320,192,186923,128,0,186981:0:0:0:0:
64,192,187154,128,0,187212:0:0:0:0:
320,192,187154,1,0,0:0:0:0:
192,192,187269,1,0,0:0:0:0:
320,192,187269,128,0,187327:0:0:0:0:
64,192,187385,1,0,0:0:0:0:
448,192,187385,128,0,187442:0:0:0:0:
192,192,187500,128,0,187558:0:0:0:0:
320,192,187500,1,0,0:0:0:0:
64,192,187615,1,0,0:0:0:0:
320,192,187615,128,0,187673:0:0:0:0:
64,192,187731,128,0,187788:0:0:0:0:
448,192,187731,1,0,0:0:0:0:
192,192,187846,1,0,0:0:0:0:
448,192,187846,128,0,187904:0:0:0:0:
64,192,187962,128,0,188019:0:0:0:0:
320,192,187962,1,0,0:0:0:0:
192,192,188077,1,0,0:0:0:0:
320,192,188077,128,0,188135:0:0:0:0:
192,192,188192,128,0,188250:0:0:0:0:
448,192,188192,1,0,0:0:0:0:
64,192,188308,128,0,188365:0:0:0:0:
320,192,188308,1,0,0:0:0:0:
192,192,188423,1,0,0:0:0:0:
320,192,188423,128,0,188481:0:0:0:0:
64,192,188538,1,0,0:0:0:0:
448,192,188538,128,0,188596:0:0:0:0:
192,192,188654,1,0,0:0:0:0:
320,192,188654,128,0,188712:0:0:0:0:
64,192,188769,1,0,0:0:0:0:
448,192,188769,128,0,188827:0:0:0:0:
192,192,188885,128,0,188942:0:0:0:0:
320,192,188885,1,0,0:0:0:0:
64,192,189000,128,0,189058:0:0:0:0:
192,192,189000,1,0,0:0:0:0:
320,192,189115,128,0,189173:0:0:0:0:
448,192,189115,1,0,0:0:0:0:
64,192,189231,1,0,0:0:0:0:
192,192,189231,128,0,189288:0:0:0:0:
320,192,189346,1,0,0:0:0:0:
448,192,189346,128,0,189404:0:0:0:0:
64,192,190038,128,0,190096:0:0:0:0:
192,192,190038,1,0,0:0:0:0:
192,192,190154,128,0,190212:0:0:0:0:
320,192,190154,1,0,0:0:0:0:
320,192,190269,128,0,190327:0:0:0:0:
448,192,190269,1,0,0:0:0:0:
64,192,190615,128,0,190673:0:0:0:0:
192,192,190615,1,0,0:0:0:0:
320,192,190673,128,0,190731:0:0:0:0:
448,192,190673,1,0,0:0:0:0:
64,192,190731,1,0,0:0:0:0:
192,192,190731,128,0,190788:0:0:0:0:
64,192,191423,128,0,191481:0:0:0:0:
192,192,191423,1,0,0:0:0:0:
192,192,191654,128,0,191712:0:0:0:0:
320,192,191654,1,0,0:0:0:0:
64,192,191885,1,0,0:0:0:0:
320,192,191885,128,0,191942:0:0:0:0:
64,192,192115,1,0,0:0:0:0:
320,192,192115,128,0,192173:0:0:0:0:
192,192,192808,1,0,0:0:0:0:
448,192,192808,128,0,192865:0:0:0:0:
192,192,193038,1,0,0:0:0:0:
448,192,193038,128,0,193096:0:0:0:0:
64,192,193500,1,0,0:0:0:0:
320,192,193500,128,0,193577:0:0:0:0:
192,192,193577,128,0,193654:0:0:0:0:
448,192,193577,1,0,0:0:0:0:
64,192,193654,128,0,193731:0:0:0:0:
320,192,193654,1,0,0:0:0:0:
192,192,193731,1,0,0:0:0:0:
448,192,193731,128,0,193808:0:0:0:0:
64,192,193808,1,0,0:0:0:0:
320,192,193808,128,0,193885:0:0:0:0:
192,192,193885,128,0,193962:0:0:0:0:
64,192,193962,1,0,0:0:0:70:3.wav
320,192,193962,1,0,0:0:0:70:4.wav
448,192,193962,128,0,194885:0:0:0:0:
192,192,194077,1,0,0:0:0:0:
64,192,194308,1,0,0:0:0:0:
320,192,194538,1,0,0:0:0:0:
64,192,194654,1,0,0:0:0:0:
192,192,194769,1,0,0:0:0:0:
64,192,194885,128,0,196269:0:0:0:0:
320,192,194885,1,0,0:0:0:0:
192,192,195000,1,0,0:0:0:0:
320,192,195115,1,0,0:0:0:0:
448,192,195231,1,0,0:0:0:0:
320,192,195462,1,0,0:0:0:0:
192,192,195577,1,0,0:0:0:0:
320,192,195808,1,0,0:0:0:0:
448,192,195923,1,0,0:0:0:0:
192,192,196154,1,0,0:0:0:0:
320,192,196269,128,0,197192:0:0:0:0:
448,192,196385,1,0,0:0:0:0:
192,192,196500,1,0,0:0:0:0:
64,192,196615,1,0,0:0:0:0:
192,192,196731,1,0,0:0:0:0:
448,192,196846,1,0,0:0:0:0:
192,192,196962,1,0,0:0:0:0:
64,192,197077,1,0,0:0:0:0:
192,192,197192,128,0,197654:0:0:0:0:
448,192,197308,1,0,0:0:0:0:
320,192,197423,1,0,0:0:0:0:
64,192,197654,1,0,0:0:0:0:
448,192,197654,128,0,198577:0:0:0:0:
192,192,197769,1,0,0:0:0:0:
320,192,198000,1,0,0:0:0:0:
192,192,198231,1,0,0:0:0:0:
64,192,198346,1,0,0:0:0:0:
192,192,198462,1,0,0:0:0:0:
64,192,198577,128,0,199500:0:0:0:0:
320,192,198577,1,0,0:0:0:0:
192,192,198692,1,0,0:0:0:0:
448,192,198808,1,0,0:0:0:0:
320,192,198923,1,0,0:0:0:0:
192,192,199154,1,0,0:0:0:0:
448,192,199269,1,0,0:0:0:0:
320,192,199500,1,0,0:0:0:0:
192,192,199615,128,0,199673:0:0:0:0:
448,192,199615,128,0,199673:0:0:0:0:
64,192,199731,1,0,0:0:0:0:
320,192,199846,1,0,0:0:0:0:
64,192,199962,128,0,200019:0:0:0:0:
448,192,199962,128,0,200019:0:0:0:0:
192,192,200077,1,0,0:0:0:0:
448,192,200192,1,0,0:0:0:0:
192,192,200308,128,0,200365:0:0:0:0:
320,192,200308,128,0,200365:0:0:0:0:
448,192,200423,1,0,0:0:0:0:
64,192,200538,128,0,200596:0:0:0:0:
192,192,200538,128,0,200596:0:0:0:0:
320,192,200654,1,0,0:0:0:0:
64,192,200769,1,0,0:0:0:0:
448,192,201000,1,0,0:0:0:0:
192,192,201115,1,0,0:0:0:0:
320,192,201231,1,0,0:0:0:0:
64,192,201346,1,0,0:0:0:0:
448,192,201346,128,0,202269:0:0:0:0:
192,192,201462,1,0,0:0:0:0:
64,192,201692,1,0,0:0:0:0:
320,192,201923,1,0,0:0:0:0:
64,192,202038,1,0,0:0:0:0:
320,192,202154,1,0,0:0:0:0:
64,192,202269,128,0,203192:0:0:0:0:
192,192,202269,1,0,0:0:0:0:
320,192,202385,1,0,0:0:0:0:
448,192,202500,1,0,0:0:0:0:
192,192,202615,1,0,0:0:0:0:
320,192,202846,1,0,0:0:0:0:
448,192,202962,1,0,0:0:0:0:
320,192,203192,1,0,0:0:0:0:
448,192,203192,128,0,204115:0:0:0:0:
192,192,203308,1,0,0:0:0:0:
64,192,203538,1,0,0:0:0:0:
320,192,203769,1,0,0:0:0:0:
192,192,203885,1,0,0:0:0:0:
64,192,204000,1,0,0:0:0:0:
192,192,204115,128,0,204577:0:0:0:0:
320,192,204115,1,0,0:0:0:0:
64,192,204231,1,0,0:0:0:0:
320,192,204346,1,0,0:0:0:0:
448,192,204462,1,0,0:0:0:0:
320,192,204577,128,0,205038:0:0:0:0:
64,192,204692,1,0,0:0:0:0:
192,192,204808,1,0,0:0:0:0:
64,192,205038,128,0,205962:0:0:0:0:
448,192,205038,1,0,0:0:0:0:
192,192,205154,1,0,0:0:0:0:
320,192,205269,1,0,0:0:0:0:
448,192,205385,1,0,0:0:0:0:
192,192,205615,1,0,0:0:0:0:
320,192,205731,1,0,0:0:0:0:
448,192,205846,1,0,0:0:0:0:
192,192,205962,1,0,0:0:0:0:
320,192,205962,128,0,206885:0:0:0:0:
448,192,206077,1,0,0:0:0:0:
64,192,206308,1,0,0:0:0:0:
192,192,206538,1,0,0:0:0:0:
64,192,206654,1,0,0:0:0:0:
448,192,206769,1,0,0:0:0:0:
64,192,206885,1,0,0:0:0:0:
192,192,206885,128,0,207808:0:0:0:0:
320,192,207000,1,0,0:0:0:0:
448,192,207115,1,0,0:0:0:0:
64,192,207231,1,0,0:0:0:0:
320,192,207462,1,0,0:0:0:0:
64,192,207577,1,0,0:0:0:0:
448,192,207692,1,0,0:0:0:0:
64,192,207808,128,0,208731:0:0:0:0:
320,192,207808,1,0,0:0:0:0:
192,192,207981,1,0,0:0:0:0:
448,192,208154,1,0,0:0:0:0:
192,192,208269,1,0,0:0:0:70:1.wav
320,192,208269,1,0,0:0:0:0:
448,192,208385,1,0,0:0:0:70:1.wav
192,192,208442,1,0,0:0:0:0:
320,192,208500,1,0,0:0:0:70:1.wav
192,192,208615,1,0,0:0:0:70:1.wav
448,192,208615,1,0,0:0:0:0:
192,192,208731,1,0,0:0:0:70:1.wav
320,192,208731,128,0,208962:0:0:0:70:3.wav
448,192,208731,1,0,0:0:0:70:4.wav
448,192,208846,128,0,208962:0:0:0:0:
64,192,209077,128,0,209192:0:0:0:0:
192,192,209077,128,0,209192:0:0:0:0:
320,192,209308,128,0,209538:0:0:0:0:
192,192,209365,128,0,209538:0:0:0:0:
64,192,209423,128,0,209538:0:0:0:0:
448,192,209538,128,0,209654:0:0:0:0:
320,192,209654,128,0,209885:0:0:0:0:
192,192,209769,128,0,209885:0:0:0:0:
64,192,209885,128,0,210115:0:0:0:0:
192,192,210000,128,0,210115:0:0:0:0:
320,192,210115,128,0,210231:0:0:0:0:
448,192,210173,128,0,210231:0:0:0:0:
192,192,210231,128,0,210346:0:0:0:0:
64,192,210288,128,0,210346:0:0:0:0:
448,192,210346,128,0,210462:0:0:0:0:
320,192,210404,128,0,210577:0:0:0:0:
192,192,210462,128,0,210577:0:0:0:0:
64,192,210519,128,0,210577:0:0:0:0:
448,192,210577,128,0,210808:0:0:0:0:
320,192,210692,128,0,210808:0:0:0:0:
192,192,210923,128,0,211038:0:0:0:0:
320,192,210923,128,0,211038:0:0:0:0:
64,192,211154,128,0,211385:0:0:0:0:
192,192,211212,128,0,211385:0:0:0:0:
320,192,211269,128,0,211385:0:0:0:0:
448,192,211385,128,0,211615:0:0:0:0:
64,192,211500,128,0,211615:0:0:0:0:
192,192,211615,128,0,211731:0:0:0:0:
320,192,211673,128,0,211788:0:0:0:0:
64,192,211846,128,0,212077:0:0:0:0:
448,192,211962,128,0,212077:0:0:0:0:
320,192,212077,128,0,212192:0:0:0:0:
192,192,212135,128,0,212250:0:0:0:0:
448,192,212308,128,0,212423:0:0:0:0:
192,192,212423,128,0,212654:0:0:0:0:
320,192,212538,128,0,212654:0:0:0:0:
64,192,212769,128,0,212885:0:0:0:0:
448,192,212769,128,0,212885:0:0:0:0:
192,192,213000,128,0,213231:0:0:0:0:
320,192,213058,128,0,213231:0:0:0:0:
448,192,213115,128,0,213231:0:0:0:0:
64,192,213231,128,0,213346:0:0:0:0:
320,192,213346,128,0,213577:0:0:0:0:
192,192,213462,128,0,213577:0:0:0:0:
64,192,213577,128,0,213808:0:0:0:0:
192,192,213692,128,0,213808:0:0:0:0:
448,192,213808,128,0,213923:0:0:0:0:
320,192,213865,128,0,213923:0:0:0:0:
192,192,213923,128,0,214038:0:0:0:0:
64,192,213981,128,0,214038:0:0:0:0:
320,192,214038,128,0,214154:0:0:0:0:
448,192,214096,128,0,214154:0:0:0:0:
64,192,214154,128,0,214269:0:0:0:0:
192,192,214212,128,0,214269:0:0:0:0:
320,192,214269,128,0,214385:0:0:0:0:
448,192,214269,128,0,214385:0:0:0:0:
192,192,214385,128,0,214500:0:0:0:0:
64,192,214442,128,0,214500:0:0:0:0:
320,192,214500,128,0,214615:0:0:0:0:
448,192,214500,128,0,214615:0:0:0:0:
64,192,214615,128,0,214731:0:0:0:0:
192,192,214615,128,0,214731:0:0:0:0:
320,192,214731,128,0,214846:0:0:0:0:
192,192,214788,128,0,214846:0:0:0:0:
64,192,214846,128,0,214962:0:0:0:0:
448,192,214846,128,0,214962:0:0:0:0:
192,192,214962,128,0,215077:0:0:0:0:
320,192,214962,128,0,215077:0:0:0:0:
448,192,215077,128,0,215192:0:0:0:0:
320,192,215135,128,0,215192:0:0:0:0:
64,192,215192,128,0,215308:0:0:0:0:
192,192,215192,128,0,215308:0:0:0:0:
320,192,215308,128,0,215423:0:0:0:0:
448,192,215308,128,0,215423:0:0:0:0:
64,192,215423,128,0,215654:0:0:0:0:
448,192,215481,128,0,215885:0:0:0:0:
192,192,215538,128,0,215769:0:0:0:0:
320,192,215654,128,0,216000:0:0:0:0:
64,192,215769,128,0,216000:0:0:0:0:
192,192,215885,128,0,216000:0:0:0:0:
448,192,216000,128,0,216115:0:0:0:0:
64,192,216115,1,0,0:0:0:70:3.wav
192,192,216115,1,0,0:0:0:70:4.wav
320,192,216115,1,0,0:0:0:80:5.wav
64,192,216231,1,0,0:0:0:70:3.wav
448,192,216231,1,0,0:0:0:0:
320,192,216346,1,0,0:0:0:70:3.wav
448,192,216346,1,0,0:0:0:80:5.wav
64,192,216462,1,0,0:0:0:70:3.wav
320,192,216462,1,0,0:0:0:0:
64,192,216577,1,0,0:0:0:70:3.wav
192,192,216577,1,0,0:0:0:80:5.wav
320,192,216692,1,0,0:0:0:70:3.wav
448,192,216692,1,0,0:0:0:0:
192,192,216750,1,0,0:0:0:0:
64,192,216808,1,0,0:0:0:70:3.wav
320,192,216808,1,0,0:0:0:80:5.wav
448,192,216808,1,0,0:0:0:0:
64,192,216923,1,0,0:0:0:70:3.wav
192,192,216923,1,0,0:0:0:0:
192,192,217038,1,0,0:0:0:70:3.wav
320,192,217038,1,0,0:0:0:80:5.wav
448,192,217038,1,0,0:0:0:0:
64,192,217154,1,0,0:0:0:70:3.wav
320,192,217154,1,0,0:0:0:0:
64,192,217269,1,0,0:0:0:70:3.wav
192,192,217269,1,0,0:0:0:80:5.wav
448,192,217269,1,0,0:0:0:0:
320,192,217385,1,0,0:0:0:70:3.wav
448,192,217385,1,0,0:0:0:0:
64,192,217500,1,0,0:0:0:70:3.wav
192,192,217500,1,0,0:0:0:80:5.wav
320,192,217558,1,0,0:0:0:0:
192,192,217615,1,0,0:0:0:70:3.wav
448,192,217615,1,0,0:0:0:0:
64,192,217673,1,0,0:0:0:0:
320,192,217731,1,0,0:0:0:70:3.wav
448,192,217731,1,0,0:0:0:80:5.wav
192,192,217788,1,0,0:0:0:0:
320,192,217846,1,0,0:0:0:70:3.wav
448,192,217846,1,0,0:0:0:80:5.wav
192,192,217904,1,0,0:0:0:0:
320,192,217962,1,0,0:0:0:70:3.wav
448,192,217962,1,0,0:0:0:80:5.wav
192,192,218077,1,0,0:0:0:70:3.wav
320,192,218077,1,0,0:0:0:0:
64,192,218192,1,0,0:0:0:70:3.wav
448,192,218192,1,0,0:0:0:80:5.wav
64,192,218308,1,0,0:0:0:70:3.wav
320,192,218308,1,0,0:0:0:0:
320,192,218423,1,0,0:0:0:70:3.wav
448,192,218423,1,0,0:0:0:80:5.wav
64,192,218538,1,0,0:0:0:70:3.wav
192,192,218538,1,0,0:0:0:0:
448,192,218596,1,0,0:0:0:0:
64,192,218654,1,0,0:0:0:70:3.wav
192,192,218654,1,0,0:0:0:80:5.wav
320,192,218654,1,0,0:0:0:0:
320,192,218769,1,0,0:0:0:70:3.wav
448,192,218769,1,0,0:0:0:0:
64,192,218885,1,0,0:0:0:70:3.wav
192,192,218885,1,0,0:0:0:80:5.wav
448,192,218885,1,0,0:0:0:0:
320,192,219000,1,0,0:0:0:70:3.wav
448,192,219058,1,0,0:0:0:0:
64,192,219115,1,0,0:0:0:70:3.wav
192,192,219115,1,0,0:0:0:80:5.wav
64,192,219231,1,0,0:0:0:70:3.wav
448,192,219231,1,0,0:0:0:0:
192,192,219346,1,0,0:0:0:70:3.wav
320,192,219346,1,0,0:0:0:80:5.wav
448,192,219346,1,0,0:0:0:0:
64,192,219462,1,0,0:0:0:70:3.wav
192,192,219519,1,0,0:0:0:0:
320,192,219577,1,0,0:0:0:70:3.wav
448,192,219577,1,0,0:0:0:80:5.wav
192,192,219692,1,0,0:0:0:70:3.wav
320,192,219692,1,0,0:0:0:0:
64,192,219808,1,0,0:0:0:70:3.wav
192,192,219808,1,0,0:0:0:70:4.wav
448,192,219808,1,0,0:0:0:0:
320,192,219865,1,0,0:0:0:0:
64,192,219923,1,0,0:0:0:0:
448,192,219923,1,0,0:0:0:0:
192,192,219981,1,0,0:0:0:0:
320,192,220038,1,0,0:0:0:0:
448,192,220038,1,0,0:0:0:0:
64,192,220096,1,0,0:0:0:0:
192,192,220154,1,0,0:0:0:0:
320,192,220154,1,0,0:0:0:0:
448,192,220212,1,0,0:0:0:0:
64,192,220269,1,0,0:0:0:0:
192,192,220327,1,0,0:0:0:0:
320,192,220385,1,0,0:0:0:0:
448,192,220385,1,0,0:0:0:0:
64,192,220442,1,0,0:0:0:0:
192,192,220442,1,0,0:0:0:0:
320,192,220500,1,0,0:0:0:0:
448,192,220500,1,0,0:0:0:0:
64,192,220558,1,0,0:0:0:0:
192,192,220615,1,0,0:0:0:0:
320,192,220615,1,0,0:0:0:0:
448,192,220673,1,0,0:0:0:0:
64,192,220731,1,0,0:0:0:0:
192,192,220731,1,0,0:0:0:0:
320,192,220788,1,0,0:0:0:0:
64,192,220846,1,0,0:0:0:0:
448,192,220846,1,0,0:0:0:0:
192,192,220904,1,0,0:0:0:0:
320,192,220962,1,0,0:0:0:0:
448,192,220962,1,0,0:0:0:0:
64,192,221019,1,0,0:0:0:0:
192,192,221077,1,0,0:0:0:0:
320,192,221077,1,0,0:0:0:0:
448,192,221135,1,0,0:0:0:0:
64,192,221192,1,0,0:0:0:0:
192,192,221192,1,0,0:0:0:0:
320,192,221250,1,0,0:0:0:0:
448,192,221308,1,0,0:0:0:0:
64,192,221365,1,0,0:0:0:0:
192,192,221365,1,0,0:0:0:0:
320,192,221423,1,0,0:0:0:0:
64,192,221481,1,0,0:0:0:0:
448,192,221538,1,0,0:0:0:0:
320,192,221538,1,0,0:0:0:0:
192,192,221596,1,0,0:0:0:0:
64,192,221654,1,0,0:0:0:0:
448,192,221654,128,0,221769:0:0:0:0:
320,192,221712,1,0,0:0:0:0:
64,192,221769,1,0,0:0:0:0:
320,192,221827,1,0,0:0:0:0:
192,192,221885,128,0,222000:0:0:0:0:
320,192,222000,128,0,222115:0:0:0:0:
64,192,222115,1,0,0:0:0:0:
448,192,222115,1,0,0:0:0:0:
192,192,222173,1,0,0:0:0:0:
448,192,222231,128,0,222346:0:0:0:0:
192,192,222288,1,0,0:0:0:0:
320,192,222346,128,0,222462:0:0:0:0:
64,192,222462,128,0,222577:0:0:0:0:
192,192,222577,128,0,222692:0:0:0:0:
448,192,222577,128,0,223500:0:0:0:0:
64,192,222750,128,0,222865:0:0:0:0:
320,192,222923,128,0,223038:0:0:0:0:
192,192,223038,128,0,223154:0:0:0:0:
64,192,223212,128,0,223327:0:0:0:0:
320,192,223385,128,0,223500:0:0:0:0:
64,192,223500,128,0,225115:0:0:0:70:3.wav
192,192,223500,1,0,0:0:0:0:
448,192,223615,1,0,0:0:0:0:
320,192,223846,1,0,0:0:0:0:
192,192,224077,1,0,0:0:0:0:
320,192,224192,1,0,0:0:0:0:
448,192,224308,1,0,0:0:0:0:
192,192,224423,1,0,0:0:0:70:1.wav
320,192,224423,1,0,0:0:0:0:
448,192,224481,1,0,0:0:0:0:
320,192,224538,1,0,0:0:0:0:
192,192,224596,1,0,0:0:0:0:
320,192,224654,1,0,0:0:0:70:1.wav
448,192,224654,1,0,0:0:0:0:
192,192,224712,1,0,0:0:0:0:
448,192,224769,1,0,0:0:0:0:
320,192,224827,1,0,0:0:0:0:
192,192,224885,1,0,0:0:0:70:1.wav
448,192,224885,1,0,0:0:0:0:
320,192,224942,1,0,0:0:0:0:
192,192,225000,1,0,0:0:0:0:
448,192,225058,1,0,0:0:0:0:
192,192,225115,1,0,0:0:0:70:1.wav
320,192,225115,1,0,0:0:0:70:6.wav
64,192,225346,1,0,0:0:0:70:3.wav
320,192,225346,1,0,0:0:0:70:4.wav
448,192,225346,1,0,0:0:0:0:
64,192,225462,1,0,0:0:0:70:3.wav
192,192,225462,1,0,0:0:0:0:
320,192,225462,1,0,0:0:0:0:
192,192,225577,1,0,0:0:0:70:3.wav
448,192,225577,1,0,0:0:0:0:
64,192,225692,1,0,0:0:0:70:3.wav
320,192,225692,1,0,0:0:0:0:
448,192,225692,1,0,0:0:0:0:
192,192,225808,1,0,0:0:0:70:3.wav
320,192,225808,1,0,0:0:0:0:
64,192,225923,1,0,0:0:0:70:3.wav
448,192,225923,1,0,0:0:0:0:
320,192,225981,1,0,0:0:0:0:
64,192,226038,1,0,0:0:0:70:3.wav
192,192,226038,1,0,0:0:0:0:
448,192,226038,1,0,0:0:0:0:
64,192,226154,1,0,0:0:0:70:3.wav
192,192,226154,1,0,0:0:0:0:
320,192,226154,1,0,0:0:0:0:
192,192,226269,1,0,0:0:0:70:3.wav
320,192,226269,1,0,0:0:0:0:
448,192,226269,1,0,0:0:0:0:
64,192,226385,1,0,0:0:0:70:3.wav
320,192,226385,1,0,0:0:0:0:
448,192,226385,1,0,0:0:0:0:
64,192,226500,1,0,0:0:0:70:3.wav
192,192,226500,1,0,0:0:0:0:
448,192,226500,1,0,0:0:0:0:
64,192,226615,1,0,0:0:0:70:3.wav
192,192,226615,1,0,0:0:0:0:
320,192,226615,1,0,0:0:0:0:
192,192,226731,1,0,0:0:0:70:3.wav
448,192,226731,1,0,0:0:0:0:
320,192,226788,1,0,0:0:0:0:
64,192,226846,1,0,0:0:0:70:3.wav
448,192,226846,1,0,0:0:0:0:
192,192,226904,1,0,0:0:0:0:
64,192,226962,1,0,0:0:0:70:3.wav
320,192,226962,1,0,0:0:0:0:
192,192,227019,1,0,0:0:0:0:
320,192,227077,1,0,0:0:0:70:3.wav
448,192,227077,1,0,0:0:0:0:
64,192,227135,1,0,0:0:0:70:3.wav
192,192,227135,1,0,0:0:0:0:
320,192,227192,1,0,0:0:0:70:3.wav
448,192,227192,1,0,0:0:0:0:
64,192,227308,1,0,0:0:0:70:3.wav
192,192,227308,1,0,0:0:0:0:
448,192,227308,1,0,0:0:0:0:
64,192,227423,1,0,0:0:0:70:3.wav
320,192,227423,1,0,0:0:0:0:
192,192,227538,1,0,0:0:0:70:3.wav
320,192,227538,1,0,0:0:0:0:
448,192,227538,1,0,0:0:0:0:
64,192,227654,1,0,0:0:0:70:3.wav
192,192,227654,1,0,0:0:0:0:
320,192,227769,1,0,0:0:0:70:3.wav
448,192,227769,1,0,0:0:0:0:
192,192,227827,1,0,0:0:0:0:
64,192,227885,1,0,0:0:0:70:3.wav
320,192,227885,1,0,0:0:0:0:
448,192,227885,1,0,0:0:0:0:
64,192,228000,1,0,0:0:0:70:3.wav
192,192,228000,1,0,0:0:0:0:
448,192,228000,1,0,0:0:0:0:
64,192,228115,1,0,0:0:0:70:3.wav
192,192,228115,1,0,0:0:0:0:
320,192,228115,1,0,0:0:0:0:
320,192,228231,1,0,0:0:0:70:3.wav
448,192,228231,1,0,0:0:0:0:
64,192,228288,1,0,0:0:0:0:
192,192,228346,1,0,0:0:0:70:3.wav
448,192,228346,1,0,0:0:0:0:
64,192,228462,1,0,0:0:0:70:3.wav
192,192,228462,1,0,0:0:0:0:
320,192,228462,1,0,0:0:0:0:
64,192,228577,1,0,0:0:0:70:3.wav
320,192,228577,1,0,0:0:0:0:
448,192,228577,1,0,0:0:0:0:
192,192,228692,1,0,0:0:0:70:3.wav
448,192,228692,1,0,0:0:0:0:
64,192,228750,1,0,0:0:0:0:
320,192,228808,1,0,0:0:0:70:3.wav
448,192,228808,1,0,0:0:0:0:
64,192,228865,1,0,0:0:0:70:3.wav
192,192,228865,1,0,0:0:0:0:
320,192,228923,1,0,0:0:0:70:3.wav
448,192,228923,1,0,0:0:0:0:
64,192,228981,1,0,0:0:0:70:3.wav
192,192,228981,1,0,0:0:0:0:
320,192,229038,1,0,0:0:0:70:3.wav
448,192,229038,1,0,0:0:0:0:
64,192,229154,1,0,0:0:0:70:3.wav
192,192,229154,1,0,0:0:0:0:
320,192,229154,1,0,0:0:0:0:
64,192,229269,1,0,0:0:0:70:3.wav
448,192,229269,1,0,0:0:0:0:
192,192,229385,1,0,0:0:0:70:3.wav
320,192,229385,1,0,0:0:0:0:
448,192,229385,1,0,0:0:0:0:
64,192,229500,1,0,0:0:0:70:3.wav
320,192,229500,1,0,0:0:0:0:
192,192,229615,1,0,0:0:0:70:3.wav
448,192,229615,1,0,0:0:0:0:
320,192,229673,1,0,0:0:0:0:
64,192,229731,1,0,0:0:0:70:3.wav
192,192,229731,1,0,0:0:0:0:
448,192,229731,1,0,0:0:0:0:
64,192,229846,1,0,0:0:0:70:3.wav
192,192,229846,1,0,0:0:0:0:
320,192,229846,1,0,0:0:0:0:
64,192,229962,1,0,0:0:0:70:3.wav
320,192,229962,1,0,0:0:0:0:
448,192,229962,1,0,0:0:0:0:
192,192,230077,1,0,0:0:0:70:3.wav
320,192,230077,1,0,0:0:0:0:
448,192,230077,1,0,0:0:0:0:
64,192,230192,1,0,0:0:0:70:3.wav
192,192,230192,1,0,0:0:0:0:
448,192,230192,1,0,0:0:0:0:
64,192,230308,1,0,0:0:0:70:3.wav
192,192,230308,1,0,0:0:0:0:
320,192,230308,1,0,0:0:0:0:
320,192,230423,1,0,0:0:0:70:3.wav
448,192,230423,1,0,0:0:0:0:
64,192,230481,1,0,0:0:0:0:
192,192,230538,1,0,0:0:0:70:3.wav
448,192,230538,1,0,0:0:0:0:
320,192,230596,1,0,0:0:0:0:
64,192,230654,1,0,0:0:0:70:3.wav
448,192,230654,1,0,0:0:0:0:
320,192,230712,1,0,0:0:0:0:
64,192,230769,1,0,0:0:0:70:3.wav
192,192,230769,1,0,0:0:0:0:
320,192,230827,1,0,0:0:0:70:3.wav
448,192,230827,1,0,0:0:0:0:
64,192,230885,1,0,0:0:0:70:3.wav
192,192,230885,1,0,0:0:0:0:
320,192,230942,1,0,0:0:0:70:3.wav
448,192,230942,1,0,0:0:0:0:
64,192,231000,1,0,0:0:0:70:3.wav
192,192,231000,1,0,0:0:0:0:
320,192,231058,1,0,0:0:0:0:
64,192,231115,1,0,0:0:0:70:3.wav
192,192,231115,1,0,0:0:0:0:
448,192,231115,1,0,0:0:0:0:
320,192,231231,1,0,0:0:0:70:3.wav
448,192,231231,1,0,0:0:0:0:
64,192,231288,1,0,0:0:0:70:3.wav
192,192,231288,1,0,0:0:0:0:
320,192,231346,1,0,0:0:0:70:3.wav
448,192,231346,1,0,0:0:0:0:
192,192,231404,1,0,0:0:0:0:
64,192,231462,1,0,0:0:0:70:3.wav
320,192,231462,1,0,0:0:0:0:
448,192,231462,1,0,0:0:0:0:
64,192,231577,1,0,0:0:0:70:3.wav
192,192,231577,1,0,0:0:0:0:
320,192,231635,1,0,0:0:0:70:3.wav
448,192,231635,1,0,0:0:0:0:
64,192,231692,1,0,0:0:0:70:3.wav
192,192,231692,1,0,0:0:0:0:
448,192,231750,1,0,0:0:0:0:
64,192,231808,1,0,0:0:0:70:3.wav
192,192,231808,1,0,0:0:0:0:
320,192,231808,1,0,0:0:0:0:
320,192,231923,1,0,0:0:0:70:3.wav
448,192,231923,1,0,0:0:0:0:
64,192,231981,1,0,0:0:0:70:3.wav
192,192,231981,1,0,0:0:0:0:
320,192,232038,1,0,0:0:0:70:3.wav
448,192,232038,1,0,0:0:0:0:
64,192,232096,1,0,0:0:0:0:
192,192,232154,1,0,0:0:0:70:3.wav
320,192,232154,1,0,0:0:0:0:
448,192,232154,1,0,0:0:0:0:
64,192,232269,1,0,0:0:0:70:3.wav
192,192,232269,1,0,0:0:0:0:
320,192,232327,1,0,0:0:0:70:3.wav
448,192,232327,1,0,0:0:0:0:
64,192,232385,1,0,0:0:0:70:3.wav
192,192,232385,1,0,0:0:0:0:
320,192,232442,1,0,0:0:0:70:3.wav
448,192,232442,1,0,0:0:0:0:
64,192,232500,1,0,0:0:0:70:3.wav
192,192,232529,1,0,0:0:0:0:
320,192,232558,1,0,0:0:0:0:
448,192,232587,1,0,0:0:0:0:
64,192,232615,1,0,0:0:0:0:
192,192,232644,1,0,0:0:0:0:
320,192,232673,1,0,0:0:0:0:
448,192,232702,1,0,0:0:0:0:
64,192,232731,1,0,0:0:0:70:3.wav
192,192,232731,1,0,0:0:0:70:4.wav
64,192,232846,1,0,0:0:0:70:3.wav
320,192,232846,1,0,0:0:0:0:
448,192,232846,1,0,0:0:0:0:
192,192,232962,1,0,0:0:0:70:3.wav
320,192,232962,1,0,0:0:0:0:
64,192,233077,1,0,0:0:0:70:3.wav
192,192,233077,1,0,0:0:0:0:
448,192,233077,1,0,0:0:0:0:
320,192,233192,1,0,0:0:0:70:3.wav
448,192,233192,1,0,0:0:0:0:
64,192,233308,1,0,0:0:0:70:3.wav
192,192,233308,1,0,0:0:0:0:
320,192,233365,1,0,0:0:0:0:
64,192,233423,1,0,0:0:0:70:3.wav
192,192,233423,1,0,0:0:0:0:
448,192,233423,1,0,0:0:0:0:
320,192,233538,1,0,0:0:0:70:3.wav
448,192,233538,1,0,0:0:0:0:
64,192,233596,1,0,0:0:0:70:3.wav
192,192,233596,1,0,0:0:0:0:
320,192,233654,1,0,0:0:0:70:3.wav
448,192,233654,1,0,0:0:0:0:
64,192,233769,1,0,0:0:0:70:3.wav
192,192,233769,1,0,0:0:0:0:
320,192,233769,1,0,0:0:0:0:
64,192,233885,1,0,0:0:0:70:3.wav
192,192,233885,1,0,0:0:0:0:
448,192,233885,1,0,0:0:0:0:
64,192,234000,1,0,0:0:0:70:3.wav
320,192,234000,1,0,0:0:0:0:
448,192,234000,1,0,0:0:0:0:
64,192,234115,1,0,0:0:0:70:3.wav
192,192,234115,1,0,0:0:0:0:
320,192,234173,1,0,0:0:0:70:3.wav
448,192,234173,1,0,0:0:0:0:
64,192,234231,1,0,0:0:0:70:3.wav
192,192,234231,1,0,0:0:0:0:
320,192,234288,1,0,0:0:0:70:3.wav
448,192,234288,1,0,0:0:0:0:
64,192,234346,1,0,0:0:0:70:3.wav
192,192,234346,1,0,0:0:0:0:
448,192,234462,1,0,0:0:0:0:
320,192,234490,1,0,0:0:0:0:
192,192,234519,1,0,0:0:0:0:
64,192,234548,1,0,0:0:0:0:
320,192,234577,1,0,0:0:0:70:3.wav
448,192,234577,1,0,0:0:0:0:
64,192,234692,1,0,0:0:0:70:3.wav
192,192,234692,1,0,0:0:0:0:
448,192,234692,1,0,0:0:0:0:
192,192,234808,1,0,0:0:0:70:3.wav
320,192,234808,1,0,0:0:0:0:
64,192,234923,1,0,0:0:0:70:3.wav
320,192,234923,1,0,0:0:0:0:
448,192,234923,1,0,0:0:0:0:
64,192,235038,1,0,0:0:0:70:3.wav
192,192,235038,1,0,0:0:0:0:
320,192,235154,1,0,0:0:0:70:3.wav
448,192,235154,1,0,0:0:0:0:
64,192,235212,1,0,0:0:0:0:
192,192,235269,1,0,0:0:0:70:3.wav
320,192,235269,1,0,0:0:0:0:
448,192,235269,1,0,0:0:0:0:
64,192,235385,1,0,0:0:0:70:3.wav
192,192,235385,1,0,0:0:0:0:
320,192,235442,1,0,0:0:0:70:3.wav
448,192,235442,1,0,0:0:0:0:
64,192,235500,1,0,0:0:0:70:3.wav
192,192,235500,1,0,0:0:0:0:
320,192,235615,1,0,0:0:0:70:3.wav
448,192,235615,1,0,0:0:0:0:
64,192,235673,1,0,0:0:0:70:3.wav
192,192,235673,1,0,0:0:0:0:
320,192,235731,1,0,0:0:0:0:
64,192,235788,1,0,0:0:0:70:3.wav
192,192,235788,1,0,0:0:0:0:
320,192,235846,1,0,0:0:0:70:3.wav
448,192,235846,1,0,0:0:0:0:
64,192,235962,1,0,0:0:0:70:3.wav
192,192,235962,1,0,0:0:0:0:
320,192,236019,1,0,0:0:0:70:3.wav
448,192,236019,1,0,0:0:0:0:
192,192,236077,1,0,0:0:0:0:
320,192,236135,1,0,0:0:0:70:3.wav
448,192,236135,1,0,0:0:0:0:
64,192,236192,1,0,0:0:0:70:3.wav
192,192,236192,1,0,0:0:0:0:
448,192,236250,1,0,0:0:0:0:
64,192,236308,1,0,0:0:0:0:
320,192,236308,1,0,0:0:0:0:
192,192,236423,1,0,0:0:0:70:3.wav
320,192,236423,1,0,0:0:0:0:
448,192,236423,1,0,0:0:0:0:
64,192,236538,1,0,0:0:0:70:3.wav
192,192,236538,1,0,0:0:0:0:
320,192,236596,1,0,0:0:0:70:3.wav
448,192,236596,1,0,0:0:0:0:
64,192,236654,1,0,0:0:0:70:3.wav
192,192,236654,1,0,0:0:0:0:
64,192,236769,1,0,0:0:0:70:3.wav
320,192,236769,1,0,0:0:0:0:
448,192,236769,1,0,0:0:0:0:
64,192,236885,1,0,0:0:0:70:3.wav
192,192,236885,1,0,0:0:0:0:
320,192,236942,1,0,0:0:0:70:3.wav
448,192,236942,1,0,0:0:0:0:
64,192,237000,1,0,0:0:0:70:3.wav
192,192,237000,1,0,0:0:0:0:
320,192,237058,1,0,0:0:0:0:
64,192,237115,1,0,0:0:0:70:3.wav
192,192,237115,1,0,0:0:0:0:
448,192,237115,1,0,0:0:0:0:
320,192,237231,1,0,0:0:0:70:3.wav
448,192,237231,1,0,0:0:0:0:
64,192,237288,1,0,0:0:0:70:3.wav
192,192,237288,1,0,0:0:0:0:
320,192,237346,1,0,0:0:0:70:3.wav
448,192,237346,1,0,0:0:0:0:
64,192,237462,1,0,0:0:0:70:3.wav
192,192,237462,1,0,0:0:0:0:
448,192,237462,1,0,0:0:0:0:
320,192,237577,1,0,0:0:0:70:3.wav
448,192,237577,1,0,0:0:0:0:
64,192,237635,1,0,0:0:0:70:3.wav
192,192,237635,1,0,0:0:0:0:
320,192,237692,1,0,0:0:0:70:3.wav
448,192,237692,1,0,0:0:0:0:
64,192,237750,1,0,0:0:0:70:3.wav
192,192,237750,1,0,0:0:0:0:
320,192,237808,1,0,0:0:0:70:3.wav
448,192,237808,1,0,0:0:0:0:
64,192,237923,1,0,0:0:0:0:
192,192,237952,1,0,0:0:0:0:
320,192,237981,1,0,0:0:0:0:
448,192,238010,1,0,0:0:0:0:
64,192,238038,1,0,0:0:0:70:3.wav
192,192,238038,1,0,0:0:0:0:
448,192,238154,1,0,0:0:0:0:
320,192,238183,1,0,0:0:0:0:
192,192,238212,1,0,0:0:0:0:
64,192,238240,1,0,0:0:0:0:
320,192,238269,1,0,0:0:0:70:3.wav
448,192,238269,1,0,0:0:0:0:
64,192,238385,1,0,0:0:0:0:
192,192,238413,1,0,0:0:0:0:
320,192,238442,1,0,0:0:0:0:
448,192,238471,1,0,0:0:0:0:
64,192,238500,1,0,0:0:0:70:3.wav
192,192,238500,1,0,0:0:0:0:
192,192,238615,1,0,0:0:0:70:3.wav
320,192,238615,1,0,0:0:0:0:
448,192,238615,1,0,0:0:0:0:
64,192,238731,1,0,0:0:0:0:
320,192,238731,1,0,0:0:0:0:
64,192,238846,1,0,0:0:0:70:3.wav
192,192,238846,1,0,0:0:0:0:
448,192,238846,1,0,0:0:0:0:
192,192,238962,1,0,0:0:0:70:3.wav
320,192,238962,1,0,0:0:0:0:
448,192,238962,1,0,0:0:0:0:
64,192,239077,1,0,0:0:0:0:
192,192,239106,1,0,0:0:0:0:
320,192,239135,1,0,0:0:0:0:
448,192,239163,1,0,0:0:0:0:
64,192,239192,1,0,0:0:0:70:3.wav
192,192,239192,1,0,0:0:0:0:
64,192,239308,1,0,0:0:0:0:
320,192,239308,1,0,0:0:0:0:
192,192,239365,1,0,0:0:0:0:
320,192,239423,1,0,0:0:0:70:3.wav
448,192,239423,1,0,0:0:0:0:
192,192,239538,1,0,0:0:0:0:
448,192,239538,1,0,0:0:0:0:
320,192,239596,1,0,0:0:0:0:
64,192,239654,1,0,0:0:0:0:
192,192,239654,1,0,0:0:0:0:
320,192,239712,1,0,0:0:0:0:
448,192,239712,1,0,0:0:0:0:
64,192,239769,1,0,0:0:0:0:
192,192,239769,1,0,0:0:0:0:
320,192,239827,1,0,0:0:0:0:
448,192,239827,1,0,0:0:0:0:
64,192,239885,1,0,0:0:0:0:
192,192,239913,1,0,0:0:0:0:
320,192,239942,1,0,0:0:0:0:
448,192,239971,1,0,0:0:0:0:
64,192,240000,1,0,0:0:0:0:
192,192,240029,1,0,0:0:0:0:
320,192,240058,1,0,0:0:0:0:
448,192,240087,1,0,0:0:0:0:
64,192,240115,128,0,243808:0:0:0:70:3.wav
192,192,240115,128,0,241962:0:0:0:70:4.wav
448,192,242885,128,0,243808:0:0:0:0:
192,192,243808,128,0,244038:0:0:0:70:3.wav
320,192,243808,1,0,0:0:0:70:4.wav
64,192,244038,1,0,0:0:0:0:
192,192,244154,128,0,244269:0:0:0:0:
320,192,244269,128,0,244385:0:0:0:0:
448,192,244269,128,0,245654:0:0:0:0:
64,192,244385,1,0,0:0:0:0:
192,192,244442,1,0,0:0:0:0:
320,192,244500,128,0,244615:0:0:0:0:
64,192,244615,128,0,245192:0:0:0:0:
192,192,244731,1,0,0:0:0:70:3.wav
320,192,244731,1,0,0:0:0:70:4.wav
320,192,245192,128,0,245654:0:0:0:0:
64,192,245654,1,0,0:0:0:70:3.wav
192,192,245654,1,0,0:0:0:70:4.wav
64,192,245769,1,0,0:0:0:70:3.wav
320,192,245769,1,0,0:0:0:0:
448,192,245769,1,0,0:0:0:0:
64,192,245885,1,0,0:0:0:70:3.wav
192,192,245885,1,0,0:0:0:0:
320,192,245885,1,0,0:0:0:0:
192,192,246000,1,0,0:0:0:70:3.wav
320,192,246000,1,0,0:0:0:0:
448,192,246000,1,0,0:0:0:0:
64,192,246115,1,0,0:0:0:70:3.wav
192,192,246115,1,0,0:0:0:0:
448,192,246115,1,0,0:0:0:0:
64,192,246231,1,0,0:0:0:70:3.wav
320,192,246231,1,0,0:0:0:0:
448,192,246231,1,0,0:0:0:0:
64,192,246346,1,0,0:0:0:70:3.wav
192,192,246346,1,0,0:0:0:0:
320,192,246346,1,0,0:0:0:0:
192,192,246462,1,0,0:0:0:70:3.wav
320,192,246462,1,0,0:0:0:0:
448,192,246462,1,0,0:0:0:0:
64,192,246577,1,0,0:0:0:70:3.wav
192,192,246577,1,0,0:0:0:0:
320,192,246635,1,0,0:0:0:70:3.wav
448,192,246635,1,0,0:0:0:0:
64,192,246692,1,0,0:0:0:70:3.wav
192,192,246692,1,0,0:0:0:0:
320,192,246750,1,0,0:0:0:70:3.wav
448,192,246750,1,0,0:0:0:0:
64,192,246808,1,0,0:0:0:70:3.wav
192,192,246808,1,0,0:0:0:0:
320,192,246865,1,0,0:0:0:70:3.wav
448,192,246865,1,0,0:0:0:0:
64,192,246923,1,0,0:0:0:70:3.wav
192,192,246923,1,0,0:0:0:0:
320,192,246981,1,0,0:0:0:70:3.wav
448,192,246981,1,0,0:0:0:0:
64,192,247038,1,0,0:0:0:70:3.wav
192,192,247038,1,0,0:0:0:0:
320,192,247096,1,0,0:0:0:70:3.wav
448,192,247096,1,0,0:0:0:0:
64,192,247154,1,0,0:0:0:70:3.wav
192,192,247154,1,0,0:0:0:0:
320,192,247212,1,0,0:0:0:70:3.wav
448,192,247212,1,0,0:0:0:0:
64,192,247269,1,0,0:0:0:70:3.wav
192,192,247269,1,0,0:0:0:0:
320,192,247327,1,0,0:0:0:70:3.wav
448,192,247327,1,0,0:0:0:0:
64,192,247385,1,0,0:0:0:70:3.wav
192,192,247385,1,0,0:0:0:0:
320,192,247442,1,0,0:0:0:70:3.wav
448,192,247442,1,0,0:0:0:0:
64,192,247500,128,0,248423:0:0:0:0:
192,192,247500,1,0,0:0:0:0:
448,192,248077,1,0,0:0:0:0:
320,192,248192,1,0,0:0:0:0:
448,192,248308,1,0,0:0:0:0:
320,192,248423,128,0,249115:0:0:0:0:
192,192,248654,128,0,249346:0:0:0:0:
64,192,249115,128,0,249346:0:0:0:70:6.wav
448,192,249115,1,0,0:0:0:0:
320,192,249346,1,0,0:0:0:70:3.wav
448,192,249346,1,0,0:0:0:70:4.wav
192,192,249404,1,0,0:0:0:70:3.wav
64,192,249462,1,0,0:0:0:70:3.wav
448,192,249462,1,0,0:0:0:0:
320,192,249519,1,0,0:0:0:70:3.wav
64,192,249577,1,0,0:0:0:70:3.wav
192,192,249577,1,0,0:0:0:0:
448,192,249635,1,0,0:0:0:70:3.wav
192,192,249692,1,0,0:0:0:70:3.wav
64,192,249750,1,0,0:0:0:70:3.wav
320,192,249808,1,0,0:0:0:70:3.wav
448,192,249808,1,0,0:0:0:0:
192,192,249865,1,0,0:0:0:70:3.wav
64,192,249923,1,0,0:0:0:70:3.wav
448,192,249923,1,0,0:0:0:0:
320,192,249981,1,0,0:0:0:70:3.wav
64,192,250038,1,0,0:0:0:70:3.wav
192,192,250038,1,0,0:0:0:0:
448,192,250096,1,0,0:0:0:70:3.wav
192,192,250154,1,0,0:0:0:70:3.wav
320,192,250212,1,0,0:0:0:70:3.wav
64,192,250269,1,0,0:0:0:70:3.wav
448,192,250269,1,0,0:0:0:0:
192,192,250327,1,0,0:0:0:70:3.wav
320,192,250385,1,0,0:0:0:70:3.wav
64,192,250442,1,0,0:0:0:70:3.wav
192,192,250500,1,0,0:0:0:70:3.wav
448,192,250500,1,0,0:0:0:0:
320,192,250558,1,0,0:0:0:70:3.wav
64,192,250615,1,0,0:0:0:70:3.wav
448,192,250673,1,0,0:0:0:70:3.wav
64,192,250731,1,0,0:0:0:70:3.wav
320,192,250731,1,0,0:0:0:0:
192,192,250788,1,0,0:0:0:70:3.wav
320,192,250846,1,0,0:0:0:70:3.wav
448,192,250846,1,0,0:0:0:0:
192,192,250904,1,0,0:0:0:70:3.wav
64,192,250962,1,0,0:0:0:70:3.wav
448,192,250962,1,0,0:0:0:0:
320,192,251019,1,0,0:0:0:70:3.wav
192,192,251077,1,0,0:0:0:70:3.wav
448,192,251135,1,0,0:0:0:70:3.wav
64,192,251192,1,0,0:0:0:70:3.wav
192,192,251192,1,0,0:0:0:0:
320,192,251250,1,0,0:0:0:70:3.wav
64,192,251308,1,0,0:0:0:70:3.wav
448,192,251308,1,0,0:0:0:0:
192,192,251365,1,0,0:0:0:70:3.wav
320,192,251423,1,0,0:0:0:70:3.wav
448,192,251423,1,0,0:0:0:0:
64,192,251481,1,0,0:0:0:70:3.wav
320,192,251538,1,0,0:0:0:70:3.wav
448,192,251596,1,0,0:0:0:70:3.wav
64,192,251654,1,0,0:0:0:70:3.wav
192,192,251654,1,0,0:0:0:0:
320,192,251712,1,0,0:0:0:70:3.wav
64,192,251769,1,0,0:0:0:70:3.wav
448,192,251769,1,0,0:0:0:0:
192,192,251827,1,0,0:0:0:70:3.wav
320,192,251885,1,0,0:0:0:70:3.wav
448,192,251885,1,0,0:0:0:0:
64,192,251942,1,0,0:0:0:70:3.wav
192,192,252000,1,0,0:0:0:70:3.wav
448,192,252058,1,0,0:0:0:70:3.wav
192,192,252115,1,0,0:0:0:70:3.wav
320,192,252115,1,0,0:0:0:0:
64,192,252173,1,0,0:0:0:70:3.wav
448,192,252231,1,0,0:0:0:70:3.wav
192,192,252288,1,0,0:0:0:70:3.wav
64,192,252346,1,0,0:0:0:70:3.wav
448,192,252346,1,0,0:0:0:0:
320,192,252404,1,0,0:0:0:70:3.wav
192,192,252462,1,0,0:0:0:70:3.wav
64,192,252519,1,0,0:0:0:70:3.wav
320,192,252577,1,0,0:0:0:70:3.wav
448,192,252635,1,0,0:0:0:70:3.wav
64,192,252692,1,0,0:0:0:70:3.wav
192,192,252692,1,0,0:0:0:0:
320,192,252750,1,0,0:0:0:70:3.wav
64,192,252808,1,0,0:0:0:70:3.wav
448,192,252808,1,0,0:0:0:0:
192,192,252865,1,0,0:0:0:70:3.wav
320,192,252923,1,0,0:0:0:70:3.wav
64,192,252981,1,0,0:0:0:70:3.wav
320,192,253038,1,0,0:0:0:70:3.wav
448,192,253038,1,0,0:0:0:0:
192,192,253096,1,0,0:0:0:70:3.wav
64,192,253154,1,0,0:0:0:70:3.wav
448,192,253154,1,0,0:0:0:0:
320,192,253212,1,0,0:0:0:70:3.wav
64,192,253269,1,0,0:0:0:70:3.wav
192,192,253269,1,0,0:0:0:0:
448,192,253327,1,0,0:0:0:70:3.wav
192,192,253385,1,0,0:0:0:70:3.wav
64,192,253442,1,0,0:0:0:70:3.wav
320,192,253500,1,0,0:0:0:70:3.wav
448,192,253500,1,0,0:0:0:0:
192,192,253558,1,0,0:0:0:70:3.wav
64,192,253615,1,0,0:0:0:70:3.wav
448,192,253615,1,0,0:0:0:0:
320,192,253673,1,0,0:0:0:70:3.wav
64,192,253731,1,0,0:0:0:70:3.wav
192,192,253731,1,0,0:0:0:0:
448,192,253788,1,0,0:0:0:70:3.wav
320,192,253846,1,0,0:0:0:70:3.wav
64,192,253904,1,0,0:0:0:70:3.wav
192,192,253962,1,0,0:0:0:70:3.wav
448,192,253962,1,0,0:0:0:0:
320,192,254019,1,0,0:0:0:70:3.wav
64,192,254077,1,0,0:0:0:70:3.wav
448,192,254135,1,0,0:0:0:70:3.wav
192,192,254192,1,0,0:0:0:70:3.wav
320,192,254192,1,0,0:0:0:0:
64,192,254250,1,0,0:0:0:70:3.wav
192,192,254308,1,0,0:0:0:70:3.wav
448,192,254365,1,0,0:0:0:70:3.wav
64,192,254423,1,0,0:0:0:70:3.wav
320,192,254423,1,0,0:0:0:0:
192,192,254481,1,0,0:0:0:70:3.wav
320,192,254538,1,0,0:0:0:70:3.wav
448,192,254538,1,0,0:0:0:0:
64,192,254596,1,0,0:0:0:70:3.wav
192,192,254654,1,0,0:0:0:70:3.wav
448,192,254654,1,0,0:0:0:0:
320,192,254712,1,0,0:0:0:70:3.wav
64,192,254769,1,0,0:0:0:70:3.wav
448,192,254827,1,0,0:0:0:70:3.wav
192,192,254885,1,0,0:0:0:70:3.wav
320,192,254942,1,0,0:0:0:70:3.wav
64,192,255000,1,0,0:0:0:70:3.wav
192,192,255058,1,0,0:0:0:70:3.wav
64,192,255115,1,0,0:0:0:70:6.wav
448,192,255115,128,0,255231:0:0:0:0:
320,192,255231,128,0,255346:0:0:0:0:
64,192,255346,1,0,0:0:0:70:3.wav
192,192,255346,1,0,0:0:0:0:
320,192,255404,1,0,0:0:0:70:3.wav
448,192,255404,1,0,0:0:0:0:
64,192,255462,1,0,0:0:0:70:6.wav
192,192,255490,1,0,0:0:0:0:
320,192,255519,1,0,0:0:0:0:
448,192,255548,1,0,0:0:0:0:
64,192,255577,1,0,0:0:0:70:3.wav
192,192,255577,1,0,0:0:0:0:
320,192,255635,1,0,0:0:0:70:3.wav
448,192,255635,1,0,0:0:0:0:
64,192,255692,1,0,0:0:0:70:6.wav
192,192,255721,1,0,0:0:0:0:
320,192,255750,1,0,0:0:0:0:
448,192,255779,1,0,0:0:0:0:
64,192,255808,128,0,256731:0:0:0:0:
192,192,255808,1,0,0:0:0:0:
192,192,255923,1,0,0:0:0:0:
448,192,256038,1,0,0:0:0:0:
320,192,256154,1,0,0:0:0:0:
192,192,256269,1,0,0:0:0:0:
448,192,256385,1,0,0:0:0:0:
192,192,256500,128,0,256731:0:0:0:0:
320,192,256731,1,0,0:0:0:70:3.wav
448,192,256731,1,0,0:0:0:70:4.wav
192,192,256788,1,0,0:0:0:70:3.wav
320,192,256846,1,0,0:0:0:70:3.wav
448,192,256846,1,0,0:0:0:0:
192,192,256904,1,0,0:0:0:70:3.wav
64,192,256962,1,0,0:0:0:70:1.wav
448,192,256990,1,0,0:0:0:0:
320,192,257019,1,0,0:0:0:0:
64,192,257077,1,0,0:0:0:70:3.wav
192,192,257077,1,0,0:0:0:0:
320,192,257135,1,0,0:0:0:70:3.wav
192,192,257192,1,0,0:0:0:70:1.wav
64,192,257221,1,0,0:0:0:0:
192,192,257308,1,0,0:0:0:70:1.wav
64,192,257337,1,0,0:0:0:0:
320,192,257423,1,0,0:0:0:70:3.wav
448,192,257423,1,0,0:0:0:0:
64,192,257481,1,0,0:0:0:70:3.wav
192,192,257538,1,0,0:0:0:70:1.wav
320,192,257567,1,0,0:0:0:0:
448,192,257596,1,0,0:0:0:70:1.wav
64,192,257654,1,0,0:0:0:70:3.wav
192,192,257654,1,0,0:0:0:0:
320,192,257712,1,0,0:0:0:70:3.wav
64,192,257769,1,0,0:0:0:70:3.wav
192,192,257769,1,0,0:0:0:0:
320,192,257827,1,0,0:0:0:70:3.wav
448,192,257885,1,0,0:0:0:70:1.wav
64,192,257913,1,0,0:0:0:0:
192,192,257942,1,0,0:0:0:0:
320,192,258000,1,0,0:0:0:70:3.wav
448,192,258000,1,0,0:0:0:0:
192,192,258058,1,0,0:0:0:70:3.wav
448,192,258115,1,0,0:0:0:70:6.wav
320,192,258144,1,0,0:0:0:0:
192,192,258173,1,0,0:0:0:0:
64,192,258202,1,0,0:0:0:0:
320,192,258231,128,0,258346:0:0:0:0:
448,192,258346,128,0,258577:0:0:0:0:
64,192,258577,1,0,0:0:0:70:3.wav
192,192,258577,1,0,0:0:0:70:4.wav
320,192,258635,1,0,0:0:0:70:3.wav
64,192,258692,1,0,0:0:0:70:1.wav
192,192,258692,1,0,0:0:0:0:
320,192,258750,1,0,0:0:0:0:
448,192,258808,1,0,0:0:0:70:1.wav
64,192,258837,1,0,0:0:0:0:
192,192,258865,1,0,0:0:0:0:
320,192,258923,1,0,0:0:0:70:3.wav
448,192,258923,1,0,0:0:0:0:
192,192,258981,1,0,0:0:0:70:3.wav
320,192,259038,1,0,0:0:0:70:1.wav
448,192,259067,1,0,0:0:0:0:
320,192,259154,1,0,0:0:0:70:1.wav
448,192,259183,1,0,0:0:0:0:
64,192,259269,1,0,0:0:0:70:3.wav
192,192,259269,1,0,0:0:0:0:
448,192,259327,1,0,0:0:0:70:3.wav
320,192,259385,1,0,0:0:0:70:1.wav
192,192,259413,1,0,0:0:0:0:
64,192,259442,1,0,0:0:0:70:1.wav
320,192,259500,1,0,0:0:0:0:
448,192,259500,1,0,0:0:0:0:
192,192,259558,1,0,0:0:0:0:
320,192,259615,1,0,0:0:0:70:3.wav
448,192,259615,1,0,0:0:0:0:
192,192,259673,1,0,0:0:0:70:3.wav
448,192,259731,1,0,0:0:0:70:1.wav
64,192,259760,1,0,0:0:0:0:
192,192,259788,1,0,0:0:0:0:
320,192,259846,1,0,0:0:0:70:3.wav
448,192,259846,1,0,0:0:0:0:
64,192,259904,1,0,0:0:0:70:3.wav
192,192,259904,1,0,0:0:0:0:
320,192,259962,128,0,260077:0:0:0:0:
64,192,260077,128,0,260192:0:0:0:0:
448,192,260192,128,0,260308:0:0:0:0:
192,192,260308,128,0,260423:0:0:0:0:
448,192,260423,1,0,0:0:0:70:4.wav
64,192,260452,1,0,0:0:0:0:
192,192,260481,1,0,0:0:0:0:
320,192,260538,1,0,0:0:0:70:3.wav
448,192,260538,1,0,0:0:0:0:
192,192,260596,1,0,0:0:0:70:3.wav
448,192,260654,1,0,0:0:0:70:1.wav
320,192,260683,1,0,0:0:0:0:
448,192,260769,1,0,0:0:0:70:1.wav
320,192,260798,1,0,0:0:0:0:
64,192,260885,1,0,0:0:0:0:
192,192,260913,1,0,0:0:0:0:
320,192,260942,1,0,0:0:0:0:
448,192,260971,1,0,0:0:0:0:
192,192,261000,1,0,0:0:0:0:
64,192,261029,1,0,0:0:0:0:
320,192,261115,1,0,0:0:0:0:
448,192,261115,1,0,0:0:0:0:
64,192,261231,1,0,0:0:0:0:
192,192,261231,1,0,0:0:0:0:
448,192,261346,1,0,0:0:0:70:4.wav
320,192,261346,1,0,0:0:0:0:
192,192,261404,1,0,0:0:0:70:3.wav
64,192,261462,1,0,0:0:0:0:
320,192,261462,1,0,0:0:0:0:
448,192,261519,1,0,0:0:0:70:3.wav
192,192,261577,1,0,0:0:0:70:1.wav
64,192,261606,1,0,0:0:0:0:
192,192,261692,1,0,0:0:0:0:
64,192,261721,1,0,0:0:0:0:
448,192,261808,128,0,262269:0:0:0:0:
320,192,261808,1,0,0:0:0:0:
320,192,262038,128,0,262269:0:0:0:0:
64,192,262269,1,0,0:0:0:70:3.wav
192,192,262269,1,0,0:0:0:70:4.wav
320,192,262327,1,0,0:0:0:70:3.wav
64,192,262385,1,0,0:0:0:70:3.wav
192,192,262385,1,0,0:0:0:0:
320,192,262442,1,0,0:0:0:70:3.wav
64,192,262500,1,0,0:0:0:70:1.wav
192,192,262500,1,0,0:0:0:0:
448,192,262558,1,0,0:0:0:0:
192,192,262615,1,0,0:0:0:70:1.wav
320,192,262615,1,0,0:0:0:0:
64,192,262673,1,0,0:0:0:0:
320,192,262731,1,0,0:0:0:70:3.wav
448,192,262731,1,0,0:0:0:0:
192,192,262788,1,0,0:0:0:70:3.wav
320,192,262846,1,0,0:0:0:70:3.wav
448,192,262846,1,0,0:0:0:0:
192,192,262904,1,0,0:0:0:70:3.wav
448,192,262962,1,0,0:0:0:0:
320,192,262990,1,0,0:0:0:0:
192,192,263019,1,0,0:0:0:0:
64,192,263048,1,0,0:0:0:0:
448,192,263077,1,0,0:0:0:0:
320,192,263106,1,0,0:0:0:0:
192,192,263135,1,0,0:0:0:0:
64,192,263163,1,0,0:0:0:0:
448,192,263192,1,0,0:0:0:0:
320,192,263250,1,0,0:0:0:0:
64,192,263308,1,0,0:0:0:0:
192,192,263365,1,0,0:0:0:0:
320,192,263423,1,0,0:0:0:0:
192,192,263538,1,0,0:0:0:0:
448,192,263654,1,0,0:0:0:0:
64,192,263654,128,0,264115:0:0:0:0:
320,192,264115,1,0,0:0:0:70:4.wav
448,192,264115,128,0,265038:0:0:0:0:
192,192,264115,1,0,0:0:0:70:3.wav
320,192,264346,1,0,0:0:0:0:
320,192,264462,128,0,266885:0:0:0:0:
