osu file format v14

[General]
AudioFilename: audio.mp3
AudioLeadIn: 0
PreviewTime: -1
Countdown: 1
SampleSet: None
StackLeniency: 0.7
Mode: 3
LetterboxInBreaks: 0
SpecialStyle: 0
WidescreenStoryboard: 1

[Editor]
DistanceSpacing: 0.8
BeatDivisor: 6
GridSize: 8
TimelineZoom: 1.6

[Metadata]
Title:Transceiver FX
TitleUnicode:Transceiver FX
Artist:Kobaryo
ArtistUnicode:Kobaryo
Creator:_Y u r i_
Version:Normal
Source:Candy Speed Pops
Tags:Kobaryo Speedcore Insane Hardcord
BeatmapID:1551884
BeatmapSetID:735119

[Difficulty]
HPDrainRate:7
CircleSize:4
OverallDifficulty:7
ApproachRate:5
SliderMultiplier:1.4
SliderTickRate:1

[Events]
//Background and Video events
0,0,"kobaryo.jpg",0,0
//Break Periods
2,112085,120135
//Storyboard Layer 0 (Background)
//Storyboard Layer 1 (Fail)
//Storyboard Layer 2 (Pass)
//Storyboard Layer 3 (Foreground)
//Storyboard Sound Samples

[TimingPoints]
135,300,4,1,0,5,1,0
49335,-100,4,1,0,5,0,1
66135,-100,4,1,0,5,0,0
111885,300,4,1,0,5,1,0
112035,300,4,1,0,5,1,0
112110,300,4,1,0,5,1,0
112185,300,4,1,0,5,1,0
112260,300,4,1,0,5,1,0
112335,300,4,1,0,5,1,0
112410,300,4,1,0,5,1,0
112485,300,4,1,0,5,1,0
112560,300,4,1,0,5,1,0
112597,300,4,1,0,5,1,0
112635,300,4,1,0,5,1,0
112672,300,4,1,0,5,1,0
112709,300,4,1,0,5,1,0
112746,300,4,1,0,5,1,0
112783,300,4,1,0,5,1,0
112820,300,4,1,0,5,1,0
112857,300,4,1,0,5,1,0
112894,300,4,1,0,5,1,0
112931,300,4,1,0,5,1,0
112968,300,4,1,0,5,1,0
113005,300,4,1,0,5,1,0
113042,300,4,1,0,5,1,0
113117,300,4,1,0,5,1,0
113192,300,4,1,0,5,1,0
113342,300,4,1,0,5,1,0
113492,300,4,1,0,5,1,0
113642,300,4,1,0,5,1,0
113792,300,4,1,0,5,1,0
114392,300,4,1,0,5,1,0
114542,300,4,1,0,5,1,0
114692,300,4,1,0,5,1,0
114992,300,4,1,0,5,1,0
115067,300,4,1,0,5,1,0
115142,300,4,1,0,5,1,0
115442,300,4,1,0,5,1,0
115742,300,4,1,0,5,1,0
116042,300,4,1,0,5,1,0
116192,300,4,1,0,5,1,0
116267,300,4,1,0,5,1,0
116342,300,4,1,0,5,1,0
116642,300,4,1,0,5,1,0
116942,300,4,1,0,5,1,0
117242,300,4,1,0,5,1,0
117392,300,4,1,0,5,1,0
117542,300,4,1,0,5,1,0
117868,300,4,1,0,5,1,0
118168,300,4,1,0,5,1,0
118468,300,4,1,0,5,1,0
118543,300,4,1,0,5,1,0
118618,300,4,1,0,5,1,0
118918,300,4,1,0,5,1,0
119218,300,4,1,0,5,1,0
119518,300,4,1,0,5,1,0
119668,300,4,1,0,5,1,0
119818,300,4,1,0,5,1,0
120118,300,4,1,0,5,1,0
120418,300,4,1,0,5,1,0
120692,300,4,1,0,5,1,0
120842,300,4,1,0,5,1,0
120992,300,4,1,0,5,1,0
121142,300,4,1,0,5,1,0
121335,300,4,1,0,5,1,0
130935,-100,4,1,0,5,0,1
145335,-100,4,1,0,5,0,0

[HitObjects]
448,192,135,5,0,0:0:0:0:
192,192,135,1,0,0:0:0:0:
192,192,435,1,0,0:0:0:0:
448,192,435,1,0,0:0:0:0:
64,192,735,128,0,1185:0:0:0:0:
448,192,1335,1,0,0:0:0:0:
320,192,1335,1,0,0:0:0:0:
192,192,1485,1,0,0:0:0:0:
64,192,1635,1,0,0:0:0:0:
320,192,1635,1,0,0:0:0:0:
448,192,1785,1,0,0:0:0:0:
192,192,1935,1,0,0:0:0:0:
64,192,1935,1,0,0:0:0:0:
320,192,2085,1,0,0:0:0:0:
192,192,2235,128,0,2385:0:0:0:0:
64,192,2235,128,0,2385:0:0:0:0:
192,192,2535,1,0,0:0:0:0:
448,192,2535,1,0,0:0:0:0:
320,192,2685,1,0,0:0:0:0:
192,192,2835,1,0,0:0:0:0:
64,192,2835,1,0,0:0:0:0:
448,192,2985,1,0,0:0:0:0:
64,192,3135,1,0,0:0:0:0:
320,192,3135,1,0,0:0:0:0:
192,192,3285,1,0,0:0:0:0:
448,192,3435,128,0,3735:0:0:0:0:
320,192,3435,1,0,0:0:0:0:
64,192,3585,1,0,0:0:0:0:
320,192,3735,1,0,0:0:0:0:
192,192,3885,1,0,0:0:0:0:
64,192,3885,1,0,0:0:0:0:
448,192,4035,1,0,0:0:0:0:
320,192,4185,1,0,0:0:0:0:
64,192,4185,1,0,0:0:0:0:
192,192,4335,1,0,0:0:0:0:
320,192,4485,1,0,0:0:0:0:
448,192,4485,1,0,0:0:0:0:
64,192,4635,128,0,4785:0:0:0:0:
192,192,4635,128,0,4785:0:0:0:0:
448,192,4935,1,0,0:0:0:0:
64,192,4935,1,0,0:0:0:0:
192,192,5085,1,0,0:0:0:0:
448,192,5235,1,0,0:0:0:0:
320,192,5235,1,0,0:0:0:0:
64,192,5385,1,0,0:0:0:0:
192,192,5535,1,0,0:0:0:0:
448,192,5535,1,0,0:0:0:0:
320,192,5685,1,0,0:0:0:0:
64,192,5835,128,0,6135:0:0:0:0:
192,192,5835,1,0,0:0:0:0:
448,192,5985,1,0,0:0:0:0:
192,192,6135,1,0,0:0:0:0:
320,192,6285,1,0,0:0:0:0:
448,192,6285,1,0,0:0:0:0:
64,192,6435,1,0,0:0:0:0:
192,192,6585,1,0,0:0:0:0:
448,192,6585,1,0,0:0:0:0:
320,192,6735,1,0,0:0:0:0:
64,192,6885,1,0,0:0:0:0:
448,192,7035,128,0,7185:0:0:0:0:
320,192,7035,128,0,7185:0:0:0:0:
64,192,7335,1,0,0:0:0:0:
192,192,7335,1,0,0:0:0:0:
448,192,7485,1,0,0:0:0:0:
64,192,7635,1,0,0:0:0:0:
320,192,7635,1,0,0:0:0:0:
192,192,7785,1,0,0:0:0:0:
320,192,7935,1,0,0:0:0:0:
448,192,7935,1,0,0:0:0:0:
64,192,8085,1,0,0:0:0:0:
192,192,8235,128,0,8535:0:0:0:0:
320,192,8235,1,0,0:0:0:0:
448,192,8385,1,0,0:0:0:0:
64,192,8535,1,0,0:0:0:0:
320,192,8685,1,0,0:0:0:0:
448,192,8685,1,0,0:0:0:0:
192,192,8835,1,0,0:0:0:0:
64,192,8985,1,0,0:0:0:0:
448,192,8985,1,0,0:0:0:0:
320,192,9135,1,0,0:0:0:0:
64,192,9285,1,0,0:0:0:0:
192,192,9285,1,0,0:0:0:0:
448,192,9435,128,0,9585:0:0:0:0:
320,192,9435,128,0,9585:0:0:0:0:
192,192,9735,1,0,0:0:0:0:
64,192,9735,1,0,0:0:0:0:
320,192,9885,1,0,0:0:0:0:
64,192,10035,1,0,0:0:0:0:
448,192,10035,1,0,0:0:0:0:
320,192,10185,1,0,0:0:0:0:
64,192,10335,128,0,10635:0:0:0:0:
192,192,10335,1,0,0:0:0:0:
448,192,10485,1,0,0:0:0:0:
192,192,10635,1,0,0:0:0:0:
320,192,10635,128,0,10935:0:0:0:0:
448,192,10785,1,0,0:0:0:0:
64,192,10935,1,0,0:0:0:0:
192,192,10935,1,0,0:0:0:0:
448,192,11085,1,0,0:0:0:0:
64,192,11235,1,0,0:0:0:0:
320,192,11235,1,0,0:0:0:0:
192,192,11385,1,0,0:0:0:0:
448,192,11535,1,0,0:0:0:0:
320,192,11535,1,0,0:0:0:0:
64,192,11685,1,0,0:0:0:0:
448,192,11835,128,0,12135:0:0:0:0:
320,192,11835,1,0,0:0:0:0:
64,192,11985,1,0,0:0:0:0:
320,192,12135,1,0,0:0:0:0:
64,192,12285,1,0,0:0:0:0:
192,192,12435,1,0,0:0:0:0:
320,192,12435,1,0,0:0:0:0:
448,192,12585,1,0,0:0:0:0:
64,192,12735,1,0,0:0:0:0:
192,192,12735,1,0,0:0:0:0:
320,192,12885,1,0,0:0:0:0:
448,192,13035,1,0,0:0:0:0:
64,192,13035,128,0,13335:0:0:0:0:
192,192,13185,1,0,0:0:0:0:
320,192,13335,1,0,0:0:0:0:
192,192,13485,1,0,0:0:0:0:
448,192,13635,1,0,0:0:0:0:
64,192,13635,1,0,0:0:0:0:
192,192,13785,1,0,0:0:0:0:
448,192,13935,1,0,0:0:0:0:
320,192,13935,1,0,0:0:0:0:
192,192,14085,1,0,0:0:0:0:
64,192,14235,128,0,14535:0:0:0:0:
320,192,14235,1,0,0:0:0:0:
448,192,14385,1,0,0:0:0:0:
192,192,14535,1,0,0:0:0:0:
320,192,14685,1,0,0:0:0:0:
448,192,14835,1,0,0:0:0:0:
192,192,14835,1,0,0:0:0:0:
64,192,14985,1,0,0:0:0:0:
192,192,15135,1,0,0:0:0:0:
320,192,15135,1,0,0:0:0:0:
448,192,15285,1,0,0:0:0:0:
64,192,15435,128,0,15735:0:0:0:0:
192,192,15435,1,0,0:0:0:0:
448,192,15735,1,0,0:0:0:0:
320,192,15735,1,0,0:0:0:0:
192,192,15885,1,0,0:0:0:0:
448,192,16035,1,0,0:0:0:0:
64,192,16035,1,0,0:0:0:0:
320,192,16185,1,0,0:0:0:0:
64,192,16335,1,0,0:0:0:0:
192,192,16335,1,0,0:0:0:0:
448,192,16485,1,0,0:0:0:0:
192,192,16635,128,0,16785:0:0:0:0:
320,192,16635,128,0,16785:0:0:0:0:
64,192,16935,1,0,0:0:0:0:
192,192,16935,1,0,0:0:0:0:
448,192,17085,1,0,0:0:0:0:
320,192,17235,1,0,0:0:0:0:
64,192,17235,1,0,0:0:0:0:
192,192,17385,1,0,0:0:0:0:
320,192,17535,1,0,0:0:0:0:
448,192,17535,1,0,0:0:0:0:
64,192,17685,1,0,0:0:0:0:
320,192,17835,1,0,0:0:0:0:
448,192,17835,128,0,18135:0:0:0:0:
64,192,17985,1,0,0:0:0:0:
192,192,18135,1,0,0:0:0:0:
320,192,18285,1,0,0:0:0:0:
448,192,18285,1,0,0:0:0:0:
64,192,18435,1,0,0:0:0:0:
448,192,18585,1,0,0:0:0:0:
192,192,18585,1,0,0:0:0:0:
320,192,18735,1,0,0:0:0:0:
64,192,18885,1,0,0:0:0:0:
192,192,18885,1,0,0:0:0:0:
320,192,19035,128,0,19185:0:0:0:0:
448,192,19035,128,0,19185:0:0:0:0:
64,192,19335,1,0,0:0:0:0:
192,192,19335,1,0,0:0:0:0:
448,192,19485,1,0,0:0:0:0:
320,192,19635,1,0,0:0:0:0:
192,192,19635,1,0,0:0:0:0:
64,192,19785,1,0,0:0:0:0:
320,192,19935,128,0,20235:0:0:0:0:
448,192,20085,1,0,0:0:0:0:
64,192,20235,128,0,20535:0:0:0:0:
192,192,20235,1,0,0:0:0:0:
448,192,20385,1,0,0:0:0:0:
192,192,20535,1,0,0:0:0:0:
320,192,20685,1,0,0:0:0:0:
192,192,20835,1,0,0:0:0:0:
448,192,20835,1,0,0:0:0:0:
64,192,20985,1,0,0:0:0:0:
192,192,21135,1,0,0:0:0:0:
320,192,21135,1,0,0:0:0:0:
448,192,21285,1,0,0:0:0:0:
64,192,21435,128,0,21735:0:0:0:0:
192,192,21435,1,0,0:0:0:0:
448,192,21585,1,0,0:0:0:0:
192,192,21735,1,0,0:0:0:0:
448,192,21885,1,0,0:0:0:0:
320,192,22035,1,0,0:0:0:0:
192,192,22035,1,0,0:0:0:0:
64,192,22185,1,0,0:0:0:0:
448,192,22335,1,0,0:0:0:0:
192,192,22335,1,0,0:0:0:0:
64,192,22560,1,0,0:0:0:0:
192,192,22560,1,0,0:0:0:0:
320,192,22635,1,0,0:0:0:0:
448,192,22785,1,0,0:0:0:0:
64,192,22935,1,0,0:0:0:0:
320,192,22935,1,0,0:0:0:0:
192,192,23085,1,0,0:0:0:0:
448,192,23235,1,0,0:0:0:0:
64,192,23235,1,0,0:0:0:0:
320,192,23385,1,0,0:0:0:0:
64,192,23535,1,0,0:0:0:0:
192,192,23535,1,0,0:0:0:0:
448,192,23685,1,0,0:0:0:0:
64,192,23835,128,0,24135:0:0:0:0:
320,192,23835,1,0,0:0:0:0:
192,192,23985,1,0,0:0:0:0:
448,192,24135,1,0,0:0:0:0:
192,192,24285,1,0,0:0:0:0:
320,192,24435,1,0,0:0:0:0:
64,192,24435,1,0,0:0:0:0:
448,192,24585,1,0,0:0:0:0:
320,192,24735,1,0,0:0:0:0:
192,192,24735,1,0,0:0:0:0:
64,192,24885,1,0,0:0:0:0:
320,192,25035,128,0,25335:0:0:0:0:
64,192,25335,1,0,0:0:0:0:
192,192,25335,1,0,0:0:0:0:
448,192,25485,1,0,0:0:0:0:
320,192,25635,1,0,0:0:0:0:
192,192,25635,1,0,0:0:0:0:
64,192,25785,1,0,0:0:0:0:
448,192,25935,1,0,0:0:0:0:
192,192,25935,1,0,0:0:0:0:
320,192,26085,1,0,0:0:0:0:
192,192,26235,128,0,26385:0:0:0:0:
64,192,26235,128,0,26385:0:0:0:0:
320,192,26535,1,0,0:0:0:0:
448,192,26535,1,0,0:0:0:0:
64,192,26685,1,0,0:0:0:0:
448,192,26835,1,0,0:0:0:0:
192,192,26835,1,0,0:0:0:0:
320,192,26985,1,0,0:0:0:0:
192,192,27135,1,0,0:0:0:0:
64,192,27135,1,0,0:0:0:0:
320,192,27285,1,0,0:0:0:0:
64,192,27435,128,0,27735:0:0:0:0:
192,192,27435,1,0,0:0:0:0:
448,192,27585,1,0,0:0:0:0:
192,192,27735,1,0,0:0:0:0:
320,192,27885,1,0,0:0:0:0:
448,192,27885,1,0,0:0:0:0:
192,192,28035,1,0,0:0:0:0:
64,192,28185,1,0,0:0:0:0:
320,192,28185,1,0,0:0:0:0:
448,192,28335,1,0,0:0:0:0:
192,192,28485,1,0,0:0:0:0:
320,192,28485,1,0,0:0:0:0:
448,192,28635,128,0,28785:0:0:0:0:
64,192,28635,128,0,28785:0:0:0:0:
192,192,28935,1,0,0:0:0:0:
320,192,28935,1,0,0:0:0:0:
64,192,29085,1,0,0:0:0:0:
192,192,29235,1,0,0:0:0:0:
448,192,29235,1,0,0:0:0:0:
320,192,29385,1,0,0:0:0:0:
64,192,29535,1,0,0:0:0:0:
192,192,29610,1,0,0:0:0:0:
320,192,29685,1,0,0:0:0:0:
448,192,29760,1,0,0:0:0:0:
64,192,29835,128,0,30135:0:0:0:0:
192,192,29835,1,0,0:0:0:0:
320,192,30135,1,0,0:0:0:0:
448,192,30135,1,0,0:0:0:0:
192,192,30285,1,0,0:0:0:0:
320,192,30435,1,0,0:0:0:0:
192,192,30585,1,0,0:0:0:0:
448,192,30735,1,0,0:0:0:0:
192,192,30885,1,0,0:0:0:0:
64,192,31035,1,0,0:0:0:0:
192,192,31185,1,0,0:0:0:0:
448,192,31335,1,0,0:0:0:0:
320,192,31485,1,0,0:0:0:0:
192,192,31635,1,0,0:0:0:0:
64,192,31785,1,0,0:0:0:0:
320,192,31935,1,0,0:0:0:0:
448,192,32085,1,0,0:0:0:0:
192,192,32235,1,0,0:0:0:0:
320,192,32385,1,0,0:0:0:0:
448,192,32535,1,0,0:0:0:0:
64,192,32685,1,0,0:0:0:0:
192,192,32835,1,0,0:0:0:0:
320,192,32985,1,0,0:0:0:0:
448,192,33135,1,0,0:0:0:0:
320,192,33285,1,0,0:0:0:0:
192,192,33435,1,0,0:0:0:0:
320,192,33585,1,0,0:0:0:0:
64,192,33735,1,0,0:0:0:0:
320,192,33885,1,0,0:0:0:0:
192,192,34035,1,0,0:0:0:0:
320,192,34185,1,0,0:0:0:0:
448,192,34335,1,0,0:0:0:0:
192,192,34485,1,0,0:0:0:0:
320,192,34635,1,0,0:0:0:0:
64,192,34785,1,0,0:0:0:0:
192,192,34935,1,0,0:0:0:0:
320,192,35085,1,0,0:0:0:0:
448,192,35235,1,0,0:0:0:0:
192,192,35385,1,0,0:0:0:0:
320,192,35535,1,0,0:0:0:0:
64,192,35685,1,0,0:0:0:0:
192,192,35835,1,0,0:0:0:0:
320,192,35985,1,0,0:0:0:0:
448,192,36135,1,0,0:0:0:0:
192,192,36285,1,0,0:0:0:0:
320,192,36435,1,0,0:0:0:0:
64,192,36585,1,0,0:0:0:0:
448,192,36735,1,0,0:0:0:0:
192,192,36885,1,0,0:0:0:0:
320,192,37035,1,0,0:0:0:0:
64,192,37185,1,0,0:0:0:0:
192,192,37335,1,0,0:0:0:0:
448,192,37485,1,0,0:0:0:0:
320,192,37635,1,0,0:0:0:0:
192,192,37785,1,0,0:0:0:0:
64,192,37935,1,0,0:0:0:0:
192,192,38085,1,0,0:0:0:0:
320,192,38235,1,0,0:0:0:0:
192,192,38385,1,0,0:0:0:0:
448,192,38535,1,0,0:0:0:0:
192,192,38685,1,0,0:0:0:0:
320,192,38835,1,0,0:0:0:0:
192,192,38985,1,0,0:0:0:0:
64,192,39135,1,0,0:0:0:0:
320,192,39285,1,0,0:0:0:0:
192,192,39435,1,0,0:0:0:0:
320,192,39585,1,0,0:0:0:0:
448,192,39735,1,0,0:0:0:0:
192,192,39735,1,0,0:0:0:0:
64,192,39885,1,0,0:0:0:0:
320,192,40035,1,0,0:0:0:0:
448,192,40035,1,0,0:0:0:0:
192,192,40185,1,0,0:0:0:0:
64,192,40335,1,0,0:0:0:0:
448,192,40335,1,0,0:0:0:0:
192,192,40485,1,0,0:0:0:0:
320,192,40635,1,0,0:0:0:0:
448,192,40635,1,0,0:0:0:0:
192,192,40785,1,0,0:0:0:0:
320,192,40935,1,0,0:0:0:0:
64,192,40935,1,0,0:0:0:0:
448,192,41085,1,0,0:0:0:0:
192,192,41235,1,0,0:0:0:0:
320,192,41235,1,0,0:0:0:0:
448,192,41385,1,0,0:0:0:0:
320,192,41535,1,0,0:0:0:0:
64,192,41535,1,0,0:0:0:0:
192,192,41685,1,0,0:0:0:0:
64,192,41835,1,0,0:0:0:0:
448,192,41835,1,0,0:0:0:0:
320,192,41985,1,0,0:0:0:0:
192,192,42135,1,0,0:0:0:0:
64,192,42135,1,0,0:0:0:0:
448,192,42285,1,0,0:0:0:0:
320,192,42435,1,0,0:0:0:0:
64,192,42435,1,0,0:0:0:0:
192,192,42585,1,0,0:0:0:0:
448,192,42735,1,0,0:0:0:0:
320,192,42735,1,0,0:0:0:0:
192,192,42885,1,0,0:0:0:0:
64,192,43035,1,0,0:0:0:0:
448,192,43035,1,0,0:0:0:0:
320,192,43185,1,0,0:0:0:0:
64,192,43335,1,0,0:0:0:0:
448,192,43335,1,0,0:0:0:0:
192,192,43485,1,0,0:0:0:0:
320,192,43485,1,0,0:0:0:0:
64,192,43635,1,0,0:0:0:0:
448,192,43635,1,0,0:0:0:0:
320,192,43785,1,0,0:0:0:0:
64,192,43935,1,0,0:0:0:0:
192,192,43935,1,0,0:0:0:0:
448,192,44085,1,0,0:0:0:0:
320,192,44085,1,0,0:0:0:0:
192,192,44235,1,0,0:0:0:0:
64,192,44235,1,0,0:0:0:0:
320,192,44385,1,0,0:0:0:0:
64,192,44535,1,0,0:0:0:0:
448,192,44535,1,0,0:0:0:0:
192,192,44685,1,0,0:0:0:0:
320,192,44835,1,0,0:0:0:0:
448,192,44835,1,0,0:0:0:0:
64,192,44985,1,0,0:0:0:0:
320,192,45135,1,0,0:0:0:0:
192,192,45135,1,0,0:0:0:0:
64,192,45285,1,0,0:0:0:0:
320,192,45435,1,0,0:0:0:0:
448,192,45435,1,0,0:0:0:0:
192,192,45585,1,0,0:0:0:0:
64,192,45735,1,0,0:0:0:0:
448,192,45735,1,0,0:0:0:0:
320,192,45885,1,0,0:0:0:0:
64,192,46035,1,0,0:0:0:0:
192,192,46035,1,0,0:0:0:0:
320,192,46185,1,0,0:0:0:0:
192,192,46335,1,0,0:0:0:0:
448,192,46335,1,0,0:0:0:0:
64,192,46485,1,0,0:0:0:0:
320,192,46635,1,0,0:0:0:0:
448,192,46635,1,0,0:0:0:0:
192,192,46785,1,0,0:0:0:0:
448,192,46935,1,0,0:0:0:0:
64,192,46935,1,0,0:0:0:0:
320,192,47085,1,0,0:0:0:0:
192,192,47235,1,0,0:0:0:0:
64,192,47235,1,0,0:0:0:0:
448,192,47385,1,0,0:0:0:0:
320,192,47535,1,0,0:0:0:0:
64,192,47535,1,0,0:0:0:0:
192,192,47685,1,0,0:0:0:0:
64,192,47835,1,0,0:0:0:0:
448,192,47835,1,0,0:0:0:0:
320,192,47985,1,0,0:0:0:0:
64,192,48135,1,0,0:0:0:0:
192,192,48135,1,0,0:0:0:0:
448,192,48285,1,0,0:0:0:0:
192,192,48435,1,0,0:0:0:0:
320,192,48435,1,0,0:0:0:0:
64,192,48585,1,0,0:0:0:0:
192,192,48735,1,0,0:0:0:0:
448,192,48735,1,0,0:0:0:0:
320,192,48885,1,0,0:0:0:0:
64,192,49035,1,0,0:0:0:0:
448,192,49035,1,0,0:0:0:0:
192,192,49035,1,0,0:0:0:0:
448,192,49335,1,0,0:0:0:0:
320,192,49335,1,0,0:0:0:0:
192,192,49485,1,0,0:0:0:0:
64,192,49485,1,0,0:0:0:0:
320,192,49635,1,0,0:0:0:0:
192,192,49785,1,0,0:0:0:0:
448,192,49935,1,0,0:0:0:0:
320,192,50085,1,0,0:0:0:0:
64,192,50235,1,0,0:0:0:0:
192,192,50235,1,0,0:0:0:0:
320,192,50385,1,0,0:0:0:0:
448,192,50535,1,0,0:0:0:0:
64,192,50685,1,0,0:0:0:0:
192,192,50685,1,0,0:0:0:0:
320,192,50835,1,0,0:0:0:0:
448,192,50835,1,0,0:0:0:0:
192,192,50985,1,0,0:0:0:0:
64,192,51135,1,0,0:0:0:0:
320,192,51285,1,0,0:0:0:0:
64,192,51435,1,0,0:0:0:0:
192,192,51435,1,0,0:0:0:0:
448,192,51585,1,0,0:0:0:0:
320,192,51660,1,0,0:0:0:0:
192,192,51735,1,0,0:0:0:0:
64,192,51885,1,0,0:0:0:0:
448,192,51885,1,0,0:0:0:0:
320,192,52035,1,0,0:0:0:0:
192,192,52185,1,0,0:0:0:0:
64,192,52185,1,0,0:0:0:0:
448,192,52335,1,0,0:0:0:0:
64,192,52485,1,0,0:0:0:0:
192,192,52485,1,0,0:0:0:0:
320,192,52635,1,0,0:0:0:0:
192,192,52785,1,0,0:0:0:0:
448,192,52935,1,0,0:0:0:0:
320,192,52935,1,0,0:0:0:0:
192,192,53085,1,0,0:0:0:0:
64,192,53085,1,0,0:0:0:0:
448,192,53235,1,0,0:0:0:0:
320,192,53385,1,0,0:0:0:0:
64,192,53535,1,0,0:0:0:0:
192,192,53535,1,0,0:0:0:0:
448,192,53685,1,0,0:0:0:0:
320,192,53760,1,0,0:0:0:0:
192,192,53835,1,0,0:0:0:0:
64,192,53910,1,0,0:0:0:0:
320,192,53985,1,0,0:0:0:0:
448,192,53985,1,0,0:0:0:0:
64,192,54135,1,0,0:0:0:0:
192,192,54135,1,0,0:0:0:0:
448,192,54285,1,0,0:0:0:0:
320,192,54285,1,0,0:0:0:0:
64,192,54435,1,0,0:0:0:0:
192,192,54585,1,0,0:0:0:0:
64,192,54735,1,0,0:0:0:0:
448,192,54735,1,0,0:0:0:0:
320,192,54885,1,0,0:0:0:0:
192,192,55035,1,0,0:0:0:0:
64,192,55185,1,0,0:0:0:0:
320,192,55335,1,0,0:0:0:0:
448,192,55335,1,0,0:0:0:0:
64,192,55485,1,0,0:0:0:0:
192,192,55485,1,0,0:0:0:0:
448,192,55635,1,0,0:0:0:0:
192,192,55785,1,0,0:0:0:0:
64,192,55935,1,0,0:0:0:0:
192,192,56085,1,0,0:0:0:0:
448,192,56235,1,0,0:0:0:0:
320,192,56235,1,0,0:0:0:0:
64,192,56385,1,0,0:0:0:0:
192,192,56460,1,0,0:0:0:0:
320,192,56535,1,0,0:0:0:0:
192,192,56685,1,0,0:0:0:0:
64,192,56685,1,0,0:0:0:0:
320,192,56835,1,0,0:0:0:0:
448,192,56835,1,0,0:0:0:0:
64,192,56985,1,0,0:0:0:0:
192,192,57135,1,0,0:0:0:0:
448,192,57285,1,0,0:0:0:0:
320,192,57435,1,0,0:0:0:0:
448,192,57585,1,0,0:0:0:0:
192,192,57585,1,0,0:0:0:0:
64,192,57735,1,0,0:0:0:0:
192,192,57810,1,0,0:0:0:0:
320,192,57885,1,0,0:0:0:0:
448,192,57960,1,0,0:0:0:0:
64,192,58035,1,0,0:0:0:0:
192,192,58110,1,0,0:0:0:0:
320,192,58185,1,0,0:0:0:0:
448,192,58260,1,0,0:0:0:0:
192,192,58335,1,0,0:0:0:0:
64,192,58410,1,0,0:0:0:0:
448,192,58485,1,0,0:0:0:0:
320,192,58560,1,0,0:0:0:0:
64,192,58635,1,0,0:0:0:0:
192,192,58710,1,0,0:0:0:0:
320,192,58785,1,0,0:0:0:0:
448,192,58860,1,0,0:0:0:0:
64,192,58935,1,0,0:0:0:0:
192,192,58935,1,0,0:0:0:0:
320,192,59085,1,0,0:0:0:0:
448,192,59085,1,0,0:0:0:0:
64,192,59235,1,0,0:0:0:0:
192,192,59385,1,0,0:0:0:0:
448,192,59535,1,0,0:0:0:0:
320,192,59535,1,0,0:0:0:0:
192,192,59685,1,0,0:0:0:0:
64,192,59835,1,0,0:0:0:0:
320,192,59985,1,0,0:0:0:0:
64,192,60135,1,0,0:0:0:0:
192,192,60135,1,0,0:0:0:0:
448,192,60285,1,0,0:0:0:0:
320,192,60285,1,0,0:0:0:0:
192,192,60435,1,0,0:0:0:0:
64,192,60585,1,0,0:0:0:0:
448,192,60735,1,0,0:0:0:0:
320,192,60885,1,0,0:0:0:0:
64,192,61035,1,0,0:0:0:0:
192,192,61035,1,0,0:0:0:0:
448,192,61185,1,0,0:0:0:0:
192,192,61260,1,0,0:0:0:0:
320,192,61335,1,0,0:0:0:0:
64,192,61485,1,0,0:0:0:0:
448,192,61485,1,0,0:0:0:0:
192,192,61635,1,0,0:0:0:0:
320,192,61785,1,0,0:0:0:0:
192,192,61935,1,0,0:0:0:0:
64,192,61935,1,0,0:0:0:0:
448,192,62085,1,0,0:0:0:0:
192,192,62235,1,0,0:0:0:0:
320,192,62385,1,0,0:0:0:0:
64,192,62535,1,0,0:0:0:0:
448,192,62535,1,0,0:0:0:0:
192,192,62685,1,0,0:0:0:0:
320,192,62835,1,0,0:0:0:0:
448,192,62835,1,0,0:0:0:0:
64,192,62985,1,0,0:0:0:0:
192,192,63135,1,0,0:0:0:0:
448,192,63135,1,0,0:0:0:0:
320,192,63285,1,0,0:0:0:0:
64,192,63435,1,0,0:0:0:0:
192,192,63510,1,0,0:0:0:0:
320,192,63585,1,0,0:0:0:0:
448,192,63660,1,0,0:0:0:0:
192,192,63735,1,0,0:0:0:0:
64,192,63735,1,0,0:0:0:0:
320,192,63885,1,0,0:0:0:0:
64,192,64035,1,0,0:0:0:0:
192,192,64110,1,0,0:0:0:0:
320,192,64185,1,0,0:0:0:0:
448,192,64260,1,0,0:0:0:0:
64,192,64335,1,0,0:0:0:0:
192,192,64410,1,0,0:0:0:0:
320,192,64485,1,0,0:0:0:0:
64,192,64635,1,0,0:0:0:0:
448,192,64635,1,0,0:0:0:0:
192,192,64785,1,0,0:0:0:0:
448,192,64935,1,0,0:0:0:0:
320,192,64935,1,0,0:0:0:0:
192,192,65085,1,0,0:0:0:0:
64,192,65235,1,0,0:0:0:0:
192,192,65310,1,0,0:0:0:0:
320,192,65385,1,0,0:0:0:0:
448,192,65460,1,0,0:0:0:0:
64,192,65535,1,0,0:0:0:0:
192,192,65610,1,0,0:0:0:0:
320,192,65685,1,0,0:0:0:0:
64,192,65835,1,0,0:0:0:0:
192,192,65835,1,0,0:0:0:0:
448,192,65985,1,0,0:0:0:0:
320,192,65985,1,0,0:0:0:0:
64,192,66135,1,0,0:0:0:0:
192,192,66135,1,0,0:0:0:0:
64,192,67335,1,0,0:0:0:0:
448,192,67485,1,0,0:0:0:0:
192,192,67635,1,0,0:0:0:0:
64,192,67785,1,0,0:0:0:0:
448,192,67935,1,0,0:0:0:0:
320,192,67935,1,0,0:0:0:0:
192,192,68235,128,0,68335:0:0:0:0:
448,192,68535,1,0,0:0:0:0:
320,192,68535,1,0,0:0:0:0:
192,192,68685,1,0,0:0:0:0:
64,192,68835,1,0,0:0:0:0:
320,192,68835,1,0,0:0:0:0:
448,192,68985,1,0,0:0:0:0:
192,192,69135,1,0,0:0:0:0:
64,192,69135,1,0,0:0:0:0:
320,192,69285,1,0,0:0:0:0:
192,192,69435,128,0,69585:0:0:0:0:
64,192,69435,128,0,69585:0:0:0:0:
192,192,69735,1,0,0:0:0:0:
448,192,69735,1,0,0:0:0:0:
320,192,69885,1,0,0:0:0:0:
192,192,70035,1,0,0:0:0:0:
64,192,70035,1,0,0:0:0:0:
448,192,70185,1,0,0:0:0:0:
64,192,70335,1,0,0:0:0:0:
320,192,70335,1,0,0:0:0:0:
192,192,70485,1,0,0:0:0:0:
448,192,70635,128,0,70935:0:0:0:0:
320,192,70635,1,0,0:0:0:0:
64,192,70785,1,0,0:0:0:0:
320,192,70935,1,0,0:0:0:0:
192,192,71085,1,0,0:0:0:0:
64,192,71085,1,0,0:0:0:0:
448,192,71235,1,0,0:0:0:0:
320,192,71385,1,0,0:0:0:0:
64,192,71385,1,0,0:0:0:0:
192,192,71535,1,0,0:0:0:0:
320,192,71685,1,0,0:0:0:0:
448,192,71685,1,0,0:0:0:0:
64,192,71835,128,0,71985:0:0:0:0:
192,192,71835,128,0,71985:0:0:0:0:
448,192,72135,1,0,0:0:0:0:
64,192,72135,1,0,0:0:0:0:
192,192,72285,1,0,0:0:0:0:
448,192,72435,1,0,0:0:0:0:
320,192,72435,1,0,0:0:0:0:
64,192,72585,1,0,0:0:0:0:
192,192,72735,1,0,0:0:0:0:
448,192,72735,1,0,0:0:0:0:
320,192,72885,1,0,0:0:0:0:
64,192,73035,128,0,73335:0:0:0:0:
192,192,73035,1,0,0:0:0:0:
448,192,73185,1,0,0:0:0:0:
192,192,73335,1,0,0:0:0:0:
320,192,73485,1,0,0:0:0:0:
448,192,73485,1,0,0:0:0:0:
64,192,73635,1,0,0:0:0:0:
192,192,73785,1,0,0:0:0:0:
448,192,73785,1,0,0:0:0:0:
320,192,73935,1,0,0:0:0:0:
64,192,74085,1,0,0:0:0:0:
448,192,74235,128,0,74385:0:0:0:0:
320,192,74235,128,0,74385:0:0:0:0:
64,192,74535,1,0,0:0:0:0:
192,192,74535,1,0,0:0:0:0:
448,192,74685,1,0,0:0:0:0:
64,192,74835,1,0,0:0:0:0:
320,192,74835,1,0,0:0:0:0:
192,192,74985,1,0,0:0:0:0:
320,192,75135,1,0,0:0:0:0:
448,192,75135,1,0,0:0:0:0:
64,192,75285,1,0,0:0:0:0:
192,192,75435,128,0,75735:0:0:0:0:
320,192,75435,1,0,0:0:0:0:
448,192,75585,1,0,0:0:0:0:
64,192,75735,1,0,0:0:0:0:
320,192,75885,1,0,0:0:0:0:
448,192,75885,1,0,0:0:0:0:
192,192,76035,1,0,0:0:0:0:
64,192,76185,1,0,0:0:0:0:
448,192,76185,1,0,0:0:0:0:
320,192,76335,1,0,0:0:0:0:
64,192,76485,1,0,0:0:0:0:
192,192,76485,1,0,0:0:0:0:
448,192,76635,128,0,76785:0:0:0:0:
320,192,76635,128,0,76785:0:0:0:0:
192,192,76935,1,0,0:0:0:0:
64,192,76935,1,0,0:0:0:0:
320,192,77085,1,0,0:0:0:0:
64,192,77235,1,0,0:0:0:0:
448,192,77235,1,0,0:0:0:0:
320,192,77385,1,0,0:0:0:0:
64,192,77535,128,0,77835:0:0:0:0:
192,192,77535,1,0,0:0:0:0:
448,192,77685,1,0,0:0:0:0:
192,192,77835,1,0,0:0:0:0:
320,192,77835,128,0,78135:0:0:0:0:
448,192,77985,1,0,0:0:0:0:
64,192,78135,1,0,0:0:0:0:
192,192,78135,1,0,0:0:0:0:
448,192,78285,1,0,0:0:0:0:
64,192,78435,1,0,0:0:0:0:
320,192,78435,1,0,0:0:0:0:
192,192,78585,1,0,0:0:0:0:
448,192,78735,1,0,0:0:0:0:
320,192,78735,1,0,0:0:0:0:
64,192,78885,1,0,0:0:0:0:
448,192,79035,128,0,79335:0:0:0:0:
320,192,79035,1,0,0:0:0:0:
64,192,79185,1,0,0:0:0:0:
320,192,79335,1,0,0:0:0:0:
64,192,79485,1,0,0:0:0:0:
192,192,79635,1,0,0:0:0:0:
320,192,79635,1,0,0:0:0:0:
448,192,79785,1,0,0:0:0:0:
64,192,79935,1,0,0:0:0:0:
192,192,79935,1,0,0:0:0:0:
320,192,80085,1,0,0:0:0:0:
448,192,80235,1,0,0:0:0:0:
64,192,80235,128,0,80535:0:0:0:0:
192,192,80385,1,0,0:0:0:0:
320,192,80535,1,0,0:0:0:0:
192,192,80685,1,0,0:0:0:0:
448,192,80835,1,0,0:0:0:0:
64,192,80835,1,0,0:0:0:0:
192,192,80985,1,0,0:0:0:0:
448,192,81135,1,0,0:0:0:0:
320,192,81135,1,0,0:0:0:0:
192,192,81285,1,0,0:0:0:0:
64,192,81435,128,0,81735:0:0:0:0:
320,192,81435,1,0,0:0:0:0:
448,192,81585,1,0,0:0:0:0:
192,192,81735,1,0,0:0:0:0:
320,192,81885,1,0,0:0:0:0:
448,192,82035,1,0,0:0:0:0:
192,192,82035,1,0,0:0:0:0:
64,192,82185,1,0,0:0:0:0:
192,192,82335,1,0,0:0:0:0:
320,192,82335,1,0,0:0:0:0:
448,192,82485,1,0,0:0:0:0:
64,192,82635,128,0,82935:0:0:0:0:
192,192,82635,1,0,0:0:0:0:
448,192,82935,1,0,0:0:0:0:
320,192,82935,1,0,0:0:0:0:
192,192,83085,1,0,0:0:0:0:
448,192,83235,1,0,0:0:0:0:
64,192,83235,1,0,0:0:0:0:
320,192,83385,1,0,0:0:0:0:
64,192,83535,1,0,0:0:0:0:
192,192,83535,1,0,0:0:0:0:
448,192,83685,1,0,0:0:0:0:
192,192,83835,128,0,83985:0:0:0:0:
320,192,83835,128,0,83985:0:0:0:0:
64,192,84135,1,0,0:0:0:0:
192,192,84135,1,0,0:0:0:0:
448,192,84285,1,0,0:0:0:0:
320,192,84435,1,0,0:0:0:0:
64,192,84435,1,0,0:0:0:0:
192,192,84585,1,0,0:0:0:0:
320,192,84735,1,0,0:0:0:0:
448,192,84735,1,0,0:0:0:0:
64,192,84885,1,0,0:0:0:0:
320,192,85035,1,0,0:0:0:0:
448,192,85035,128,0,85335:0:0:0:0:
64,192,85185,1,0,0:0:0:0:
192,192,85335,1,0,0:0:0:0:
320,192,85485,1,0,0:0:0:0:
448,192,85485,1,0,0:0:0:0:
64,192,85635,1,0,0:0:0:0:
448,192,85785,1,0,0:0:0:0:
192,192,85785,1,0,0:0:0:0:
320,192,85935,1,0,0:0:0:0:
64,192,86085,1,0,0:0:0:0:
192,192,86085,1,0,0:0:0:0:
320,192,86235,128,0,86385:0:0:0:0:
448,192,86235,128,0,86385:0:0:0:0:
64,192,86535,1,0,0:0:0:0:
192,192,86535,1,0,0:0:0:0:
448,192,86685,1,0,0:0:0:0:
320,192,86835,1,0,0:0:0:0:
192,192,86835,1,0,0:0:0:0:
64,192,86985,1,0,0:0:0:0:
320,192,87135,128,0,87435:0:0:0:0:
448,192,87285,1,0,0:0:0:0:
64,192,87435,128,0,87735:0:0:0:0:
192,192,87435,1,0,0:0:0:0:
448,192,87585,1,0,0:0:0:0:
192,192,87735,1,0,0:0:0:0:
320,192,87735,1,0,0:0:0:0:
448,192,88035,1,0,0:0:0:0:
320,192,88035,1,0,0:0:0:0:
64,192,88335,1,0,0:0:0:0:
320,192,88335,1,0,0:0:0:0:
448,192,88635,1,0,0:0:0:0:
192,192,88635,1,0,0:0:0:0:
64,192,88935,1,0,0:0:0:0:
192,192,88935,1,0,0:0:0:0:
320,192,89235,1,0,0:0:0:0:
448,192,89235,1,0,0:0:0:0:
64,192,89535,1,0,0:0:0:0:
192,192,89535,1,0,0:0:0:0:
320,192,89835,1,0,0:0:0:0:
448,192,89835,1,0,0:0:0:0:
64,192,90035,1,0,0:0:0:0:
192,192,90035,1,0,0:0:0:0:
448,192,90135,1,0,0:0:0:0:
320,192,90135,1,0,0:0:0:0:
64,192,90435,1,0,0:0:0:0:
320,192,90435,1,0,0:0:0:0:
192,192,90735,1,0,0:0:0:0:
448,192,90735,1,0,0:0:0:0:
64,192,91035,1,0,0:0:0:0:
192,192,91035,1,0,0:0:0:0:
320,192,91335,1,0,0:0:0:0:
448,192,91335,1,0,0:0:0:0:
64,192,91635,1,0,0:0:0:0:
192,192,91635,1,0,0:0:0:0:
448,192,91835,1,0,0:0:0:0:
320,192,91835,1,0,0:0:0:0:
192,192,91935,1,0,0:0:0:0:
64,192,91935,1,0,0:0:0:0:
448,192,92035,1,0,0:0:0:0:
320,192,92035,1,0,0:0:0:0:
64,192,92135,1,0,0:0:0:0:
192,192,92135,1,0,0:0:0:0:
448,192,92235,128,0,92535:0:0:0:0:
192,192,92535,1,0,0:0:0:0:
64,192,92535,1,0,0:0:0:0:
320,192,92685,1,0,0:0:0:0:
192,192,92835,1,0,0:0:0:0:
448,192,92835,1,0,0:0:0:0:
64,192,92985,1,0,0:0:0:0:
320,192,93135,1,0,0:0:0:0:
448,192,93135,1,0,0:0:0:0:
64,192,93285,1,0,0:0:0:0:
448,192,93435,128,0,93585:0:0:0:0:
192,192,93435,128,0,93585:0:0:0:0:
320,192,93735,1,0,0:0:0:0:
64,192,93735,1,0,0:0:0:0:
448,192,93885,1,0,0:0:0:0:
192,192,94035,1,0,0:0:0:0:
64,192,94035,1,0,0:0:0:0:
320,192,94185,1,0,0:0:0:0:
448,192,94335,1,0,0:0:0:0:
64,192,94335,1,0,0:0:0:0:
192,192,94485,1,0,0:0:0:0:
448,192,94635,128,0,94935:0:0:0:0:
320,192,94635,1,0,0:0:0:0:
64,192,94785,1,0,0:0:0:0:
192,192,94935,1,0,0:0:0:0:
320,192,94935,1,0,0:0:0:0:
64,192,95085,1,0,0:0:0:0:
192,192,95235,1,0,0:0:0:0:
448,192,95235,1,0,0:0:0:0:
320,192,95385,1,0,0:0:0:0:
64,192,95535,1,0,0:0:0:0:
192,192,95535,1,0,0:0:0:0:
320,192,95685,1,0,0:0:0:0:
448,192,95835,128,0,95985:0:0:0:0:
64,192,95835,128,0,95985:0:0:0:0:
192,192,96135,1,0,0:0:0:0:
320,192,96135,1,0,0:0:0:0:
64,192,96285,1,0,0:0:0:0:
448,192,96435,1,0,0:0:0:0:
320,192,96435,1,0,0:0:0:0:
64,192,96585,1,0,0:0:0:0:
192,192,96585,1,0,0:0:0:0:
448,192,96735,1,0,0:0:0:0:
320,192,96810,1,0,0:0:0:0:
192,192,96885,1,0,0:0:0:0:
64,192,96960,1,0,0:0:0:0:
448,192,97035,128,0,97335:0:0:0:0:
320,192,97035,128,0,97335:0:0:0:0:
64,192,97335,128,0,98085:0:0:0:0:
192,192,97335,128,0,97635:0:0:0:0:
320,192,97635,1,0,0:0:0:0:
448,192,98085,1,0,0:0:0:0:
320,192,98235,1,0,0:0:0:0:
64,192,98385,1,0,0:0:0:0:
192,192,98385,1,0,0:0:0:0:
448,192,98535,128,0,98835:0:0:0:0:
320,192,98535,1,0,0:0:0:0:
192,192,98835,1,0,0:0:0:0:
320,192,98985,1,0,0:0:0:0:
64,192,98985,128,0,99285:0:0:0:0:
448,192,99285,1,0,0:0:0:0:
192,192,99285,128,0,99735:0:0:0:0:
448,192,99735,128,0,100485:0:0:0:0:
320,192,99735,128,0,100485:0:0:0:0:
64,192,100485,1,0,0:0:0:0:
192,192,100635,1,0,0:0:0:0:
320,192,100785,1,0,0:0:0:0:
448,192,100785,1,0,0:0:0:0:
64,192,100935,128,0,101235:0:0:0:0:
192,192,100935,1,0,0:0:0:0:
320,192,101235,1,0,0:0:0:0:
192,192,101385,1,0,0:0:0:0:
448,192,101385,128,0,101685:0:0:0:0:
192,192,101835,1,0,0:0:0:0:
64,192,101910,1,0,0:0:0:0:
320,192,101985,1,0,0:0:0:0:
448,192,102060,1,0,0:0:0:0:
64,192,102135,1,0,0:0:0:0:
192,192,102135,1,0,0:0:0:0:
320,192,102285,1,0,0:0:0:0:
448,192,102435,1,0,0:0:0:0:
64,192,102435,1,0,0:0:0:0:
320,192,102585,1,0,0:0:0:0:
192,192,102735,1,0,0:0:0:0:
64,192,102735,1,0,0:0:0:0:
320,192,102885,1,0,0:0:0:0:
192,192,103035,1,0,0:0:0:0:
448,192,103035,1,0,0:0:0:0:
64,192,103185,1,0,0:0:0:0:
320,192,103335,1,0,0:0:0:0:
448,192,103335,1,0,0:0:0:0:
192,192,103485,1,0,0:0:0:0:
64,192,103635,1,0,0:0:0:0:
448,192,103635,1,0,0:0:0:0:
320,192,103785,1,0,0:0:0:0:
64,192,103935,1,0,0:0:0:0:
192,192,103935,1,0,0:0:0:0:
320,192,104085,1,0,0:0:0:0:
192,192,104235,1,0,0:0:0:0:
448,192,104235,128,0,104535:0:0:0:0:
64,192,104385,1,0,0:0:0:0:
320,192,104535,1,0,0:0:0:0:
192,192,104685,1,0,0:0:0:0:
64,192,104835,1,0,0:0:0:0:
320,192,104835,1,0,0:0:0:0:
448,192,104985,1,0,0:0:0:0:
192,192,105135,1,0,0:0:0:0:
320,192,105135,1,0,0:0:0:0:
64,192,105285,1,0,0:0:0:0:
448,192,105435,1,0,0:0:0:0:
192,192,105435,1,0,0:0:0:0:
320,192,105585,1,0,0:0:0:0:
64,192,105735,1,0,0:0:0:0:
192,192,105735,1,0,0:0:0:0:
320,192,105885,1,0,0:0:0:0:
448,192,106035,1,0,0:0:0:0:
192,192,106035,1,0,0:0:0:0:
64,192,106185,1,0,0:0:0:0:
192,192,106335,1,0,0:0:0:0:
320,192,106335,1,0,0:0:0:0:
448,192,106485,1,0,0:0:0:0:
64,192,106635,128,0,106935:0:0:0:0:
320,192,106635,1,0,0:0:0:0:
192,192,106785,1,0,0:0:0:0:
448,192,106935,1,0,0:0:0:0:
320,192,106935,1,0,0:0:0:0:
192,192,107085,1,0,0:0:0:0:
64,192,107235,1,0,0:0:0:0:
448,192,107235,1,0,0:0:0:0:
320,192,107385,1,0,0:0:0:0:
64,192,107535,1,0,0:0:0:0:
192,192,107535,1,0,0:0:0:0:
320,192,107685,1,0,0:0:0:0:
448,192,107835,1,0,0:0:0:0:
192,192,107835,1,0,0:0:0:0:
64,192,107985,1,0,0:0:0:0:
448,192,108135,1,0,0:0:0:0:
320,192,108135,1,0,0:0:0:0:
192,192,108285,1,0,0:0:0:0:
448,192,108435,1,0,0:0:0:0:
64,192,108435,1,0,0:0:0:0:
320,192,108585,1,0,0:0:0:0:
192,192,108735,1,0,0:0:0:0:
64,192,108735,1,0,0:0:0:0:
320,192,108885,1,0,0:0:0:0:
448,192,109035,128,0,109335:0:0:0:0:
192,192,109035,1,0,0:0:0:0:
64,192,109185,1,0,0:0:0:0:
320,192,109335,1,0,0:0:0:0:
192,192,109485,1,0,0:0:0:0:
320,192,109635,1,0,0:0:0:0:
64,192,109635,1,0,0:0:0:0:
448,192,109785,1,0,0:0:0:0:
320,192,109935,1,0,0:0:0:0:
192,192,109935,1,0,0:0:0:0:
64,192,110085,1,0,0:0:0:0:
192,192,110235,1,0,0:0:0:0:
448,192,110235,1,0,0:0:0:0:
320,192,110385,1,0,0:0:0:0:
192,192,110535,1,0,0:0:0:0:
64,192,110535,1,0,0:0:0:0:
320,192,110685,1,0,0:0:0:0:
192,192,110835,1,0,0:0:0:0:
448,192,110835,1,0,0:0:0:0:
64,192,110985,1,0,0:0:0:0:
320,192,111135,1,0,0:0:0:0:
192,192,111135,1,0,0:0:0:0:
448,192,111285,1,0,0:0:0:0:
192,192,111435,1,0,0:0:0:0:
64,192,111435,128,0,111735:0:0:0:0:
448,192,111585,1,0,0:0:0:0:
192,192,111735,1,0,0:0:0:0:
448,192,121335,5,0,0:0:0:0:
320,192,121335,1,0,0:0:0:0:
64,192,121635,1,0,0:0:0:0:
192,192,121635,1,0,0:0:0:0:
192,192,121935,1,0,0:0:0:0:
448,192,121935,1,0,0:0:0:0:
64,192,122235,1,0,0:0:0:0:
320,192,122235,1,0,0:0:0:0:
448,192,122535,1,0,0:0:0:0:
320,192,122535,1,0,0:0:0:0:
64,192,122835,1,0,0:0:0:0:
320,192,122835,1,0,0:0:0:0:
64,192,123135,1,0,0:0:0:0:
192,192,123135,1,0,0:0:0:0:
192,192,123435,1,0,0:0:0:0:
320,192,123435,1,0,0:0:0:0:
448,192,123735,1,0,0:0:0:0:
64,192,123735,1,0,0:0:0:0:
320,192,124035,1,0,0:0:0:0:
448,192,124035,1,0,0:0:0:0:
64,192,124335,1,0,0:0:0:0:
192,192,124335,1,0,0:0:0:0:
192,192,124635,1,0,0:0:0:0:
448,192,124635,1,0,0:0:0:0:
64,192,124935,1,0,0:0:0:0:
192,192,124935,1,0,0:0:0:0:
448,192,125235,1,0,0:0:0:0:
320,192,125235,1,0,0:0:0:0:
64,192,125535,1,0,0:0:0:0:
192,192,125535,1,0,0:0:0:0:
320,192,125835,1,0,0:0:0:0:
448,192,125835,1,0,0:0:0:0:
64,192,126135,1,0,0:0:0:0:
320,192,126135,1,0,0:0:0:0:
448,192,126285,1,0,0:0:0:0:
320,192,126435,1,0,0:0:0:0:
192,192,126435,1,0,0:0:0:0:
64,192,126585,1,0,0:0:0:0:
320,192,126735,1,0,0:0:0:0:
448,192,126735,1,0,0:0:0:0:
192,192,126885,1,0,0:0:0:0:
320,192,127035,1,0,0:0:0:0:
64,192,127035,1,0,0:0:0:0:
448,192,127185,1,0,0:0:0:0:
64,192,127335,1,0,0:0:0:0:
192,192,127335,1,0,0:0:0:0:
320,192,127485,1,0,0:0:0:0:
64,192,127635,1,0,0:0:0:0:
448,192,127635,1,0,0:0:0:0:
192,192,127785,1,0,0:0:0:0:
320,192,127935,1,0,0:0:0:0:
448,192,127935,1,0,0:0:0:0:
64,192,128085,1,0,0:0:0:0:
192,192,128235,1,0,0:0:0:0:
320,192,128235,1,0,0:0:0:0:
448,192,128385,1,0,0:0:0:0:
64,192,128535,1,0,0:0:0:0:
192,192,128610,1,0,0:0:0:0:
320,192,128685,1,0,0:0:0:0:
448,192,128760,1,0,0:0:0:0:
320,192,128835,1,0,0:0:0:0:
192,192,128910,1,0,0:0:0:0:
64,192,128985,1,0,0:0:0:0:
192,192,129060,1,0,0:0:0:0:
320,192,129135,1,0,0:0:0:0:
448,192,129210,1,0,0:0:0:0:
320,192,129285,1,0,0:0:0:0:
192,192,129360,1,0,0:0:0:0:
64,192,129435,1,0,0:0:0:0:
192,192,129510,1,0,0:0:0:0:
320,192,129585,1,0,0:0:0:0:
448,192,129660,1,0,0:0:0:0:
64,192,129735,1,0,0:0:0:0:
192,192,129735,1,0,0:0:0:0:
320,192,130035,1,0,0:0:0:0:
64,192,130185,1,0,0:0:0:0:
320,192,130335,1,0,0:0:0:0:
192,192,130485,1,0,0:0:0:0:
64,192,130635,1,0,0:0:0:0:
448,192,130635,1,0,0:0:0:0:
448,192,130935,1,0,0:0:0:0:
320,192,130935,1,0,0:0:0:0:
192,192,131085,1,0,0:0:0:0:
64,192,131085,1,0,0:0:0:0:
320,192,131235,1,0,0:0:0:0:
192,192,131385,1,0,0:0:0:0:
448,192,131535,1,0,0:0:0:0:
320,192,131685,1,0,0:0:0:0:
64,192,131835,1,0,0:0:0:0:
192,192,131835,1,0,0:0:0:0:
320,192,131985,1,0,0:0:0:0:
448,192,132135,1,0,0:0:0:0:
64,192,132285,1,0,0:0:0:0:
192,192,132285,1,0,0:0:0:0:
320,192,132435,1,0,0:0:0:0:
448,192,132435,1,0,0:0:0:0:
192,192,132585,1,0,0:0:0:0:
64,192,132735,1,0,0:0:0:0:
320,192,132885,1,0,0:0:0:0:
64,192,133035,1,0,0:0:0:0:
192,192,133035,1,0,0:0:0:0:
448,192,133185,1,0,0:0:0:0:
320,192,133260,1,0,0:0:0:0:
192,192,133335,1,0,0:0:0:0:
64,192,133485,1,0,0:0:0:0:
448,192,133485,1,0,0:0:0:0:
320,192,133635,1,0,0:0:0:0:
192,192,133785,1,0,0:0:0:0:
64,192,133785,1,0,0:0:0:0:
448,192,133935,1,0,0:0:0:0:
64,192,134085,1,0,0:0:0:0:
192,192,134085,1,0,0:0:0:0:
320,192,134235,1,0,0:0:0:0:
192,192,134385,1,0,0:0:0:0:
448,192,134535,1,0,0:0:0:0:
320,192,134535,1,0,0:0:0:0:
192,192,134685,1,0,0:0:0:0:
64,192,134685,1,0,0:0:0:0:
448,192,134835,1,0,0:0:0:0:
320,192,134985,1,0,0:0:0:0:
64,192,135135,1,0,0:0:0:0:
192,192,135135,1,0,0:0:0:0:
448,192,135285,1,0,0:0:0:0:
320,192,135360,1,0,0:0:0:0:
192,192,135435,1,0,0:0:0:0:
64,192,135510,1,0,0:0:0:0:
320,192,135585,1,0,0:0:0:0:
448,192,135585,1,0,0:0:0:0:
64,192,135735,1,0,0:0:0:0:
192,192,135735,1,0,0:0:0:0:
448,192,135885,1,0,0:0:0:0:
320,192,135885,1,0,0:0:0:0:
64,192,136035,1,0,0:0:0:0:
192,192,136185,1,0,0:0:0:0:
64,192,136335,1,0,0:0:0:0:
448,192,136335,1,0,0:0:0:0:
320,192,136485,1,0,0:0:0:0:
192,192,136635,1,0,0:0:0:0:
64,192,136785,1,0,0:0:0:0:
320,192,136935,1,0,0:0:0:0:
448,192,136935,1,0,0:0:0:0:
64,192,137085,1,0,0:0:0:0:
192,192,137085,1,0,0:0:0:0:
448,192,137235,1,0,0:0:0:0:
192,192,137385,1,0,0:0:0:0:
64,192,137535,1,0,0:0:0:0:
192,192,137685,1,0,0:0:0:0:
448,192,137835,1,0,0:0:0:0:
320,192,137835,1,0,0:0:0:0:
64,192,137985,1,0,0:0:0:0:
192,192,138060,1,0,0:0:0:0:
320,192,138135,1,0,0:0:0:0:
192,192,138285,1,0,0:0:0:0:
64,192,138285,1,0,0:0:0:0:
320,192,138435,1,0,0:0:0:0:
448,192,138435,1,0,0:0:0:0:
64,192,138585,1,0,0:0:0:0:
192,192,138735,1,0,0:0:0:0:
448,192,138885,1,0,0:0:0:0:
320,192,139035,1,0,0:0:0:0:
448,192,139185,1,0,0:0:0:0:
192,192,139185,1,0,0:0:0:0:
64,192,139335,1,0,0:0:0:0:
192,192,139410,1,0,0:0:0:0:
320,192,139485,1,0,0:0:0:0:
448,192,139560,1,0,0:0:0:0:
64,192,139635,1,0,0:0:0:0:
192,192,139710,1,0,0:0:0:0:
320,192,139785,1,0,0:0:0:0:
448,192,139860,1,0,0:0:0:0:
192,192,139935,1,0,0:0:0:0:
64,192,140010,1,0,0:0:0:0:
448,192,140085,1,0,0:0:0:0:
320,192,140160,1,0,0:0:0:0:
64,192,140235,1,0,0:0:0:0:
192,192,140310,1,0,0:0:0:0:
320,192,140385,1,0,0:0:0:0:
448,192,140460,1,0,0:0:0:0:
64,192,140535,1,0,0:0:0:0:
192,192,140535,1,0,0:0:0:0:
320,192,140685,1,0,0:0:0:0:
192,192,140835,1,0,0:0:0:0:
448,192,140835,1,0,0:0:0:0:
64,192,140985,1,0,0:0:0:0:
320,192,141135,1,0,0:0:0:0:
192,192,141135,1,0,0:0:0:0:
448,192,141285,1,0,0:0:0:0:
64,192,141360,1,0,0:0:0:0:
192,192,141435,1,0,0:0:0:0:
320,192,141510,1,0,0:0:0:0:
448,192,141585,1,0,0:0:0:0:
64,192,141735,1,0,0:0:0:0:
192,192,141735,1,0,0:0:0:0:
320,192,141885,1,0,0:0:0:0:
64,192,142035,1,0,0:0:0:0:
448,192,142035,1,0,0:0:0:0:
192,192,142185,1,0,0:0:0:0:
448,192,142335,1,0,0:0:0:0:
320,192,142335,1,0,0:0:0:0:
64,192,142485,1,0,0:0:0:0:
448,192,142560,1,0,0:0:0:0:
320,192,142635,1,0,0:0:0:0:
192,192,142710,1,0,0:0:0:0:
64,192,142785,1,0,0:0:0:0:
320,192,142935,1,0,0:0:0:0:
448,192,142935,1,0,0:0:0:0:
192,192,143085,1,0,0:0:0:0:
64,192,143235,1,0,0:0:0:0:
320,192,143235,1,0,0:0:0:0:
448,192,143385,1,0,0:0:0:0:
320,192,143535,1,0,0:0:0:0:
192,192,143535,1,0,0:0:0:0:
64,192,143685,1,0,0:0:0:0:
448,192,143835,1,0,0:0:0:0:
192,192,143835,1,0,0:0:0:0:
320,192,143985,1,0,0:0:0:0:
64,192,144135,1,0,0:0:0:0:
448,192,144135,1,0,0:0:0:0:
192,192,144285,1,0,0:0:0:0:
448,192,144435,1,0,0:0:0:0:
320,192,144435,1,0,0:0:0:0:
64,192,144585,1,0,0:0:0:0:
320,192,144735,1,0,0:0:0:0:
192,192,144735,1,0,0:0:0:0:
448,192,144885,1,0,0:0:0:0:
320,192,145035,1,0,0:0:0:0:
64,192,145035,1,0,0:0:0:0:
192,192,145185,1,0,0:0:0:0:
448,192,145335,1,0,0:0:0:0:
320,192,145335,1,0,0:0:0:0:
64,192,145410,1,0,0:0:0:0:
192,192,145485,1,0,0:0:0:0:
320,192,145560,1,0,0:0:0:0:
448,192,145635,1,0,0:0:0:0:
320,192,145710,1,0,0:0:0:0:
192,192,145785,1,0,0:0:0:0:
320,192,145860,1,0,0:0:0:0:
64,192,145935,1,0,0:0:0:0:
192,192,146010,1,0,0:0:0:0:
320,192,146085,1,0,0:0:0:0:
448,192,146160,1,0,0:0:0:0:
320,192,146235,1,0,0:0:0:0:
192,192,146310,1,0,0:0:0:0:
64,192,146385,1,0,0:0:0:0:
192,192,146460,1,0,0:0:0:0:
448,192,146535,1,0,0:0:0:0:
320,192,146610,1,0,0:0:0:0:
192,192,146685,1,0,0:0:0:0:
64,192,146760,1,0,0:0:0:0:
192,192,146835,1,0,0:0:0:0:
320,192,146910,1,0,0:0:0:0:
448,192,146985,1,0,0:0:0:0:
64,192,147060,1,0,0:0:0:0:
192,192,147135,1,0,0:0:0:0:
320,192,147210,1,0,0:0:0:0:
448,192,147285,1,0,0:0:0:0:
320,192,147360,1,0,0:0:0:0:
64,192,147435,1,0,0:0:0:0:
192,192,147510,1,0,0:0:0:0:
320,192,147585,1,0,0:0:0:0:
448,192,147585,1,0,0:0:0:0:
64,192,147735,1,0,0:0:0:0:
192,192,147735,1,0,0:0:0:0:
448,192,147885,1,0,0:0:0:0:
320,192,148035,1,0,0:0:0:0:
192,192,148185,1,0,0:0:0:0:
64,192,148335,1,0,0:0:0:0:
320,192,148485,1,0,0:0:0:0:
448,192,148635,1,0,0:0:0:0:
320,192,148785,1,0,0:0:0:0:
64,192,148935,1,0,0:0:0:0:
320,192,149085,1,0,0:0:0:0:
192,192,149235,1,0,0:0:0:0:
448,192,149385,1,0,0:0:0:0:
64,192,149535,1,0,0:0:0:0:
192,192,149535,1,0,0:0:0:0:
320,192,149835,128,0,149935:0:0:0:0:
64,192,150135,1,0,0:0:0:0:
192,192,150135,1,0,0:0:0:0:
448,192,150135,1,0,0:0:0:0:
