osu file format v14

[General]
AudioFilename: audio.mp3
AudioLeadIn: 0
PreviewTime: 130934
Countdown: 0
SampleSet: Normal
StackLeniency: 0.7
Mode: 1
LetterboxInBreaks: 0
WidescreenStoryboard: 1

[Editor]
Bookmarks: 1372,15772,30172,49372,68572,82972,97372,102172,111772,121372,130972,150172,160972
DistanceSpacing: 1.4
BeatDivisor: 4
GridSize: 32
TimelineZoom: 0.6999986

[Metadata]
Title:Transceiver FX
TitleUnicode:Transceiver FX
Artist:Kobaryo
ArtistUnicode:Kobaryo
Creator:Hivie
Version:Shoshinsha
Source:
Tags:fa featured artist osu! electronic instrumental speedcore candy speed pops psycho filth records mappers' guild mpg pfsa002
BeatmapID:2813612
BeatmapSetID:1328018

[Difficulty]
HPDrainRate:9
CircleSize:2
OverallDifficulty:2
ApproachRate:9
SliderMultiplier:1.4
SliderTickRate:1

[Events]
//Background and Video events
0,0,"urmom.jpg",0,0
//Break Periods
2,97672,100372
//Storyboard Layer 0 (Background)
//Storyboard Layer 1 (Fail)
//Storyboard Layer 2 (Pass)
//Storyboard Layer 3 (Foreground)
//Storyboard Layer 4 (Overlay)
//Storyboard Sound Samples

[TimingPoints]
172,300,4,1,0,65,1,0
172,-125,4,1,0,65,0,0
1334,-125,4,1,0,100,0,0
10934,-125,4,1,0,80,0,0
15734,-125,4,1,0,100,0,0
20534,-125,4,1,0,80,0,0
25334,-125,4,1,0,100,0,0
30134,-125,4,1,0,80,0,0
39772,-125,4,1,0,90,0,0
49372,-125,4,1,0,100,0,1
66209,-125,4,1,0,75,0,1
66472,-125,4,1,0,75,0,0
68534,-125,4,1,0,100,0,0
78134,-125,4,1,0,80,0,0
82934,-125,4,1,0,100,0,0
97634,-125,4,1,0,70,0,0
101909,-125,4,1,0,100,0,0
111884,-125,4,1,0,70,0,0
121334,-125,4,1,0,90,0,0
129734,-125,4,1,0,80,0,0
130934,-125,4,1,0,100,0,0
130972,-125,4,1,0,100,0,1
147809,-125,4,1,0,75,0,1
148072,-125,4,1,0,75,0,0
148934,-125,4,1,0,70,0,0
150134,-125,4,1,0,100,0,0

[HitObjects]
256,192,172,5,8,0:0:0:0:
256,96,1372,1,4,0:0:0:0:
256,192,2272,1,8,0:0:0:0:
256,192,3472,1,8,0:0:0:0:
256,192,4672,1,0,0:0:0:0:
256,192,5872,1,0,0:0:0:0:
256,96,6172,1,12,0:0:0:0:
256,192,7372,1,0,0:0:0:0:
256,192,7972,1,8,0:0:0:0:
256,192,8572,1,0,0:0:0:0:
256,192,9772,1,0,0:0:0:0:
256,192,10372,1,0,0:0:0:0:
256,192,10972,1,8,0:0:0:0:
256,192,11872,1,0,0:0:0:0:
256,192,13072,1,0,0:0:0:0:
256,192,14272,1,0,0:0:0:0:
256,96,15772,1,12,0:0:0:0:
256,192,16972,1,8,0:0:0:0:
256,192,17572,1,0,0:0:0:0:
256,192,18172,1,8,0:0:0:0:
256,192,19372,1,8,0:0:0:0:
256,192,19972,1,0,0:0:0:0:
256,192,20572,5,0,0:0:0:0:
256,192,21472,1,0,0:0:0:0:
256,192,22672,1,0,0:0:0:0:
256,192,23872,1,0,0:0:0:0:
256,96,25372,1,12,0:0:0:0:
256,192,26572,1,0,0:0:0:0:
256,192,27172,1,8,0:0:0:0:
256,192,27772,1,8,0:0:0:0:
256,192,28972,1,0,0:0:0:0:
256,192,29572,1,8,0:0:0:0:
256,192,30172,5,0,0:0:0:0:
256,192,31372,1,0,0:0:0:0:
256,192,32572,1,0,0:0:0:0:
256,192,34972,1,0,0:0:0:0:
256,192,36172,1,0,0:0:0:0:
256,192,37372,1,0,0:0:0:0:
256,192,38572,1,8,0:0:0:0:
256,192,39772,1,0,0:0:0:0:
256,192,41572,1,8,0:0:0:0:
256,192,42172,1,0,0:0:0:0:
256,192,43972,1,8,0:0:0:0:
256,192,44572,1,0,0:0:0:0:
256,192,45772,1,0,0:0:0:0:
256,192,46372,1,8,0:0:0:0:
256,192,46972,1,0,0:0:0:0:
256,192,48172,1,0,0:0:0:0:
256,96,49372,1,4,0:0:0:0:
256,192,50572,1,0,0:0:0:0:
256,192,51172,1,8,0:0:0:0:
256,96,51772,1,4,0:0:0:0:
256,192,52972,1,8,0:0:0:0:
256,192,53572,1,0,0:0:0:0:
256,96,54172,1,12,0:0:0:0:
256,192,55372,1,0,0:0:0:0:
256,96,56572,1,4,0:0:0:0:
256,192,57172,1,8,0:0:0:0:
256,192,57772,1,0,0:0:0:0:
256,192,58372,1,8,0:0:0:0:
256,96,58972,5,4,0:0:0:0:
256,192,60172,1,0,0:0:0:0:
256,192,60772,1,8,0:0:0:0:
256,96,61372,1,4,0:0:0:0:
256,192,62572,1,8,0:0:0:0:
256,192,63172,1,8,0:0:0:0:
256,96,63772,1,4,0:0:0:0:
256,192,64372,1,8,0:0:0:0:
256,192,64972,1,0,0:0:0:0:
256,192,65572,1,8,0:0:0:0:
256,96,66172,1,4,0:0:0:0:
256,192,66472,12,0,67972,0:0:0:0:
256,96,68572,5,12,0:0:0:0:
256,192,69472,1,8,0:0:0:0:
256,192,70672,1,8,0:0:0:0:
256,192,71872,1,0,0:0:0:0:
256,192,73072,1,0,0:0:0:0:
256,96,73372,1,12,0:0:0:0:
256,192,74572,1,0,0:0:0:0:
256,192,75172,1,8,0:0:0:0:
256,192,75772,1,0,0:0:0:0:
256,192,76972,1,8,0:0:0:0:
256,192,77572,1,8,0:0:0:0:
256,192,78172,1,0,0:0:0:0:
256,192,79072,1,0,0:0:0:0:
256,192,80272,1,0,0:0:0:0:
256,192,81472,1,0,0:0:0:0:
256,96,82972,1,12,0:0:0:0:
256,192,84172,1,0,0:0:0:0:
256,192,84772,1,8,0:0:0:0:
256,192,85372,1,0,0:0:0:0:
256,192,86572,1,0,0:0:0:0:
256,192,87172,1,0,0:0:0:0:
256,192,87772,5,8,0:0:0:0:
256,192,88972,1,8,0:0:0:0:
256,192,90172,1,8,0:0:0:0:
256,192,91372,1,8,0:0:0:0:
256,192,91972,1,8,0:0:0:0:
256,96,92572,1,4,0:0:0:0:
256,192,93772,1,0,0:0:0:0:
256,192,94372,1,0,0:0:0:0:
256,192,94972,1,8,0:0:0:0:
256,192,96172,1,0,0:0:0:0:
256,192,96772,1,0,0:0:0:0:
256,96,97372,5,4,0:0:0:0:
256,192,100972,12,0,101572,0:0:0:0:
256,96,102172,5,4,0:0:0:0:
256,192,103372,1,8,0:0:0:0:
256,192,103972,1,0,0:0:0:0:
256,192,104572,1,8,0:0:0:0:
256,192,105772,1,0,0:0:0:0:
256,192,106372,1,8,0:0:0:0:
256,192,106972,1,0,0:0:0:0:
256,192,107572,1,0,0:0:0:0:
256,192,108172,1,8,0:0:0:0:
256,192,109372,1,8,0:0:0:0:
256,192,109972,1,8,0:0:0:0:
256,192,110572,1,0,0:0:0:0:
256,192,111172,1,0,0:0:0:0:
256,96,111772,1,12,0:0:0:0:
256,192,112072,12,0,114172,0:0:0:0:
256,192,116572,5,0,0:0:0:0:
256,192,117772,1,0,0:0:0:0:
256,192,118972,1,0,0:0:0:0:
256,192,120172,12,0,120772,0:0:0:0:
256,192,121372,5,0,0:0:0:0:
256,192,122572,5,8,0:0:0:0:
256,192,123772,5,0,0:0:0:0:
256,192,124372,1,0,0:0:0:0:
256,192,124972,5,8,0:0:0:0:
256,192,126172,5,0,0:0:0:0:
256,192,126772,1,8,0:0:0:0:
256,192,127372,5,0,0:0:0:0:
256,192,127972,1,0,0:0:0:0:
256,192,128572,12,0,129172,0:0:0:0:
256,192,129772,5,8,0:0:0:0:
256,96,130972,1,4,0:0:0:0:
256,192,132172,1,0,0:0:0:0:
256,192,132772,1,8,0:0:0:0:
256,96,133372,1,4,0:0:0:0:
256,192,134572,1,8,0:0:0:0:
256,192,135172,1,0,0:0:0:0:
256,96,135772,1,12,0:0:0:0:
256,192,136972,1,0,0:0:0:0:
256,96,138172,1,4,0:0:0:0:
256,192,138772,1,8,0:0:0:0:
256,192,139372,1,0,0:0:0:0:
256,192,139972,1,8,0:0:0:0:
256,96,140572,5,4,0:0:0:0:
256,192,141772,1,0,0:0:0:0:
256,192,142372,1,8,0:0:0:0:
256,96,142972,1,4,0:0:0:0:
256,192,144172,1,8,0:0:0:0:
256,192,144772,1,8,0:0:0:0:
256,96,145372,1,4,0:0:0:0:
256,192,145972,1,8,0:0:0:0:
256,192,146572,1,0,0:0:0:0:
256,192,147172,1,8,0:0:0:0:
256,96,147772,1,4,0:0:0:0:
256,192,148072,12,0,148972,0:0:0:0:
256,96,150172,5,12,0:0:0:0:
256,192,150472,12,8,160972,0:0:0:0:
