osu file format v14

[General]
AudioFilename: audio.mp3
AudioLeadIn: 0
PreviewTime: 130934
Countdown: 0
SampleSet: Normal
StackLeniency: 0.7
Mode: 1
LetterboxInBreaks: 0
WidescreenStoryboard: 0

[Editor]
Bookmarks: 1372,15772,30172,49372,68572,82972,97372,102172,111772,121372,130972,150172,160972
DistanceSpacing: 1.4
BeatDivisor: 4
GridSize: 32
TimelineZoom: 3.399998

[Metadata]
Title:Transceiver FX
TitleUnicode:Transceiver FX
Artist:Kobaryo
ArtistUnicode:Kobaryo
Creator:Hivie
Version:Challenge
Source:
Tags:fa featured artist osu! electronic instrumental speedcore candy speed pops psycho filth records mappers' guild mpg pfsa002
BeatmapID:2751152
BeatmapSetID:1328018

[Difficulty]
HPDrainRate:6
CircleSize:2
OverallDifficulty:7
ApproachRate:9
SliderMultiplier:1.4
SliderTickRate:1

[Events]
//Background and Video events
0,0,"urmom.jpg",0,0
//Break Periods
2,97672,100372
//Storyboard Layer 0 (Background)
//Storyboard Layer 1 (Fail)
//Storyboard Layer 2 (Pass)
//Storyboard Layer 3 (Foreground)
//Storyboard Layer 4 (Overlay)
//Storyboard Sound Samples

[TimingPoints]
172,300,4,1,0,65,1,0
172,-142.857142857143,4,1,0,65,0,0
434,-138.888888888889,4,1,0,65,0,0
734,-135.135135135135,4,1,0,65,0,0
1034,-131.578947368421,4,1,0,65,0,0
1334,-62.5,4,1,0,100,0,0
1484,-100,4,1,0,100,0,0
10972,-100,4,1,0,80,0,0
11234,-142.857142857143,4,1,0,80,0,0
15284,-147.058823529412,4,1,0,80,0,0
15434,-151.515151515152,4,1,0,80,0,0
15734,-62.5,4,1,0,100,0,0
15884,-100,4,1,0,100,0,0
20572,-100,4,1,0,80,0,0
20834,-142.857142857143,4,1,0,80,0,0
24884,-147.058823529412,4,1,0,80,0,0
25034,-151.515151515152,4,1,0,80,0,0
25334,-62.5,4,1,0,100,0,0
25484,-100,4,1,0,100,0,0
30134,-62.5,4,1,0,80,0,0
30434,-142.857142857143,4,1,0,80,0,0
39772,-142.857142857143,4,1,0,90,0,0
40034,-141.594524256558,4,1,0,90,0,0
40334,-140.354029002757,4,1,0,90,0,0
40634,-139.135080684433,4,1,0,90,0,0
40934,-137.93731300873,4,1,0,90,0,0
41234,-136.759804652295,4,1,0,90,0,0
41534,-135.602229843068,4,1,0,90,0,0
41834,-134.464086659415,4,1,0,90,0,0
42134,-133.344889890457,4,1,0,90,0,0
42434,-132.244170346361,4,1,0,90,0,0
42734,-131.161474202505,4,1,0,90,0,0
43034,-130.096362375612,4,1,0,90,0,0
43334,-129.048576465153,4,1,0,90,0,0
43634,-128.01736939668,4,1,0,90,0,0
43934,-127.00251210969,4,1,0,90,0,0
44234,-126.003618823933,4,1,0,90,0,0
44534,-125,4,1,0,90,0,0
44684,-123.968427720828,4,1,0,90,0,0
44834,-122.953591167014,4,1,0,90,0,0
44909,-122.452378270091,4,1,0,90,0,0
45059,-121.462259853929,4,1,0,90,0,0
45134,-120.973107678163,4,1,0,90,0,0
45284,-120.006672370984,4,1,0,90,0,0
45359,-119.52915076929,4,1,0,90,0,0
45434,-119.055414342606,4,1,0,90,0,0
45584,-118.119257927574,4,1,0,90,0,0
45734,-117.197709019184,4,1,0,90,0,0
45884,-116.290293132942,4,1,0,90,0,0
46034,-115.396953982003,4,1,0,90,0,0
46109,-114.955345596003,4,1,0,90,0,0
46259,-114.082321803413,4,1,0,90,0,0
46334,-113.650699122276,4,1,0,90,0,0
46484,-112.797305497966,4,1,0,90,0,0
46559,-112.375333614272,4,1,0,90,0,0
46634,-111.956507136108,4,1,0,90,0,0
46784,-111.128274255691,4,1,0,90,0,0
46934,-110.312083916608,4,1,0,90,0,0
47084,-109.507915232113,4,1,0,90,0,0
47159,-109.110152154107,4,1,0,90,0,0
47234,-108.715268189695,4,1,0,90,0,0
47309,-108.323349531285,4,1,0,90,0,0
47459,-107.547697403799,4,1,0,90,0,0
47534,-107.164136878609,4,1,0,90,0,0
47684,-106.404938891644,4,1,0,90,0,0
47759,-106.029359529654,4,1,0,90,0,0
47834,-105.656533852882,4,1,0,90,0,0
47984,-104.918473100477,4,1,0,90,0,0
48134,-104.190760780097,4,1,0,90,0,0
48284,-103.472966652732,4,1,0,90,0,0
48359,-103.1178719771,4,1,0,90,0,0
48434,-102.765100560789,4,1,0,90,0,0
48509,-102.414734612698,4,1,0,90,0,0
48584,-102.066853789232,4,1,0,90,0,0
48659,-101.721224845613,4,1,0,90,0,0
48734,-101.377928808363,4,1,0,90,0,0
48784,-101.150383309378,4,1,0,90,0,0
48834,-100.923856986858,4,1,0,90,0,0
48884,-100.698343008766,4,1,0,90,0,0
48959,-100.361905029537,4,1,0,90,0,0
49034,-100.027707675026,4,1,0,90,0,0
49334,-58.8235294117647,4,1,0,90,0,0
49372,-58.8235294117647,4,1,0,100,0,1
49484,-90.9090909090909,4,1,0,100,0,1
66209,-25,4,1,0,75,0,1
66472,-100,4,1,0,75,0,0
68234,-142.857142857143,4,1,0,75,0,0
68534,-62.5,4,1,0,100,0,0
68684,-100,4,1,0,100,0,0
78172,-100,4,1,0,80,0,0
78434,-142.857142857143,4,1,0,80,0,0
82484,-147.058823529412,4,1,0,80,0,0
82634,-151.515151515152,4,1,0,80,0,0
82934,-62.5,4,1,0,100,0,0
83084,-100,4,1,0,100,0,0
87547,-95.3307022059524,4,1,0,100,0,0
87622,-91.0780821506086,4,1,0,100,0,0
87672,-88.4476725879435,4,1,0,100,0,0
87722,-85.964934903053,4,1,0,100,0,0
87772,-83.6177731249132,4,1,0,100,0,0
91822,-88.1817885206711,4,1,0,100,0,0
91922,-90.8239640845716,4,1,0,100,0,0
92022,-93.6293644157855,4,1,0,100,0,0
92122,-96.6135034761539,4,1,0,100,0,0
92222,-99.7942243094739,4,1,0,100,0,0
92534,-62.3800353944321,4,1,0,100,0,0
92684,-100,4,1,0,100,0,0
96659,-102.006675316833,4,1,0,100,0,0
96734,-104.095534717943,4,1,0,100,0,0
96809,-106.27173256931,4,1,0,100,0,0
96884,-108.540981275595,4,1,0,100,0,0
96959,-110.909133256215,4,1,0,100,0,0
97334,-62.5,4,1,0,100,0,0
97634,-125,4,1,0,70,0,0
101909,-100,4,1,0,100,0,0
110909,-101.671272375305,4,1,0,100,0,0
110984,-103.399464183977,4,1,0,100,0,0
111059,-105.18731230639,4,1,0,100,0,0
111134,-107.038074513485,4,1,0,100,0,0
111209,-108.955249899761,4,1,0,100,0,0
111284,-110.9422323796,4,1,0,100,0,0
111434,-117.647058823529,4,1,0,100,0,0
111584,-125,4,1,0,100,0,0
111734,-62.5,4,1,0,100,0,0
111884,-25,4,1,0,70,0,0
112034,-142.857142857143,4,1,0,70,0,0
121334,-111.111111111111,4,1,0,90,0,0
126284,-109.893491228302,4,1,0,90,0,0
126359,-109.294634289224,4,1,0,90,0,0
126434,-108.702150672051,4,1,0,90,0,0
126509,-108.116172990201,4,1,0,90,0,0
126659,-106.962968350727,4,1,0,90,0,0
126734,-106.395542452353,4,1,0,90,0,0
126884,-105.278561810623,4,1,0,90,0,0
127034,-104.184681934585,4,1,0,90,0,0
127184,-103.113406186392,4,1,0,90,0,0
127334,-102.063936932652,4,1,0,90,0,0
127484,-101.035512972455,4,1,0,90,0,0
127634,-100.027707675026,4,1,0,90,0,0
127709,-99.5313070749839,4,1,0,90,0,0
127784,-99.0398090512481,4,1,0,90,0,0
127859,-98.5531413321034,4,1,0,90,0,0
127934,-98.0711368798472,4,1,0,90,0,0
128084,-97.1213239578882,4,1,0,90,0,0
128234,-96.1897323232129,4,1,0,90,0,0
128384,-95.2758426195521,4,1,0,90,0,0
128534,-83.3333333333333,4,1,0,90,0,0
128609,-85.0969679950303,4,1,0,90,0,0
128684,-86.936942027839,4,1,0,90,0,0
128759,-88.8581637105037,4,1,0,90,0,0
128834,-90.8663011418259,4,1,0,90,0,0
128909,-92.9672160409353,4,1,0,90,0,0
128984,-95.1676711614358,4,1,0,90,0,0
129059,-97.474722367622,4,1,0,90,0,0
129134,-99.8965072185216,4,1,0,90,0,0
129209,-102.441592925793,4,1,0,90,0,0
129284,-105.119862923699,4,1,0,90,0,0
129359,-107.941819359365,4,1,0,90,0,0
129434,-110.91958995246,4,1,0,90,0,0
129509,-114.066185763627,4,1,0,90,0,0
129584,-117.396658656301,4,1,0,90,0,0
129659,-120.927319053429,4,1,0,90,0,0
129734,-124.676930902798,4,1,0,80,0,0
130034,-133.333333333333,4,1,0,80,0,0
130334,-142.857142857143,4,1,0,80,0,0
130634,-55.5555555555556,4,1,0,100,0,0
130934,-62.5,4,1,0,100,0,0
130972,-62.5,4,1,0,100,0,1
131084,-90.9090909090909,4,1,0,100,0,1
147809,-25,4,1,0,75,0,1
148072,-100,4,1,0,75,0,0
148934,-142.857142857143,4,1,0,70,0,0
150134,-62.5,4,1,0,100,0,0
150209,-25,4,1,0,100,0,0
150434,-100,4,1,0,100,0,0

[HitObjects]
256,192,172,5,8,0:0:0:0:
256,192,472,1,8,0:0:0:0:
256,192,772,1,8,0:0:0:0:
256,192,1072,1,8,0:0:0:0:
256,96,1372,1,4,0:0:0:0:
256,192,1522,1,0,0:0:0:0:
256,192,1672,1,8,0:0:0:0:
256,192,1822,1,0,0:0:0:0:
256,192,1897,1,0,0:0:0:0:
256,192,1972,1,0,0:0:0:0:
256,192,2122,1,0,0:0:0:0:
256,192,2272,1,8,0:0:0:0:
256,192,2572,1,0,0:0:0:0:
256,192,2722,1,0,0:0:0:0:
256,192,2872,1,8,0:0:0:0:
256,192,3022,1,8,0:0:0:0:
256,192,3097,1,8,0:0:0:0:
256,192,3172,1,0,0:0:0:0:
256,192,3322,1,0,0:0:0:0:
256,192,3472,1,8,0:0:0:0:
256,192,3547,1,8,0:0:0:0:
256,192,3622,1,8,0:0:0:0:
256,192,3697,1,8,0:0:0:0:
256,192,3772,1,0,0:0:0:0:
256,192,3922,1,0,0:0:0:0:
256,192,4072,1,8,0:0:0:0:
256,192,4222,1,0,0:0:0:0:
256,192,4297,1,0,0:0:0:0:
256,192,4372,1,0,0:0:0:0:
256,192,4522,1,0,0:0:0:0:
256,192,4672,1,8,0:0:0:0:
256,192,4972,1,0,0:0:0:0:
256,192,5122,1,0,0:0:0:0:
256,192,5272,1,8,0:0:0:0:
256,192,5422,1,0,0:0:0:0:
256,192,5497,1,0,0:0:0:0:
256,192,5572,1,8,0:0:0:0:
256,192,5722,1,0,0:0:0:0:
160,192,5872,1,8,0:0:0:0:
160,192,5922,1,8,0:0:0:0:
160,192,5972,1,8,0:0:0:0:
160,192,6022,1,0,0:0:0:0:
256,192,6097,1,0,0:0:0:0:
256,96,6172,1,12,0:0:0:0:
256,192,6322,1,8,0:0:0:0:
256,192,6472,1,0,0:0:0:0:
256,192,6622,1,0,0:0:0:0:
256,192,6697,1,0,0:0:0:0:
256,192,6772,1,8,0:0:0:0:
256,192,6922,1,0,0:0:0:0:
256,192,7072,1,8,0:0:0:0:
256,192,7147,1,8,0:0:0:0:
256,192,7222,1,0,0:0:0:0:
256,192,7297,1,0,0:0:0:0:
256,192,7372,1,8,0:0:0:0:
256,192,7522,1,0,0:0:0:0:
256,192,7672,1,0,0:0:0:0:
256,192,7822,1,8,0:0:0:0:
256,192,7897,1,0,0:0:0:0:
256,192,7972,1,8,0:0:0:0:
256,192,8122,1,0,0:0:0:0:
256,192,8272,1,8,0:0:0:0:
256,192,8347,1,8,0:0:0:0:
256,192,8422,1,8,0:0:0:0:
256,192,8497,1,8,0:0:0:0:
256,192,8572,1,0,0:0:0:0:
256,192,8722,1,8,0:0:0:0:
256,192,8872,1,0,0:0:0:0:
256,192,9022,1,0,0:0:0:0:
256,192,9097,1,0,0:0:0:0:
256,192,9172,1,8,0:0:0:0:
256,192,9322,1,0,0:0:0:0:
256,192,9472,1,8,0:0:0:0:
256,192,9547,1,8,0:0:0:0:
256,192,9622,1,8,0:0:0:0:
256,192,9697,1,0,0:0:0:0:
256,192,9772,1,8,0:0:0:0:
256,192,9922,1,0,0:0:0:0:
256,192,10072,1,0,0:0:0:0:
256,192,10222,1,8,0:0:0:0:
256,192,10297,1,0,0:0:0:0:
256,192,10372,1,8,0:0:0:0:
256,192,10447,1,8,0:0:0:0:
256,192,10522,1,0,0:0:0:0:
256,192,10672,1,8,0:0:0:0:
256,192,10747,1,0,0:0:0:0:
160,192,10822,1,8,0:0:0:0:
160,192,10872,1,8,0:0:0:0:
160,192,10922,1,8,0:0:0:0:
160,192,10972,1,0,0:0:0:0:
256,192,11272,1,8,0:0:0:0:
256,192,11422,1,0,0:0:0:0:
256,192,11722,1,0,0:0:0:0:
256,192,11872,1,8,0:0:0:0:
256,192,12172,1,0,0:0:0:0:
256,192,12472,1,8,0:0:0:0:
256,192,12622,1,0,0:0:0:0:
256,192,12922,1,0,0:0:0:0:
256,192,13072,1,8,0:0:0:0:
256,192,13222,1,8,0:0:0:0:
256,192,13372,1,0,0:0:0:0:
256,192,13672,1,8,0:0:0:0:
256,192,13822,1,0,0:0:0:0:
256,192,14122,1,0,0:0:0:0:
256,192,14272,1,8,0:0:0:0:
256,192,14572,1,0,0:0:0:0:
256,192,14872,1,8,0:0:0:0:
256,192,15022,1,0,0:0:0:0:
256,192,15322,1,0,0:0:0:0:
256,192,15472,1,8,0:0:0:0:
256,96,15772,1,4,0:0:0:0:
256,192,15922,1,8,0:0:0:0:
256,192,16072,1,0,0:0:0:0:
256,192,16147,1,0,0:0:0:0:
256,192,16222,1,0,0:0:0:0:
256,192,16372,1,8,0:0:0:0:
256,192,16522,1,0,0:0:0:0:
256,192,16672,1,8,0:0:0:0:
256,192,16747,1,8,0:0:0:0:
256,192,16822,1,0,0:0:0:0:
256,192,16897,1,0,0:0:0:0:
256,192,16972,1,8,0:0:0:0:
256,192,17122,1,0,0:0:0:0:
256,192,17272,1,8,0:0:0:0:
256,192,17347,1,0,0:0:0:0:
256,192,17422,1,0,0:0:0:0:
256,192,17572,1,8,0:0:0:0:
256,192,17722,1,0,0:0:0:0:
256,192,17872,1,8,0:0:0:0:
256,192,17947,1,8,0:0:0:0:
256,192,18022,1,8,0:0:0:0:
256,192,18097,1,8,0:0:0:0:
256,192,18172,1,0,0:0:0:0:
256,192,18322,1,8,0:0:0:0:
256,192,18472,1,0,0:0:0:0:
256,192,18547,1,0,0:0:0:0:
256,192,18622,1,0,0:0:0:0:
256,192,18772,1,8,0:0:0:0:
256,192,18922,1,0,0:0:0:0:
256,192,19072,1,8,0:0:0:0:
256,192,19147,1,8,0:0:0:0:
256,192,19222,1,0,0:0:0:0:
256,192,19297,1,8,0:0:0:0:
256,192,19372,1,0,0:0:0:0:
256,192,19522,1,0,0:0:0:0:
256,192,19672,1,0,0:0:0:0:
256,192,19822,1,8,0:0:0:0:
256,192,19897,1,0,0:0:0:0:
256,192,19972,1,8,0:0:0:0:
256,192,20047,1,8,0:0:0:0:
256,192,20122,1,0,0:0:0:0:
256,192,20272,1,8,0:0:0:0:
256,192,20347,1,0,0:0:0:0:
160,192,20422,1,8,0:0:0:0:
160,192,20472,1,8,0:0:0:0:
160,192,20522,1,8,0:0:0:0:
160,192,20572,1,0,0:0:0:0:
256,192,20872,1,8,0:0:0:0:
256,192,21022,1,0,0:0:0:0:
256,192,21322,1,0,0:0:0:0:
256,192,21472,1,8,0:0:0:0:
256,192,21772,1,0,0:0:0:0:
256,192,22072,1,8,0:0:0:0:
256,192,22222,1,0,0:0:0:0:
256,192,22522,1,0,0:0:0:0:
256,192,22672,1,8,0:0:0:0:
256,192,22822,1,8,0:0:0:0:
256,192,22972,1,0,0:0:0:0:
256,192,23272,1,8,0:0:0:0:
256,192,23422,1,0,0:0:0:0:
256,192,23722,1,0,0:0:0:0:
256,192,23872,1,8,0:0:0:0:
256,192,24172,1,0,0:0:0:0:
256,192,24472,1,8,0:0:0:0:
256,192,24622,1,0,0:0:0:0:
256,192,24922,1,0,0:0:0:0:
256,192,25072,1,8,0:0:0:0:
256,96,25372,1,4,0:0:0:0:
256,192,25522,1,8,0:0:0:0:
256,192,25672,1,0,0:0:0:0:
256,192,25822,1,0,0:0:0:0:
256,192,25897,1,0,0:0:0:0:
256,192,25972,1,8,0:0:0:0:
256,192,26122,1,0,0:0:0:0:
256,192,26272,1,8,0:0:0:0:
256,192,26347,1,8,0:0:0:0:
256,192,26422,1,0,0:0:0:0:
256,192,26497,1,0,0:0:0:0:
256,192,26572,1,8,0:0:0:0:
256,192,26722,1,0,0:0:0:0:
256,192,26872,1,0,0:0:0:0:
256,192,27022,1,8,0:0:0:0:
256,192,27097,1,0,0:0:0:0:
256,192,27172,1,8,0:0:0:0:
256,192,27322,1,0,0:0:0:0:
256,192,27472,1,8,0:0:0:0:
256,192,27547,1,8,0:0:0:0:
256,192,27622,1,8,0:0:0:0:
256,192,27697,1,8,0:0:0:0:
256,192,27772,1,0,0:0:0:0:
256,192,27922,1,8,0:0:0:0:
256,192,28072,1,0,0:0:0:0:
256,192,28222,1,0,0:0:0:0:
256,192,28297,1,0,0:0:0:0:
256,192,28372,1,8,0:0:0:0:
256,192,28522,1,0,0:0:0:0:
256,192,28672,1,8,0:0:0:0:
256,192,28747,1,8,0:0:0:0:
256,192,28822,1,8,0:0:0:0:
256,192,28897,1,0,0:0:0:0:
256,192,28972,1,8,0:0:0:0:
256,192,29122,1,0,0:0:0:0:
256,192,29272,1,0,0:0:0:0:
256,192,29422,1,8,0:0:0:0:
256,192,29497,1,0,0:0:0:0:
256,192,29572,1,8,0:0:0:0:
256,192,29647,1,8,0:0:0:0:
256,192,29722,1,0,0:0:0:0:
256,192,29797,1,0,0:0:0:0:
256,192,29872,1,8,0:0:0:0:
256,96,30172,1,4,0:0:0:0:
256,192,30472,1,8,0:0:0:0:
256,192,30622,1,8,0:0:0:0:
256,192,30922,1,8,0:0:0:0:
256,192,31372,1,0,0:0:0:0:
256,192,31672,1,8,0:0:0:0:
256,192,31822,1,8,0:0:0:0:
256,192,32572,1,0,0:0:0:0:
256,192,32872,1,8,0:0:0:0:
256,192,33022,1,8,0:0:0:0:
256,192,33322,1,8,0:0:0:0:
256,192,33772,1,0,0:0:0:0:
256,192,34072,1,8,0:0:0:0:
256,192,34222,1,8,0:0:0:0:
256,192,34522,1,8,0:0:0:0:
256,192,34822,1,8,0:0:0:0:
256,192,34972,1,0,0:0:0:0:
256,192,35272,1,8,0:0:0:0:
256,192,35422,1,8,0:0:0:0:
256,192,35722,1,8,0:0:0:0:
256,192,36172,1,0,0:0:0:0:
256,192,36472,1,8,0:0:0:0:
256,192,36622,1,8,0:0:0:0:
256,192,37372,1,0,0:0:0:0:
256,192,37672,1,8,0:0:0:0:
256,192,37822,1,8,0:0:0:0:
256,192,38122,1,8,0:0:0:0:
256,192,38572,1,0,0:0:0:0:
256,192,38872,1,8,0:0:0:0:
256,192,39022,1,8,0:0:0:0:
256,192,39172,1,8,0:0:0:0:
256,192,39322,1,8,0:0:0:0:
256,192,39622,1,8,0:0:0:0:
256,192,39772,1,0,0:0:0:0:
256,192,40072,1,8,0:0:0:0:
256,192,40372,1,8,0:0:0:0:
256,192,40672,1,8,0:0:0:0:
256,192,40972,1,0,0:0:0:0:
256,192,41272,1,8,0:0:0:0:
256,192,41572,1,8,0:0:0:0:
256,192,41872,1,8,0:0:0:0:
256,192,42172,1,0,0:0:0:0:
256,192,42472,1,8,0:0:0:0:
256,192,42772,1,8,0:0:0:0:
256,192,43072,1,8,0:0:0:0:
256,192,43372,1,0,0:0:0:0:
256,192,43672,1,8,0:0:0:0:
256,192,43972,1,8,0:0:0:0:
256,192,44272,1,8,0:0:0:0:
256,192,44572,1,0,0:0:0:0:
256,192,44722,1,0,0:0:0:0:
256,192,44872,1,8,0:0:0:0:
256,192,44947,1,0,0:0:0:0:
256,192,45097,1,0,0:0:0:0:
256,192,45172,1,8,0:0:0:0:
256,192,45322,1,0,0:0:0:0:
256,192,45397,1,8,0:0:0:0:
256,192,45472,1,0,0:0:0:0:
256,192,45622,1,8,0:0:0:0:
256,192,45772,1,0,0:0:0:0:
256,192,45922,1,0,0:0:0:0:
256,192,46072,1,8,0:0:0:0:
256,192,46147,1,0,0:0:0:0:
256,192,46297,1,8,0:0:0:0:
256,192,46372,1,0,0:0:0:0:
256,192,46522,1,0,0:0:0:0:
256,192,46597,1,0,0:0:0:0:
256,192,46672,1,8,0:0:0:0:
256,192,46822,1,8,0:0:0:0:
256,192,46972,1,0,0:0:0:0:
256,192,47122,1,0,0:0:0:0:
256,192,47197,1,0,0:0:0:0:
256,192,47272,1,8,0:0:0:0:
256,192,47347,1,0,0:0:0:0:
256,192,47497,1,8,0:0:0:0:
256,192,47572,1,0,0:0:0:0:
256,192,47722,1,0,0:0:0:0:
256,192,47797,1,8,0:0:0:0:
256,192,47872,1,0,0:0:0:0:
256,192,48022,1,8,0:0:0:0:
256,192,48172,1,0,0:0:0:0:
256,192,48322,1,0,0:0:0:0:
256,192,48397,1,0,0:0:0:0:
256,192,48472,1,8,0:0:0:0:
256,192,48547,1,0,0:0:0:0:
256,192,48622,1,8,0:0:0:0:
256,192,48697,1,0,0:0:0:0:
160,192,48772,1,8,0:0:0:0:
160,192,48822,1,8,0:0:0:0:
160,192,48872,1,8,0:0:0:0:
160,192,48922,1,0,0:0:0:0:
256,192,48997,1,0,0:0:0:0:
256,192,49072,1,8,0:0:0:0:
256,96,49372,1,4,0:0:0:0:
256,192,49522,1,8,0:0:0:0:
256,192,49597,1,8,0:0:0:0:
256,192,49672,1,0,0:0:0:0:
256,192,49747,1,8,0:0:0:0:
256,192,49897,1,8,0:0:0:0:
256,192,49972,1,0,0:0:0:0:
256,192,50122,1,8,0:0:0:0:
256,192,50197,1,8,0:0:0:0:
256,192,50272,1,0,0:0:0:0:
256,192,50347,1,0,0:0:0:0:
256,192,50422,1,8,0:0:0:0:
256,192,50572,1,0,0:0:0:0:
256,192,50722,1,8,0:0:0:0:
256,192,50872,1,0,0:0:0:0:
256,192,50947,1,8,0:0:0:0:
256,192,51022,1,0,0:0:0:0:
256,192,51097,1,8,0:0:0:0:
256,192,51172,1,8,0:0:0:0:
256,192,51322,1,0,0:0:0:0:
256,192,51472,1,8,0:0:0:0:
256,192,51547,1,0,0:0:0:0:
256,192,51622,1,8,0:0:0:0:
256,192,51697,1,8,0:0:0:0:
256,96,51772,1,4,0:0:0:0:
256,192,51922,1,8,0:0:0:0:
256,192,51997,1,8,0:0:0:0:
256,192,52072,1,0,0:0:0:0:
256,192,52147,1,8,0:0:0:0:
256,192,52297,1,8,0:0:0:0:
256,192,52372,1,0,0:0:0:0:
256,192,52522,1,8,0:0:0:0:
256,192,52597,1,8,0:0:0:0:
256,192,52672,1,0,0:0:0:0:
256,192,52747,1,0,0:0:0:0:
256,192,52822,1,8,0:0:0:0:
256,192,52972,1,0,0:0:0:0:
256,192,53122,1,8,0:0:0:0:
256,192,53197,1,0,0:0:0:0:
256,192,53272,1,0,0:0:0:0:
256,192,53347,1,8,0:0:0:0:
256,192,53497,1,8,0:0:0:0:
256,192,53572,1,8,0:0:0:0:
256,192,53647,1,0,0:0:0:0:
256,192,53722,1,8,0:0:0:0:
256,192,53797,1,0,0:0:0:0:
160,192,53872,1,8,0:0:0:0:
160,192,53922,1,8,0:0:0:0:
160,192,53972,1,8,0:0:0:0:
160,192,54022,1,0,0:0:0:0:
256,192,54097,1,0,0:0:0:0:
256,96,54172,1,12,0:0:0:0:
256,192,54322,1,0,0:0:0:0:
256,192,54397,1,8,0:0:0:0:
256,192,54472,1,0,0:0:0:0:
256,192,54547,1,8,0:0:0:0:
256,192,54697,1,8,0:0:0:0:
256,192,54772,1,0,0:0:0:0:
256,192,54922,1,0,0:0:0:0:
256,192,54997,1,8,0:0:0:0:
256,192,55072,1,0,0:0:0:0:
256,192,55147,1,0,0:0:0:0:
256,192,55222,1,8,0:0:0:0:
256,192,55372,1,0,0:0:0:0:
256,192,55522,1,8,0:0:0:0:
256,192,55672,1,8,0:0:0:0:
256,192,55747,1,0,0:0:0:0:
256,192,55822,1,0,0:0:0:0:
256,192,55897,1,8,0:0:0:0:
256,192,55972,1,8,0:0:0:0:
256,192,56122,1,0,0:0:0:0:
256,192,56272,1,8,0:0:0:0:
256,192,56347,1,0,0:0:0:0:
256,192,56422,1,8,0:0:0:0:
256,192,56497,1,8,0:0:0:0:
256,96,56572,1,4,0:0:0:0:
256,192,56722,1,8,0:0:0:0:
256,192,56797,1,8,0:0:0:0:
256,192,56872,1,0,0:0:0:0:
256,192,56947,1,8,0:0:0:0:
256,192,57097,1,8,0:0:0:0:
256,192,57172,1,0,0:0:0:0:
256,192,57322,1,8,0:0:0:0:
256,192,57397,1,8,0:0:0:0:
256,192,57472,1,0,0:0:0:0:
256,192,57547,1,0,0:0:0:0:
256,192,57622,1,8,0:0:0:0:
256,192,57772,1,0,0:0:0:0:
256,192,57847,1,0,0:0:0:0:
256,192,57922,1,8,0:0:0:0:
256,192,57997,1,0,0:0:0:0:
256,192,58072,1,8,0:0:0:0:
256,192,58147,1,8,0:0:0:0:
256,192,58222,1,0,0:0:0:0:
256,192,58297,1,8,0:0:0:0:
160,192,58372,1,0,0:0:0:0:
160,192,58422,1,0,0:0:0:0:
160,192,58472,1,0,0:0:0:0:
160,192,58522,1,8,0:0:0:0:
256,192,58597,1,0,0:0:0:0:
160,192,58672,1,8,0:0:0:0:
160,192,58722,1,8,0:0:0:0:
160,192,58772,1,8,0:0:0:0:
160,192,58822,1,0,0:0:0:0:
256,192,58897,1,0,0:0:0:0:
256,96,58972,1,12,0:0:0:0:
256,192,59122,1,0,0:0:0:0:
256,192,59197,1,8,0:0:0:0:
256,192,59272,1,0,0:0:0:0:
256,192,59347,1,8,0:0:0:0:
256,192,59497,1,8,0:0:0:0:
256,192,59572,1,0,0:0:0:0:
256,192,59722,1,8,0:0:0:0:
256,192,59797,1,8,0:0:0:0:
256,192,59872,1,0,0:0:0:0:
256,192,59947,1,0,0:0:0:0:
256,192,60022,1,8,0:0:0:0:
256,192,60172,1,0,0:0:0:0:
256,192,60322,1,8,0:0:0:0:
256,192,60472,1,0,0:0:0:0:
256,192,60547,1,8,0:0:0:0:
256,192,60622,1,8,0:0:0:0:
256,192,60697,1,0,0:0:0:0:
256,192,60772,1,8,0:0:0:0:
256,192,60922,1,0,0:0:0:0:
256,192,61072,1,8,0:0:0:0:
256,192,61147,1,0,0:0:0:0:
256,192,61222,1,8,0:0:0:0:
256,192,61297,1,8,0:0:0:0:
256,96,61372,1,4,0:0:0:0:
256,192,61522,1,8,0:0:0:0:
256,192,61597,1,8,0:0:0:0:
256,192,61672,1,0,0:0:0:0:
256,192,61747,1,8,0:0:0:0:
256,192,61897,1,8,0:0:0:0:
256,192,61972,1,0,0:0:0:0:
256,192,62122,1,0,0:0:0:0:
256,192,62197,1,8,0:0:0:0:
256,192,62272,1,0,0:0:0:0:
256,192,62347,1,0,0:0:0:0:
256,192,62422,1,8,0:0:0:0:
256,192,62572,1,0,0:0:0:0:
256,192,62722,1,8,0:0:0:0:
256,192,62797,1,0,0:0:0:0:
256,192,62872,1,0,0:0:0:0:
256,192,62947,1,8,0:0:0:0:
256,192,63097,1,8,0:0:0:0:
256,192,63172,1,8,0:0:0:0:
256,192,63247,1,0,0:0:0:0:
256,192,63322,1,8,0:0:0:0:
256,192,63397,1,0,0:0:0:0:
160,192,63472,1,8,0:0:0:0:
160,192,63522,1,8,0:0:0:0:
160,192,63572,1,8,0:0:0:0:
160,192,63622,1,0,0:0:0:0:
256,192,63697,1,0,0:0:0:0:
256,96,63772,1,12,0:0:0:0:
256,192,63922,1,0,0:0:0:0:
256,192,63997,1,0,0:0:0:0:
160,192,64072,1,8,0:0:0:0:
160,192,64122,1,8,0:0:0:0:
160,192,64172,1,8,0:0:0:0:
160,192,64222,1,0,0:0:0:0:
256,192,64297,1,0,0:0:0:0:
160,192,64372,1,8,0:0:0:0:
160,192,64422,1,8,0:0:0:0:
160,192,64472,1,8,0:0:0:0:
160,192,64522,1,0,0:0:0:0:
256,192,64597,1,0,0:0:0:0:
256,192,64672,1,8,0:0:0:0:
256,192,64747,1,0,0:0:0:0:
160,192,64822,1,8,0:0:0:0:
160,192,64872,1,0,0:0:0:0:
160,192,64922,1,0,0:0:0:0:
160,192,64972,1,8,0:0:0:0:
256,192,65047,1,0,0:0:0:0:
256,192,65122,1,0,0:0:0:0:
256,192,65197,1,0,0:0:0:0:
160,192,65272,1,8,0:0:0:0:
160,192,65322,1,8,0:0:0:0:
160,192,65372,1,8,0:0:0:0:
160,192,65422,1,0,0:0:0:0:
256,192,65497,1,0,0:0:0:0:
160,192,65572,1,8,0:0:0:0:
160,192,65622,1,8,0:0:0:0:
160,192,65672,1,8,0:0:0:0:
160,192,65722,1,0,0:0:0:0:
256,192,65797,1,0,0:0:0:0:
256,192,65872,1,8,0:0:0:0:
256,192,65947,1,0,0:0:0:0:
256,192,66022,1,8,0:0:0:0:
256,192,66097,1,8,0:0:0:0:
256,96,66172,1,4,0:0:0:0:
256,192,66247,12,0,67972,0:0:0:0:
256,192,68272,5,0,0:0:0:0:
256,96,68572,1,12,0:0:0:0:
256,192,68722,1,0,0:0:0:0:
256,192,68872,1,8,0:0:0:0:
256,192,69022,1,0,0:0:0:0:
256,192,69097,1,0,0:0:0:0:
256,192,69172,1,0,0:0:0:0:
256,192,69322,1,0,0:0:0:0:
256,192,69472,1,8,0:0:0:0:
256,192,69772,1,0,0:0:0:0:
256,192,69922,1,0,0:0:0:0:
256,192,70072,1,8,0:0:0:0:
256,192,70222,1,8,0:0:0:0:
256,192,70297,1,8,0:0:0:0:
256,192,70372,1,0,0:0:0:0:
256,192,70522,1,0,0:0:0:0:
256,192,70672,1,8,0:0:0:0:
256,192,70747,1,8,0:0:0:0:
256,192,70822,1,8,0:0:0:0:
256,192,70897,1,8,0:0:0:0:
256,192,70972,1,0,0:0:0:0:
256,192,71122,1,0,0:0:0:0:
256,192,71272,1,8,0:0:0:0:
256,192,71422,1,0,0:0:0:0:
256,192,71497,1,0,0:0:0:0:
256,192,71572,1,0,0:0:0:0:
256,192,71722,1,0,0:0:0:0:
256,192,71872,1,8,0:0:0:0:
256,192,72172,1,0,0:0:0:0:
256,192,72322,1,0,0:0:0:0:
256,192,72472,1,8,0:0:0:0:
256,192,72622,1,0,0:0:0:0:
256,192,72697,1,0,0:0:0:0:
256,192,72772,1,8,0:0:0:0:
256,192,72922,1,0,0:0:0:0:
160,192,73072,1,8,0:0:0:0:
160,192,73122,1,8,0:0:0:0:
160,192,73172,1,8,0:0:0:0:
160,192,73222,1,0,0:0:0:0:
256,192,73297,1,0,0:0:0:0:
256,96,73372,1,12,0:0:0:0:
256,192,73522,1,8,0:0:0:0:
256,192,73672,1,0,0:0:0:0:
256,192,73822,1,0,0:0:0:0:
256,192,73897,1,0,0:0:0:0:
256,192,73972,1,8,0:0:0:0:
256,192,74122,1,0,0:0:0:0:
256,192,74272,1,8,0:0:0:0:
256,192,74347,1,8,0:0:0:0:
256,192,74422,1,0,0:0:0:0:
256,192,74497,1,0,0:0:0:0:
256,192,74572,1,8,0:0:0:0:
256,192,74722,1,0,0:0:0:0:
256,192,74872,1,0,0:0:0:0:
256,192,75022,1,8,0:0:0:0:
256,192,75097,1,0,0:0:0:0:
256,192,75172,1,8,0:0:0:0:
256,192,75322,1,0,0:0:0:0:
256,192,75472,1,8,0:0:0:0:
256,192,75547,1,8,0:0:0:0:
256,192,75622,1,8,0:0:0:0:
256,192,75697,1,8,0:0:0:0:
256,192,75772,1,0,0:0:0:0:
256,192,75922,1,8,0:0:0:0:
256,192,76072,1,0,0:0:0:0:
256,192,76222,1,0,0:0:0:0:
256,192,76297,1,0,0:0:0:0:
256,192,76372,1,8,0:0:0:0:
256,192,76522,1,0,0:0:0:0:
256,192,76672,1,8,0:0:0:0:
256,192,76747,1,8,0:0:0:0:
256,192,76822,1,8,0:0:0:0:
256,192,76897,1,0,0:0:0:0:
256,192,76972,1,8,0:0:0:0:
256,192,77122,1,0,0:0:0:0:
256,192,77272,1,0,0:0:0:0:
256,192,77422,1,8,0:0:0:0:
256,192,77497,1,0,0:0:0:0:
256,192,77572,1,8,0:0:0:0:
256,192,77647,1,8,0:0:0:0:
256,192,77722,1,0,0:0:0:0:
256,192,77872,1,8,0:0:0:0:
256,192,77947,1,0,0:0:0:0:
160,192,78022,1,8,0:0:0:0:
160,192,78072,1,8,0:0:0:0:
160,192,78122,1,8,0:0:0:0:
160,192,78172,1,0,0:0:0:0:
256,192,78472,1,8,0:0:0:0:
256,192,78622,1,0,0:0:0:0:
256,192,78922,1,0,0:0:0:0:
256,192,79072,1,8,0:0:0:0:
256,192,79372,1,0,0:0:0:0:
256,192,79672,1,8,0:0:0:0:
256,192,79822,1,0,0:0:0:0:
256,192,80122,1,0,0:0:0:0:
256,192,80272,1,8,0:0:0:0:
256,192,80422,1,8,0:0:0:0:
256,192,80572,1,0,0:0:0:0:
256,192,80872,1,8,0:0:0:0:
256,192,81022,1,0,0:0:0:0:
256,192,81322,1,0,0:0:0:0:
256,192,81472,1,8,0:0:0:0:
256,192,81772,1,0,0:0:0:0:
256,192,82072,1,8,0:0:0:0:
256,192,82222,1,0,0:0:0:0:
256,192,82522,1,0,0:0:0:0:
256,192,82672,1,8,0:0:0:0:
256,96,82972,1,4,0:0:0:0:
256,192,83122,1,8,0:0:0:0:
256,192,83272,1,0,0:0:0:0:
256,192,83347,1,0,0:0:0:0:
256,192,83422,1,0,0:0:0:0:
256,192,83572,1,8,0:0:0:0:
256,192,83722,1,0,0:0:0:0:
256,192,83872,1,8,0:0:0:0:
256,192,83947,1,8,0:0:0:0:
256,192,84022,1,0,0:0:0:0:
256,192,84097,1,0,0:0:0:0:
256,192,84172,1,8,0:0:0:0:
256,192,84322,1,0,0:0:0:0:
256,192,84472,1,8,0:0:0:0:
256,192,84547,1,0,0:0:0:0:
256,192,84622,1,0,0:0:0:0:
256,192,84772,1,8,0:0:0:0:
256,192,84922,1,0,0:0:0:0:
256,192,85072,1,8,0:0:0:0:
256,192,85147,1,8,0:0:0:0:
256,192,85222,1,8,0:0:0:0:
256,192,85297,1,8,0:0:0:0:
256,192,85372,1,0,0:0:0:0:
256,192,85522,1,8,0:0:0:0:
256,192,85672,1,0,0:0:0:0:
256,192,85747,1,0,0:0:0:0:
256,192,85822,1,0,0:0:0:0:
256,192,85972,1,8,0:0:0:0:
256,192,86122,1,0,0:0:0:0:
256,192,86272,1,8,0:0:0:0:
256,192,86347,1,8,0:0:0:0:
256,192,86422,1,0,0:0:0:0:
256,192,86497,1,8,0:0:0:0:
256,192,86572,1,0,0:0:0:0:
256,192,86722,1,0,0:0:0:0:
256,192,86872,1,0,0:0:0:0:
256,192,87022,1,8,0:0:0:0:
256,192,87097,1,0,0:0:0:0:
256,192,87172,1,8,0:0:0:0:
256,192,87247,1,8,0:0:0:0:
256,192,87322,1,0,0:0:0:0:
256,192,87472,1,8,0:0:0:0:
256,192,87547,1,8,0:0:0:0:
160,192,87622,1,0,0:0:0:0:
160,192,87672,1,0,0:0:0:0:
160,192,87722,1,0,0:0:0:0:
160,192,87772,1,8,0:0:0:0:
256,192,88072,1,8,0:0:0:0:
256,192,88372,1,8,0:0:0:0:
256,192,88672,1,8,0:0:0:0:
256,192,88972,1,8,0:0:0:0:
256,192,89272,1,8,0:0:0:0:
256,192,89572,1,8,0:0:0:0:
256,192,89872,1,8,0:0:0:0:
256,192,90072,1,8,0:0:0:0:
256,192,90172,1,8,0:0:0:0:
256,192,90472,1,8,0:0:0:0:
256,192,90772,1,8,0:0:0:0:
256,192,91072,1,8,0:0:0:0:
256,192,91372,1,8,0:0:0:0:
256,192,91672,1,8,0:0:0:0:
256,192,91872,1,8,0:0:0:0:
256,192,91972,1,8,0:0:0:0:
256,192,92072,1,8,0:0:0:0:
256,192,92172,1,8,0:0:0:0:
256,192,92272,1,0,0:0:0:0:
256,96,92572,1,4,0:0:0:0:
256,192,92722,1,8,0:0:0:0:
256,192,92872,1,0,0:0:0:0:
256,192,93022,1,0,0:0:0:0:
256,192,93097,1,0,0:0:0:0:
256,192,93172,1,8,0:0:0:0:
256,192,93322,1,0,0:0:0:0:
256,192,93472,1,8,0:0:0:0:
256,192,93547,1,8,0:0:0:0:
256,192,93622,1,0,0:0:0:0:
256,192,93697,1,0,0:0:0:0:
256,192,93772,1,8,0:0:0:0:
256,192,93922,1,0,0:0:0:0:
256,192,94072,1,0,0:0:0:0:
256,192,94222,1,8,0:0:0:0:
256,192,94297,1,0,0:0:0:0:
256,192,94372,1,8,0:0:0:0:
256,192,94522,1,0,0:0:0:0:
256,192,94672,1,8,0:0:0:0:
256,192,94747,1,8,0:0:0:0:
256,192,94822,1,8,0:0:0:0:
256,192,94897,1,8,0:0:0:0:
256,192,94972,1,0,0:0:0:0:
256,192,95122,1,8,0:0:0:0:
256,192,95272,1,0,0:0:0:0:
256,192,95422,1,0,0:0:0:0:
256,192,95497,1,0,0:0:0:0:
256,192,95572,1,8,0:0:0:0:
256,192,95722,1,0,0:0:0:0:
256,192,95872,1,8,0:0:0:0:
256,192,95947,1,8,0:0:0:0:
256,192,96022,1,8,0:0:0:0:
256,192,96097,1,0,0:0:0:0:
256,192,96172,1,8,0:0:0:0:
256,192,96322,1,0,0:0:0:0:
256,192,96472,1,0,0:0:0:0:
256,192,96622,1,8,0:0:0:0:
256,192,96697,1,0,0:0:0:0:
256,192,96772,1,8,0:0:0:0:
256,192,96847,1,8,0:0:0:0:
256,192,96922,1,0,0:0:0:0:
256,192,96997,1,0,0:0:0:0:
256,96,97372,1,4,0:0:0:0:
256,192,100972,12,0,101722,0:0:0:0:
256,192,101947,5,8,0:0:0:0:
256,192,102097,1,8,0:0:0:0:
256,96,102172,1,4,0:0:0:0:
256,192,102322,1,0,0:0:0:0:
256,192,102472,1,8,0:0:0:0:
256,192,102622,1,8,0:0:0:0:
256,192,102697,1,8,0:0:0:0:
256,192,102772,1,0,0:0:0:0:
256,192,102847,1,8,0:0:0:0:
256,192,102922,1,0,0:0:0:0:
256,192,102997,1,0,0:0:0:0:
256,192,103072,1,8,0:0:0:0:
256,192,103222,1,0,0:0:0:0:
256,192,103372,1,8,0:0:0:0:
256,192,103447,1,8,0:0:0:0:
256,192,103522,1,0,0:0:0:0:
256,192,103672,1,8,0:0:0:0:
256,192,103747,1,0,0:0:0:0:
256,192,103822,1,0,0:0:0:0:
256,192,103897,1,8,0:0:0:0:
256,192,103972,1,0,0:0:0:0:
256,192,104122,1,8,0:0:0:0:
256,192,104272,1,0,0:0:0:0:
256,192,104347,1,8,0:0:0:0:
256,192,104422,1,0,0:0:0:0:
256,192,104497,1,0,0:0:0:0:
256,192,104572,1,8,0:0:0:0:
256,192,104647,1,8,0:0:0:0:
256,192,104722,1,8,0:0:0:0:
256,192,104872,1,0,0:0:0:0:
256,192,105022,1,0,0:0:0:0:
256,192,105172,1,8,0:0:0:0:
256,192,105247,1,0,0:0:0:0:
256,192,105322,1,8,0:0:0:0:
256,192,105397,1,8,0:0:0:0:
256,192,105472,1,8,0:0:0:0:
256,192,105622,1,0,0:0:0:0:
256,192,105772,1,8,0:0:0:0:
256,192,105847,1,0,0:0:0:0:
256,192,105922,1,8,0:0:0:0:
256,192,105997,1,0,0:0:0:0:
256,192,106072,1,0,0:0:0:0:
256,192,106222,1,8,0:0:0:0:
256,192,106297,1,8,0:0:0:0:
256,192,106372,1,0,0:0:0:0:
256,192,106522,1,0,0:0:0:0:
256,192,106672,1,8,0:0:0:0:
256,192,106747,1,8,0:0:0:0:
256,192,106822,1,8,0:0:0:0:
160,192,106972,1,0,0:0:0:0:
160,192,107022,1,0,0:0:0:0:
160,192,107072,1,0,0:0:0:0:
160,192,107122,1,0,0:0:0:0:
256,192,107272,1,8,0:0:0:0:
256,192,107422,1,0,0:0:0:0:
256,192,107497,1,8,0:0:0:0:
256,192,107572,1,0,0:0:0:0:
256,192,107722,1,0,0:0:0:0:
256,192,107797,1,0,0:0:0:0:
256,192,107947,1,0,0:0:0:0:
256,192,108022,1,8,0:0:0:0:
256,192,108172,1,8,0:0:0:0:
256,192,108247,1,8,0:0:0:0:
256,192,108322,1,0,0:0:0:0:
256,192,108472,1,8,0:0:0:0:
256,192,108547,1,0,0:0:0:0:
256,192,108622,1,0,0:0:0:0:
256,192,108697,1,8,0:0:0:0:
256,192,108772,1,8,0:0:0:0:
256,192,108922,1,0,0:0:0:0:
256,192,109072,1,8,0:0:0:0:
256,192,109147,1,8,0:0:0:0:
256,192,109222,1,8,0:0:0:0:
256,192,109297,1,8,0:0:0:0:
256,192,109372,1,0,0:0:0:0:
256,192,109522,1,8,0:0:0:0:
256,192,109597,1,0,0:0:0:0:
256,192,109672,1,8,0:0:0:0:
256,192,109747,1,8,0:0:0:0:
256,192,109822,1,0,0:0:0:0:
256,192,109972,1,8,0:0:0:0:
256,192,110122,1,0,0:0:0:0:
256,192,110272,1,8,0:0:0:0:
256,192,110347,1,0,0:0:0:0:
256,192,110422,1,8,0:0:0:0:
256,192,110572,1,8,0:0:0:0:
256,192,110647,1,8,0:0:0:0:
256,192,110722,1,0,0:0:0:0:
256,192,110872,1,8,0:0:0:0:
256,192,110947,1,0,0:0:0:0:
256,192,111022,1,8,0:0:0:0:
256,192,111097,1,8,0:0:0:0:
256,192,111172,1,0,0:0:0:0:
256,192,111247,1,0,0:0:0:0:
256,192,111322,1,0,0:0:0:0:
256,192,111472,1,8,0:0:0:0:
256,192,111622,1,0,0:0:0:0:
256,96,111772,1,12,0:0:0:0:
256,192,111922,12,0,114172,0:0:0:0:
256,192,116572,5,0,0:0:0:0:
256,192,117772,1,0,0:0:0:0:
256,192,118972,1,0,0:0:0:0:
256,192,120172,12,0,121222,0:0:0:0:
256,192,121372,5,0,0:0:0:0:
256,192,121522,1,8,0:0:0:0:
256,192,121672,1,0,0:0:0:0:
256,192,121747,1,8,0:0:0:0:
256,192,121897,1,8,0:0:0:0:
256,192,121972,1,8,0:0:0:0:
256,192,122122,1,0,0:0:0:0:
256,192,122272,1,0,0:0:0:0:
256,192,122422,1,8,0:0:0:0:
256,192,122572,5,0,0:0:0:0:
256,192,122722,1,8,0:0:0:0:
256,192,122872,1,0,0:0:0:0:
256,192,122947,1,8,0:0:0:0:
256,192,123097,1,8,0:0:0:0:
256,192,123172,1,0,0:0:0:0:
256,192,123322,1,0,0:0:0:0:
256,192,123472,1,8,0:0:0:0:
256,192,123622,1,8,0:0:0:0:
256,192,123772,5,0,0:0:0:0:
256,192,123922,1,8,0:0:0:0:
256,192,124072,1,0,0:0:0:0:
256,192,124147,1,8,0:0:0:0:
256,192,124297,1,8,0:0:0:0:
256,192,124372,1,8,0:0:0:0:
256,192,124522,1,0,0:0:0:0:
256,192,124672,1,0,0:0:0:0:
256,192,124822,1,8,0:0:0:0:
256,192,124972,5,0,0:0:0:0:
256,192,125122,1,8,0:0:0:0:
256,192,125272,1,0,0:0:0:0:
256,192,125347,1,8,0:0:0:0:
256,192,125497,1,8,0:0:0:0:
256,192,125572,1,0,0:0:0:0:
256,192,125722,1,0,0:0:0:0:
256,192,125872,1,8,0:0:0:0:
256,192,126022,1,8,0:0:0:0:
256,192,126172,5,0,0:0:0:0:
256,192,126322,1,8,0:0:0:0:
256,192,126397,1,0,0:0:0:0:
256,192,126472,1,0,0:0:0:0:
256,192,126547,1,8,0:0:0:0:
256,192,126697,1,8,0:0:0:0:
256,192,126772,1,8,0:0:0:0:
256,192,126922,1,0,0:0:0:0:
256,192,127072,1,0,0:0:0:0:
256,192,127222,1,8,0:0:0:0:
256,192,127372,5,0,0:0:0:0:
256,192,127522,1,8,0:0:0:0:
256,192,127672,1,0,0:0:0:0:
256,192,127747,1,8,0:0:0:0:
256,192,127822,1,0,0:0:0:0:
256,192,127897,1,8,0:0:0:0:
256,192,127972,1,8,0:0:0:0:
256,192,128122,1,0,0:0:0:0:
256,192,128272,1,8,0:0:0:0:
256,192,128422,1,8,0:0:0:0:
256,192,128572,5,0,0:0:0:0:
256,192,128647,1,0,0:0:0:0:
256,192,128722,1,8,0:0:0:0:
256,192,128797,1,0,0:0:0:0:
256,192,128872,1,8,0:0:0:0:
256,192,128947,1,8,0:0:0:0:
256,192,129022,1,0,0:0:0:0:
256,192,129097,1,8,0:0:0:0:
256,192,129172,1,8,0:0:0:0:
256,192,129247,1,0,0:0:0:0:
256,192,129322,1,8,0:0:0:0:
256,192,129397,1,0,0:0:0:0:
256,192,129472,1,8,0:0:0:0:
256,192,129547,1,0,0:0:0:0:
256,192,129622,1,0,0:0:0:0:
256,192,129697,1,0,0:0:0:0:
256,192,129772,1,8,0:0:0:0:
256,192,130072,1,8,0:0:0:0:
256,192,130372,1,8,0:0:0:0:
256,96,130672,1,12,0:0:0:0:
256,96,130972,5,4,0:0:0:0:
256,192,131122,1,8,0:0:0:0:
256,192,131197,1,8,0:0:0:0:
256,192,131272,1,0,0:0:0:0:
256,192,131347,1,8,0:0:0:0:
256,192,131497,1,8,0:0:0:0:
256,192,131572,1,0,0:0:0:0:
256,192,131722,1,8,0:0:0:0:
256,192,131797,1,8,0:0:0:0:
256,192,131872,1,0,0:0:0:0:
256,192,131947,1,0,0:0:0:0:
256,192,132022,1,8,0:0:0:0:
256,192,132172,1,0,0:0:0:0:
256,192,132322,1,8,0:0:0:0:
256,192,132472,1,0,0:0:0:0:
256,192,132547,1,8,0:0:0:0:
256,192,132622,1,0,0:0:0:0:
256,192,132697,1,8,0:0:0:0:
256,192,132772,1,8,0:0:0:0:
256,192,132922,1,0,0:0:0:0:
256,192,133072,1,8,0:0:0:0:
256,192,133147,1,0,0:0:0:0:
256,192,133222,1,8,0:0:0:0:
256,192,133297,1,8,0:0:0:0:
256,96,133372,1,4,0:0:0:0:
256,192,133522,1,8,0:0:0:0:
256,192,133597,1,8,0:0:0:0:
256,192,133672,1,0,0:0:0:0:
256,192,133747,1,8,0:0:0:0:
256,192,133897,1,8,0:0:0:0:
256,192,133972,1,0,0:0:0:0:
256,192,134122,1,8,0:0:0:0:
256,192,134197,1,8,0:0:0:0:
256,192,134272,1,0,0:0:0:0:
256,192,134347,1,0,0:0:0:0:
256,192,134422,1,8,0:0:0:0:
256,192,134572,1,0,0:0:0:0:
256,192,134722,1,8,0:0:0:0:
256,192,134797,1,0,0:0:0:0:
256,192,134872,1,0,0:0:0:0:
256,192,134947,1,8,0:0:0:0:
256,192,135097,1,8,0:0:0:0:
256,192,135172,1,8,0:0:0:0:
256,192,135247,1,0,0:0:0:0:
256,192,135322,1,8,0:0:0:0:
256,192,135397,1,0,0:0:0:0:
160,192,135472,1,8,0:0:0:0:
160,192,135522,1,8,0:0:0:0:
160,192,135572,1,8,0:0:0:0:
160,192,135622,1,0,0:0:0:0:
256,192,135697,1,0,0:0:0:0:
256,96,135772,1,12,0:0:0:0:
256,192,135922,1,0,0:0:0:0:
256,192,135997,1,8,0:0:0:0:
256,192,136072,1,0,0:0:0:0:
256,192,136147,1,8,0:0:0:0:
256,192,136297,1,8,0:0:0:0:
256,192,136372,1,0,0:0:0:0:
256,192,136522,1,0,0:0:0:0:
256,192,136597,1,8,0:0:0:0:
256,192,136672,1,0,0:0:0:0:
256,192,136747,1,0,0:0:0:0:
256,192,136822,1,8,0:0:0:0:
256,192,136972,1,0,0:0:0:0:
256,192,137122,1,8,0:0:0:0:
256,192,137272,1,8,0:0:0:0:
256,192,137347,1,0,0:0:0:0:
256,192,137422,1,0,0:0:0:0:
256,192,137497,1,8,0:0:0:0:
256,192,137572,1,8,0:0:0:0:
256,192,137722,1,0,0:0:0:0:
256,192,137872,1,8,0:0:0:0:
256,192,137947,1,0,0:0:0:0:
256,192,138022,1,8,0:0:0:0:
256,192,138097,1,8,0:0:0:0:
256,96,138172,1,4,0:0:0:0:
256,192,138322,1,8,0:0:0:0:
256,192,138397,1,8,0:0:0:0:
256,192,138472,1,0,0:0:0:0:
256,192,138547,1,8,0:0:0:0:
256,192,138697,1,8,0:0:0:0:
256,192,138772,1,0,0:0:0:0:
256,192,138922,1,8,0:0:0:0:
256,192,138997,1,8,0:0:0:0:
256,192,139072,1,0,0:0:0:0:
256,192,139147,1,0,0:0:0:0:
256,192,139222,1,8,0:0:0:0:
256,192,139372,1,0,0:0:0:0:
256,192,139447,1,0,0:0:0:0:
256,192,139522,1,8,0:0:0:0:
256,192,139597,1,0,0:0:0:0:
256,192,139672,1,8,0:0:0:0:
256,192,139747,1,8,0:0:0:0:
256,192,139822,1,0,0:0:0:0:
256,192,139897,1,8,0:0:0:0:
160,192,139972,1,0,0:0:0:0:
160,192,140022,1,0,0:0:0:0:
160,192,140072,1,0,0:0:0:0:
160,192,140122,1,8,0:0:0:0:
256,192,140197,1,0,0:0:0:0:
160,192,140272,1,8,0:0:0:0:
160,192,140322,1,8,0:0:0:0:
160,192,140372,1,8,0:0:0:0:
160,192,140422,1,0,0:0:0:0:
256,192,140497,1,0,0:0:0:0:
256,96,140572,1,12,0:0:0:0:
256,192,140722,1,0,0:0:0:0:
256,192,140797,1,0,0:0:0:0:
256,192,140872,1,8,0:0:0:0:
256,192,140947,1,0,0:0:0:0:
256,192,141022,1,8,0:0:0:0:
256,192,141097,1,8,0:0:0:0:
256,192,141172,1,0,0:0:0:0:
256,192,141247,1,0,0:0:0:0:
256,192,141322,1,8,0:0:0:0:
256,192,141372,1,0,0:0:0:0:
256,192,141422,1,0,0:0:0:0:
256,192,141472,1,8,0:0:0:0:
256,192,141547,1,0,0:0:0:0:
256,192,141622,1,8,0:0:0:0:
256,192,141697,1,8,0:0:0:0:
256,192,141772,1,0,0:0:0:0:
160,192,141822,1,0,0:0:0:0:
160,192,141872,1,0,0:0:0:0:
256,192,141922,1,8,0:0:0:0:
256,192,141997,1,8,0:0:0:0:
256,192,142072,1,0,0:0:0:0:
256,192,142147,1,8,0:0:0:0:
256,192,142222,1,0,0:0:0:0:
160,192,142272,1,0,0:0:0:0:
160,192,142322,1,0,0:0:0:0:
160,192,142372,1,8,0:0:0:0:
256,192,142447,1,0,0:0:0:0:
160,192,142522,1,8,0:0:0:0:
160,192,142572,1,8,0:0:0:0:
160,192,142622,1,8,0:0:0:0:
160,192,142672,1,0,0:0:0:0:
256,192,142747,1,0,0:0:0:0:
256,192,142822,1,8,0:0:0:0:
256,192,142897,1,8,0:0:0:0:
256,96,142972,1,4,0:0:0:0:
256,192,143122,1,8,0:0:0:0:
256,192,143197,1,0,0:0:0:0:
256,192,143272,1,8,0:0:0:0:
256,192,143347,1,8,0:0:0:0:
256,192,143422,1,0,0:0:0:0:
256,192,143497,1,8,0:0:0:0:
256,192,143572,1,0,0:0:0:0:
256,192,143647,1,0,0:0:0:0:
160,192,143722,1,8,0:0:0:0:
160,192,143772,1,0,0:0:0:0:
160,192,143822,1,0,0:0:0:0:
160,192,143872,1,8,0:0:0:0:
256,192,143947,1,0,0:0:0:0:
256,192,144022,1,8,0:0:0:0:
256,192,144097,1,8,0:0:0:0:
160,192,144172,1,0,0:0:0:0:
160,192,144222,1,0,0:0:0:0:
160,192,144272,1,0,0:0:0:0:
160,192,144322,1,8,0:0:0:0:
256,192,144397,1,8,0:0:0:0:
256,192,144472,1,0,0:0:0:0:
256,192,144547,1,0,0:0:0:0:
160,192,144622,1,8,0:0:0:0:
160,192,144672,1,8,0:0:0:0:
160,192,144722,1,8,0:0:0:0:
160,192,144772,1,0,0:0:0:0:
256,192,144847,1,0,0:0:0:0:
160,192,144922,1,8,0:0:0:0:
160,192,144972,1,0,0:0:0:0:
160,192,145022,1,0,0:0:0:0:
160,192,145072,1,8,0:0:0:0:
256,192,145147,1,0,0:0:0:0:
256,192,145222,1,8,0:0:0:0:
256,192,145297,1,8,0:0:0:0:
256,96,145372,1,4,0:0:0:0:
160,192,145522,1,8,0:0:0:0:
160,192,145572,1,8,0:0:0:0:
160,192,145622,1,8,0:0:0:0:
160,192,145672,1,0,0:0:0:0:
256,192,145747,1,0,0:0:0:0:
256,192,145822,1,8,0:0:0:0:
256,192,145897,1,0,0:0:0:0:
160,192,145972,1,8,0:0:0:0:
160,192,146022,1,0,0:0:0:0:
160,192,146072,1,0,0:0:0:0:
160,192,146122,1,8,0:0:0:0:
256,192,146197,1,0,0:0:0:0:
160,192,146272,1,8,0:0:0:0:
160,192,146322,1,8,0:0:0:0:
160,192,146372,1,8,0:0:0:0:
160,192,146422,1,0,0:0:0:0:
256,192,146497,1,0,0:0:0:0:
256,192,146572,1,8,0:0:0:0:
256,192,146647,1,8,0:0:0:0:
160,192,146722,1,0,0:0:0:0:
160,192,146772,1,0,0:0:0:0:
160,192,146822,1,0,0:0:0:0:
160,192,146872,1,8,0:0:0:0:
256,192,146947,1,8,0:0:0:0:
256,192,147022,1,0,0:0:0:0:
256,192,147097,1,0,0:0:0:0:
160,192,147172,1,8,0:0:0:0:
160,192,147222,1,8,0:0:0:0:
160,192,147272,1,8,0:0:0:0:
160,192,147322,1,0,0:0:0:0:
256,192,147397,1,0,0:0:0:0:
160,192,147472,1,8,0:0:0:0:
160,192,147522,1,0,0:0:0:0:
160,192,147572,1,0,0:0:0:0:
160,192,147622,1,8,0:0:0:0:
256,192,147697,1,8,0:0:0:0:
256,96,147772,1,4,0:0:0:0:
256,192,147847,12,0,148972,0:0:0:0:
256,192,149872,5,0,0:0:0:0:
256,96,150172,1,12,0:0:0:0:
256,192,150247,12,8,160972,0:0:0:0:
