osu file format v14

[General]
AudioFilename: audio.ogg
AudioLeadIn: 0
PreviewTime: 146486
Countdown: 0
SampleSet: Normal
StackLeniency: 0.7
Mode: 1
LetterboxInBreaks: 0
WidescreenStoryboard: 1

[Editor]
Bookmarks: 394,17168,28935,48526,68118,87710,107302,126894,146486,166077,192640,212231,231823
DistanceSpacing: 1.1
BeatDivisor: 4
GridSize: 32
TimelineZoom: 1.700001

[Metadata]
Title:Tool-Assisted Speedcore (TQBF Frame Advance RMX)
TitleUnicode:Tool-Assisted Speedcore (TQBF Frame Advance RMX)
Artist:Kobaryo
ArtistUnicode:Kobaryo
Creator:Hivie
Version:Muzukashii
Source:
Tags:featured artist fa mappers' guild mpg osu! electronic instrumental speedcore TAS speedrun mixpeed action the quick brown fox renard speed high bpm rsi
BeatmapID:2690458
BeatmapSetID:1275054

[Difficulty]
HPDrainRate:6
CircleSize:2
OverallDifficulty:5
ApproachRate:9
SliderMultiplier:1.4
SliderTickRate:1

[Events]
//Background and Video events
0,0,"bg.png",0,45
//Break Periods
//Storyboard Layer 0 (Background)
//Storyboard Layer 1 (Fail)
//Storyboard Layer 2 (Pass)
//Storyboard Layer 3 (Foreground)
//Storyboard Layer 4 (Overlay)
//Storyboard Sound Samples

[TimingPoints]
394,600,4,1,0,100,1,0
806,-99.2555831265509,4,1,0,100,0,0
994,594.059405940594,4,1,0,100,1,8
1253,-99.502487562189,4,1,0,100,0,0
1588,588.235294117647,4,1,0,100,1,8
1698,-99.7555987829817,4,1,0,100,0,0
1845,-99.5123892924669,4,1,0,100,0,0
2176,582.52427184466,4,1,0,100,1,8
2430,-99.5173408966512,4,1,0,100,0,0
2576,-99.2772615360178,4,1,0,100,0,0
2758,576.923076923077,4,1,0,100,1,0
3010,-99.5222929936306,4,1,0,100,0,0
3334,571.428571428571,4,1,0,100,1,8
3441,-99.8412524086702,4,1,0,100,0,0
3584,-99.6840017145648,4,1,0,100,0,0
3869,-98.7459267305224,4,1,0,100,0,0
4155,-99.0569775735003,4,1,0,100,0,0
4298,-98.9012075837446,4,1,0,100,0,0
4441,-98.7459267305224,4,1,0,100,0,0
4726,-98.4377922371957,4,1,0,100,0,0
5048,560.747663551402,4,1,0,100,1,0
5433,-99.3038798025839,4,1,0,100,0,0
5573,-99.0736612671521,4,1,0,100,0,0
5854,-98.6173842724996,4,1,0,100,0,0
6169,550.45871559633,4,1,0,100,1,8
6272,-99.657179303197,4,1,0,100,0,0
6409,-99.3167010964564,4,1,0,100,0,0
6685,-98.6426767676768,4,1,0,100,0,0
6960,-97.9777394575952,4,1,0,100,0,0
7132,-97.6486212014686,4,1,0,100,0,8
7269,535.714285714286,4,1,0,100,1,0
7503,-99.5559803277383,4,1,0,100,0,0
7771,-99.1158862942552,4,1,0,100,0,0
7905,-98.8963171011511,4,1,0,100,0,0
8039,-98.6786923099695,4,1,0,100,0,0
8340,526.315789473684,4,1,0,100,1,8
8570,-99.3463013372012,4,1,0,100,0,0
8701,-99.0226464792498,4,1,0,100,0,0
8833,-98.7010936081172,4,1,0,100,0,0
8965,-98.3816223129519,4,1,0,100,0,0
9096,-98.0642124463098,4,1,0,100,0,0
9401,512.820512820513,4,1,0,100,1,0
9753,-99.5213025348076,4,1,0,100,0,0
9881,-99.3630826402758,4,1,0,100,0,0
10138,-99.0471662605733,4,1,0,100,0,0
10394,-98.7342272072036,4,1,0,100,0,0
10522,-98.5784980580036,4,1,0,100,0,0
10651,-98.4222906803933,4,1,0,100,0,0
10907,-98.1132815949295,4,1,0,100,0,0
11163,-97.80525018583,4,1,0,100,0,0
11292,-97.6524354517402,4,1,0,100,0,0
11452,500,4,1,0,100,1,0
11670,-99.3788819875776,4,1,0,100,0,0
11920,-98.7654320987654,4,1,0,100,0,0
12045,-98.4615384615385,4,1,0,100,0,0
12170,-98.159509202454,4,1,0,100,0,0
12452,487.80487804878,4,1,0,100,1,8
12665,-99.3936984395189,4,1,0,100,0,0
12787,-99.0932963385027,4,1,0,100,0,0
12909,-98.7947046038332,4,1,0,100,0,0
13153,-98.203851555058,4,1,0,100,0,0
13427,476.190476190476,4,1,0,100,1,0
13754,-99.4085193101049,4,1,0,100,0,0
13873,-99.2122546977003,4,1,0,100,0,0
14111,-98.8239944658563,4,1,0,100,0,0
14349,-98.2453382586996,4,1,0,100,0,0
14587,-98.054596799498,4,1,0,100,0,0
14825,-97.6743731747101,4,1,0,100,0,0
15063,-97.2970869252175,4,1,0,100,0,0
15182,-97.1100062150404,4,1,0,100,0,0
15331,461.538461538462,4,1,0,100,1,0
15763,-98.1132815949295,4,1,0,100,0,0
15994,-97.1958983330903,4,1,0,100,0,0
16225,-96.2964389576873,4,1,0,100,0,0
16456,-95.4125639264178,4,1,0,100,0,0
16571,-94.9775852898716,4,1,0,100,0,0
16686,-94.5456608268964,4,1,0,100,0,0
16763,-94.2595909133754,4,1,0,100,0,0
16840,-93.976130062964,4,1,0,100,0,0
16917,-93.6934911131724,4,1,0,100,0,0
16994,-93.4134197718844,4,1,0,100,0,0
17071,-93.1341504302798,4,1,0,100,0,0
17168,428.571428571429,4,1,0,100,1,0
17469,-99.6094314194045,4,1,0,100,0,0
17576,-99.4761585490805,4,1,0,100,0,0
17790,-99.2107782589501,4,1,0,100,0,0
18005,-98.9468101527343,4,1,0,100,0,0
18112,-98.8154009731341,4,1,0,100,0,0
18219,-98.6842429882378,4,1,0,100,0,0
18433,-98.4230656422794,4,1,0,100,0,0
18648,-98.1632671091212,4,1,0,100,0,0
18755,-98.0339295430149,4,1,0,100,0,0
18882,419.58041958042,4,1,0,100,1,0
19071,-99.3061479443131,4,1,0,100,0,0
19281,-98.6217608915407,4,1,0,100,0,0
19386,-98.2830926544199,4,1,0,100,0,0
19491,-97.9468383740041,4,1,0,100,0,0
19701,-97.2809961574007,4,1,0,100,0,0
19910,-96.6241456009925,4,1,0,100,0,0
20015,-96.2991282039924,4,1,0,100,0,0
20120,-95.9761979029201,4,1,0,100,0,0
20330,-95.3368824076758,4,1,0,100,0,0
20560,397.350993377483,4,1,0,100,1,0
20838,-99.0160772404615,4,1,0,100,0,0
20937,-98.6923266716013,4,1,0,100,0,0
21136,-98.0512317685991,4,1,0,100,0,0
21334,-97.4184120798831,4,1,0,100,0,0
21434,-97.1051026789356,4,1,0,100,0,0
21533,-96.7937084089534,4,1,0,100,0,0
21732,-96.1769656167348,4,1,0,100,0,0
21930,-95.568032493131,4,1,0,100,0,0
22030,-95.2664029692633,4,1,0,100,0,0
22149,377.358490566038,4,1,0,100,1,0
22317,-99.2974703969416,4,1,0,100,0,0
22506,-98.6047428881329,4,1,0,100,0,0
22600,-98.2619427565226,4,1,0,100,0,0
22695,-97.9216137481946,4,1,0,100,0,0
22883,-97.2478848585043,4,1,0,100,0,0
23072,-96.5833635156344,4,1,0,100,0,0
23166,-96.2545432144397,4,1,0,100,0,0
23261,-95.9278622475898,4,1,0,100,0,0
23355,-95.6034826436657,4,1,0,100,0,0
23449,-95.2811986374789,4,1,0,100,0,0
23658,357.142857142857,4,1,0,100,1,0
23905,-99.1153950987437,4,1,0,100,0,0
23995,-98.8239944658563,4,1,0,100,0,0
24173,-98.2463034828315,4,1,0,100,0,0
24352,-97.6753272123462,4,1,0,100,0,0
24441,-97.3923206155195,4,1,0,100,0,0
24530,-97.110949259529,4,1,0,100,0,0
24709,-96.5530559042194,4,1,0,100,0,0
24888,-96.0015360245764,4,1,0,100,0,0
24977,-95.7281321048223,4,1,0,100,0,0
25086,340.909090909091,4,1,0,100,1,0
25236,-99.4344170358998,4,1,0,100,0,0
25406,-98.8752935360277,4,1,0,100,0,0
25492,-98.5980345467793,4,1,0,100,0,0
25577,-98.3224228218142,4,1,0,100,0,0
25747,-97.7756049865558,4,1,0,100,0,0
25918,-97.234835741192,4,1,0,100,0,0
26003,-96.9667820894596,4,1,0,100,0,0
26088,-96.7001087876224,4,1,0,100,0,0
26259,-96.1712309532877,4,1,0,100,0,0
26449,326.086956521739,4,1,0,100,1,0
26673,-98.7922645656845,4,1,0,100,0,0
26755,-98.3961428711994,4,1,0,100,0,0
26918,-97.6133535067597,4,1,0,100,0,0
27101,306.122448979592,4,1,0,100,1,8
27101,-103.158763442218,4,1,0,100,0,0
27234,-102.234540348395,4,1,0,100,0,0
27387,-101.328826227143,4,1,0,100,0,0
27540,-100.439018951838,4,1,0,100,0,0
27616,-100,4,1,0,100,0,0
27713,306.122448979592,4,1,0,100,1,0
28935,306.122448979592,4,1,0,100,1,0
48526,-100,4,1,0,100,0,1
57098,-100,4,1,0,100,0,0
58322,-100,4,1,0,100,0,1
68118,-100,4,1,0,100,0,0
87710,-100,4,1,0,100,0,1
107302,-100,4,1,0,100,0,0
126894,-100,4,1,0,100,0,1
147710,-111.111111111111,4,1,0,100,0,0
166077,-76.9230769230769,4,1,0,100,0,1
167302,-111.111111111111,4,1,0,100,0,0
192640,306.122448979592,4,1,0,100,1,1
192640,-100,4,1,0,100,0,1
201211,-100,4,1,0,100,0,0
202435,-100,4,1,0,100,0,1
211619,-100,4,1,0,100,0,0
212231,-100,4,1,0,100,0,1
233048,-111.111111111111,4,1,0,90,0,0
239169,-111.111111111111,4,1,0,85,0,0
239476,-113.333325777778,4,1,0,81,0,0
239629,-114.478168440887,4,1,0,76,0,0
239782,-115.646242769219,4,1,0,72,0,0
240241,-119.298287473083,4,1,0,67,0,0
240394,-120.567341683024,4,1,0,63,0,0
240547,-121.863834226189,4,1,0,58,0,0
241159,-127.340843047317,4,1,0,54,0,0
241312,-128.787810491313,4,1,0,49,0,0
241618,-131.782864010627,4,1,0,45,0,0
241771,-133.333333333333,4,1,0,41,0,0
241925,-133.333333333333,4,1,0,36,0,0
242537,-140.25973297352,4,1,0,32,0,0
242996,-145.945985390807,4,1,0,27,0,0
243608,-154.285749551028,4,1,0,23,0,0
244220,-163.636393388435,4,1,0,18,0,0
244833,-174.193570863687,4,1,0,14,0,0
245445,-186.20690939358,4,1,0,9,0,0
246057,-200,4,1,0,5,0,0

[HitObjects]
256,96,394,5,12,0:0:0:0:
256,192,994,1,8,0:0:0:0:
256,192,1291,1,0,0:0:0:0:
256,192,1588,1,8,0:0:0:0:
256,192,1882,1,0,0:0:0:0:
256,192,2176,1,8,0:0:0:0:
256,192,2467,1,0,0:0:0:0:
256,192,2758,1,8,0:0:0:0:
256,192,3334,1,8,0:0:0:0:
256,192,3619,1,0,0:0:0:0:
256,192,3905,1,8,0:0:0:0:
256,192,4191,1,0,0:0:0:0:
256,192,4333,1,0,0:0:0:0:
256,192,4476,1,8,0:0:0:0:
256,192,4762,1,0,0:0:0:0:
256,192,5048,1,8,0:0:0:0:
256,192,5608,1,8,0:0:0:0:
256,192,5889,1,0,0:0:0:0:
256,192,6169,1,8,0:0:0:0:
256,192,6444,1,0,0:0:0:0:
256,192,6719,1,8,0:0:0:0:
256,192,6994,1,0,0:0:0:0:
256,192,7269,1,8,0:0:0:0:
256,192,7804,1,8,0:0:0:0:
256,192,8072,1,0,0:0:0:0:
256,192,8340,1,8,0:0:0:0:
256,192,8603,1,0,0:0:0:0:
256,192,8866,1,0,0:0:0:0:
256,192,8997,1,0,0:0:0:0:
256,192,9129,1,0,0:0:0:0:
256,192,9401,1,8,0:0:0:0:
256,192,9913,1,8,0:0:0:0:
256,192,10170,1,0,0:0:0:0:
256,192,10426,1,8,0:0:0:0:
256,192,10683,1,0,0:0:0:0:
256,192,10939,1,8,0:0:0:0:
256,192,11195,1,0,0:0:0:0:
256,192,11452,1,8,0:0:0:0:
256,192,11952,1,8,0:0:0:0:
256,192,12202,1,0,0:0:0:0:
256,192,12452,1,8,0:0:0:0:
256,192,12695,1,0,0:0:0:0:
256,192,12817,1,0,0:0:0:0:
256,192,12939,1,8,0:0:0:0:
256,192,13183,1,0,0:0:0:0:
256,192,13427,1,8,0:0:0:0:
256,192,13903,1,8,0:0:0:0:
256,192,14141,1,0,0:0:0:0:
256,192,14379,1,8,0:0:0:0:
256,192,14617,1,0,0:0:0:0:
256,192,14855,1,8,0:0:0:0:
256,192,15093,1,0,0:0:0:0:
256,192,15212,1,0,0:0:0:0:
256,192,15331,1,0,0:0:0:0:
256,192,15792,1,0,0:0:0:0:
256,192,16254,1,8,0:0:0:0:
256,192,16484,1,8,0:0:0:0:
256,192,16715,1,0,0:0:0:0:
256,192,16831,1,0,0:0:0:0:
256,192,16946,1,0,0:0:0:0:
256,96,17168,1,12,0:0:0:0:
256,192,18025,1,8,0:0:0:0:
256,192,18239,1,0,0:0:0:0:
256,192,18453,1,8,0:0:0:0:
256,192,18668,1,0,0:0:0:0:
256,192,18882,1,8,0:0:0:0:
256,192,19301,1,8,0:0:0:0:
256,192,19511,1,0,0:0:0:0:
256,192,19721,1,8,0:0:0:0:
256,192,19930,1,0,0:0:0:0:
256,192,20035,1,0,0:0:0:0:
256,192,20140,1,8,0:0:0:0:
256,192,20350,1,0,0:0:0:0:
256,96,20560,1,12,0:0:0:0:
256,192,21354,1,8,0:0:0:0:
256,192,21553,1,0,0:0:0:0:
256,192,21752,1,8,0:0:0:0:
256,192,21950,1,0,0:0:0:0:
256,192,22149,1,8,0:0:0:0:
256,192,22526,1,8,0:0:0:0:
256,192,22715,1,0,0:0:0:0:
256,192,22903,1,8,0:0:0:0:
256,192,23092,1,0,0:0:0:0:
256,192,23281,1,0,0:0:0:0:
256,192,23375,1,0,0:0:0:0:
256,192,23469,1,0,0:0:0:0:
256,96,23658,1,12,0:0:0:0:
256,192,24372,1,8,0:0:0:0:
256,192,24729,1,8,0:0:0:0:
256,192,24908,1,0,0:0:0:0:
256,96,25086,1,12,0:0:0:0:
256,192,25426,1,0,0:0:0:0:
256,192,25767,1,8,0:0:0:0:
256,192,26108,1,8,0:0:0:0:
256,192,26279,1,0,0:0:0:0:
256,96,26449,1,12,0:0:0:0:
256,96,27101,1,12,0:0:0:0:
256,192,27407,1,8,0:0:0:0:
256,96,28935,1,12,0:0:0:0:
256,192,29241,1,8,0:0:0:0:
256,192,29394,1,0,0:0:0:0:
256,192,29547,1,8,0:0:0:0:
256,192,29853,1,8,0:0:0:0:
256,192,30159,1,0,0:0:0:0:
256,192,30465,1,0,0:0:0:0:
256,192,30618,1,0,0:0:0:0:
256,192,30771,1,8,0:0:0:0:
256,192,31077,1,8,0:0:0:0:
256,192,31383,1,0,0:0:0:0:
256,192,31690,1,8,0:0:0:0:
256,192,31843,1,0,0:0:0:0:
256,192,31996,1,8,0:0:0:0:
256,192,32302,1,8,0:0:0:0:
256,192,32608,1,0,0:0:0:0:
256,192,32914,1,8,0:0:0:0:
256,192,33067,1,8,0:0:0:0:
256,192,33220,1,0,0:0:0:0:
256,192,33832,1,8,0:0:0:0:
256,192,34139,1,8,0:0:0:0:
256,192,34292,1,0,0:0:0:0:
256,192,34445,1,8,0:0:0:0:
256,192,34751,1,8,0:0:0:0:
256,192,35057,1,0,0:0:0:0:
256,192,35363,1,0,0:0:0:0:
256,192,35516,1,0,0:0:0:0:
256,192,35669,1,8,0:0:0:0:
256,192,35975,1,8,0:0:0:0:
256,192,36281,1,0,0:0:0:0:
256,192,36588,1,8,0:0:0:0:
256,192,36741,1,0,0:0:0:0:
256,192,36894,1,8,0:0:0:0:
256,192,37200,1,8,0:0:0:0:
256,192,37506,1,0,0:0:0:0:
256,192,37812,1,8,0:0:0:0:
256,192,37965,1,8,0:0:0:0:
256,192,38118,1,0,0:0:0:0:
256,192,38424,1,8,0:0:0:0:
256,192,38501,1,8,0:0:0:0:
256,192,38577,1,8,0:0:0:0:
256,96,38730,1,4,0:0:0:0:
256,192,39190,1,0,0:0:0:0:
256,192,39343,1,8,0:0:0:0:
256,192,39649,1,8,0:0:0:0:
256,192,39955,1,0,0:0:0:0:
256,192,40261,1,8,0:0:0:0:
256,192,40414,1,0,0:0:0:0:
256,192,40567,1,8,0:0:0:0:
256,192,40873,1,8,0:0:0:0:
256,192,41179,1,0,0:0:0:0:
256,192,41486,1,0,0:0:0:0:
256,192,41639,1,0,0:0:0:0:
256,192,41792,1,8,0:0:0:0:
256,192,42098,1,8,0:0:0:0:
256,192,42404,1,0,0:0:0:0:
256,192,42710,1,8,0:0:0:0:
256,192,42863,1,0,0:0:0:0:
256,192,43016,1,8,0:0:0:0:
256,192,43322,1,8,0:0:0:0:
256,192,43475,1,8,0:0:0:0:
256,192,43628,1,0,0:0:0:0:
256,192,44088,1,0,0:0:0:0:
256,192,44241,1,8,0:0:0:0:
256,192,44547,1,8,0:0:0:0:
256,192,44853,1,0,0:0:0:0:
256,192,45159,1,8,0:0:0:0:
256,192,45312,1,0,0:0:0:0:
256,192,45465,1,8,0:0:0:0:
256,192,45771,1,8,0:0:0:0:
256,192,46077,1,0,0:0:0:0:
256,192,46383,1,0,0:0:0:0:
256,192,46537,1,0,0:0:0:0:
256,192,46690,1,8,0:0:0:0:
256,192,46996,1,8,0:0:0:0:
256,192,47149,1,8,0:0:0:0:
256,96,48526,1,12,0:0:0:0:
256,192,48832,1,8,0:0:0:0:
256,192,49139,1,0,0:0:0:0:
256,192,49292,1,8,0:0:0:0:
256,192,49445,1,8,0:0:0:0:
256,192,49598,1,0,0:0:0:0:
256,192,49751,1,8,0:0:0:0:
256,192,50057,1,0,0:0:0:0:
256,192,50363,1,0,0:0:0:0:
256,192,50516,1,0,0:0:0:0:
256,192,50669,1,8,0:0:0:0:
256,192,50822,1,0,0:0:0:0:
256,192,50975,1,8,0:0:0:0:
256,192,51281,1,0,0:0:0:0:
256,192,51588,1,8,0:0:0:0:
256,192,51741,1,0,0:0:0:0:
256,192,51894,1,0,0:0:0:0:
256,192,52047,1,8,0:0:0:0:
256,192,52200,1,0,0:0:0:0:
256,192,52506,1,8,0:0:0:0:
256,192,52812,1,0,0:0:0:0:
256,192,52965,1,0,0:0:0:0:
256,192,53118,1,8,0:0:0:0:
256,192,53195,1,8,0:0:0:0:
256,192,53271,1,8,0:0:0:0:
256,192,53424,1,0,0:0:0:0:
256,192,53730,1,8,0:0:0:0:
256,192,54037,1,0,0:0:0:0:
256,192,54190,1,0,0:0:0:0:
256,192,54343,1,8,0:0:0:0:
256,192,54496,1,0,0:0:0:0:
256,192,54649,1,8,0:0:0:0:
256,192,54955,1,8,0:0:0:0:
256,192,55261,1,8,0:0:0:0:
256,192,55414,1,0,0:0:0:0:
256,192,55567,1,8,0:0:0:0:
256,192,55720,1,8,0:0:0:0:
256,192,55873,1,0,0:0:0:0:
256,192,56179,1,8,0:0:0:0:
256,192,56486,1,8,0:0:0:0:
256,192,56639,1,0,0:0:0:0:
256,192,56792,1,0,0:0:0:0:
256,192,56945,1,8,0:0:0:0:
256,192,57098,1,0,0:0:0:0:
256,96,58322,1,12,0:0:0:0:
256,192,58628,1,8,0:0:0:0:
256,192,58935,1,0,0:0:0:0:
256,192,59088,1,8,0:0:0:0:
256,192,59241,1,8,0:0:0:0:
256,192,59394,1,0,0:0:0:0:
256,192,59547,1,8,0:0:0:0:
256,192,59853,1,8,0:0:0:0:
256,192,60159,1,0,0:0:0:0:
256,192,60312,1,0,0:0:0:0:
256,192,60465,1,8,0:0:0:0:
256,192,60542,1,8,0:0:0:0:
256,192,60618,1,8,0:0:0:0:
256,192,60771,1,0,0:0:0:0:
256,192,61077,1,0,0:0:0:0:
256,192,61383,1,8,0:0:0:0:
256,192,61537,1,0,0:0:0:0:
256,192,61690,1,0,0:0:0:0:
256,192,61843,1,8,0:0:0:0:
256,192,61996,1,0,0:0:0:0:
256,192,62302,1,0,0:0:0:0:
256,192,62608,1,8,0:0:0:0:
256,192,62761,1,8,0:0:0:0:
256,192,62914,1,0,0:0:0:0:
256,192,62991,1,0,0:0:0:0:
256,192,63067,1,0,0:0:0:0:
256,192,63220,1,8,0:0:0:0:
256,192,63526,1,0,0:0:0:0:
256,192,63832,1,0,0:0:0:0:
256,192,63986,1,8,0:0:0:0:
256,192,64139,1,8,0:0:0:0:
256,192,64292,1,0,0:0:0:0:
256,192,64445,1,8,0:0:0:0:
256,192,64751,1,0,0:0:0:0:
256,192,65057,1,8,0:0:0:0:
256,192,65210,1,0,0:0:0:0:
256,192,65363,1,8,0:0:0:0:
256,192,65440,1,8,0:0:0:0:
256,192,65516,1,8,0:0:0:0:
256,192,65669,1,0,0:0:0:0:
256,192,65975,1,8,0:0:0:0:
256,192,66281,1,8,0:0:0:0:
256,192,66435,1,0,0:0:0:0:
256,192,66588,1,0,0:0:0:0:
256,192,66741,1,8,0:0:0:0:
256,192,66894,1,0,0:0:0:0:
256,192,67200,1,8,0:0:0:0:
256,192,67506,2,0,L|256:224,12,17.5
256,96,68118,1,4,0:0:0:0:
256,192,68577,1,0,0:0:0:0:
256,192,68730,1,8,0:0:0:0:
256,192,69037,1,8,0:0:0:0:
256,192,69190,1,8,0:0:0:0:
256,192,69343,1,0,0:0:0:0:
256,192,69649,1,8,0:0:0:0:
256,192,69802,1,0,0:0:0:0:
256,192,69955,1,8,0:0:0:0:
256,192,70261,1,8,0:0:0:0:
256,192,70567,1,0,0:0:0:0:
256,192,70873,1,0,0:0:0:0:
256,192,71026,1,0,0:0:0:0:
256,192,71179,1,8,0:0:0:0:
256,192,71486,1,8,0:0:0:0:
256,192,71792,1,0,0:0:0:0:
256,192,72098,1,8,0:0:0:0:
256,192,72251,1,0,0:0:0:0:
256,192,72404,1,8,0:0:0:0:
256,192,72557,1,0,0:0:0:0:
256,192,72710,1,8,0:0:0:0:
256,192,72787,1,8,0:0:0:0:
256,192,72863,1,8,0:0:0:0:
256,192,73016,1,0,0:0:0:0:
256,192,73475,1,0,0:0:0:0:
256,192,73628,1,8,0:0:0:0:
256,192,73935,1,8,0:0:0:0:
256,192,74088,1,8,0:0:0:0:
256,192,74241,1,0,0:0:0:0:
256,192,74547,1,0,0:0:0:0:
256,192,74700,1,0,0:0:0:0:
256,192,74853,1,8,0:0:0:0:
256,192,75159,1,8,0:0:0:0:
256,192,75465,1,0,0:0:0:0:
256,192,75771,1,8,0:0:0:0:
256,192,75924,1,0,0:0:0:0:
256,192,76077,1,8,0:0:0:0:
256,192,76383,1,8,0:0:0:0:
256,192,76690,1,0,0:0:0:0:
256,192,76996,1,8,0:0:0:0:
256,192,77149,1,8,0:0:0:0:
256,192,77302,1,0,0:0:0:0:
256,192,77378,1,0,0:0:0:0:
256,192,77455,1,0,0:0:0:0:
256,192,77608,1,8,0:0:0:0:
256,192,77685,5,8,0:0:0:0:
256,192,77761,1,8,0:0:0:0:
256,96,77914,1,4,0:0:0:0:
256,192,78373,1,8,0:0:0:0:
256,192,78526,1,0,0:0:0:0:
256,192,78679,1,8,0:0:0:0:
256,192,78832,1,8,0:0:0:0:
256,192,79139,1,0,0:0:0:0:
256,192,79445,1,8,0:0:0:0:
256,192,79751,1,0,0:0:0:0:
256,192,79904,1,8,0:0:0:0:
256,192,80210,1,0,0:0:0:0:
256,192,80363,1,0,0:0:0:0:
256,192,80669,1,8,0:0:0:0:
256,192,80975,1,0,0:0:0:0:
256,192,81128,1,8,0:0:0:0:
256,192,81281,1,0,0:0:0:0:
256,192,81588,1,0,0:0:0:0:
256,192,81741,1,8,0:0:0:0:
256,192,82047,1,8,0:0:0:0:
256,192,82200,1,0,0:0:0:0:
256,192,82353,1,8,0:0:0:0:
256,192,82506,1,0,0:0:0:0:
256,192,82582,1,0,0:0:0:0:
256,192,82659,1,0,0:0:0:0:
256,192,82812,1,8,0:0:0:0:
256,192,83271,1,8,0:0:0:0:
256,192,83424,1,0,0:0:0:0:
256,192,83577,1,8,0:0:0:0:
256,192,83730,1,8,0:0:0:0:
256,192,84037,1,0,0:0:0:0:
256,192,84343,1,0,0:0:0:0:
256,192,84649,1,0,0:0:0:0:
256,192,84802,1,8,0:0:0:0:
256,192,85108,1,8,0:0:0:0:
256,192,85261,1,0,0:0:0:0:
256,192,85567,1,8,0:0:0:0:
256,192,85720,1,0,0:0:0:0:
256,192,85873,1,0,0:0:0:0:
256,192,86026,1,8,0:0:0:0:
256,192,86332,1,8,0:0:0:0:
256,192,86486,1,0,0:0:0:0:
256,192,86792,1,8,0:0:0:0:
256,192,86945,1,8,0:0:0:0:
256,192,87098,1,0,0:0:0:0:
256,192,87251,1,8,0:0:0:0:
256,192,87404,1,0,0:0:0:0:
256,192,87480,1,0,0:0:0:0:
256,192,87557,1,0,0:0:0:0:
256,96,87710,1,12,0:0:0:0:
256,192,88169,1,8,0:0:0:0:
256,192,88322,1,0,0:0:0:0:
256,192,88475,1,8,0:0:0:0:
256,192,88628,1,8,0:0:0:0:
256,192,88781,1,0,0:0:0:0:
256,192,88935,1,0,0:0:0:0:
256,192,89241,1,8,0:0:0:0:
256,192,89317,1,8,0:0:0:0:
256,192,89394,1,8,0:0:0:0:
256,192,89547,1,0,0:0:0:0:
256,192,89700,1,8,0:0:0:0:
256,192,89853,1,0,0:0:0:0:
256,192,90006,1,8,0:0:0:0:
256,192,90159,1,0,0:0:0:0:
256,192,90465,1,0,0:0:0:0:
256,192,90618,1,8,0:0:0:0:
256,192,90771,1,0,0:0:0:0:
256,192,90924,1,8,0:0:0:0:
256,192,91001,1,8,0:0:0:0:
256,192,91077,1,8,0:0:0:0:
256,192,91230,1,8,0:0:0:0:
256,192,91383,1,0,0:0:0:0:
256,192,91690,1,8,0:0:0:0:
256,192,91843,1,0,0:0:0:0:
256,192,91996,1,8,0:0:0:0:
256,192,92072,1,8,0:0:0:0:
256,192,92149,1,8,0:0:0:0:
256,192,92302,1,0,0:0:0:0:
256,192,92378,1,0,0:0:0:0:
256,192,92455,1,0,0:0:0:0:
256,192,92608,1,8,0:0:0:0:
256,192,93067,1,8,0:0:0:0:
256,192,93220,1,0,0:0:0:0:
256,192,93373,1,0,0:0:0:0:
256,192,93526,1,8,0:0:0:0:
256,192,93679,1,8,0:0:0:0:
256,192,93832,1,0,0:0:0:0:
256,192,94139,1,0,0:0:0:0:
256,192,94215,1,0,0:0:0:0:
256,192,94292,1,0,0:0:0:0:
256,192,94445,1,8,0:0:0:0:
256,192,94598,1,0,0:0:0:0:
256,192,94751,1,8,0:0:0:0:
256,192,94904,1,8,0:0:0:0:
256,192,95057,1,0,0:0:0:0:
256,192,95363,1,8,0:0:0:0:
256,192,95516,1,8,0:0:0:0:
256,192,95669,1,0,0:0:0:0:
256,192,95822,1,0,0:0:0:0:
256,192,95899,1,0,0:0:0:0:
256,192,95975,1,0,0:0:0:0:
256,192,96128,1,8,0:0:0:0:
256,192,96281,1,0,0:0:0:0:
256,192,96588,1,8,0:0:0:0:
256,192,96741,1,0,0:0:0:0:
256,192,96894,1,8,0:0:0:0:
256,192,96970,1,8,0:0:0:0:
256,192,97047,1,8,0:0:0:0:
256,192,97200,1,0,0:0:0:0:
256,192,97276,1,0,0:0:0:0:
256,192,97353,1,0,0:0:0:0:
256,96,97506,1,12,0:0:0:0:
256,192,97965,1,8,0:0:0:0:
256,192,98118,1,0,0:0:0:0:
256,192,98271,1,8,0:0:0:0:
256,192,98348,1,8,0:0:0:0:
256,192,98424,1,8,0:0:0:0:
256,192,98577,1,0,0:0:0:0:
256,192,98730,1,0,0:0:0:0:
256,192,99037,1,8,0:0:0:0:
256,192,99190,1,0,0:0:0:0:
256,192,99343,1,8,0:0:0:0:
256,192,99496,1,0,0:0:0:0:
256,192,99572,1,0,0:0:0:0:
256,192,99649,1,0,0:0:0:0:
256,192,99802,1,8,0:0:0:0:
256,192,99955,1,0,0:0:0:0:
256,192,100261,1,0,0:0:0:0:
256,192,100414,1,8,0:0:0:0:
256,192,100567,1,0,0:0:0:0:
256,192,100720,1,8,0:0:0:0:
256,192,100797,1,8,0:0:0:0:
256,192,100873,1,8,0:0:0:0:
256,192,101026,1,0,0:0:0:0:
256,192,101179,1,8,0:0:0:0:
256,192,101486,1,8,0:0:0:0:
256,192,101639,1,0,0:0:0:0:
256,192,101792,1,0,0:0:0:0:
256,192,101945,1,8,0:0:0:0:
256,192,102021,1,8,0:0:0:0:
256,192,102098,1,8,0:0:0:0:
256,192,102251,1,0,0:0:0:0:
256,192,102327,1,0,0:0:0:0:
256,192,102404,1,0,0:0:0:0:
256,192,102863,1,8,0:0:0:0:
256,192,103016,1,0,0:0:0:0:
256,192,103169,1,8,0:0:0:0:
256,192,103246,1,8,0:0:0:0:
256,192,103322,1,8,0:0:0:0:
256,192,103475,1,0,0:0:0:0:
256,192,103628,1,0,0:0:0:0:
256,192,103935,1,8,0:0:0:0:
256,192,104088,1,0,0:0:0:0:
256,192,104241,1,0,0:0:0:0:
256,192,104394,1,8,0:0:0:0:
256,192,104470,1,8,0:0:0:0:
256,192,104547,1,8,0:0:0:0:
256,192,104700,1,8,0:0:0:0:
256,192,104853,1,0,0:0:0:0:
256,192,105159,1,0,0:0:0:0:
256,192,105312,1,8,0:0:0:0:
256,192,105465,1,0,0:0:0:0:
256,192,105618,1,8,0:0:0:0:
256,192,105695,1,8,0:0:0:0:
256,192,105771,1,8,0:0:0:0:
256,192,105924,1,8,0:0:0:0:
256,192,106077,1,0,0:0:0:0:
256,192,106154,1,0,0:0:0:0:
256,192,106230,1,0,0:0:0:0:
256,192,106383,1,0,0:0:0:0:
256,192,106537,1,8,0:0:0:0:
256,192,106613,1,8,0:0:0:0:
256,192,106690,1,8,0:0:0:0:
256,96,107302,1,12,0:0:0:0:
256,192,107608,1,8,0:0:0:0:
256,192,107914,1,8,0:0:0:0:
256,192,108067,1,8,0:0:0:0:
256,192,108220,1,0,0:0:0:0:
256,192,108373,1,8,0:0:0:0:
256,192,108526,1,0,0:0:0:0:
256,192,108832,1,0,0:0:0:0:
256,192,109139,1,0,0:0:0:0:
256,192,109292,1,0,0:0:0:0:
256,192,109445,1,8,0:0:0:0:
256,192,109598,1,8,0:0:0:0:
256,192,109751,1,0,0:0:0:0:
256,192,110057,1,0,0:0:0:0:
256,192,110210,1,8,0:0:0:0:
256,192,110363,1,0,0:0:0:0:
256,192,110669,1,0,0:0:0:0:
256,192,110822,1,8,0:0:0:0:
256,192,110975,1,0,0:0:0:0:
256,192,111281,1,0,0:0:0:0:
256,192,111435,1,8,0:0:0:0:
256,192,111588,1,0,0:0:0:0:
256,192,111894,1,8,0:0:0:0:
256,192,112200,1,0,0:0:0:0:
256,192,112659,1,8,0:0:0:0:
256,192,112812,1,0,0:0:0:0:
256,192,112965,1,0,0:0:0:0:
256,192,113118,1,8,0:0:0:0:
256,192,113424,1,0,0:0:0:0:
256,192,113730,1,8,0:0:0:0:
256,192,114037,1,0,0:0:0:0:
256,192,114190,1,8,0:0:0:0:
256,192,114343,1,8,0:0:0:0:
256,192,114649,1,0,0:0:0:0:
256,192,114955,1,0,0:0:0:0:
256,192,115108,1,8,0:0:0:0:
256,192,115261,1,0,0:0:0:0:
256,192,115567,1,0,0:0:0:0:
256,192,115873,1,0,0:0:0:0:
256,192,116026,1,0,0:0:0:0:
256,192,116179,1,8,0:0:0:0:
256,192,116332,1,8,0:0:0:0:
256,192,116486,1,0,0:0:0:0:
256,192,116562,1,0,0:0:0:0:
256,192,116639,1,0,0:0:0:0:
256,192,116792,1,8,0:0:0:0:
256,192,116868,1,8,0:0:0:0:
256,192,116945,1,8,0:0:0:0:
256,96,117098,1,4,0:0:0:0:
256,192,117710,1,8,0:0:0:0:
256,192,117863,1,8,0:0:0:0:
256,192,118016,1,0,0:0:0:0:
256,192,118169,1,8,0:0:0:0:
256,192,118322,1,0,0:0:0:0:
256,192,118628,1,0,0:0:0:0:
256,192,118935,1,0,0:0:0:0:
256,192,119088,1,0,0:0:0:0:
256,192,119241,1,8,0:0:0:0:
256,192,119394,1,8,0:0:0:0:
256,192,119547,1,0,0:0:0:0:
256,192,119853,1,0,0:0:0:0:
256,192,120006,1,8,0:0:0:0:
256,192,120159,1,0,0:0:0:0:
256,192,120465,1,0,0:0:0:0:
256,192,120618,1,0,0:0:0:0:
256,192,120771,1,8,0:0:0:0:
256,192,121077,1,0,0:0:0:0:
256,192,121230,1,0,0:0:0:0:
256,192,121383,1,8,0:0:0:0:
256,192,121690,1,8,0:0:0:0:
256,192,121996,1,0,0:0:0:0:
256,192,122455,1,8,0:0:0:0:
256,192,122608,1,0,0:0:0:0:
256,192,122761,1,0,0:0:0:0:
256,192,122914,1,8,0:0:0:0:
256,192,123220,1,0,0:0:0:0:
256,192,123526,1,8,0:0:0:0:
256,192,123832,1,0,0:0:0:0:
256,192,123986,1,0,0:0:0:0:
256,192,124139,1,8,0:0:0:0:
256,192,124445,5,0,0:0:0:0:
256,192,124751,1,0,0:0:0:0:
256,192,124904,1,8,0:0:0:0:
256,192,125057,1,8,0:0:0:0:
256,192,125210,1,0,0:0:0:0:
256,192,125363,1,0,0:0:0:0:
256,192,125669,1,0,0:0:0:0:
256,192,125822,1,8,0:0:0:0:
256,192,125975,1,0,0:0:0:0:
256,192,126052,1,0,0:0:0:0:
256,192,126128,1,0,0:0:0:0:
256,192,126281,1,8,0:0:0:0:
256,192,126588,1,8,0:0:0:0:
256,192,126664,1,8,0:0:0:0:
256,192,126741,1,8,0:0:0:0:
256,96,126894,1,4,0:0:0:0:
256,192,127353,1,0,0:0:0:0:
256,192,127506,1,8,0:0:0:0:
256,192,127582,1,8,0:0:0:0:
256,192,127659,1,8,0:0:0:0:
256,192,127812,1,0,0:0:0:0:
256,192,127965,1,8,0:0:0:0:
256,192,128118,1,0,0:0:0:0:
256,192,128424,1,8,0:0:0:0:
256,192,128730,1,0,0:0:0:0:
256,192,128807,1,0,0:0:0:0:
256,192,128883,1,0,0:0:0:0:
256,192,129037,1,8,0:0:0:0:
256,192,129190,1,8,0:0:0:0:
256,192,129343,1,0,0:0:0:0:
256,192,129649,1,8,0:0:0:0:
256,192,129955,1,8,0:0:0:0:
256,192,130108,1,8,0:0:0:0:
256,192,130185,1,8,0:0:0:0:
256,192,130261,1,8,0:0:0:0:
256,192,130414,1,0,0:0:0:0:
256,192,130567,1,8,0:0:0:0:
256,192,130720,1,0,0:0:0:0:
256,192,130873,1,8,0:0:0:0:
256,192,130950,1,8,0:0:0:0:
256,192,131026,1,8,0:0:0:0:
256,192,131179,1,0,0:0:0:0:
256,192,131332,1,0,0:0:0:0:
256,192,131486,1,8,0:0:0:0:
256,192,131639,1,8,0:0:0:0:
256,192,131792,1,0,0:0:0:0:
256,192,132251,1,0,0:0:0:0:
256,192,132404,1,8,0:0:0:0:
256,192,132557,1,8,0:0:0:0:
256,192,132710,1,0,0:0:0:0:
256,192,132787,1,0,0:0:0:0:
256,192,132863,1,0,0:0:0:0:
256,192,133016,1,8,0:0:0:0:
256,192,133322,1,0,0:0:0:0:
256,192,133628,1,8,0:0:0:0:
256,192,133781,1,8,0:0:0:0:
256,192,133935,1,8,0:0:0:0:
256,192,134088,1,0,0:0:0:0:
256,192,134164,1,0,0:0:0:0:
256,192,134241,1,0,0:0:0:0:
256,192,134547,1,8,0:0:0:0:
256,192,134700,1,0,0:0:0:0:
256,192,134853,1,8,0:0:0:0:
256,192,134929,1,8,0:0:0:0:
256,192,135006,1,8,0:0:0:0:
256,192,135159,1,0,0:0:0:0:
256,192,135312,1,8,0:0:0:0:
256,192,135465,1,0,0:0:0:0:
256,192,135771,1,0,0:0:0:0:
256,192,135848,1,0,0:0:0:0:
256,192,135924,1,0,0:0:0:0:
256,192,136077,1,8,0:0:0:0:
256,192,136383,1,8,0:0:0:0:
256,192,136460,1,8,0:0:0:0:
256,192,136537,1,8,0:0:0:0:
256,96,136690,1,4,0:0:0:0:
256,192,137149,1,0,0:0:0:0:
256,192,137302,1,8,0:0:0:0:
256,192,137378,1,8,0:0:0:0:
256,192,137455,1,8,0:0:0:0:
256,192,137608,1,0,0:0:0:0:
256,192,137761,1,8,0:0:0:0:
256,192,137914,1,0,0:0:0:0:
256,192,138220,1,0,0:0:0:0:
256,192,138373,1,0,0:0:0:0:
256,192,138526,1,8,0:0:0:0:
256,192,138603,1,8,0:0:0:0:
256,192,138679,1,8,0:0:0:0:
256,192,138832,1,8,0:0:0:0:
256,192,138909,1,8,0:0:0:0:
256,192,138986,1,8,0:0:0:0:
256,192,139139,1,0,0:0:0:0:
256,192,139445,1,8,0:0:0:0:
256,192,139751,1,8,0:0:0:0:
256,192,139904,1,0,0:0:0:0:
256,192,139980,1,0,0:0:0:0:
256,192,140057,1,0,0:0:0:0:
256,192,140210,1,8,0:0:0:0:
256,192,140363,1,0,0:0:0:0:
256,192,140669,1,0,0:0:0:0:
256,192,140746,1,0,0:0:0:0:
256,192,140822,1,0,0:0:0:0:
256,192,140975,1,8,0:0:0:0:
256,192,141128,1,0,0:0:0:0:
256,192,141281,1,8,0:0:0:0:
256,192,141358,1,8,0:0:0:0:
256,192,141435,1,8,0:0:0:0:
256,192,141588,1,0,0:0:0:0:
256,192,142047,1,0,0:0:0:0:
256,192,142200,1,8,0:0:0:0:
256,192,142353,1,0,0:0:0:0:
256,192,142506,1,8,0:0:0:0:
256,192,142582,1,8,0:0:0:0:
256,192,142659,1,8,0:0:0:0:
256,192,142812,1,0,0:0:0:0:
256,192,143118,1,0,0:0:0:0:
256,192,143271,1,0,0:0:0:0:
256,192,143424,1,8,0:0:0:0:
256,192,143501,1,8,0:0:0:0:
256,192,143577,1,8,0:0:0:0:
256,192,143730,1,8,0:0:0:0:
256,192,143807,1,8,0:0:0:0:
256,192,143883,1,8,0:0:0:0:
256,192,144037,1,0,0:0:0:0:
256,192,144343,1,8,0:0:0:0:
256,192,144496,1,8,0:0:0:0:
256,192,144649,1,0,0:0:0:0:
256,192,144725,1,0,0:0:0:0:
256,192,144802,1,0,0:0:0:0:
256,192,144955,1,8,0:0:0:0:
256,192,145108,1,8,0:0:0:0:
256,192,145261,1,0,0:0:0:0:
256,192,145567,1,0,0:0:0:0:
256,192,145644,1,0,0:0:0:0:
256,192,145720,1,0,0:0:0:0:
256,192,145873,1,8,0:0:0:0:
256,192,146179,1,8,0:0:0:0:
256,192,146256,1,8,0:0:0:0:
256,192,146332,1,8,0:0:0:0:
256,96,146486,1,4,0:0:0:0:
256,192,147710,5,0,0:0:0:0:
256,192,147863,1,8,0:0:0:0:
256,192,148322,1,0,0:0:0:0:
256,192,148475,1,0,0:0:0:0:
256,192,148628,1,8,0:0:0:0:
256,192,148935,1,0,0:0:0:0:
256,192,149241,1,0,0:0:0:0:
256,192,149547,1,8,0:0:0:0:
256,192,150006,1,8,0:0:0:0:
256,192,150159,1,0,0:0:0:0:
256,192,150465,1,8,0:0:0:0:
256,192,150924,1,0,0:0:0:0:
256,192,151077,1,8,0:0:0:0:
256,192,151383,1,0,0:0:0:0:
256,192,151690,1,8,0:0:0:0:
256,192,151843,1,0,0:0:0:0:
256,192,151996,1,8,0:0:0:0:
256,192,152455,1,0,0:0:0:0:
256,192,152608,1,0,0:0:0:0:
256,192,152761,1,8,0:0:0:0:
256,192,153373,1,0,0:0:0:0:
256,192,153526,1,8,0:0:0:0:
256,192,153832,1,0,0:0:0:0:
256,192,154139,1,0,0:0:0:0:
256,192,154292,1,0,0:0:0:0:
256,192,154445,1,8,0:0:0:0:
256,192,154904,1,8,0:0:0:0:
256,192,155057,1,0,0:0:0:0:
256,192,155210,1,8,0:0:0:0:
256,192,155975,1,8,0:0:0:0:
256,192,156281,1,0,0:0:0:0:
256,192,156588,1,0,0:0:0:0:
256,192,156741,1,0,0:0:0:0:
256,192,156894,1,8,0:0:0:0:
256,192,157506,1,0,0:0:0:0:
256,192,157659,1,8,0:0:0:0:
256,192,158118,1,0,0:0:0:0:
256,192,158424,1,8,0:0:0:0:
256,192,158730,1,0,0:0:0:0:
256,192,159037,1,0,0:0:0:0:
256,192,159190,1,0,0:0:0:0:
256,192,159343,1,8,0:0:0:0:
256,192,159802,1,8,0:0:0:0:
256,192,159955,1,0,0:0:0:0:
256,192,160261,1,8,0:0:0:0:
256,192,160720,1,0,0:0:0:0:
256,192,160873,1,8,0:0:0:0:
256,192,161179,1,0,0:0:0:0:
256,192,161486,1,8,0:0:0:0:
256,192,161639,1,0,0:0:0:0:
256,192,161792,1,8,0:0:0:0:
256,192,162251,1,0,0:0:0:0:
256,192,162404,1,0,0:0:0:0:
256,192,162557,1,8,0:0:0:0:
256,192,163169,1,0,0:0:0:0:
256,192,163322,1,8,0:0:0:0:
256,192,163628,1,0,0:0:0:0:
256,192,163935,1,0,0:0:0:0:
256,192,164088,1,0,0:0:0:0:
256,192,164241,1,8,0:0:0:0:
256,192,164700,1,8,0:0:0:0:
256,192,164853,1,0,0:0:0:0:
256,192,165159,1,8,0:0:0:0:
256,192,165465,1,8,0:0:0:0:
256,192,165771,1,8,0:0:0:0:
256,96,166077,1,4,0:0:0:0:
256,192,167302,5,0,0:0:0:0:
256,192,167455,1,8,0:0:0:0:
256,192,167914,1,0,0:0:0:0:
256,192,168067,1,0,0:0:0:0:
256,192,168220,1,8,0:0:0:0:
256,192,168526,1,0,0:0:0:0:
256,192,168832,1,0,0:0:0:0:
256,192,169139,1,8,0:0:0:0:
256,192,169598,1,8,0:0:0:0:
256,192,169751,1,0,0:0:0:0:
256,192,170057,1,8,0:0:0:0:
256,192,170516,1,0,0:0:0:0:
256,192,170669,1,8,0:0:0:0:
256,192,170975,1,0,0:0:0:0:
256,192,171281,1,8,0:0:0:0:
256,192,171435,1,0,0:0:0:0:
256,192,171588,1,8,0:0:0:0:
256,192,172047,1,0,0:0:0:0:
256,192,172200,1,0,0:0:0:0:
256,192,172353,1,8,0:0:0:0:
256,192,172965,1,0,0:0:0:0:
256,192,173118,1,8,0:0:0:0:
256,192,173424,1,0,0:0:0:0:
256,192,173730,1,0,0:0:0:0:
256,192,173883,1,0,0:0:0:0:
256,192,174037,1,8,0:0:0:0:
256,192,174496,1,8,0:0:0:0:
256,192,174649,1,0,0:0:0:0:
256,192,174802,1,8,0:0:0:0:
256,192,175567,1,8,0:0:0:0:
256,192,175873,1,0,0:0:0:0:
256,192,176179,1,0,0:0:0:0:
256,192,176332,1,0,0:0:0:0:
256,192,176486,1,8,0:0:0:0:
256,192,177098,1,0,0:0:0:0:
256,192,177251,1,8,0:0:0:0:
256,192,177710,1,0,0:0:0:0:
256,192,178016,1,8,0:0:0:0:
256,192,178322,1,0,0:0:0:0:
256,192,178628,1,0,0:0:0:0:
256,192,178781,1,0,0:0:0:0:
256,192,178935,1,8,0:0:0:0:
256,192,179394,1,8,0:0:0:0:
256,192,179547,1,0,0:0:0:0:
256,192,179853,1,8,0:0:0:0:
256,192,180312,1,0,0:0:0:0:
256,192,180465,1,8,0:0:0:0:
256,192,180771,1,0,0:0:0:0:
256,192,181077,1,8,0:0:0:0:
256,192,181230,1,0,0:0:0:0:
256,192,181383,1,8,0:0:0:0:
256,192,181843,1,0,0:0:0:0:
256,192,181996,1,0,0:0:0:0:
256,192,182149,1,8,0:0:0:0:
256,192,182761,1,0,0:0:0:0:
256,192,182914,1,8,0:0:0:0:
256,192,183220,1,0,0:0:0:0:
256,192,183526,1,0,0:0:0:0:
256,192,183679,1,0,0:0:0:0:
256,192,183832,1,8,0:0:0:0:
256,192,184292,1,0,0:0:0:0:
256,192,184445,1,0,0:0:0:0:
256,192,184598,1,8,0:0:0:0:
256,192,185363,1,8,0:0:0:0:
256,192,185669,1,8,0:0:0:0:
256,192,187506,12,0,191792,0:0:0:0:
256,96,192640,5,12,0:0:0:0:
256,192,192946,1,8,0:0:0:0:
256,192,193252,1,0,0:0:0:0:
256,192,193405,1,8,0:0:0:0:
256,192,193558,1,8,0:0:0:0:
256,192,193711,1,0,0:0:0:0:
256,192,193864,1,8,0:0:0:0:
256,192,194170,1,0,0:0:0:0:
256,192,194476,1,0,0:0:0:0:
256,192,194629,1,0,0:0:0:0:
256,192,194782,1,8,0:0:0:0:
256,192,194935,1,0,0:0:0:0:
256,192,195088,1,8,0:0:0:0:
256,192,195395,1,0,0:0:0:0:
256,192,195701,1,8,0:0:0:0:
256,192,195854,1,0,0:0:0:0:
256,192,196007,1,0,0:0:0:0:
256,192,196160,1,8,0:0:0:0:
256,192,196313,1,0,0:0:0:0:
256,192,196619,1,8,0:0:0:0:
256,192,196925,1,0,0:0:0:0:
256,192,197078,1,8,0:0:0:0:
256,192,197231,1,0,0:0:0:0:
256,192,197308,1,0,0:0:0:0:
256,192,197384,1,0,0:0:0:0:
256,96,197537,1,12,0:0:0:0:
256,192,197844,1,0,0:0:0:0:
256,192,198150,1,8,0:0:0:0:
256,192,198303,1,8,0:0:0:0:
256,192,198456,1,0,0:0:0:0:
256,192,198609,1,8,0:0:0:0:
256,192,198762,1,0,0:0:0:0:
256,192,199068,1,8,0:0:0:0:
256,192,199374,1,8,0:0:0:0:
256,192,199527,1,0,0:0:0:0:
256,192,199680,1,8,0:0:0:0:
256,192,199833,1,8,0:0:0:0:
256,192,199986,1,0,0:0:0:0:
256,192,200293,1,0,0:0:0:0:
256,192,200599,1,8,0:0:0:0:
256,192,200752,1,0,0:0:0:0:
256,192,200905,1,0,0:0:0:0:
256,192,201058,1,8,0:0:0:0:
256,192,201211,1,0,0:0:0:0:
256,192,201823,1,0,0:0:0:0:
256,96,202435,1,12,0:0:0:0:
256,192,202742,1,8,0:0:0:0:
256,192,203048,1,0,0:0:0:0:
256,192,203201,1,8,0:0:0:0:
256,192,203354,1,8,0:0:0:0:
256,192,203507,1,0,0:0:0:0:
256,192,203660,1,8,0:0:0:0:
256,192,203966,1,8,0:0:0:0:
256,192,204272,1,0,0:0:0:0:
256,192,204425,1,0,0:0:0:0:
256,192,204578,1,8,0:0:0:0:
256,192,204655,1,8,0:0:0:0:
256,192,204731,1,8,0:0:0:0:
256,192,204884,1,0,0:0:0:0:
256,192,205191,1,0,0:0:0:0:
256,192,205497,1,8,0:0:0:0:
256,192,205650,1,0,0:0:0:0:
256,192,205803,1,0,0:0:0:0:
256,192,205956,1,8,0:0:0:0:
256,192,206109,1,0,0:0:0:0:
256,192,206415,1,0,0:0:0:0:
256,192,206721,1,8,0:0:0:0:
256,192,206874,1,8,0:0:0:0:
256,192,207027,1,0,0:0:0:0:
256,192,207104,1,0,0:0:0:0:
256,192,207180,1,0,0:0:0:0:
256,96,207333,1,12,0:0:0:0:
256,192,207640,1,0,0:0:0:0:
256,192,207946,1,8,0:0:0:0:
256,192,208099,1,8,0:0:0:0:
256,192,208252,1,0,0:0:0:0:
256,192,208405,1,0,0:0:0:0:
256,192,208558,1,8,0:0:0:0:
256,192,208864,1,8,0:0:0:0:
256,192,209170,1,8,0:0:0:0:
256,192,209323,1,0,0:0:0:0:
256,192,209476,1,8,0:0:0:0:
256,192,209629,1,8,0:0:0:0:
256,192,209782,1,0,0:0:0:0:
256,192,210088,1,8,0:0:0:0:
256,192,210395,1,8,0:0:0:0:
256,192,210548,1,0,0:0:0:0:
256,192,210701,1,0,0:0:0:0:
256,192,210854,1,8,0:0:0:0:
256,192,211007,1,0,0:0:0:0:
256,192,211313,1,8,0:0:0:0:
256,192,211619,2,0,L|256:224,12,17.5
256,96,212231,1,4,0:0:0:0:
256,192,212691,1,0,0:0:0:0:
256,192,212844,1,8,0:0:0:0:
256,192,212920,1,8,0:0:0:0:
256,192,212997,1,8,0:0:0:0:
256,192,213150,1,0,0:0:0:0:
256,192,213303,1,8,0:0:0:0:
256,192,213456,1,0,0:0:0:0:
256,192,213762,1,8,0:0:0:0:
256,192,214068,1,0,0:0:0:0:
256,192,214145,1,0,0:0:0:0:
256,192,214221,1,0,0:0:0:0:
256,192,214375,1,8,0:0:0:0:
256,192,214528,1,8,0:0:0:0:
256,192,214681,1,0,0:0:0:0:
256,192,214987,1,8,0:0:0:0:
256,192,215293,1,0,0:0:0:0:
256,192,215446,1,8,0:0:0:0:
256,192,215523,1,8,0:0:0:0:
256,192,215599,1,8,0:0:0:0:
256,192,215752,1,0,0:0:0:0:
256,192,215905,1,8,0:0:0:0:
256,192,216058,1,0,0:0:0:0:
256,192,216211,1,8,0:0:0:0:
256,192,216364,1,8,0:0:0:0:
256,192,216517,1,0,0:0:0:0:
256,192,216670,1,0,0:0:0:0:
256,192,216824,1,8,0:0:0:0:
256,192,216977,1,8,0:0:0:0:
256,96,217130,1,4,0:0:0:0:
256,192,217589,1,0,0:0:0:0:
256,192,217742,1,8,0:0:0:0:
256,192,217895,1,8,0:0:0:0:
256,192,218048,1,0,0:0:0:0:
256,192,218125,1,0,0:0:0:0:
256,192,218201,1,0,0:0:0:0:
256,192,218354,1,8,0:0:0:0:
256,192,218507,1,8,0:0:0:0:
256,192,218660,1,0,0:0:0:0:
256,192,218966,1,8,0:0:0:0:
256,192,219119,1,8,0:0:0:0:
256,192,219273,1,8,0:0:0:0:
256,192,219349,1,8,0:0:0:0:
256,192,219426,1,8,0:0:0:0:
256,192,219579,1,0,0:0:0:0:
256,192,219885,1,8,0:0:0:0:
256,192,220038,1,0,0:0:0:0:
256,192,220191,1,8,0:0:0:0:
256,192,220267,1,8,0:0:0:0:
256,192,220344,1,8,0:0:0:0:
256,192,220497,1,0,0:0:0:0:
256,192,220650,1,8,0:0:0:0:
256,192,220803,1,0,0:0:0:0:
256,192,221109,1,0,0:0:0:0:
256,192,221186,1,0,0:0:0:0:
256,192,221262,1,0,0:0:0:0:
256,192,221415,1,8,0:0:0:0:
256,192,221721,1,8,0:0:0:0:
256,192,221798,1,8,0:0:0:0:
256,192,221875,1,8,0:0:0:0:
256,96,222028,5,4,0:0:0:0:
256,192,222486,5,0,0:0:0:0:
256,192,222640,1,8,0:0:0:0:
256,192,222716,1,8,0:0:0:0:
256,192,222793,1,8,0:0:0:0:
256,192,222946,1,0,0:0:0:0:
256,192,223099,1,8,0:0:0:0:
256,192,223252,1,0,0:0:0:0:
256,192,223558,1,8,0:0:0:0:
256,192,223864,1,0,0:0:0:0:
256,192,223941,1,0,0:0:0:0:
256,192,224017,1,0,0:0:0:0:
256,192,224170,1,8,0:0:0:0:
256,192,224323,1,8,0:0:0:0:
256,192,224476,1,0,0:0:0:0:
256,192,224782,1,8,0:0:0:0:
256,192,225088,1,8,0:0:0:0:
256,192,225242,1,8,0:0:0:0:
256,192,225318,1,8,0:0:0:0:
256,192,225395,1,8,0:0:0:0:
256,192,225548,1,0,0:0:0:0:
256,192,225701,1,8,0:0:0:0:
256,192,225854,1,8,0:0:0:0:
256,192,226007,1,0,0:0:0:0:
256,192,226160,1,0,0:0:0:0:
256,192,226313,1,8,0:0:0:0:
256,192,226466,1,0,0:0:0:0:
256,192,226619,1,8,0:0:0:0:
256,192,226772,1,8,0:0:0:0:
256,96,226925,1,4,0:0:0:0:
256,192,227384,1,0,0:0:0:0:
256,192,227537,1,8,0:0:0:0:
256,192,227690,1,8,0:0:0:0:
256,192,227843,1,0,0:0:0:0:
256,192,227997,1,8,0:0:0:0:
256,192,228149,1,0,0:0:0:0:
256,192,228303,1,8,0:0:0:0:
256,192,228456,1,0,0:0:0:0:
256,192,228761,1,8,0:0:0:0:
256,192,228914,1,8,0:0:0:0:
256,192,229068,1,8,0:0:0:0:
256,192,229145,1,8,0:0:0:0:
256,192,229221,1,8,0:0:0:0:
256,192,229374,1,0,0:0:0:0:
256,192,229680,1,8,0:0:0:0:
256,192,229833,1,0,0:0:0:0:
256,192,229986,1,8,0:0:0:0:
256,192,230063,1,8,0:0:0:0:
256,192,230140,1,8,0:0:0:0:
256,192,230293,1,0,0:0:0:0:
256,192,230446,5,8,0:0:0:0:
256,192,230599,1,0,0:0:0:0:
256,192,230905,5,8,0:0:0:0:
256,192,230981,1,8,0:0:0:0:
256,192,231058,1,8,0:0:0:0:
256,192,231211,2,0,L|256:224,12,17.5
256,96,231823,1,4,0:0:0:0:
256,192,233048,5,0,0:0:0:0:
256,192,233201,1,8,0:0:0:0:
256,192,233660,1,0,0:0:0:0:
256,192,233813,1,0,0:0:0:0:
256,192,233966,1,8,0:0:0:0:
256,192,234272,1,0,0:0:0:0:
256,192,234578,1,0,0:0:0:0:
256,192,234884,1,8,0:0:0:0:
256,192,235344,1,8,0:0:0:0:
256,192,235497,1,0,0:0:0:0:
256,192,235803,1,8,0:0:0:0:
256,192,236262,1,0,0:0:0:0:
256,192,236415,1,8,0:0:0:0:
256,192,236721,1,0,0:0:0:0:
256,192,237027,1,8,0:0:0:0:
256,192,237180,1,0,0:0:0:0:
256,192,237333,1,8,0:0:0:0:
256,192,237793,1,0,0:0:0:0:
256,192,237946,1,0,0:0:0:0:
256,192,238099,1,8,0:0:0:0:
256,192,238711,1,0,0:0:0:0:
256,192,238864,1,8,0:0:0:0:
256,192,239170,1,0,0:0:0:0:
256,192,239476,1,0,0:0:0:0:
256,192,239629,1,0,0:0:0:0:
256,192,239782,1,8,0:0:0:0:
256,192,240242,1,8,0:0:0:0:
256,192,240395,1,0,0:0:0:0:
256,192,240548,1,8,0:0:0:0:
256,192,241313,5,8,0:0:0:0:
256,192,241619,1,0,0:0:0:0:
256,192,241925,12,0,248966,0:0:0:0:
