osu file format v14

[General]
AudioFilename: audio.ogg
AudioLeadIn: 0
PreviewTime: 146486
Countdown: 0
SampleSet: Normal
StackLeniency: 0.7
Mode: 1
LetterboxInBreaks: 0
WidescreenStoryboard: 1

[Editor]
Bookmarks: 394,17168,28935,48526,68118,87710,107302,126894,146486,166077,192640,212231,231823
DistanceSpacing: 1.1
BeatDivisor: 12
GridSize: 32
TimelineZoom: 3.099999

[Metadata]
Title:Tool-Assisted Speedcore (TQBF Frame Advance RMX)
TitleUnicode:Tool-Assisted Speedcore (TQBF Frame Advance RMX)
Artist:Kobaryo
ArtistUnicode:Kobaryo
Creator:Hivie
Version:Inner Oni
Source:
Tags:featured artist fa mappers' guild mpg osu! electronic instrumental speedcore TAS speedrun mixpeed action the quick brown fox renard speed high bpm rsi
BeatmapID:2690456
BeatmapSetID:1275054

[Difficulty]
HPDrainRate:6
CircleSize:2
OverallDifficulty:6
ApproachRate:9
SliderMultiplier:1.4
SliderTickRate:1

[Events]
//Background and Video events
0,0,"bg.png",0,45
//Break Periods
//Storyboard Layer 0 (Background)
//Storyboard Layer 1 (Fail)
//Storyboard Layer 2 (Pass)
//Storyboard Layer 3 (Foreground)
//Storyboard Layer 4 (Overlay)
//Storyboard Sound Samples

[TimingPoints]
394,600,4,1,0,100,1,0
806,-99.2555831265509,4,1,0,100,0,0
994,594.059405940594,4,1,0,100,1,8
1253,-99.502487562189,4,1,0,100,0,0
1588,588.235294117647,4,1,0,100,1,8
1698,-99.7555987829817,4,1,0,100,0,0
1845,-99.5123892924669,4,1,0,100,0,0
2176,582.52427184466,4,1,0,100,1,8
2430,-99.5173408966512,4,1,0,100,0,0
2576,-99.2772615360178,4,1,0,100,0,0
2758,576.923076923077,4,1,0,100,1,0
3010,-99.5222929936306,4,1,0,100,0,0
3334,571.428571428571,4,1,0,100,1,8
3441,-99.8412524086702,4,1,0,100,0,0
3584,-99.6840017145648,4,1,0,100,0,0
3869,-98.7459267305224,4,1,0,100,0,0
4155,-99.0569775735003,4,1,0,100,0,0
4298,-98.9012075837446,4,1,0,100,0,0
4441,-98.7459267305224,4,1,0,100,0,0
4726,-98.4377922371957,4,1,0,100,0,0
5048,560.747663551402,4,1,0,100,1,0
5433,-99.3038798025839,4,1,0,100,0,0
5573,-99.0736612671521,4,1,0,100,0,0
5854,-98.6173842724996,4,1,0,100,0,0
6169,550.45871559633,4,1,0,100,1,8
6272,-99.657179303197,4,1,0,100,0,0
6409,-99.3167010964564,4,1,0,100,0,0
6685,-98.6426767676768,4,1,0,100,0,0
6960,-97.9777394575952,4,1,0,100,0,0
7132,-97.6486212014686,4,1,0,100,0,8
7269,535.714285714286,4,1,0,100,1,0
7503,-99.5559803277383,4,1,0,100,0,0
7771,-99.1158862942552,4,1,0,100,0,0
7905,-98.8963171011511,4,1,0,100,0,0
8039,-98.6786923099695,4,1,0,100,0,0
8340,526.315789473684,4,1,0,100,1,8
8570,-99.3463013372012,4,1,0,100,0,0
8701,-99.0226464792498,4,1,0,100,0,0
8833,-98.7010936081172,4,1,0,100,0,0
8965,-98.3816223129519,4,1,0,100,0,0
9096,-98.0642124463098,4,1,0,100,0,0
9401,512.820512820513,4,1,0,100,1,0
9753,-99.5213025348076,4,1,0,100,0,0
9881,-99.3630826402758,4,1,0,100,0,0
10138,-99.0471662605733,4,1,0,100,0,0
10394,-98.7342272072036,4,1,0,100,0,0
10522,-98.5784980580036,4,1,0,100,0,0
10651,-98.4222906803933,4,1,0,100,0,0
10907,-98.1132815949295,4,1,0,100,0,0
11163,-97.80525018583,4,1,0,100,0,0
11292,-97.6524354517402,4,1,0,100,0,0
11452,500,4,1,0,100,1,0
11670,-99.3788819875776,4,1,0,100,0,0
11920,-98.7654320987654,4,1,0,100,0,0
12045,-98.4615384615385,4,1,0,100,0,0
12170,-98.159509202454,4,1,0,100,0,0
12452,487.80487804878,4,1,0,100,1,8
12665,-99.3936984395189,4,1,0,100,0,0
12787,-99.0932963385027,4,1,0,100,0,0
12909,-98.7947046038332,4,1,0,100,0,0
13153,-98.203851555058,4,1,0,100,0,0
13427,476.190476190476,4,1,0,100,1,0
13754,-99.4085193101049,4,1,0,100,0,0
13873,-99.2122546977003,4,1,0,100,0,0
14111,-98.8239944658563,4,1,0,100,0,0
14349,-98.2453382586996,4,1,0,100,0,0
14587,-98.054596799498,4,1,0,100,0,0
14825,-97.6743731747101,4,1,0,100,0,0
15063,-97.2970869252175,4,1,0,100,0,0
15182,-97.1100062150404,4,1,0,100,0,0
15331,461.538461538462,4,1,0,100,1,0
15763,-98.1132815949295,4,1,0,100,0,0
15994,-97.1958983330903,4,1,0,100,0,0
16225,-96.2964389576873,4,1,0,100,0,0
16456,-95.4125639264178,4,1,0,100,0,0
16571,-94.9775852898716,4,1,0,100,0,0
16686,-94.5456608268964,4,1,0,100,0,0
16763,-94.2595909133754,4,1,0,100,0,0
16840,-93.976130062964,4,1,0,100,0,0
16917,-93.6934911131724,4,1,0,100,0,0
16994,-93.4134197718844,4,1,0,100,0,0
17071,-93.1341504302798,4,1,0,100,0,0
17168,428.571428571429,4,1,0,100,1,0
17469,-99.6094314194045,4,1,0,100,0,0
17576,-99.4761585490805,4,1,0,100,0,0
17790,-99.2107782589501,4,1,0,100,0,0
18005,-98.9468101527343,4,1,0,100,0,0
18112,-98.8154009731341,4,1,0,100,0,0
18219,-98.6842429882378,4,1,0,100,0,0
18433,-98.4230656422794,4,1,0,100,0,0
18648,-98.1632671091212,4,1,0,100,0,0
18755,-98.0339295430149,4,1,0,100,0,0
18882,419.58041958042,4,1,0,100,1,0
19071,-99.3061479443131,4,1,0,100,0,0
19281,-98.6217608915407,4,1,0,100,0,0
19386,-98.2830926544199,4,1,0,100,0,0
19491,-97.9468383740041,4,1,0,100,0,0
19701,-97.2809961574007,4,1,0,100,0,0
19910,-96.6241456009925,4,1,0,100,0,0
20015,-96.2991282039924,4,1,0,100,0,0
20120,-95.9761979029201,4,1,0,100,0,0
20330,-95.3368824076758,4,1,0,100,0,0
20560,397.350993377483,4,1,0,100,1,0
20838,-99.0160772404615,4,1,0,100,0,0
20937,-98.6923266716013,4,1,0,100,0,0
21136,-98.0512317685991,4,1,0,100,0,0
21334,-97.4184120798831,4,1,0,100,0,0
21434,-97.1051026789356,4,1,0,100,0,0
21533,-96.7937084089534,4,1,0,100,0,0
21732,-96.1769656167348,4,1,0,100,0,0
21930,-95.568032493131,4,1,0,100,0,0
22030,-95.2664029692633,4,1,0,100,0,0
22149,377.358490566038,4,1,0,100,1,0
22317,-99.2974703969416,4,1,0,100,0,0
22506,-98.6047428881329,4,1,0,100,0,0
22600,-98.2619427565226,4,1,0,100,0,0
22695,-97.9216137481946,4,1,0,100,0,0
22883,-97.2478848585043,4,1,0,100,0,0
23072,-96.5833635156344,4,1,0,100,0,0
23166,-96.2545432144397,4,1,0,100,0,0
23261,-95.9278622475898,4,1,0,100,0,0
23355,-95.6034826436657,4,1,0,100,0,0
23449,-95.2811986374789,4,1,0,100,0,0
23658,357.142857142857,4,1,0,100,1,0
23905,-99.1153950987437,4,1,0,100,0,0
23995,-98.8239944658563,4,1,0,100,0,0
24173,-98.2463034828315,4,1,0,100,0,0
24352,-97.6753272123462,4,1,0,100,0,0
24441,-97.3923206155195,4,1,0,100,0,0
24530,-97.110949259529,4,1,0,100,0,0
24709,-96.5530559042194,4,1,0,100,0,0
24888,-96.0015360245764,4,1,0,100,0,0
24977,-95.7281321048223,4,1,0,100,0,0
25086,340.909090909091,4,1,0,100,1,0
25236,-99.4344170358998,4,1,0,100,0,0
25406,-98.8752935360277,4,1,0,100,0,0
25492,-98.5980345467793,4,1,0,100,0,0
25577,-98.3224228218142,4,1,0,100,0,0
25747,-97.7756049865558,4,1,0,100,0,0
25918,-97.234835741192,4,1,0,100,0,0
26003,-96.9667820894596,4,1,0,100,0,0
26088,-96.7001087876224,4,1,0,100,0,0
26259,-96.1712309532877,4,1,0,100,0,0
26449,326.086956521739,4,1,0,100,1,0
26673,-98.7922645656845,4,1,0,100,0,0
26755,-98.3961428711994,4,1,0,100,0,0
26918,-97.6133535067597,4,1,0,100,0,0
27101,306.122448979592,4,1,0,100,1,8
27101,-103.158763442218,4,1,0,100,0,0
27234,-102.234540348395,4,1,0,100,0,0
27387,-101.328826227143,4,1,0,100,0,0
27540,-100.439018951838,4,1,0,100,0,0
27616,-100,4,1,0,100,0,0
27713,306.122448979592,4,1,0,100,1,0
28935,306.122448979592,4,1,0,100,1,0
48526,-100,4,1,0,100,0,1
57098,-100,4,1,0,100,0,0
58322,-100,4,1,0,100,0,1
68118,-100,4,1,0,100,0,0
87710,-100,4,1,0,100,0,1
107302,-100,4,1,0,100,0,0
126894,-100,4,1,0,100,0,1
147710,-111.111111111111,4,1,0,100,0,0
166077,-71.4285714285714,4,1,0,100,0,1
167302,-111.111111111111,4,1,0,100,0,0
192640,306.122448979592,4,1,0,100,1,1
192640,-100,4,1,0,100,0,1
201211,-100,4,1,0,100,0,0
202435,-100,4,1,0,100,0,1
211619,-100,4,1,0,100,0,0
212231,-100,4,1,0,100,0,1
233048,-111.111111111111,4,1,0,90,0,0
239169,-111.111111111111,4,1,0,85,0,0
239476,-113.333325777778,4,1,0,81,0,0
239629,-114.478168440887,4,1,0,76,0,0
239782,-115.646242769219,4,1,0,72,0,0
240241,-119.298287473083,4,1,0,67,0,0
240394,-120.567341683024,4,1,0,63,0,0
240547,-121.863834226189,4,1,0,58,0,0
241159,-127.340843047317,4,1,0,54,0,0
241312,-128.787810491313,4,1,0,49,0,0
241618,-131.782864010627,4,1,0,45,0,0
241771,-133.333333333333,4,1,0,41,0,0
241925,-133.333333333333,4,1,0,36,0,0
242537,-140.25973297352,4,1,0,32,0,0
242996,-145.945985390807,4,1,0,27,0,0
243608,-154.285749551028,4,1,0,23,0,0
244220,-163.636393388435,4,1,0,18,0,0
244833,-174.193570863687,4,1,0,14,0,0
245445,-186.20690939358,4,1,0,9,0,0
246057,-200,4,1,0,5,0,0

[HitObjects]
256,96,394,5,12,0:0:0:0:
256,192,844,1,0,0:0:0:0:
256,192,994,1,8,0:0:0:0:
256,192,1291,1,0,0:0:0:0:
256,192,1588,1,8,0:0:0:0:
256,192,1735,1,0,0:0:0:0:
256,192,1882,1,0,0:0:0:0:
256,192,2176,1,8,0:0:0:0:
256,192,2467,1,0,0:0:0:0:
256,192,2612,1,0,0:0:0:0:
256,192,2758,1,8,0:0:0:0:
256,192,3046,1,0,0:0:0:0:
256,192,3334,1,8,0:0:0:0:
256,192,3476,1,0,0:0:0:0:
256,192,3619,1,0,0:0:0:0:
256,192,3905,1,8,0:0:0:0:
256,192,4191,1,0,0:0:0:0:
256,192,4333,1,0,0:0:0:0:
256,192,4476,1,8,0:0:0:0:
256,192,4762,1,0,0:0:0:0:
256,192,5048,1,8,0:0:0:0:
256,192,5468,1,0,0:0:0:0:
256,192,5608,1,8,0:0:0:0:
256,192,5889,1,0,0:0:0:0:
256,192,6169,1,8,0:0:0:0:
256,192,6306,1,0,0:0:0:0:
256,192,6444,1,0,0:0:0:0:
256,192,6719,1,8,0:0:0:0:
256,192,6994,1,0,0:0:0:0:
256,192,7132,1,0,0:0:0:0:
256,192,7269,1,8,0:0:0:0:
256,192,7536,1,0,0:0:0:0:
256,192,7804,1,8,0:0:0:0:
256,192,7938,1,0,0:0:0:0:
256,192,8072,1,0,0:0:0:0:
256,192,8340,1,8,0:0:0:0:
256,192,8603,1,0,0:0:0:0:
256,192,8734,1,0,0:0:0:0:
256,192,8866,1,8,0:0:0:0:
256,192,8997,1,0,0:0:0:0:
256,192,9129,1,8,0:0:0:0:
256,192,9401,1,8,0:0:0:0:
256,192,9785,1,0,0:0:0:0:
256,192,9913,1,8,0:0:0:0:
256,192,10170,1,0,0:0:0:0:
256,192,10426,1,8,0:0:0:0:
256,192,10554,1,0,0:0:0:0:
256,192,10683,1,0,0:0:0:0:
256,192,10939,1,8,0:0:0:0:
256,192,11195,1,0,0:0:0:0:
256,192,11324,1,0,0:0:0:0:
256,192,11452,1,8,0:0:0:0:
256,192,11702,1,0,0:0:0:0:
256,192,11952,1,8,0:0:0:0:
256,192,12077,1,0,0:0:0:0:
256,192,12202,1,0,0:0:0:0:
256,192,12452,1,8,0:0:0:0:
256,192,12695,1,0,0:0:0:0:
256,192,12817,1,0,0:0:0:0:
256,192,12939,1,8,0:0:0:0:
256,192,13183,1,0,0:0:0:0:
256,192,13427,1,8,0:0:0:0:
256,192,13784,1,0,0:0:0:0:
256,192,13903,1,8,0:0:0:0:
256,192,14141,1,0,0:0:0:0:
256,192,14379,1,8,0:0:0:0:
256,192,14498,1,0,0:0:0:0:
256,192,14617,1,0,0:0:0:0:
256,192,14855,1,0,0:0:0:0:
256,192,15093,1,0,0:0:0:0:
256,192,15212,1,0,0:0:0:0:
256,192,15331,1,8,0:0:0:0:
256,192,15792,1,0,0:0:0:0:
256,192,16023,1,0,0:0:0:0:
256,192,16254,1,8,0:0:0:0:
256,192,16484,1,8,0:0:0:0:
256,192,16600,1,8,0:0:0:0:
256,192,16715,1,0,0:0:0:0:
256,192,16831,1,0,0:0:0:0:
256,192,16946,1,0,0:0:0:0:
256,192,17061,1,0,0:0:0:0:
256,96,17168,1,12,0:0:0:0:
256,192,17489,1,0,0:0:0:0:
256,192,17596,1,8,0:0:0:0:
256,192,17810,1,0,0:0:0:0:
256,192,18025,1,8,0:0:0:0:
256,192,18132,1,0,0:0:0:0:
256,192,18239,1,0,0:0:0:0:
256,192,18453,1,8,0:0:0:0:
256,192,18668,1,0,0:0:0:0:
256,192,18775,1,0,0:0:0:0:
256,192,18882,1,8,0:0:0:0:
256,192,19091,1,0,0:0:0:0:
256,192,19301,1,8,0:0:0:0:
256,192,19406,1,0,0:0:0:0:
256,192,19511,1,0,0:0:0:0:
256,192,19721,1,8,0:0:0:0:
256,192,19930,1,0,0:0:0:0:
256,192,20035,1,0,0:0:0:0:
256,192,20140,1,8,0:0:0:0:
256,192,20350,1,0,0:0:0:0:
256,96,20560,1,12,0:0:0:0:
256,192,20858,1,0,0:0:0:0:
256,192,20957,1,8,0:0:0:0:
256,192,21156,1,0,0:0:0:0:
256,192,21354,1,8,0:0:0:0:
256,192,21454,1,0,0:0:0:0:
256,192,21553,1,0,0:0:0:0:
256,192,21752,1,8,0:0:0:0:
256,192,21950,1,0,0:0:0:0:
256,192,22050,1,0,0:0:0:0:
256,192,22149,1,8,0:0:0:0:
256,192,22337,1,0,0:0:0:0:
256,192,22526,1,8,0:0:0:0:
256,192,22620,1,0,0:0:0:0:
256,192,22715,1,0,0:0:0:0:
256,192,22903,1,8,0:0:0:0:
256,192,23092,1,0,0:0:0:0:
256,192,23186,1,0,0:0:0:0:
256,192,23281,1,8,0:0:0:0:
256,192,23375,1,0,0:0:0:0:
256,192,23469,1,8,0:0:0:0:
256,96,23658,1,12,0:0:0:0:
256,192,23925,1,0,0:0:0:0:
256,192,24015,1,8,0:0:0:0:
256,192,24193,1,0,0:0:0:0:
256,192,24372,1,8,0:0:0:0:
256,192,24461,1,0,0:0:0:0:
256,192,24550,1,0,0:0:0:0:
256,192,24729,1,8,0:0:0:0:
256,192,24908,1,0,0:0:0:0:
256,192,24997,1,0,0:0:0:0:
256,96,25086,1,12,0:0:0:0:
256,192,25256,1,0,0:0:0:0:
256,192,25426,1,8,0:0:0:0:
256,192,25512,1,0,0:0:0:0:
256,192,25597,1,0,0:0:0:0:
256,192,25767,1,8,0:0:0:0:
256,192,25938,1,0,0:0:0:0:
256,192,26023,1,0,0:0:0:0:
256,192,26108,1,8,0:0:0:0:
256,192,26279,1,0,0:0:0:0:
256,96,26449,1,12,0:0:0:0:
256,192,26693,1,0,0:0:0:0:
256,192,26775,1,8,0:0:0:0:
256,192,26938,1,0,0:0:0:0:
256,96,27101,1,12,0:0:0:0:
256,192,27254,1,0,0:0:0:0:
256,192,27407,1,8,0:0:0:0:
256,192,27560,1,0,0:0:0:0:
256,192,27636,1,0,0:0:0:0:
256,96,28935,1,12,0:0:0:0:
256,192,29088,1,0,0:0:0:0:
256,192,29241,1,8,0:0:0:0:
256,192,29394,1,0,0:0:0:0:
256,192,29470,1,0,0:0:0:0:
256,192,29547,1,8,0:0:0:0:
256,192,29700,1,0,0:0:0:0:
256,192,29776,1,8,0:0:0:0:
256,192,29929,1,0,0:0:0:0:
256,192,30006,1,8,0:0:0:0:
256,192,30159,1,0,0:0:0:0:
256,192,30312,1,0,0:0:0:0:
256,192,30465,1,8,0:0:0:0:
256,192,30618,1,0,0:0:0:0:
256,192,30695,1,0,0:0:0:0:
256,192,30771,1,8,0:0:0:0:
256,192,30924,1,0,0:0:0:0:
256,192,31001,1,8,0:0:0:0:
256,192,31154,1,0,0:0:0:0:
256,192,31230,1,8,0:0:0:0:
256,192,31383,1,8,0:0:0:0:
256,192,31537,1,0,0:0:0:0:
256,192,31690,1,8,0:0:0:0:
256,192,31843,1,0,0:0:0:0:
256,192,31919,1,0,0:0:0:0:
256,192,31996,1,8,0:0:0:0:
256,192,32149,1,0,0:0:0:0:
256,192,32225,1,8,0:0:0:0:
256,192,32378,1,0,0:0:0:0:
256,192,32455,1,8,0:0:0:0:
256,192,32608,1,8,0:0:0:0:
256,192,32761,1,0,0:0:0:0:
256,192,32914,1,8,0:0:0:0:
256,192,33067,1,0,0:0:0:0:
256,192,33144,1,0,0:0:0:0:
256,192,33220,1,8,0:0:0:0:
256,192,33373,1,0,0:0:0:0:
256,192,33450,1,8,0:0:0:0:
256,192,33603,1,8,0:0:0:0:
256,192,33679,1,0,0:0:0:0:
256,192,33832,1,8,0:0:0:0:
256,192,33986,1,0,0:0:0:0:
256,192,34139,1,8,0:0:0:0:
256,192,34292,1,0,0:0:0:0:
256,192,34368,1,0,0:0:0:0:
256,192,34445,1,8,0:0:0:0:
256,192,34598,1,0,0:0:0:0:
256,192,34674,1,8,0:0:0:0:
256,192,34827,1,0,0:0:0:0:
256,192,34904,1,8,0:0:0:0:
256,192,35057,1,8,0:0:0:0:
256,192,35210,1,0,0:0:0:0:
256,192,35363,1,8,0:0:0:0:
256,192,35516,1,0,0:0:0:0:
256,192,35593,1,0,0:0:0:0:
256,192,35669,1,8,0:0:0:0:
256,192,35822,1,0,0:0:0:0:
256,192,35899,1,8,0:0:0:0:
256,192,36052,1,0,0:0:0:0:
256,192,36128,1,8,0:0:0:0:
256,192,36281,1,8,0:0:0:0:
256,192,36435,1,0,0:0:0:0:
256,192,36588,1,8,0:0:0:0:
256,192,36741,1,0,0:0:0:0:
256,192,36817,1,0,0:0:0:0:
256,192,36894,1,8,0:0:0:0:
256,192,37047,1,0,0:0:0:0:
256,192,37123,1,8,0:0:0:0:
256,192,37276,1,8,0:0:0:0:
256,192,37353,1,8,0:0:0:0:
256,192,37506,1,0,0:0:0:0:
256,192,37659,1,0,0:0:0:0:
256,192,37812,1,8,0:0:0:0:
256,192,37965,1,0,0:0:0:0:
256,192,38042,1,0,0:0:0:0:
256,192,38118,1,8,0:0:0:0:
256,192,38271,1,0,0:0:0:0:
256,192,38424,1,8,0:0:0:0:
256,192,38501,1,8,0:0:0:0:
256,192,38577,1,8,0:0:0:0:
256,192,38654,1,8,0:0:0:0:
256,96,38730,1,4,0:0:0:0:
256,192,38883,1,0,0:0:0:0:
256,192,39037,1,8,0:0:0:0:
256,192,39190,1,0,0:0:0:0:
256,192,39266,1,0,0:0:0:0:
256,192,39343,1,8,0:0:0:0:
256,192,39496,1,0,0:0:0:0:
256,192,39572,1,8,0:0:0:0:
256,192,39725,1,0,0:0:0:0:
256,192,39802,1,8,0:0:0:0:
256,192,39955,1,8,0:0:0:0:
256,192,40031,1,0,0:0:0:0:
256,192,40108,1,0,0:0:0:0:
256,192,40261,1,8,0:0:0:0:
256,192,40414,1,0,0:0:0:0:
256,192,40491,1,0,0:0:0:0:
256,192,40567,1,8,0:0:0:0:
256,192,40720,1,0,0:0:0:0:
256,192,40797,1,8,0:0:0:0:
256,192,40950,1,8,0:0:0:0:
256,192,41026,1,8,0:0:0:0:
256,192,41179,1,8,0:0:0:0:
256,192,41256,1,0,0:0:0:0:
256,192,41332,1,0,0:0:0:0:
256,192,41486,1,8,0:0:0:0:
256,192,41639,1,0,0:0:0:0:
256,192,41715,1,0,0:0:0:0:
256,192,41792,1,8,0:0:0:0:
256,192,41945,1,0,0:0:0:0:
256,192,42021,1,8,0:0:0:0:
256,192,42174,1,0,0:0:0:0:
256,192,42251,1,8,0:0:0:0:
256,192,42404,1,0,0:0:0:0:
256,192,42557,1,0,0:0:0:0:
256,192,42710,1,8,0:0:0:0:
256,192,42863,1,0,0:0:0:0:
256,192,42940,1,0,0:0:0:0:
256,192,43016,1,8,0:0:0:0:
256,192,43169,1,0,0:0:0:0:
256,192,43246,1,8,0:0:0:0:
256,192,43399,1,0,0:0:0:0:
256,192,43475,1,8,0:0:0:0:
256,192,43628,1,0,0:0:0:0:
256,192,43705,1,8,0:0:0:0:
256,192,43781,1,0,0:0:0:0:
256,192,43935,1,8,0:0:0:0:
256,192,44088,1,0,0:0:0:0:
256,192,44164,1,0,0:0:0:0:
256,192,44241,1,8,0:0:0:0:
256,192,44394,1,0,0:0:0:0:
256,192,44470,1,8,0:0:0:0:
256,192,44623,1,0,0:0:0:0:
256,192,44700,1,8,0:0:0:0:
256,192,44853,1,8,0:0:0:0:
256,192,44929,1,0,0:0:0:0:
256,192,45006,1,0,0:0:0:0:
256,192,45159,1,8,0:0:0:0:
256,192,45312,1,0,0:0:0:0:
256,192,45389,1,0,0:0:0:0:
256,192,45465,1,8,0:0:0:0:
256,192,45618,1,0,0:0:0:0:
256,192,45695,1,8,0:0:0:0:
256,192,45848,1,0,0:0:0:0:
256,192,45924,1,8,0:0:0:0:
256,192,46077,1,0,0:0:0:0:
256,192,46154,1,0,0:0:0:0:
256,192,46230,1,0,0:0:0:0:
256,192,46383,1,8,0:0:0:0:
256,192,46537,1,0,0:0:0:0:
256,192,46613,1,0,0:0:0:0:
256,192,46690,1,8,0:0:0:0:
256,192,46843,1,0,0:0:0:0:
256,192,46919,1,8,0:0:0:0:
256,192,47072,1,0,0:0:0:0:
256,192,47149,1,8,0:0:0:0:
256,96,48526,1,12,0:0:0:0:
256,192,48679,1,0,0:0:0:0:
256,192,48756,1,0,0:0:0:0:
256,192,48832,1,8,0:0:0:0:
256,192,48986,1,8,0:0:0:0:
256,192,49139,1,0,0:0:0:0:
256,192,49215,1,0,0:0:0:0:
256,192,49292,1,8,0:0:0:0:
256,192,49445,1,8,0:0:0:0:
256,192,49598,1,0,0:0:0:0:
256,192,49674,1,0,0:0:0:0:
256,192,49751,1,8,0:0:0:0:
256,192,49904,1,8,0:0:0:0:
256,192,50057,1,0,0:0:0:0:
256,192,50133,1,0,0:0:0:0:
256,192,50210,1,8,0:0:0:0:
256,192,50363,1,8,0:0:0:0:
256,192,50516,1,0,0:0:0:0:
256,192,50593,1,0,0:0:0:0:
256,192,50669,1,8,0:0:0:0:
256,192,50746,1,8,0:0:0:0:
256,192,50822,1,0,0:0:0:0:
256,192,50975,1,8,0:0:0:0:
256,192,51052,1,0,0:0:0:0:
256,192,51128,1,0,0:0:0:0:
256,192,51281,1,8,0:0:0:0:
256,192,51435,1,0,0:0:0:0:
256,192,51588,1,8,0:0:0:0:
256,192,51664,1,8,0:0:0:0:
256,192,51741,1,0,0:0:0:0:
256,192,51894,1,0,0:0:0:0:
256,192,52047,1,8,0:0:0:0:
256,192,52123,1,8,0:0:0:0:
256,192,52200,1,0,0:0:0:0:
256,192,52353,1,0,0:0:0:0:
256,192,52506,1,8,0:0:0:0:
256,192,52582,1,8,0:0:0:0:
256,192,52659,1,0,0:0:0:0:
256,192,52812,1,0,0:0:0:0:
256,192,52965,1,0,0:0:0:0:
256,192,53042,1,0,0:0:0:0:
256,192,53118,1,8,0:0:0:0:
256,192,53195,1,0,0:0:0:0:
256,192,53271,1,8,0:0:0:0:
256,192,53424,1,8,0:0:0:0:
256,192,53501,1,8,0:0:0:0:
256,192,53577,1,0,0:0:0:0:
256,192,53730,1,8,0:0:0:0:
256,192,53883,1,8,0:0:0:0:
256,192,54037,1,0,0:0:0:0:
256,192,54113,1,0,0:0:0:0:
256,192,54190,1,8,0:0:0:0:
256,192,54343,1,8,0:0:0:0:
256,192,54496,1,0,0:0:0:0:
256,192,54572,1,0,0:0:0:0:
256,192,54649,1,8,0:0:0:0:
256,192,54802,1,8,0:0:0:0:
256,192,54955,1,0,0:0:0:0:
256,192,55031,1,0,0:0:0:0:
256,192,55108,1,8,0:0:0:0:
256,192,55261,1,8,0:0:0:0:
256,192,55414,1,0,0:0:0:0:
256,192,55491,1,0,0:0:0:0:
256,192,55567,1,8,0:0:0:0:
256,192,55644,1,8,0:0:0:0:
256,192,55720,1,0,0:0:0:0:
256,192,55873,1,8,0:0:0:0:
256,192,55950,1,0,0:0:0:0:
256,192,56026,1,0,0:0:0:0:
256,192,56179,1,8,0:0:0:0:
256,192,56332,1,0,0:0:0:0:
256,192,56486,1,8,0:0:0:0:
256,192,56562,1,8,0:0:0:0:
256,192,56639,1,0,0:0:0:0:
256,192,56792,1,0,0:0:0:0:
256,192,56945,1,8,0:0:0:0:
256,192,57021,1,8,0:0:0:0:
256,192,57098,1,0,0:0:0:0:
256,96,58322,1,12,0:0:0:0:
256,192,58475,1,0,0:0:0:0:
256,192,58552,1,8,0:0:0:0:
256,192,58628,1,0,0:0:0:0:
256,192,58781,1,8,0:0:0:0:
256,192,58935,1,0,0:0:0:0:
256,192,59011,1,0,0:0:0:0:
256,192,59088,1,8,0:0:0:0:
256,192,59241,1,8,0:0:0:0:
256,192,59394,1,0,0:0:0:0:
256,192,59470,1,0,0:0:0:0:
256,192,59547,1,8,0:0:0:0:
256,192,59623,1,0,0:0:0:0:
256,192,59700,1,8,0:0:0:0:
256,192,59853,1,0,0:0:0:0:
256,192,59929,1,0,0:0:0:0:
256,192,60006,1,8,0:0:0:0:
256,192,60159,1,8,0:0:0:0:
256,192,60236,1,0,0:0:0:0:
256,192,60312,1,8,0:0:0:0:
256,192,60389,1,0,0:0:0:0:
256,192,60465,1,8,0:0:0:0:
256,192,60542,1,8,0:0:0:0:
256,192,60618,1,0,0:0:0:0:
256,192,60771,1,8,0:0:0:0:
256,192,60924,1,0,0:0:0:0:
256,192,61001,1,8,0:0:0:0:
256,192,61077,1,8,0:0:0:0:
256,192,61154,1,0,0:0:0:0:
256,192,61230,1,8,0:0:0:0:
256,192,61383,1,8,0:0:0:0:
256,192,61460,1,8,0:0:0:0:
256,192,61537,1,0,0:0:0:0:
256,192,61690,1,0,0:0:0:0:
256,192,61843,1,8,0:0:0:0:
256,192,61919,1,8,0:0:0:0:
256,192,61996,1,0,0:0:0:0:
256,192,62149,1,0,0:0:0:0:
256,192,62302,1,8,0:0:0:0:
256,192,62378,1,8,0:0:0:0:
256,192,62455,1,0,0:0:0:0:
256,192,62531,1,0,0:0:0:0:
256,192,62608,1,8,0:0:0:0:
256,192,62761,1,0,0:0:0:0:
256,192,62838,1,0,0:0:0:0:
256,192,62914,1,8,0:0:0:0:
256,192,62991,1,0,0:0:0:0:
256,192,63067,1,8,0:0:0:0:
256,192,63220,1,8,0:0:0:0:
256,192,63297,1,0,0:0:0:0:
256,192,63373,1,0,0:0:0:0:
256,192,63526,1,8,0:0:0:0:
256,192,63679,1,8,0:0:0:0:
256,192,63832,1,0,0:0:0:0:
256,192,63909,1,8,0:0:0:0:
256,192,63986,1,8,0:0:0:0:
256,192,64062,1,0,0:0:0:0:
256,192,64139,1,8,0:0:0:0:
256,192,64292,1,0,0:0:0:0:
256,192,64368,1,0,0:0:0:0:
256,192,64445,1,8,0:0:0:0:
256,192,64598,1,8,0:0:0:0:
256,192,64751,1,0,0:0:0:0:
256,192,64827,1,0,0:0:0:0:
256,192,64904,1,8,0:0:0:0:
256,192,65057,1,0,0:0:0:0:
256,192,65133,1,8,0:0:0:0:
256,192,65210,1,0,0:0:0:0:
256,192,65287,1,0,0:0:0:0:
256,192,65363,1,8,0:0:0:0:
256,192,65440,1,8,0:0:0:0:
256,192,65516,1,0,0:0:0:0:
256,192,65593,1,0,0:0:0:0:
256,192,65669,1,8,0:0:0:0:
256,192,65822,1,0,0:0:0:0:
256,192,65899,1,8,0:0:0:0:
256,192,65975,1,8,0:0:0:0:
256,192,66128,1,0,0:0:0:0:
256,192,66281,1,8,0:0:0:0:
256,192,66358,1,0,0:0:0:0:
256,192,66435,1,0,0:0:0:0:
256,192,66588,1,8,0:0:0:0:
256,192,66741,1,8,0:0:0:0:
256,192,66817,1,0,0:0:0:0:
256,192,66894,1,0,0:0:0:0:
256,192,67047,1,8,0:0:0:0:
256,192,67200,1,8,0:0:0:0:
256,192,67276,1,0,0:0:0:0:
256,192,67353,1,0,0:0:0:0:
256,192,67506,1,8,0:0:0:0:
256,192,67582,1,8,0:0:0:0:
256,192,67659,1,8,0:0:0:0:
256,192,67736,1,8,0:0:0:0:
256,192,67812,1,8,0:0:0:0:
256,192,67889,1,8,0:0:0:0:
256,192,67965,1,8,0:0:0:0:
256,192,68042,1,8,0:0:0:0:
256,96,68118,1,4,0:0:0:0:
256,192,68271,5,0,0:0:0:0:
256,192,68424,1,8,0:0:0:0:
256,192,68577,1,0,0:0:0:0:
256,192,68654,1,0,0:0:0:0:
256,192,68730,1,8,0:0:0:0:
256,192,68807,1,0,0:0:0:0:
256,192,68960,1,8,0:0:0:0:
256,192,69113,1,0,0:0:0:0:
256,192,69190,1,8,0:0:0:0:
256,192,69343,1,0,0:0:0:0:
256,192,69419,1,8,0:0:0:0:
256,192,69496,1,0,0:0:0:0:
256,192,69649,1,8,0:0:0:0:
256,192,69802,1,0,0:0:0:0:
256,192,69878,1,0,0:0:0:0:
256,192,69955,1,8,0:0:0:0:
256,192,70108,1,8,0:0:0:0:
256,192,70185,1,8,0:0:0:0:
256,192,70338,1,0,0:0:0:0:
256,192,70414,1,8,0:0:0:0:
256,192,70567,1,8,0:0:0:0:
256,192,70720,1,0,0:0:0:0:
256,192,70873,1,8,0:0:0:0:
256,192,71026,1,0,0:0:0:0:
256,192,71103,1,0,0:0:0:0:
256,192,71179,1,8,0:0:0:0:
256,192,71256,1,0,0:0:0:0:
256,192,71409,1,8,0:0:0:0:
256,192,71562,1,8,0:0:0:0:
256,192,71639,1,8,0:0:0:0:
256,192,71792,1,0,0:0:0:0:
256,192,71945,1,0,0:0:0:0:
256,192,72098,1,8,0:0:0:0:
256,192,72251,1,0,0:0:0:0:
256,192,72327,1,0,0:0:0:0:
256,192,72404,1,8,0:0:0:0:
256,192,72557,1,0,0:0:0:0:
256,192,72633,1,0,0:0:0:0:
256,192,72710,1,8,0:0:0:0:
256,192,72787,1,8,0:0:0:0:
256,192,72863,1,8,0:0:0:0:
256,192,72940,1,8,0:0:0:0:
256,192,73016,1,0,0:0:0:0:
256,192,73169,1,0,0:0:0:0:
256,192,73322,1,8,0:0:0:0:
256,192,73475,1,0,0:0:0:0:
256,192,73552,1,0,0:0:0:0:
256,192,73628,1,8,0:0:0:0:
256,192,73705,1,0,0:0:0:0:
256,192,73858,1,8,0:0:0:0:
256,192,74011,1,0,0:0:0:0:
256,192,74088,1,8,0:0:0:0:
256,192,74241,1,0,0:0:0:0:
256,192,74317,1,8,0:0:0:0:
256,192,74394,1,0,0:0:0:0:
256,192,74547,1,8,0:0:0:0:
256,192,74700,1,0,0:0:0:0:
256,192,74776,1,0,0:0:0:0:
256,192,74853,1,8,0:0:0:0:
256,192,75006,1,0,0:0:0:0:
256,192,75082,1,8,0:0:0:0:
256,192,75236,1,0,0:0:0:0:
256,192,75312,1,8,0:0:0:0:
256,192,75465,1,8,0:0:0:0:
256,192,75618,1,0,0:0:0:0:
256,192,75771,1,8,0:0:0:0:
256,192,75924,1,0,0:0:0:0:
256,192,76001,1,0,0:0:0:0:
256,192,76077,1,8,0:0:0:0:
256,192,76154,1,0,0:0:0:0:
256,192,76307,1,8,0:0:0:0:
256,192,76460,1,0,0:0:0:0:
256,192,76537,1,8,0:0:0:0:
256,192,76690,1,0,0:0:0:0:
256,192,76843,1,0,0:0:0:0:
256,192,76996,1,8,0:0:0:0:
256,192,77149,1,0,0:0:0:0:
256,192,77225,1,0,0:0:0:0:
256,192,77302,1,8,0:0:0:0:
256,192,77455,1,8,0:0:0:0:
256,192,77531,1,8,0:0:0:0:
256,192,77608,1,8,0:0:0:0:
256,192,77685,1,0,0:0:0:0:
256,192,77761,1,8,0:0:0:0:
256,96,77914,1,4,0:0:0:0:
256,192,78067,1,8,0:0:0:0:
256,192,78144,1,8,0:0:0:0:
256,192,78220,1,0,0:0:0:0:
256,192,78297,1,0,0:0:0:0:
256,192,78373,1,8,0:0:0:0:
256,192,78526,1,0,0:0:0:0:
256,192,78679,1,8,0:0:0:0:
256,192,78756,1,0,0:0:0:0:
256,192,78832,1,8,0:0:0:0:
256,192,78986,1,0,0:0:0:0:
256,192,79139,1,0,0:0:0:0:
256,192,79292,1,0,0:0:0:0:
256,192,79368,1,8,0:0:0:0:
256,192,79445,1,0,0:0:0:0:
256,192,79598,1,8,0:0:0:0:
256,192,79751,1,0,0:0:0:0:
256,192,79904,1,8,0:0:0:0:
256,192,79980,1,8,0:0:0:0:
256,192,80057,1,0,0:0:0:0:
256,192,80210,1,0,0:0:0:0:
256,192,80363,1,0,0:0:0:0:
256,192,80516,1,8,0:0:0:0:
256,192,80669,1,8,0:0:0:0:
256,192,80822,1,0,0:0:0:0:
256,192,80975,1,0,0:0:0:0:
256,192,81128,1,8,0:0:0:0:
256,192,81205,1,0,0:0:0:0:
256,192,81281,1,0,0:0:0:0:
256,192,81435,1,8,0:0:0:0:
256,192,81588,1,0,0:0:0:0:
256,192,81741,1,0,0:0:0:0:
256,192,81817,1,8,0:0:0:0:
256,192,81894,1,0,0:0:0:0:
256,192,82047,1,0,0:0:0:0:
256,192,82200,1,8,0:0:0:0:
256,192,82353,1,0,0:0:0:0:
256,192,82429,1,0,0:0:0:0:
256,192,82506,1,8,0:0:0:0:
256,192,82582,1,8,0:0:0:0:
256,192,82659,1,8,0:0:0:0:
256,192,82736,1,8,0:0:0:0:
256,192,82812,1,0,0:0:0:0:
256,192,82965,1,8,0:0:0:0:
256,192,83118,1,0,0:0:0:0:
256,192,83195,1,0,0:0:0:0:
256,192,83271,1,8,0:0:0:0:
256,192,83424,1,0,0:0:0:0:
256,192,83577,1,8,0:0:0:0:
256,192,83654,1,0,0:0:0:0:
256,192,83730,1,8,0:0:0:0:
256,192,83883,1,8,0:0:0:0:
256,192,84037,1,0,0:0:0:0:
256,192,84190,1,0,0:0:0:0:
256,192,84343,1,8,0:0:0:0:
256,192,84496,1,8,0:0:0:0:
256,192,84649,1,0,0:0:0:0:
256,192,84802,1,8,0:0:0:0:
256,192,84878,1,8,0:0:0:0:
256,192,84955,1,0,0:0:0:0:
256,192,85108,1,0,0:0:0:0:
256,192,85261,1,0,0:0:0:0:
256,192,85414,1,8,0:0:0:0:
256,192,85567,1,8,0:0:0:0:
256,192,85720,1,0,0:0:0:0:
256,192,85873,1,0,0:0:0:0:
256,192,86026,1,8,0:0:0:0:
256,192,86103,1,0,0:0:0:0:
256,192,86179,1,8,0:0:0:0:
256,192,86332,1,8,0:0:0:0:
256,192,86486,1,0,0:0:0:0:
256,192,86639,1,0,0:0:0:0:
256,192,86792,1,8,0:0:0:0:
256,192,86945,1,0,0:0:0:0:
256,192,87021,1,0,0:0:0:0:
256,192,87098,1,8,0:0:0:0:
256,192,87251,1,0,0:0:0:0:
256,192,87404,1,8,0:0:0:0:
256,192,87480,1,8,0:0:0:0:
256,192,87557,1,0,0:0:0:0:
256,192,87633,1,0,0:0:0:0:
256,96,87710,1,12,0:0:0:0:
256,192,87863,1,0,0:0:0:0:
256,192,88016,1,8,0:0:0:0:
256,192,88169,1,8,0:0:0:0:
256,192,88246,1,8,0:0:0:0:
256,192,88322,1,0,0:0:0:0:
256,192,88399,1,8,0:0:0:0:
256,192,88475,1,0,0:0:0:0:
256,192,88552,1,0,0:0:0:0:
256,192,88628,1,8,0:0:0:0:
256,192,88781,1,8,0:0:0:0:
256,192,88935,1,0,0:0:0:0:
256,192,89088,1,0,0:0:0:0:
256,192,89241,1,8,0:0:0:0:
256,192,89317,1,8,0:0:0:0:
256,192,89394,1,0,0:0:0:0:
256,192,89547,1,0,0:0:0:0:
256,192,89623,1,0,0:0:0:0:
256,192,89700,1,8,0:0:0:0:
256,192,89776,1,0,0:0:0:0:
256,192,89853,1,8,0:0:0:0:
256,192,90006,1,8,0:0:0:0:
160,192,90159,1,0,0:0:0:0:
256,192,90312,1,8,0:0:0:0:
256,192,90465,1,0,0:0:0:0:
256,192,90542,1,8,0:0:0:0:
256,192,90618,1,0,0:0:0:0:
256,192,90695,1,0,0:0:0:0:
256,192,90771,1,8,0:0:0:0:
256,192,90848,1,8,0:0:0:0:
256,192,90924,1,0,0:0:0:0:
256,192,91077,1,0,0:0:0:0:
256,192,91154,1,0,0:0:0:0:
256,192,91230,1,8,0:0:0:0:
256,192,91383,1,0,0:0:0:0:
256,192,91537,1,8,0:0:0:0:
256,192,91690,1,8,0:0:0:0:
256,192,91766,1,8,0:0:0:0:
256,192,91843,1,0,0:0:0:0:
160,192,91996,1,8,0:0:0:0:
160,192,92047,1,0,0:0:0:0:
160,192,92098,1,0,0:0:0:0:
160,192,92149,1,8,0:0:0:0:
160,192,92302,1,8,0:0:0:0:
160,192,92353,1,8,0:0:0:0:
160,192,92404,1,8,0:0:0:0:
160,192,92455,1,0,0:0:0:0:
256,192,92608,1,8,0:0:0:0:
256,192,92761,1,0,0:0:0:0:
256,192,92914,1,8,0:0:0:0:
256,192,93067,1,8,0:0:0:0:
256,192,93144,1,8,0:0:0:0:
256,192,93220,1,0,0:0:0:0:
256,192,93297,1,0,0:0:0:0:
256,192,93373,1,8,0:0:0:0:
256,192,93450,1,0,0:0:0:0:
256,192,93526,1,8,0:0:0:0:
256,192,93679,1,8,0:0:0:0:
256,192,93832,1,0,0:0:0:0:
256,192,93986,1,0,0:0:0:0:
256,192,94139,1,8,0:0:0:0:
256,192,94215,1,0,0:0:0:0:
256,192,94292,1,8,0:0:0:0:
256,192,94445,1,0,0:0:0:0:
256,192,94521,1,0,0:0:0:0:
256,192,94598,1,8,0:0:0:0:
256,192,94674,1,0,0:0:0:0:
256,192,94751,1,8,0:0:0:0:
256,192,94904,1,8,0:0:0:0:
160,192,95057,1,0,0:0:0:0:
256,192,95210,1,0,0:0:0:0:
256,192,95363,1,8,0:0:0:0:
256,192,95440,1,0,0:0:0:0:
256,192,95516,1,8,0:0:0:0:
256,192,95593,1,8,0:0:0:0:
256,192,95669,1,0,0:0:0:0:
256,192,95746,1,0,0:0:0:0:
256,192,95822,1,8,0:0:0:0:
256,192,95975,1,0,0:0:0:0:
256,192,96052,1,8,0:0:0:0:
256,192,96128,1,0,0:0:0:0:
256,192,96281,1,0,0:0:0:0:
256,192,96435,1,8,0:0:0:0:
256,192,96588,1,8,0:0:0:0:
256,192,96664,1,8,0:0:0:0:
256,192,96741,1,0,0:0:0:0:
160,192,96894,1,8,0:0:0:0:
160,192,96945,1,8,0:0:0:0:
160,192,96996,1,8,0:0:0:0:
160,192,97047,1,0,0:0:0:0:
160,192,97200,1,8,0:0:0:0:
160,192,97251,1,8,0:0:0:0:
160,192,97302,1,8,0:0:0:0:
160,192,97353,1,0,0:0:0:0:
256,96,97506,1,12,0:0:0:0:
256,192,97659,1,0,0:0:0:0:
256,192,97812,1,8,0:0:0:0:
256,192,97965,1,8,0:0:0:0:
256,192,98042,1,8,0:0:0:0:
256,192,98118,1,0,0:0:0:0:
256,192,98195,1,8,0:0:0:0:
256,192,98271,1,0,0:0:0:0:
256,192,98348,1,0,0:0:0:0:
256,192,98424,1,8,0:0:0:0:
256,192,98577,1,8,0:0:0:0:
256,192,98654,1,8,0:0:0:0:
256,192,98730,1,0,0:0:0:0:
256,192,98883,1,0,0:0:0:0:
256,192,99037,1,8,0:0:0:0:
256,192,99113,1,8,0:0:0:0:
256,192,99190,1,0,0:0:0:0:
256,192,99266,1,8,0:0:0:0:
256,192,99343,1,0,0:0:0:0:
256,192,99496,1,8,0:0:0:0:
256,192,99572,1,8,0:0:0:0:
256,192,99649,1,0,0:0:0:0:
256,192,99725,1,0,0:0:0:0:
256,192,99802,1,8,0:0:0:0:
160,192,99955,1,0,0:0:0:0:
256,192,100108,1,0,0:0:0:0:
256,192,100261,1,8,0:0:0:0:
256,192,100338,1,0,0:0:0:0:
256,192,100414,1,8,0:0:0:0:
256,192,100491,1,8,0:0:0:0:
256,192,100567,1,0,0:0:0:0:
256,192,100644,1,0,0:0:0:0:
256,192,100720,1,8,0:0:0:0:
256,192,100873,1,0,0:0:0:0:
256,192,100950,1,0,0:0:0:0:
256,192,101026,1,8,0:0:0:0:
256,192,101179,1,0,0:0:0:0:
256,192,101332,1,8,0:0:0:0:
256,192,101409,1,0,0:0:0:0:
256,192,101486,1,8,0:0:0:0:
256,192,101562,1,8,0:0:0:0:
256,192,101639,1,0,0:0:0:0:
256,192,101792,1,0,0:0:0:0:
160,192,101945,1,8,0:0:0:0:
160,192,101996,1,0,0:0:0:0:
160,192,102047,1,0,0:0:0:0:
160,192,102098,1,8,0:0:0:0:
160,192,102251,1,8,0:0:0:0:
160,192,102302,1,8,0:0:0:0:
160,192,102353,1,8,0:0:0:0:
160,192,102404,1,0,0:0:0:0:
256,192,102557,1,8,0:0:0:0:
256,192,102710,1,8,0:0:0:0:
256,192,102863,1,0,0:0:0:0:
256,192,102940,1,8,0:0:0:0:
256,192,103016,1,0,0:0:0:0:
256,192,103093,1,0,0:0:0:0:
256,192,103169,1,8,0:0:0:0:
256,192,103246,1,0,0:0:0:0:
256,192,103322,1,8,0:0:0:0:
256,192,103475,1,8,0:0:0:0:
256,192,103552,1,8,0:0:0:0:
256,192,103628,1,0,0:0:0:0:
256,192,103781,1,0,0:0:0:0:
256,192,103935,1,8,0:0:0:0:
256,192,104011,1,0,0:0:0:0:
256,192,104088,1,8,0:0:0:0:
256,192,104164,1,8,0:0:0:0:
256,192,104241,1,0,0:0:0:0:
256,192,104394,1,8,0:0:0:0:
256,192,104470,1,8,0:0:0:0:
256,192,104547,1,0,0:0:0:0:
256,192,104623,1,0,0:0:0:0:
256,192,104700,1,8,0:0:0:0:
160,192,104853,1,0,0:0:0:0:
256,192,104929,1,0,0:0:0:0:
256,192,105006,1,0,0:0:0:0:
256,192,105159,1,8,0:0:0:0:
256,192,105236,1,0,0:0:0:0:
256,192,105312,1,8,0:0:0:0:
256,192,105389,1,8,0:0:0:0:
256,192,105465,1,0,0:0:0:0:
256,192,105542,1,0,0:0:0:0:
256,192,105618,1,8,0:0:0:0:
256,192,105771,1,0,0:0:0:0:
256,192,105848,1,8,0:0:0:0:
256,192,105924,1,0,0:0:0:0:
256,192,106077,1,0,0:0:0:0:
160,192,106128,1,0,0:0:0:0:
160,192,106179,1,0,0:0:0:0:
160,192,106230,1,8,0:0:0:0:
256,192,106383,1,0,0:0:0:0:
160,192,106537,1,8,0:0:0:0:
160,192,106588,1,8,0:0:0:0:
160,192,106639,1,8,0:0:0:0:
160,192,106690,1,0,0:0:0:0:
256,96,107302,5,12,0:0:0:0:
256,192,107455,1,0,0:0:0:0:
256,192,107608,1,8,0:0:0:0:
256,192,107761,1,0,0:0:0:0:
256,192,107914,1,8,0:0:0:0:
256,192,107991,1,8,0:0:0:0:
256,192,108067,1,0,0:0:0:0:
256,192,108220,1,0,0:0:0:0:
256,192,108373,1,8,0:0:0:0:
256,192,108526,1,0,0:0:0:0:
256,192,108679,1,8,0:0:0:0:
256,192,108832,1,0,0:0:0:0:
256,192,108986,1,8,0:0:0:0:
256,192,109139,1,0,0:0:0:0:
256,192,109292,1,8,0:0:0:0:
256,192,109445,1,8,0:0:0:0:
256,192,109598,1,8,0:0:0:0:
256,192,109751,1,0,0:0:0:0:
256,192,109904,1,8,0:0:0:0:
256,192,110057,1,0,0:0:0:0:
256,192,110210,1,8,0:0:0:0:
256,192,110363,1,0,0:0:0:0:
256,192,110440,1,0,0:0:0:0:
256,192,110516,1,8,0:0:0:0:
256,192,110669,1,0,0:0:0:0:
256,192,110822,1,8,0:0:0:0:
256,192,110975,1,0,0:0:0:0:
256,192,111128,1,8,0:0:0:0:
256,192,111281,1,0,0:0:0:0:
256,192,111435,1,8,0:0:0:0:
256,192,111588,1,0,0:0:0:0:
256,192,111741,1,8,0:0:0:0:
256,192,111894,1,8,0:0:0:0:
256,192,111970,1,0,0:0:0:0:
256,192,112047,1,8,0:0:0:0:
256,192,112200,1,0,0:0:0:0:
256,192,112353,1,8,0:0:0:0:
256,192,112506,1,0,0:0:0:0:
256,192,112659,1,8,0:0:0:0:
256,192,112812,1,0,0:0:0:0:
256,192,112889,1,0,0:0:0:0:
256,192,112965,1,8,0:0:0:0:
256,192,113118,1,8,0:0:0:0:
256,192,113271,1,8,0:0:0:0:
256,192,113424,1,0,0:0:0:0:
256,192,113577,1,8,0:0:0:0:
256,192,113730,1,0,0:0:0:0:
256,192,113883,1,8,0:0:0:0:
256,192,114037,1,0,0:0:0:0:
256,192,114190,1,8,0:0:0:0:
256,192,114343,1,8,0:0:0:0:
256,192,114496,1,8,0:0:0:0:
256,192,114649,1,0,0:0:0:0:
256,192,114802,1,8,0:0:0:0:
256,192,114955,1,0,0:0:0:0:
256,192,115108,1,8,0:0:0:0:
256,192,115261,1,8,0:0:0:0:
256,192,115338,1,8,0:0:0:0:
256,192,115414,1,0,0:0:0:0:
256,192,115567,1,0,0:0:0:0:
256,192,115720,1,8,0:0:0:0:
256,192,115873,1,0,0:0:0:0:
256,192,116026,1,0,0:0:0:0:
256,192,116103,1,0,0:0:0:0:
256,192,116179,1,8,0:0:0:0:
256,192,116256,1,0,0:0:0:0:
256,192,116332,1,8,0:0:0:0:
256,192,116486,1,8,0:0:0:0:
256,192,116562,1,8,0:0:0:0:
256,192,116639,1,0,0:0:0:0:
256,192,116715,1,0,0:0:0:0:
256,192,116792,1,8,0:0:0:0:
256,192,116945,1,8,0:0:0:0:
256,192,117021,1,8,0:0:0:0:
256,96,117098,1,4,0:0:0:0:
256,192,117251,1,8,0:0:0:0:
256,192,117404,1,0,0:0:0:0:
256,192,117557,1,8,0:0:0:0:
256,192,117710,1,0,0:0:0:0:
256,192,117787,1,0,0:0:0:0:
256,192,117863,1,8,0:0:0:0:
256,192,118016,1,8,0:0:0:0:
256,192,118169,1,8,0:0:0:0:
256,192,118322,1,0,0:0:0:0:
256,192,118475,1,8,0:0:0:0:
256,192,118628,1,0,0:0:0:0:
256,192,118781,1,8,0:0:0:0:
256,192,118935,1,8,0:0:0:0:
256,192,119088,1,0,0:0:0:0:
256,192,119241,1,8,0:0:0:0:
256,192,119394,1,8,0:0:0:0:
256,192,119547,1,0,0:0:0:0:
256,192,119700,1,8,0:0:0:0:
256,192,119853,1,0,0:0:0:0:
256,192,120006,1,8,0:0:0:0:
256,192,120159,1,0,0:0:0:0:
256,192,120236,1,0,0:0:0:0:
256,192,120312,1,8,0:0:0:0:
256,192,120465,1,0,0:0:0:0:
256,192,120618,1,8,0:0:0:0:
256,192,120771,1,0,0:0:0:0:
256,192,120924,1,8,0:0:0:0:
256,192,121077,1,0,0:0:0:0:
256,192,121230,1,8,0:0:0:0:
256,192,121383,1,0,0:0:0:0:
256,192,121537,1,8,0:0:0:0:
256,192,121690,1,8,0:0:0:0:
256,192,121766,1,0,0:0:0:0:
256,192,121843,1,8,0:0:0:0:
256,192,121996,1,0,0:0:0:0:
256,192,122149,1,8,0:0:0:0:
256,192,122302,1,0,0:0:0:0:
256,192,122455,1,8,0:0:0:0:
256,192,122608,1,0,0:0:0:0:
256,192,122685,1,0,0:0:0:0:
256,192,122761,1,8,0:0:0:0:
256,192,122914,1,8,0:0:0:0:
256,192,123067,1,8,0:0:0:0:
256,192,123220,1,0,0:0:0:0:
256,192,123373,1,8,0:0:0:0:
256,192,123526,1,0,0:0:0:0:
256,192,123679,1,8,0:0:0:0:
256,192,123832,1,8,0:0:0:0:
256,192,123986,1,0,0:0:0:0:
256,192,124139,1,8,0:0:0:0:
256,192,124292,1,8,0:0:0:0:
256,192,124445,1,0,0:0:0:0:
256,192,124598,1,8,0:0:0:0:
256,192,124751,1,0,0:0:0:0:
256,192,124904,1,8,0:0:0:0:
256,192,125057,1,8,0:0:0:0:
256,192,125133,1,8,0:0:0:0:
256,192,125210,1,0,0:0:0:0:
256,192,125363,1,0,0:0:0:0:
256,192,125516,1,8,0:0:0:0:
256,192,125669,1,0,0:0:0:0:
256,192,125822,1,0,0:0:0:0:
256,192,125975,1,8,0:0:0:0:
256,192,126052,1,8,0:0:0:0:
256,192,126128,1,0,0:0:0:0:
256,192,126205,1,0,0:0:0:0:
256,192,126281,1,8,0:0:0:0:
256,192,126588,1,8,0:0:0:0:
256,192,126664,1,8,0:0:0:0:
256,192,126741,1,8,0:0:0:0:
256,192,126817,1,8,0:0:0:0:
256,96,126894,1,4,0:0:0:0:
256,192,127047,1,0,0:0:0:0:
256,192,127200,1,8,0:0:0:0:
256,192,127276,1,0,0:0:0:0:
256,192,127353,1,0,0:0:0:0:
256,192,127506,1,8,0:0:0:0:
256,192,127557,1,8,0:0:0:0:
256,192,127608,1,8,0:0:0:0:
256,192,127659,1,0,0:0:0:0:
256,192,127812,1,8,0:0:0:0:
256,192,127965,1,0,0:0:0:0:
256,192,128016,1,0,0:0:0:0:
256,192,128067,1,0,0:0:0:0:
256,192,128118,1,8,0:0:0:0:
256,192,128271,1,0,0:0:0:0:
256,192,128424,1,8,0:0:0:0:
256,192,128577,1,0,0:0:0:0:
256,192,128730,1,0,0:0:0:0:
256,192,128807,1,0,0:0:0:0:
256,192,128883,1,8,0:0:0:0:
256,192,129037,1,0,0:0:0:0:
256,192,129113,1,0,0:0:0:0:
256,192,129190,1,8,0:0:0:0:
256,192,129343,1,8,0:0:0:0:
256,192,129496,1,0,0:0:0:0:
256,192,129572,1,0,0:0:0:0:
256,192,129649,1,8,0:0:0:0:
256,192,129725,1,8,0:0:0:0:
256,192,129802,1,0,0:0:0:0:
256,192,129955,1,8,0:0:0:0:
256,192,130031,1,0,0:0:0:0:
256,192,130108,1,8,0:0:0:0:
256,192,130185,1,8,0:0:0:0:
256,192,130261,1,0,0:0:0:0:
256,192,130338,1,0,0:0:0:0:
256,192,130414,1,8,0:0:0:0:
256,192,130567,1,0,0:0:0:0:
256,192,130720,1,8,0:0:0:0:
256,192,130797,1,8,0:0:0:0:
256,192,130873,1,0,0:0:0:0:
256,192,130950,1,8,0:0:0:0:
256,192,131026,1,0,0:0:0:0:
256,192,131179,1,0,0:0:0:0:
256,192,131256,1,0,0:0:0:0:
256,192,131332,1,8,0:0:0:0:
256,192,131409,1,0,0:0:0:0:
256,192,131486,1,0,0:0:0:0:
256,192,131639,1,8,0:0:0:0:
256,192,131690,1,8,0:0:0:0:
256,192,131741,1,8,0:0:0:0:
256,192,131792,1,0,0:0:0:0:
256,192,131945,1,8,0:0:0:0:
256,192,132098,1,8,0:0:0:0:
256,192,132251,1,0,0:0:0:0:
256,192,132404,1,8,0:0:0:0:
256,192,132557,1,8,0:0:0:0:
256,192,132633,1,8,0:0:0:0:
256,192,132710,1,0,0:0:0:0:
256,192,132863,1,8,0:0:0:0:
256,192,132940,1,8,0:0:0:0:
256,192,133016,1,0,0:0:0:0:
256,192,133169,1,0,0:0:0:0:
256,192,133322,1,8,0:0:0:0:
256,192,133399,1,0,0:0:0:0:
256,192,133475,1,0,0:0:0:0:
256,192,133628,1,8,0:0:0:0:
256,192,133705,1,0,0:0:0:0:
256,192,133781,1,8,0:0:0:0:
256,192,133935,1,0,0:0:0:0:
256,192,134088,1,8,0:0:0:0:
256,192,134139,1,8,0:0:0:0:
256,192,134190,1,8,0:0:0:0:
256,192,134241,1,0,0:0:0:0:
256,192,134394,1,8,0:0:0:0:
256,192,134547,1,0,0:0:0:0:
256,192,134623,1,0,0:0:0:0:
256,192,134700,1,8,0:0:0:0:
256,192,134853,1,8,0:0:0:0:
256,192,134904,1,0,0:0:0:0:
256,192,134955,1,0,0:0:0:0:
256,192,135006,1,8,0:0:0:0:
256,192,135159,1,8,0:0:0:0:
256,192,135312,1,8,0:0:0:0:
256,192,135389,1,8,0:0:0:0:
256,192,135465,1,0,0:0:0:0:
256,192,135618,1,0,0:0:0:0:
256,192,135771,1,8,0:0:0:0:
256,192,135822,1,8,0:0:0:0:
256,192,135873,1,8,0:0:0:0:
256,192,135924,1,0,0:0:0:0:
256,192,136077,1,8,0:0:0:0:
256,192,136383,1,8,0:0:0:0:
256,192,136460,1,8,0:0:0:0:
256,192,136537,1,8,0:0:0:0:
256,192,136613,1,8,0:0:0:0:
256,96,136690,1,4,0:0:0:0:
256,192,136843,1,0,0:0:0:0:
256,192,136996,1,8,0:0:0:0:
256,192,137072,1,0,0:0:0:0:
256,192,137149,1,0,0:0:0:0:
256,192,137302,1,8,0:0:0:0:
256,192,137353,1,8,0:0:0:0:
256,192,137404,1,8,0:0:0:0:
256,192,137455,1,0,0:0:0:0:
256,192,137608,1,8,0:0:0:0:
256,192,137761,1,0,0:0:0:0:
256,192,137812,1,0,0:0:0:0:
256,192,137863,1,0,0:0:0:0:
256,192,137914,1,8,0:0:0:0:
256,192,138067,1,0,0:0:0:0:
256,192,138220,1,8,0:0:0:0:
256,192,138373,1,0,0:0:0:0:
256,192,138526,1,8,0:0:0:0:
256,192,138577,1,8,0:0:0:0:
256,192,138628,1,8,0:0:0:0:
256,192,138679,1,0,0:0:0:0:
256,192,138832,1,8,0:0:0:0:
256,192,138883,1,8,0:0:0:0:
256,192,138935,1,8,0:0:0:0:
256,192,138986,1,8,0:0:0:0:
256,192,139139,1,0,0:0:0:0:
256,192,139292,1,0,0:0:0:0:
256,192,139445,1,8,0:0:0:0:
256,192,139521,1,8,0:0:0:0:
256,192,139598,1,0,0:0:0:0:
256,192,139751,1,8,0:0:0:0:
256,192,139827,1,0,0:0:0:0:
256,192,139904,1,8,0:0:0:0:
256,192,139980,1,8,0:0:0:0:
256,192,140057,1,0,0:0:0:0:
256,192,140133,1,0,0:0:0:0:
256,192,140210,1,8,0:0:0:0:
256,192,140363,1,0,0:0:0:0:
256,192,140516,1,8,0:0:0:0:
256,192,140669,1,8,0:0:0:0:
256,192,140720,1,8,0:0:0:0:
256,192,140771,1,8,0:0:0:0:
256,192,140822,1,8,0:0:0:0:
256,192,140975,1,0,0:0:0:0:
256,192,141128,1,0,0:0:0:0:
256,192,141281,1,8,0:0:0:0:
256,192,141332,1,8,0:0:0:0:
256,192,141383,1,8,0:0:0:0:
256,192,141435,1,0,0:0:0:0:
256,192,141588,1,8,0:0:0:0:
256,192,141741,1,0,0:0:0:0:
256,192,141817,1,0,0:0:0:0:
256,192,141894,1,8,0:0:0:0:
256,192,141970,1,0,0:0:0:0:
256,192,142047,1,0,0:0:0:0:
256,192,142200,1,8,0:0:0:0:
256,192,142353,1,8,0:0:0:0:
256,192,142429,1,8,0:0:0:0:
256,192,142506,1,0,0:0:0:0:
256,192,142659,1,8,0:0:0:0:
256,192,142710,1,8,0:0:0:0:
256,192,142761,1,8,0:0:0:0:
256,192,142812,1,0,0:0:0:0:
256,192,142965,1,0,0:0:0:0:
256,192,143118,1,8,0:0:0:0:
256,192,143271,1,0,0:0:0:0:
256,192,143424,1,8,0:0:0:0:
256,192,143475,1,0,0:0:0:0:
256,192,143526,1,0,0:0:0:0:
256,192,143577,1,8,0:0:0:0:
256,192,143730,1,8,0:0:0:0:
256,192,143781,1,0,0:0:0:0:
256,192,143832,1,0,0:0:0:0:
256,192,143883,1,8,0:0:0:0:
256,192,144037,1,0,0:0:0:0:
256,192,144190,1,8,0:0:0:0:
256,192,144343,1,0,0:0:0:0:
256,192,144419,1,0,0:0:0:0:
256,192,144496,1,8,0:0:0:0:
256,192,144572,1,0,0:0:0:0:
256,192,144649,1,8,0:0:0:0:
256,192,144725,1,8,0:0:0:0:
256,192,144802,1,0,0:0:0:0:
256,192,144878,1,0,0:0:0:0:
256,192,144955,1,8,0:0:0:0:
256,192,145108,1,8,0:0:0:0:
256,192,145261,1,0,0:0:0:0:
256,192,145414,1,0,0:0:0:0:
256,192,145567,1,8,0:0:0:0:
256,192,145618,1,8,0:0:0:0:
256,192,145669,1,8,0:0:0:0:
256,192,145720,1,0,0:0:0:0:
256,192,145873,1,8,0:0:0:0:
256,192,146179,1,8,0:0:0:0:
256,192,146256,1,8,0:0:0:0:
256,192,146332,1,8,0:0:0:0:
256,192,146409,1,8,0:0:0:0:
256,96,146486,1,4,0:0:0:0:
256,192,147710,5,0,0:0:0:0:
256,192,147863,1,8,0:0:0:0:
256,192,148322,1,0,0:0:0:0:
256,192,148475,1,0,0:0:0:0:
256,192,148628,1,8,0:0:0:0:
256,192,148935,1,0,0:0:0:0:
256,192,149241,1,0,0:0:0:0:
256,192,149394,1,8,0:0:0:0:
256,192,149547,1,8,0:0:0:0:
256,192,150006,1,8,0:0:0:0:
256,192,150159,1,0,0:0:0:0:
256,192,150312,1,8,0:0:0:0:
256,192,150465,1,8,0:0:0:0:
256,192,150924,1,0,0:0:0:0:
256,192,151077,1,8,0:0:0:0:
256,192,151383,1,0,0:0:0:0:
256,192,151690,1,8,0:0:0:0:
256,192,151843,1,0,0:0:0:0:
256,192,151996,1,8,0:0:0:0:
256,192,152455,1,0,0:0:0:0:
256,192,152608,1,0,0:0:0:0:
256,192,152761,1,8,0:0:0:0:
256,192,153373,1,0,0:0:0:0:
256,192,153526,1,8,0:0:0:0:
256,192,153832,1,0,0:0:0:0:
256,192,154139,1,0,0:0:0:0:
256,192,154292,1,0,0:0:0:0:
256,192,154445,1,8,0:0:0:0:
256,192,154904,1,8,0:0:0:0:
256,192,155057,1,0,0:0:0:0:
256,192,155210,1,8,0:0:0:0:
256,192,155822,1,0,0:0:0:0:
256,192,155975,1,8,0:0:0:0:
256,192,156281,1,0,0:0:0:0:
256,192,156588,1,0,0:0:0:0:
256,192,156741,1,0,0:0:0:0:
256,192,156894,1,8,0:0:0:0:
256,192,157506,1,0,0:0:0:0:
256,192,157659,1,8,0:0:0:0:
256,192,158118,1,0,0:0:0:0:
256,192,158271,1,0,0:0:0:0:
256,192,158424,1,8,0:0:0:0:
256,192,158730,1,0,0:0:0:0:
256,192,159037,1,0,0:0:0:0:
256,192,159190,1,8,0:0:0:0:
256,192,159343,1,8,0:0:0:0:
256,192,159802,1,8,0:0:0:0:
256,192,159955,1,0,0:0:0:0:
256,192,160108,1,0,0:0:0:0:
256,192,160261,1,8,0:0:0:0:
256,192,160720,1,0,0:0:0:0:
256,192,160873,1,8,0:0:0:0:
256,192,161179,1,0,0:0:0:0:
256,192,161486,1,8,0:0:0:0:
256,192,161639,1,0,0:0:0:0:
256,192,161792,1,8,0:0:0:0:
256,192,162251,1,0,0:0:0:0:
256,192,162404,1,0,0:0:0:0:
256,192,162557,1,8,0:0:0:0:
256,192,163169,1,0,0:0:0:0:
256,192,163322,1,8,0:0:0:0:
256,192,163628,1,0,0:0:0:0:
256,192,163935,1,0,0:0:0:0:
256,192,164088,1,0,0:0:0:0:
256,192,164241,1,8,0:0:0:0:
256,192,164700,1,8,0:0:0:0:
256,192,164853,1,0,0:0:0:0:
256,192,165159,1,8,0:0:0:0:
256,192,165312,1,0,0:0:0:0:
256,192,165465,1,8,0:0:0:0:
256,192,165771,1,8,0:0:0:0:
256,96,166077,1,4,0:0:0:0:
256,192,167302,1,0,0:0:0:0:
256,192,167455,1,8,0:0:0:0:
256,192,167914,1,0,0:0:0:0:
256,192,168067,1,0,0:0:0:0:
256,192,168220,1,8,0:0:0:0:
256,192,168526,1,0,0:0:0:0:
256,192,168832,1,0,0:0:0:0:
256,192,168986,1,8,0:0:0:0:
256,192,169139,1,8,0:0:0:0:
256,192,169598,1,8,0:0:0:0:
256,192,169751,1,0,0:0:0:0:
256,192,169904,1,8,0:0:0:0:
256,192,170057,1,8,0:0:0:0:
256,192,170516,1,0,0:0:0:0:
256,192,170669,1,8,0:0:0:0:
256,192,170975,1,0,0:0:0:0:
256,192,171281,1,8,0:0:0:0:
256,192,171435,1,0,0:0:0:0:
256,192,171588,1,8,0:0:0:0:
256,192,171894,1,0,0:0:0:0:
256,192,172047,1,0,0:0:0:0:
256,192,172200,1,0,0:0:0:0:
256,192,172353,1,8,0:0:0:0:
256,192,172965,1,0,0:0:0:0:
256,192,173118,1,8,0:0:0:0:
256,192,173424,1,0,0:0:0:0:
256,192,173730,1,0,0:0:0:0:
256,192,173883,1,0,0:0:0:0:
256,192,174037,1,8,0:0:0:0:
256,192,174343,1,0,0:0:0:0:
256,192,174496,1,8,0:0:0:0:
256,192,174649,1,0,0:0:0:0:
256,192,174802,1,8,0:0:0:0:
256,192,175414,1,0,0:0:0:0:
256,192,175567,1,8,0:0:0:0:
256,192,175873,1,0,0:0:0:0:
256,192,176179,1,0,0:0:0:0:
256,192,176332,1,0,0:0:0:0:
256,192,176486,1,8,0:0:0:0:
256,192,176792,1,8,0:0:0:0:
256,192,177098,1,0,0:0:0:0:
256,192,177251,1,8,0:0:0:0:
256,192,177710,1,0,0:0:0:0:
256,192,177863,1,0,0:0:0:0:
256,192,178016,1,8,0:0:0:0:
256,192,178322,1,0,0:0:0:0:
256,192,178628,1,0,0:0:0:0:
256,192,178781,1,8,0:0:0:0:
256,192,178935,1,8,0:0:0:0:
256,192,179241,1,0,0:0:0:0:
256,192,179394,1,8,0:0:0:0:
256,192,179547,1,0,0:0:0:0:
256,192,179700,1,0,0:0:0:0:
256,192,179853,1,8,0:0:0:0:
256,192,180312,1,0,0:0:0:0:
256,192,180465,1,8,0:0:0:0:
256,192,180771,1,0,0:0:0:0:
256,192,181077,1,8,0:0:0:0:
256,192,181230,1,0,0:0:0:0:
256,192,181383,1,8,0:0:0:0:
256,192,181690,1,8,0:0:0:0:
256,192,181843,1,0,0:0:0:0:
256,192,181996,1,0,0:0:0:0:
256,192,182149,1,8,0:0:0:0:
256,192,182761,1,0,0:0:0:0:
256,192,182914,1,8,0:0:0:0:
256,192,183220,1,0,0:0:0:0:
256,192,183526,1,0,0:0:0:0:
256,192,183679,1,0,0:0:0:0:
256,192,183832,1,8,0:0:0:0:
256,192,184139,1,0,0:0:0:0:
256,192,184292,1,0,0:0:0:0:
256,192,184445,1,0,0:0:0:0:
256,192,184598,1,8,0:0:0:0:
256,192,185210,1,0,0:0:0:0:
256,192,185363,1,8,0:0:0:0:
256,192,185669,1,8,0:0:0:0:
256,192,187506,12,0,192404,0:0:0:0:
256,96,192640,5,12,0:0:0:0:
256,192,192793,1,0,0:0:0:0:
256,192,192869,1,0,0:0:0:0:
256,192,192946,1,8,0:0:0:0:
256,192,193099,1,8,0:0:0:0:
256,192,193252,1,0,0:0:0:0:
256,192,193328,1,0,0:0:0:0:
256,192,193405,1,8,0:0:0:0:
256,192,193558,1,8,0:0:0:0:
256,192,193711,1,0,0:0:0:0:
256,192,193787,1,0,0:0:0:0:
256,192,193864,1,8,0:0:0:0:
256,192,194017,1,8,0:0:0:0:
256,192,194170,1,0,0:0:0:0:
256,192,194247,1,0,0:0:0:0:
256,192,194323,1,8,0:0:0:0:
256,192,194400,1,0,0:0:0:0:
256,192,194476,1,8,0:0:0:0:
256,192,194629,1,0,0:0:0:0:
256,192,194706,1,0,0:0:0:0:
256,192,194782,1,8,0:0:0:0:
256,192,194935,1,0,0:0:0:0:
256,192,195088,1,8,0:0:0:0:
256,192,195165,1,8,0:0:0:0:
256,192,195242,1,0,0:0:0:0:
256,192,195395,1,8,0:0:0:0:
256,192,195548,1,0,0:0:0:0:
256,192,195701,1,8,0:0:0:0:
256,192,195777,1,8,0:0:0:0:
256,192,195854,1,0,0:0:0:0:
256,192,196007,1,0,0:0:0:0:
256,192,196160,1,8,0:0:0:0:
256,192,196236,1,8,0:0:0:0:
256,192,196313,1,0,0:0:0:0:
256,192,196466,1,8,0:0:0:0:
256,192,196619,1,0,0:0:0:0:
256,192,196696,1,0,0:0:0:0:
256,192,196772,1,8,0:0:0:0:
256,192,196925,1,0,0:0:0:0:
256,192,197078,1,8,0:0:0:0:
256,192,197155,1,8,0:0:0:0:
256,192,197231,1,0,0:0:0:0:
256,192,197308,1,8,0:0:0:0:
256,192,197384,1,0,0:0:0:0:
256,96,197537,1,12,0:0:0:0:
256,192,197691,1,0,0:0:0:0:
256,192,197767,1,8,0:0:0:0:
256,192,197844,1,8,0:0:0:0:
256,192,197997,1,0,0:0:0:0:
256,192,198150,1,8,0:0:0:0:
256,192,198226,1,8,0:0:0:0:
256,192,198303,1,0,0:0:0:0:
256,192,198456,1,8,0:0:0:0:
256,192,198609,1,0,0:0:0:0:
256,192,198685,1,0,0:0:0:0:
256,192,198762,1,8,0:0:0:0:
256,192,198915,1,8,0:0:0:0:
256,192,199068,1,0,0:0:0:0:
256,192,199145,1,0,0:0:0:0:
256,192,199221,1,8,0:0:0:0:
256,192,199374,1,8,0:0:0:0:
256,192,199527,1,0,0:0:0:0:
256,192,199604,1,0,0:0:0:0:
256,192,199680,1,8,0:0:0:0:
256,192,199833,1,0,0:0:0:0:
256,192,199986,1,8,0:0:0:0:
256,192,200140,1,0,0:0:0:0:
256,192,200293,1,8,0:0:0:0:
256,192,200446,1,0,0:0:0:0:
256,192,200599,1,8,0:0:0:0:
256,192,200675,1,8,0:0:0:0:
256,192,200752,1,0,0:0:0:0:
256,192,200905,1,0,0:0:0:0:
256,192,201058,1,8,0:0:0:0:
256,192,201134,1,8,0:0:0:0:
256,192,201211,1,0,0:0:0:0:
256,192,201517,1,8,0:0:0:0:
256,192,201823,1,8,0:0:0:0:
256,192,202129,1,0,0:0:0:0:
256,96,202435,5,12,0:0:0:0:
256,192,202588,1,0,0:0:0:0:
256,192,202665,1,0,0:0:0:0:
256,192,202742,1,8,0:0:0:0:
256,192,202895,1,8,0:0:0:0:
256,192,203048,1,0,0:0:0:0:
256,192,203124,1,0,0:0:0:0:
256,192,203201,1,8,0:0:0:0:
256,192,203354,1,8,0:0:0:0:
256,192,203507,1,0,0:0:0:0:
256,192,203583,1,0,0:0:0:0:
256,192,203660,1,8,0:0:0:0:
256,192,203736,1,0,0:0:0:0:
256,192,203813,1,8,0:0:0:0:
256,192,203966,1,0,0:0:0:0:
256,192,204043,1,0,0:0:0:0:
256,192,204119,1,8,0:0:0:0:
256,192,204272,1,8,0:0:0:0:
256,192,204425,1,0,0:0:0:0:
256,192,204502,1,0,0:0:0:0:
256,192,204578,1,8,0:0:0:0:
256,192,204731,1,0,0:0:0:0:
256,192,204884,1,8,0:0:0:0:
256,192,204961,1,8,0:0:0:0:
256,192,205037,1,0,0:0:0:0:
256,192,205191,1,8,0:0:0:0:
256,192,205344,1,0,0:0:0:0:
256,192,205497,1,8,0:0:0:0:
256,192,205573,1,8,0:0:0:0:
256,192,205650,1,0,0:0:0:0:
256,192,205803,1,0,0:0:0:0:
256,192,205956,1,8,0:0:0:0:
256,192,206032,1,8,0:0:0:0:
256,192,206109,1,0,0:0:0:0:
256,192,206262,1,0,0:0:0:0:
256,192,206415,1,8,0:0:0:0:
256,192,206492,1,8,0:0:0:0:
256,192,206568,1,0,0:0:0:0:
256,192,206645,1,0,0:0:0:0:
256,192,206721,1,8,0:0:0:0:
256,192,206874,1,0,0:0:0:0:
256,192,206951,1,0,0:0:0:0:
256,192,207027,1,8,0:0:0:0:
256,192,207104,1,0,0:0:0:0:
256,192,207180,1,8,0:0:0:0:
256,96,207333,1,12,0:0:0:0:
256,192,207486,1,0,0:0:0:0:
256,192,207563,1,8,0:0:0:0:
256,192,207640,1,8,0:0:0:0:
256,192,207716,1,0,0:0:0:0:
256,192,207793,1,8,0:0:0:0:
256,192,207946,1,0,0:0:0:0:
256,192,208022,1,0,0:0:0:0:
256,192,208099,1,8,0:0:0:0:
256,192,208252,1,8,0:0:0:0:
256,192,208405,1,0,0:0:0:0:
256,192,208481,1,0,0:0:0:0:
256,192,208558,1,8,0:0:0:0:
256,192,208711,1,8,0:0:0:0:
256,192,208864,1,0,0:0:0:0:
256,192,208941,1,0,0:0:0:0:
256,192,209017,1,8,0:0:0:0:
256,192,209094,1,8,0:0:0:0:
256,192,209170,1,0,0:0:0:0:
256,192,209323,1,0,0:0:0:0:
256,192,209400,1,0,0:0:0:0:
256,192,209476,1,8,0:0:0:0:
256,192,209629,1,0,0:0:0:0:
256,192,209782,1,8,0:0:0:0:
256,192,209859,1,8,0:0:0:0:
256,192,209935,1,0,0:0:0:0:
256,192,210088,1,8,0:0:0:0:
256,192,210242,1,0,0:0:0:0:
256,192,210395,1,8,0:0:0:0:
256,192,210471,1,0,0:0:0:0:
256,192,210548,1,0,0:0:0:0:
256,192,210701,1,8,0:0:0:0:
256,192,210854,1,8,0:0:0:0:
256,192,210930,1,0,0:0:0:0:
256,192,211007,1,0,0:0:0:0:
256,192,211160,1,8,0:0:0:0:
256,192,211313,1,8,0:0:0:0:
256,192,211390,1,0,0:0:0:0:
256,192,211466,1,0,0:0:0:0:
256,192,211619,1,8,0:0:0:0:
256,192,211696,1,8,0:0:0:0:
256,192,211772,1,8,0:0:0:0:
256,192,211849,5,8,0:0:0:0:
256,192,211925,1,8,0:0:0:0:
256,192,212002,1,8,0:0:0:0:
256,192,212078,1,8,0:0:0:0:
256,192,212155,1,8,0:0:0:0:
256,96,212231,1,4,0:0:0:0:
256,192,212384,1,0,0:0:0:0:
256,192,212537,1,8,0:0:0:0:
256,192,212614,1,0,0:0:0:0:
256,192,212691,1,0,0:0:0:0:
256,192,212844,1,8,0:0:0:0:
256,192,212997,1,8,0:0:0:0:
256,192,213073,1,8,0:0:0:0:
256,192,213150,1,0,0:0:0:0:
256,192,213303,1,8,0:0:0:0:
256,192,213379,1,8,0:0:0:0:
256,192,213456,1,0,0:0:0:0:
256,192,213609,1,0,0:0:0:0:
256,192,213762,1,8,0:0:0:0:
256,192,213915,1,0,0:0:0:0:
256,192,214068,1,0,0:0:0:0:
256,192,214145,1,0,0:0:0:0:
256,192,214221,1,8,0:0:0:0:
256,192,214374,1,0,0:0:0:0:
256,192,214451,1,0,0:0:0:0:
256,192,214527,1,8,0:0:0:0:
256,192,214680,1,8,0:0:0:0:
256,192,214833,1,0,0:0:0:0:
256,192,214910,1,0,0:0:0:0:
256,192,214986,1,8,0:0:0:0:
256,192,215063,1,8,0:0:0:0:
256,192,215140,1,0,0:0:0:0:
256,192,215293,1,8,0:0:0:0:
256,192,215369,1,0,0:0:0:0:
256,192,215446,1,8,0:0:0:0:
256,192,215522,1,8,0:0:0:0:
256,192,215599,1,0,0:0:0:0:
256,192,215675,1,0,0:0:0:0:
256,192,215752,1,8,0:0:0:0:
256,192,215905,1,0,0:0:0:0:
256,192,216058,1,8,0:0:0:0:
256,192,216134,1,8,0:0:0:0:
256,192,216211,1,0,0:0:0:0:
256,192,216287,1,8,0:0:0:0:
256,192,216364,1,0,0:0:0:0:
256,192,216517,1,0,0:0:0:0:
256,192,216594,1,0,0:0:0:0:
256,192,216670,1,8,0:0:0:0:
256,192,216747,1,0,0:0:0:0:
256,192,216823,1,0,0:0:0:0:
256,192,216976,1,8,0:0:0:0:
256,192,217053,1,8,0:0:0:0:
256,192,217129,1,0,0:0:0:0:
256,192,217282,1,8,0:0:0:0:
256,192,217435,1,8,0:0:0:0:
256,192,217588,1,0,0:0:0:0:
256,192,217665,1,0,0:0:0:0:
256,192,217742,1,8,0:0:0:0:
256,192,217818,1,0,0:0:0:0:
256,192,217895,1,8,0:0:0:0:
256,192,217971,1,8,0:0:0:0:
256,192,218048,1,0,0:0:0:0:
256,192,218201,1,8,0:0:0:0:
256,192,218277,1,8,0:0:0:0:
256,192,218354,1,0,0:0:0:0:
256,192,218507,1,0,0:0:0:0:
256,192,218660,1,8,0:0:0:0:
256,192,218736,1,0,0:0:0:0:
256,192,218813,1,0,0:0:0:0:
256,192,218966,1,8,0:0:0:0:
256,192,219043,1,0,0:0:0:0:
256,192,219119,1,8,0:0:0:0:
256,192,219272,1,8,0:0:0:0:
256,192,219349,1,0,0:0:0:0:
256,192,219425,1,8,0:0:0:0:
256,192,219502,1,8,0:0:0:0:
256,192,219578,1,0,0:0:0:0:
256,192,219731,1,8,0:0:0:0:
256,192,219884,1,0,0:0:0:0:
256,192,219961,1,0,0:0:0:0:
256,192,220037,1,8,0:0:0:0:
256,192,220191,1,8,0:0:0:0:
256,192,220267,1,8,0:0:0:0:
256,192,220344,1,0,0:0:0:0:
256,192,220420,1,0,0:0:0:0:
256,192,220497,1,8,0:0:0:0:
256,192,220650,1,8,0:0:0:0:
256,192,220726,1,8,0:0:0:0:
256,192,220803,1,0,0:0:0:0:
256,192,220956,1,0,0:0:0:0:
256,192,221109,1,8,0:0:0:0:
256,192,221185,5,8,0:0:0:0:
256,192,221262,1,0,0:0:0:0:
256,192,221338,1,0,0:0:0:0:
256,192,221415,1,8,0:0:0:0:
256,192,221721,5,8,0:0:0:0:
256,192,221798,1,8,0:0:0:0:
256,192,221874,1,8,0:0:0:0:
256,192,221951,1,8,0:0:0:0:
256,96,222027,1,4,0:0:0:0:
256,192,222180,1,0,0:0:0:0:
256,192,222333,1,8,0:0:0:0:
256,192,222410,1,0,0:0:0:0:
256,192,222486,1,0,0:0:0:0:
256,192,222640,1,8,0:0:0:0:
256,192,222793,1,8,0:0:0:0:
256,192,222869,1,8,0:0:0:0:
256,192,222946,1,0,0:0:0:0:
256,192,223099,1,8,0:0:0:0:
256,192,223175,1,8,0:0:0:0:
256,192,223252,1,0,0:0:0:0:
256,192,223405,1,0,0:0:0:0:
256,192,223558,1,8,0:0:0:0:
256,192,223711,1,0,0:0:0:0:
256,192,223864,1,0,0:0:0:0:
256,192,223941,1,0,0:0:0:0:
256,192,224017,1,8,0:0:0:0:
256,192,224170,1,0,0:0:0:0:
256,192,224247,1,0,0:0:0:0:
256,192,224323,1,8,0:0:0:0:
256,192,224476,1,8,0:0:0:0:
256,192,224629,1,0,0:0:0:0:
256,192,224706,1,8,0:0:0:0:
256,192,224782,1,0,0:0:0:0:
256,192,224859,1,0,0:0:0:0:
256,192,224935,1,8,0:0:0:0:
256,192,225088,1,8,0:0:0:0:
256,192,225165,1,8,0:0:0:0:
256,192,225242,1,0,0:0:0:0:
256,192,225318,1,8,0:0:0:0:
256,192,225395,1,0,0:0:0:0:
256,192,225471,1,0,0:0:0:0:
256,192,225548,1,8,0:0:0:0:
256,192,225701,1,0,0:0:0:0:
256,192,225854,1,8,0:0:0:0:
256,192,225930,1,8,0:0:0:0:
256,192,226007,1,0,0:0:0:0:
256,192,226083,1,8,0:0:0:0:
256,192,226160,1,0,0:0:0:0:
256,192,226313,1,0,0:0:0:0:
256,192,226390,1,0,0:0:0:0:
256,192,226466,1,8,0:0:0:0:
256,192,226543,1,8,0:0:0:0:
256,192,226619,1,0,0:0:0:0:
256,192,226772,1,0,0:0:0:0:
256,192,226849,1,8,0:0:0:0:
256,192,226925,1,0,0:0:0:0:
256,192,227078,1,8,0:0:0:0:
256,192,227231,1,8,0:0:0:0:
256,192,227384,1,0,0:0:0:0:
256,192,227461,1,0,0:0:0:0:
256,192,227537,1,8,0:0:0:0:
256,192,227614,1,0,0:0:0:0:
256,192,227691,1,8,0:0:0:0:
256,192,227767,1,8,0:0:0:0:
256,192,227844,1,0,0:0:0:0:
256,192,227997,1,8,0:0:0:0:
256,192,228073,1,8,0:0:0:0:
256,192,228150,1,0,0:0:0:0:
256,192,228303,1,0,0:0:0:0:
256,192,228456,1,8,0:0:0:0:
256,192,228532,1,0,0:0:0:0:
256,192,228609,1,0,0:0:0:0:
256,192,228762,1,8,0:0:0:0:
256,192,228838,1,0,0:0:0:0:
256,192,228915,1,8,0:0:0:0:
256,192,229068,1,8,0:0:0:0:
256,192,229145,1,0,0:0:0:0:
256,192,229221,1,8,0:0:0:0:
256,192,229298,1,8,0:0:0:0:
256,192,229374,1,0,0:0:0:0:
256,192,229527,1,8,0:0:0:0:
256,192,229680,1,0,0:0:0:0:
256,192,229757,1,0,0:0:0:0:
256,192,229833,1,8,0:0:0:0:
256,192,229986,1,8,0:0:0:0:
256,192,230063,1,8,0:0:0:0:
256,192,230140,1,0,0:0:0:0:
256,192,230216,5,0,0:0:0:0:
256,192,230293,1,8,0:0:0:0:
256,192,230446,1,8,0:0:0:0:
256,192,230522,1,8,0:0:0:0:
256,192,230599,1,0,0:0:0:0:
256,192,230752,5,0,0:0:0:0:
256,192,230905,1,8,0:0:0:0:
256,192,230981,1,8,0:0:0:0:
256,192,231058,1,0,0:0:0:0:
256,192,231134,1,0,0:0:0:0:
256,192,231211,1,8,0:0:0:0:
256,192,231287,1,8,0:0:0:0:
256,192,231364,1,8,0:0:0:0:
256,192,231441,1,8,0:0:0:0:
256,192,231517,1,8,0:0:0:0:
256,192,231594,1,8,0:0:0:0:
256,192,231670,1,8,0:0:0:0:
256,192,231747,1,8,0:0:0:0:
256,96,231823,1,4,0:0:0:0:
256,192,233048,5,0,0:0:0:0:
256,192,233201,1,8,0:0:0:0:
256,192,233660,1,0,0:0:0:0:
256,192,233813,1,0,0:0:0:0:
256,192,233966,1,8,0:0:0:0:
256,192,234272,1,0,0:0:0:0:
256,192,234578,1,0,0:0:0:0:
256,192,234731,1,8,0:0:0:0:
256,192,234884,1,8,0:0:0:0:
256,192,235344,1,8,0:0:0:0:
256,192,235497,1,0,0:0:0:0:
256,192,235650,1,8,0:0:0:0:
256,192,235803,1,8,0:0:0:0:
256,192,236262,1,0,0:0:0:0:
256,192,236415,1,8,0:0:0:0:
256,192,236721,1,0,0:0:0:0:
256,192,237027,1,8,0:0:0:0:
256,192,237180,1,0,0:0:0:0:
256,192,237333,1,8,0:0:0:0:
256,192,237793,1,0,0:0:0:0:
256,192,237946,1,0,0:0:0:0:
256,192,238099,1,8,0:0:0:0:
256,192,238711,1,0,0:0:0:0:
256,192,238864,1,8,0:0:0:0:
256,192,239170,1,0,0:0:0:0:
256,192,239476,1,0,0:0:0:0:
256,192,239629,1,0,0:0:0:0:
256,192,239782,1,8,0:0:0:0:
256,192,240242,1,8,0:0:0:0:
256,192,240395,1,0,0:0:0:0:
256,192,240548,1,8,0:0:0:0:
256,192,241160,1,0,0:0:0:0:
256,192,241313,1,8,0:0:0:0:
256,192,241619,1,0,0:0:0:0:
256,192,241772,12,0,248966,0:0:0:0:
