osu file format v14

[General]
AudioFilename: audio.ogg
AudioLeadIn: 0
PreviewTime: 146486
Countdown: 0
SampleSet: Normal
StackLeniency: 0.7
Mode: 1
LetterboxInBreaks: 0
WidescreenStoryboard: 1

[Editor]
Bookmarks: 394,17168,28935,48526,68118,87710,107302,126894,146486,166077,192640,212231,231823
DistanceSpacing: 1.1
BeatDivisor: 4
GridSize: 32
TimelineZoom: 1.6

[Metadata]
Title:Tool-Assisted Speedcore (TQBF Frame Advance RMX)
TitleUnicode:Tool-Assisted Speedcore (TQBF Frame Advance RMX)
Artist:Kobaryo
ArtistUnicode:Kobaryo
Creator:Hivie
Version:Futsuu
Source:
Tags:featured artist fa mappers' guild mpg osu! electronic instrumental speedcore TAS speedrun mixpeed action the quick brown fox renard speed high bpm rsi
BeatmapID:2690455
BeatmapSetID:1275054

[Difficulty]
HPDrainRate:7
CircleSize:2
OverallDifficulty:4
ApproachRate:9
SliderMultiplier:1.2
SliderTickRate:1

[Events]
//Background and Video events
0,0,"bg.png",0,45
//Break Periods
//Storyboard Layer 0 (Background)
//Storyboard Layer 1 (Fail)
//Storyboard Layer 2 (Pass)
//Storyboard Layer 3 (Foreground)
//Storyboard Layer 4 (Overlay)
//Storyboard Sound Samples

[TimingPoints]
394,600,4,1,0,100,1,0
394,-51.0204081632653,4,1,0,100,0,0
994,594.059405940594,4,1,0,100,1,8
994,-51.530612244898,4,1,0,100,0,0
1588,588.235294117647,4,1,0,100,1,8
1588,-52.0408163265306,4,1,0,100,0,0
2176,582.52427184466,4,1,0,100,1,8
2176,-52.5510204081633,4,1,0,100,0,0
2758,576.923076923077,4,1,0,100,1,0
2758,-53.0612244897959,4,1,0,100,0,0
3334,571.428571428571,4,1,0,100,1,8
3334,-53.5714285714286,4,1,0,100,0,0
5048,560.747663551402,4,1,0,100,1,0
5048,-54.5918367346939,4,1,0,100,0,0
6169,550.45871559633,4,1,0,100,1,8
6169,-55.6122448979592,4,1,0,100,0,0
7132,-55.6122448979592,4,1,0,100,0,8
7269,535.714285714286,4,1,0,100,1,0
7269,-57.1428571428571,4,1,0,100,0,0
8340,526.315789473684,4,1,0,100,1,8
8340,-58.1632653061225,4,1,0,100,0,0
9401,512.820512820513,4,1,0,100,1,0
9401,-59.6938775510204,4,1,0,100,0,0
11452,500,4,1,0,100,1,0
11452,-61.2244897959184,4,1,0,100,0,0
12452,487.80487804878,4,1,0,100,1,8
12452,-62.7551020408164,4,1,0,100,0,0
13427,476.190476190476,4,1,0,100,1,0
13427,-64.2857142857143,4,1,0,100,0,0
15331,461.538461538462,4,1,0,100,1,0
15331,-66.3265306122448,4,1,0,100,0,0
17168,428.571428571429,4,1,0,100,1,0
17168,-71.4285714285714,4,1,0,100,0,0
18882,419.58041958042,4,1,0,100,1,0
18882,-72.9591836734693,4,1,0,100,0,0
20560,397.350993377483,4,1,0,100,1,0
20560,-77.0408163265307,4,1,0,100,0,0
22149,377.358490566038,4,1,0,100,1,0
22149,-81.1224489795918,4,1,0,100,0,0
23658,357.142857142857,4,1,0,100,1,0
23658,-85.7142857142857,4,1,0,100,0,0
25086,340.909090909091,4,1,0,100,1,0
25086,-89.7959183673469,4,1,0,100,0,0
26449,326.086956521739,4,1,0,100,1,0
26449,-93.8775510204082,4,1,0,100,0,0
27101,306.122448979592,4,1,0,100,1,8
27713,306.122448979592,4,1,0,100,1,0
28935,306.122448979592,4,1,0,100,1,0
48526,-100,4,1,0,100,0,1
57098,-100,4,1,0,100,0,0
58322,-100,4,1,0,100,0,1
68118,-100,4,1,0,100,0,0
87710,-100,4,1,0,100,0,1
107302,-100,4,1,0,100,0,0
126894,-100,4,1,0,100,0,1
147710,-111.111111111111,4,1,0,100,0,0
166077,-83.3333333333333,4,1,0,100,0,1
167302,-111.111111111111,4,1,0,100,0,0
190414,-105.263157894737,4,1,0,100,0,0
191639,-100,4,1,0,100,0,0
192640,306.122448979592,4,1,0,100,1,1
192640,-100,4,1,0,100,0,1
201211,-100,4,1,0,100,0,0
202435,-100,4,1,0,100,0,1
211619,-100,4,1,0,100,0,0
212231,-100,4,1,0,100,0,1
233048,-111.111111111111,4,1,0,90,0,0
239169,-111.111111111111,4,1,0,85,0,0
239476,-113.333325777778,4,1,0,81,0,0
239629,-114.478168440887,4,1,0,76,0,0
239782,-115.646242769219,4,1,0,72,0,0
240241,-119.298287473083,4,1,0,67,0,0
240394,-120.567341683024,4,1,0,63,0,0
240547,-121.863834226189,4,1,0,58,0,0
241159,-127.340843047317,4,1,0,54,0,0
241312,-128.787810491313,4,1,0,49,0,0
241618,-131.782864010627,4,1,0,45,0,0
241771,-133.333333333333,4,1,0,41,0,0
241925,-133.333333333333,4,1,0,36,0,0
242537,-140.25973297352,4,1,0,32,0,0
242996,-145.945985390807,4,1,0,27,0,0
243608,-154.285749551028,4,1,0,23,0,0
244220,-163.636393388435,4,1,0,18,0,0
244833,-174.193570863687,4,1,0,14,0,0
245445,-186.20690939358,4,1,0,9,0,0
246057,-200,4,1,0,5,0,0

[HitObjects]
256,96,394,5,12,0:0:0:0:
256,192,1588,1,0,0:0:0:0:
256,192,2176,1,8,0:0:0:0:
256,192,2758,1,8,0:0:0:0:
256,192,3334,1,0,0:0:0:0:
256,192,3905,1,8,0:0:0:0:
256,192,4476,1,0,0:0:0:0:
256,192,5048,1,8,0:0:0:0:
256,192,6169,1,8,0:0:0:0:
256,192,6719,1,8,0:0:0:0:
256,192,7269,1,0,0:0:0:0:
256,192,7804,1,0,0:0:0:0:
256,192,8340,1,8,0:0:0:0:
256,192,8866,1,0,0:0:0:0:
256,192,9129,1,0,0:0:0:0:
256,192,9401,1,8,0:0:0:0:
256,192,10426,1,8,0:0:0:0:
256,192,10939,1,8,0:0:0:0:
256,192,11452,1,0,0:0:0:0:
256,192,11952,1,0,0:0:0:0:
256,192,12452,1,8,0:0:0:0:
256,192,12939,1,0,0:0:0:0:
256,192,13427,1,8,0:0:0:0:
256,192,14379,1,8,0:0:0:0:
256,192,14855,1,0,0:0:0:0:
256,192,15331,1,0,0:0:0:0:
256,192,16254,1,8,0:0:0:0:
256,192,16715,1,0,0:0:0:0:
256,192,16946,1,0,0:0:0:0:
256,96,17168,1,12,0:0:0:0:
256,192,18025,1,8,0:0:0:0:
256,192,18453,1,0,0:0:0:0:
256,192,18882,1,8,0:0:0:0:
256,192,19301,1,0,0:0:0:0:
256,192,19721,1,8,0:0:0:0:
256,192,20140,1,0,0:0:0:0:
256,96,20560,1,12,0:0:0:0:
256,192,21354,1,8,0:0:0:0:
256,192,21752,1,8,0:0:0:0:
256,192,22149,1,0,0:0:0:0:
256,192,22526,1,0,0:0:0:0:
256,192,22903,1,8,0:0:0:0:
256,192,23281,1,0,0:0:0:0:
256,192,23469,1,0,0:0:0:0:
256,96,23658,1,12,0:0:0:0:
256,192,24372,1,0,0:0:0:0:
256,192,24729,1,0,0:0:0:0:
256,96,25086,1,12,0:0:0:0:
256,192,25767,1,0,0:0:0:0:
256,192,26108,1,0,0:0:0:0:
256,96,26449,1,12,0:0:0:0:
256,96,27101,1,12,0:0:0:0:
256,96,28935,1,12,0:0:0:0:
256,192,29547,1,8,0:0:0:0:
256,192,30159,1,0,0:0:0:0:
256,192,30771,1,8,0:0:0:0:
256,192,31383,1,0,0:0:0:0:
256,192,31996,1,8,0:0:0:0:
256,192,32608,1,0,0:0:0:0:
256,192,33220,1,8,0:0:0:0:
256,192,33526,1,8,0:0:0:0:
256,192,33832,1,0,0:0:0:0:
256,192,34445,1,8,0:0:0:0:
256,192,35057,1,0,0:0:0:0:
256,192,35669,1,8,0:0:0:0:
256,192,36281,1,0,0:0:0:0:
256,192,36894,1,8,0:0:0:0:
256,192,37506,1,0,0:0:0:0:
256,192,38118,1,0,0:0:0:0:
256,192,38424,1,8,0:0:0:0:
256,192,38577,1,8,0:0:0:0:
256,96,38730,1,4,0:0:0:0:
256,192,39343,1,8,0:0:0:0:
256,192,39649,1,8,0:0:0:0:
256,192,39955,1,0,0:0:0:0:
256,192,40567,1,0,0:0:0:0:
256,192,40873,1,8,0:0:0:0:
256,192,41179,1,0,0:0:0:0:
256,192,41792,1,8,0:0:0:0:
256,192,42098,1,0,0:0:0:0:
256,192,42404,1,8,0:0:0:0:
256,192,43016,1,8,0:0:0:0:
256,192,43322,1,8,0:0:0:0:
256,192,43475,1,8,0:0:0:0:
256,192,43628,1,0,0:0:0:0:
256,192,44241,1,8,0:0:0:0:
256,192,44547,1,8,0:0:0:0:
256,192,44853,1,0,0:0:0:0:
256,192,45465,1,0,0:0:0:0:
256,192,45771,1,0,0:0:0:0:
256,192,46077,1,8,0:0:0:0:
256,192,46690,1,8,0:0:0:0:
256,192,46996,1,8,0:0:0:0:
256,96,48526,1,12,0:0:0:0:
256,192,49139,1,0,0:0:0:0:
256,192,49445,1,8,0:0:0:0:
256,192,49598,1,0,0:0:0:0:
256,192,49751,1,8,0:0:0:0:
256,192,50057,1,0,0:0:0:0:
256,192,50363,1,0,0:0:0:0:
256,192,50669,1,8,0:0:0:0:
256,192,50822,1,8,0:0:0:0:
256,192,50975,1,0,0:0:0:0:
256,192,51281,1,8,0:0:0:0:
256,192,51588,1,8,0:0:0:0:
256,192,51894,1,0,0:0:0:0:
256,192,52047,1,0,0:0:0:0:
256,192,52200,1,0,0:0:0:0:
256,192,52506,1,8,0:0:0:0:
256,192,52812,1,0,0:0:0:0:
256,192,52965,1,0,0:0:0:0:
256,192,53118,1,8,0:0:0:0:
256,192,53271,1,8,0:0:0:0:
256,192,53424,1,0,0:0:0:0:
256,192,54037,1,0,0:0:0:0:
256,192,54343,1,8,0:0:0:0:
256,192,54496,1,0,0:0:0:0:
256,192,54649,1,0,0:0:0:0:
256,192,54955,1,8,0:0:0:0:
256,192,55261,1,0,0:0:0:0:
256,192,55567,1,8,0:0:0:0:
256,192,55720,1,8,0:0:0:0:
256,192,55873,1,0,0:0:0:0:
256,192,56179,1,0,0:0:0:0:
256,192,56486,1,8,0:0:0:0:
256,192,56792,1,0,0:0:0:0:
256,192,56945,1,8,0:0:0:0:
256,192,57098,1,0,0:0:0:0:
256,96,58322,1,12,0:0:0:0:
256,192,58935,1,0,0:0:0:0:
256,192,59241,1,8,0:0:0:0:
256,192,59394,1,8,0:0:0:0:
256,192,59547,1,8,0:0:0:0:
256,192,59853,1,0,0:0:0:0:
256,192,60159,1,8,0:0:0:0:
256,192,60465,1,8,0:0:0:0:
256,192,60618,1,8,0:0:0:0:
256,192,60771,1,0,0:0:0:0:
256,192,61077,1,8,0:0:0:0:
256,192,61383,1,0,0:0:0:0:
256,192,61537,1,0,0:0:0:0:
256,192,61690,1,8,0:0:0:0:
256,192,61843,1,8,0:0:0:0:
256,192,61996,1,0,0:0:0:0:
256,192,62302,1,8,0:0:0:0:
256,192,62608,1,0,0:0:0:0:
256,192,62914,1,8,0:0:0:0:
256,192,63067,1,0,0:0:0:0:
256,192,63220,1,8,0:0:0:0:
256,192,63832,1,0,0:0:0:0:
256,192,64139,1,8,0:0:0:0:
256,192,64292,1,8,0:0:0:0:
256,192,64445,1,0,0:0:0:0:
256,192,64751,1,8,0:0:0:0:
256,192,65057,1,0,0:0:0:0:
256,192,65363,1,8,0:0:0:0:
256,192,65516,1,0,0:0:0:0:
256,192,65669,1,8,0:0:0:0:
256,192,65975,1,8,0:0:0:0:
256,192,66281,1,0,0:0:0:0:
256,192,66435,1,8,0:0:0:0:
256,192,66588,1,8,0:0:0:0:
256,192,66894,1,0,0:0:0:0:
256,192,67200,1,8,0:0:0:0:
256,192,67506,6,0,L|256:256,2,60
256,96,68118,1,4,0:0:0:0:
256,192,68730,1,8,0:0:0:0:
256,192,69037,1,8,0:0:0:0:
256,192,69343,1,0,0:0:0:0:
256,192,69649,1,0,0:0:0:0:
256,192,69955,1,8,0:0:0:0:
256,192,70261,1,8,0:0:0:0:
256,192,70567,1,0,0:0:0:0:
256,192,71179,1,8,0:0:0:0:
256,192,71486,1,0,0:0:0:0:
256,192,71792,1,8,0:0:0:0:
256,192,72098,1,0,0:0:0:0:
256,192,72404,1,8,0:0:0:0:
256,192,72710,1,0,0:0:0:0:
256,192,72863,1,0,0:0:0:0:
256,192,73016,5,8,0:0:0:0:
256,192,73628,1,8,0:0:0:0:
256,192,73935,1,8,0:0:0:0:
256,192,74241,1,0,0:0:0:0:
256,192,74547,1,8,0:0:0:0:
256,192,74853,1,0,0:0:0:0:
256,192,75159,1,0,0:0:0:0:
256,192,75465,1,8,0:0:0:0:
256,192,76077,1,8,0:0:0:0:
256,192,76383,1,0,0:0:0:0:
256,192,76690,1,0,0:0:0:0:
256,192,76996,1,8,0:0:0:0:
256,192,77302,1,0,0:0:0:0:
256,192,77455,1,8,0:0:0:0:
256,192,77761,1,8,0:0:0:0:
256,96,77914,5,4,0:0:0:0:
256,192,78526,1,0,0:0:0:0:
256,192,78679,1,8,0:0:0:0:
256,192,79139,1,0,0:0:0:0:
256,192,79445,1,0,0:0:0:0:
256,192,79751,1,0,0:0:0:0:
256,192,79904,1,8,0:0:0:0:
256,192,80363,1,0,0:0:0:0:
256,192,80669,1,8,0:0:0:0:
256,192,80975,1,0,0:0:0:0:
256,192,81128,1,8,0:0:0:0:
256,192,81588,1,0,0:0:0:0:
256,192,81894,1,8,0:0:0:0:
256,192,82200,1,0,0:0:0:0:
256,192,82506,1,0,0:0:0:0:
256,192,82659,1,0,0:0:0:0:
256,192,82812,1,8,0:0:0:0:
256,192,83424,1,0,0:0:0:0:
256,192,83577,1,8,0:0:0:0:
256,192,84037,1,0,0:0:0:0:
256,192,84343,1,0,0:0:0:0:
256,192,84649,1,0,0:0:0:0:
256,192,84802,1,8,0:0:0:0:
256,192,85261,1,0,0:0:0:0:
256,192,85567,1,8,0:0:0:0:
256,192,85873,1,0,0:0:0:0:
256,192,86026,1,8,0:0:0:0:
256,192,86486,1,0,0:0:0:0:
256,192,86792,1,8,0:0:0:0:
256,192,87098,1,0,0:0:0:0:
256,192,87404,1,0,0:0:0:0:
256,192,87557,1,0,0:0:0:0:
256,96,87710,1,12,0:0:0:0:
256,192,88322,1,0,0:0:0:0:
256,192,88628,1,8,0:0:0:0:
256,192,88935,1,0,0:0:0:0:
256,192,89088,1,8,0:0:0:0:
256,192,89241,1,0,0:0:0:0:
256,192,89547,1,8,0:0:0:0:
256,192,89700,1,0,0:0:0:0:
256,192,89853,1,8,0:0:0:0:
256,192,90159,1,0,0:0:0:0:
256,192,90465,1,0,0:0:0:0:
256,192,90771,1,0,0:0:0:0:
256,192,90924,1,8,0:0:0:0:
256,192,91077,1,8,0:0:0:0:
256,192,91383,1,0,0:0:0:0:
256,192,91690,1,0,0:0:0:0:
256,192,91996,1,8,0:0:0:0:
256,192,92149,1,8,0:0:0:0:
256,192,92302,1,0,0:0:0:0:
256,192,92455,1,0,0:0:0:0:
256,192,92608,1,8,0:0:0:0:
256,192,93220,1,0,0:0:0:0:
256,192,93526,1,8,0:0:0:0:
256,192,93832,1,0,0:0:0:0:
256,192,93986,1,0,0:0:0:0:
256,192,94139,1,8,0:0:0:0:
256,192,94445,1,8,0:0:0:0:
256,192,94598,1,0,0:0:0:0:
256,192,94751,1,8,0:0:0:0:
256,192,95057,1,0,0:0:0:0:
256,192,95363,1,8,0:0:0:0:
256,192,95669,1,0,0:0:0:0:
256,192,95822,1,0,0:0:0:0:
256,192,95975,1,8,0:0:0:0:
256,192,96281,1,0,0:0:0:0:
256,192,96588,1,8,0:0:0:0:
256,192,96894,1,8,0:0:0:0:
256,192,97047,1,8,0:0:0:0:
256,192,97200,1,0,0:0:0:0:
256,192,97353,1,0,0:0:0:0:
256,96,97506,5,12,0:0:0:0:
256,192,98118,1,0,0:0:0:0:
256,192,98424,1,8,0:0:0:0:
256,192,98731,1,0,0:0:0:0:
256,192,98884,1,8,0:0:0:0:
256,192,99037,1,0,0:0:0:0:
256,192,99190,1,0,0:0:0:0:
256,192,99343,1,8,0:0:0:0:
256,192,99649,1,8,0:0:0:0:
256,192,99955,1,0,0:0:0:0:
256,192,100108,1,0,0:0:0:0:
256,192,100261,1,8,0:0:0:0:
256,192,100414,1,8,0:0:0:0:
256,192,100567,1,0,0:0:0:0:
256,192,100873,1,8,0:0:0:0:
256,192,101179,1,0,0:0:0:0:
256,192,101332,1,8,0:0:0:0:
256,192,101486,1,0,0:0:0:0:
256,192,101792,1,8,0:0:0:0:
256,192,101945,1,8,0:0:0:0:
256,192,102098,1,0,0:0:0:0:
256,192,102251,1,0,0:0:0:0:
256,192,102404,1,8,0:0:0:0:
256,192,103016,1,0,0:0:0:0:
256,192,103322,1,8,0:0:0:0:
256,192,103628,1,0,0:0:0:0:
256,192,103782,1,0,0:0:0:0:
256,192,103935,1,8,0:0:0:0:
256,192,104088,1,0,0:0:0:0:
256,192,104241,1,8,0:0:0:0:
256,192,104547,1,8,0:0:0:0:
256,192,104853,1,0,0:0:0:0:
256,192,105006,1,8,0:0:0:0:
256,192,105159,1,8,0:0:0:0:
256,192,105465,1,0,0:0:0:0:
256,192,105618,1,8,0:0:0:0:
256,192,105771,1,0,0:0:0:0:
256,192,105924,1,0,0:0:0:0:
256,192,106077,1,8,0:0:0:0:
256,192,106384,1,0,0:0:0:0:
256,192,106537,1,8,0:0:0:0:
256,192,106690,1,8,0:0:0:0:
256,96,107302,5,12,0:0:0:0:
256,192,107914,1,8,0:0:0:0:
256,192,108220,1,8,0:0:0:0:
256,192,108526,1,0,0:0:0:0:
256,192,108832,1,8,0:0:0:0:
256,192,109139,1,0,0:0:0:0:
256,192,109445,1,0,0:0:0:0:
256,192,109751,1,8,0:0:0:0:
256,192,110363,1,0,0:0:0:0:
256,192,110669,1,8,0:0:0:0:
256,192,110975,1,0,0:0:0:0:
256,192,111281,1,8,0:0:0:0:
256,192,111588,1,0,0:0:0:0:
256,192,111894,1,8,0:0:0:0:
256,192,112047,1,8,0:0:0:0:
256,192,112200,1,0,0:0:0:0:
256,192,112812,1,0,0:0:0:0:
256,192,113118,1,8,0:0:0:0:
256,192,113424,1,0,0:0:0:0:
256,192,113730,1,8,0:0:0:0:
256,192,114037,1,0,0:0:0:0:
256,192,114343,1,8,0:0:0:0:
256,192,114649,1,0,0:0:0:0:
256,192,115261,1,0,0:0:0:0:
256,192,115567,1,0,0:0:0:0:
256,192,115873,1,0,0:0:0:0:
256,192,116179,1,8,0:0:0:0:
256,192,116486,1,0,0:0:0:0:
256,192,116639,1,0,0:0:0:0:
256,192,116792,1,8,0:0:0:0:
256,192,116945,1,8,0:0:0:0:
256,96,117098,1,4,0:0:0:0:
256,192,117710,1,8,0:0:0:0:
256,192,118016,1,8,0:0:0:0:
256,192,118322,1,0,0:0:0:0:
256,192,118628,1,8,0:0:0:0:
256,192,118935,1,0,0:0:0:0:
256,192,119241,1,0,0:0:0:0:
256,192,119547,1,8,0:0:0:0:
256,192,120159,1,0,0:0:0:0:
256,192,120465,1,0,0:0:0:0:
256,192,120771,1,8,0:0:0:0:
256,192,121077,1,8,0:0:0:0:
256,192,121383,1,0,0:0:0:0:
256,192,121690,1,8,0:0:0:0:
256,192,121843,1,8,0:0:0:0:
256,192,121996,1,0,0:0:0:0:
256,192,122608,1,0,0:0:0:0:
256,192,122914,1,8,0:0:0:0:
256,192,123220,1,0,0:0:0:0:
256,192,123526,1,0,0:0:0:0:
256,192,123832,1,8,0:0:0:0:
256,192,124139,1,8,0:0:0:0:
256,192,124445,1,0,0:0:0:0:
256,192,125057,1,0,0:0:0:0:
256,192,125363,1,0,0:0:0:0:
256,192,125669,1,8,0:0:0:0:
256,192,125975,1,0,0:0:0:0:
256,192,126128,1,0,0:0:0:0:
256,192,126281,1,8,0:0:0:0:
256,192,126588,1,8,0:0:0:0:
256,192,126741,1,8,0:0:0:0:
256,96,126894,5,4,0:0:0:0:
256,192,127506,1,8,0:0:0:0:
256,192,127812,1,8,0:0:0:0:
256,192,127965,1,8,0:0:0:0:
256,192,128118,1,0,0:0:0:0:
256,192,128424,1,0,0:0:0:0:
256,192,128730,1,8,0:0:0:0:
256,192,128883,1,0,0:0:0:0:
256,192,129037,1,8,0:0:0:0:
256,192,129343,1,0,0:0:0:0:
256,192,129649,1,8,0:0:0:0:
256,192,129955,1,0,0:0:0:0:
256,192,130108,1,0,0:0:0:0:
256,192,130261,1,8,0:0:0:0:
256,192,130414,1,8,0:0:0:0:
256,192,130567,1,0,0:0:0:0:
256,192,130873,1,0,0:0:0:0:
256,192,131026,1,8,0:0:0:0:
256,192,131179,1,0,0:0:0:0:
256,192,131486,1,8,0:0:0:0:
256,192,131639,1,8,0:0:0:0:
256,192,131792,1,0,0:0:0:0:
256,192,132404,1,8,0:0:0:0:
256,192,132710,1,0,0:0:0:0:
256,192,133016,1,0,0:0:0:0:
256,192,133169,1,0,0:0:0:0:
256,192,133322,1,0,0:0:0:0:
256,192,133628,1,8,0:0:0:0:
256,192,133781,1,8,0:0:0:0:
256,192,133935,1,0,0:0:0:0:
256,192,134088,1,8,0:0:0:0:
256,192,134241,1,0,0:0:0:0:
256,192,134547,1,8,0:0:0:0:
256,192,134853,1,8,0:0:0:0:
256,192,135006,1,0,0:0:0:0:
256,192,135159,1,8,0:0:0:0:
256,192,135312,1,8,0:0:0:0:
256,192,135465,1,0,0:0:0:0:
256,192,135771,1,0,0:0:0:0:
256,192,135924,1,0,0:0:0:0:
256,192,136077,1,8,0:0:0:0:
256,192,136383,1,8,0:0:0:0:
256,192,136537,1,8,0:0:0:0:
256,96,136690,5,4,0:0:0:0:
256,192,137302,1,8,0:0:0:0:
256,192,137608,1,8,0:0:0:0:
256,192,137761,1,8,0:0:0:0:
256,192,137914,1,0,0:0:0:0:
256,192,138220,1,0,0:0:0:0:
256,192,138526,1,8,0:0:0:0:
256,192,138679,1,0,0:0:0:0:
256,192,138832,1,8,0:0:0:0:
256,192,138986,1,0,0:0:0:0:
256,192,139139,1,8,0:0:0:0:
256,192,139445,1,8,0:0:0:0:
256,192,139751,1,0,0:0:0:0:
256,192,139904,1,0,0:0:0:0:
256,192,140057,1,8,0:0:0:0:
256,192,140210,1,8,0:0:0:0:
256,192,140363,1,0,0:0:0:0:
256,192,140669,1,0,0:0:0:0:
256,192,140822,1,8,0:0:0:0:
256,192,140975,1,0,0:0:0:0:
256,192,141281,1,8,0:0:0:0:
256,192,141435,1,8,0:0:0:0:
256,192,141588,1,0,0:0:0:0:
256,192,142200,1,8,0:0:0:0:
256,192,142506,1,0,0:0:0:0:
256,192,142659,1,8,0:0:0:0:
256,192,142812,1,0,0:0:0:0:
256,192,143118,1,0,0:0:0:0:
256,192,143424,1,8,0:0:0:0:
256,192,143577,1,8,0:0:0:0:
256,192,143730,1,8,0:0:0:0:
256,192,143883,1,8,0:0:0:0:
256,192,144037,1,0,0:0:0:0:
256,192,144343,1,8,0:0:0:0:
256,192,144649,1,8,0:0:0:0:
256,192,144802,1,8,0:0:0:0:
256,192,144955,1,0,0:0:0:0:
256,192,145108,1,8,0:0:0:0:
256,192,145261,1,0,0:0:0:0:
256,192,145567,1,0,0:0:0:0:
256,192,145720,1,0,0:0:0:0:
256,192,145873,1,8,0:0:0:0:
256,192,146179,1,8,0:0:0:0:
256,192,146332,1,8,0:0:0:0:
256,96,146486,1,4,0:0:0:0:
256,192,147710,5,0,0:0:0:0:
256,192,148322,1,0,0:0:0:0:
256,192,148628,1,8,0:0:0:0:
256,192,148935,1,0,0:0:0:0:
256,192,149547,1,8,0:0:0:0:
256,192,150159,1,0,0:0:0:0:
256,192,150465,1,8,0:0:0:0:
256,192,151077,1,8,0:0:0:0:
256,192,151383,1,0,0:0:0:0:
256,192,151996,1,8,0:0:0:0:
256,192,152608,1,0,0:0:0:0:
256,192,153526,1,8,0:0:0:0:
256,192,153832,1,0,0:0:0:0:
256,192,154445,1,8,0:0:0:0:
256,192,155057,1,0,0:0:0:0:
256,192,155975,1,8,0:0:0:0:
256,192,156281,1,0,0:0:0:0:
256,192,156894,1,8,0:0:0:0:
256,192,157506,5,0,0:0:0:0:
256,192,158118,1,0,0:0:0:0:
256,192,158424,1,8,0:0:0:0:
256,192,158730,1,0,0:0:0:0:
256,192,159343,1,8,0:0:0:0:
256,192,159955,1,0,0:0:0:0:
256,192,160261,1,8,0:0:0:0:
256,192,160873,1,8,0:0:0:0:
256,192,161179,1,0,0:0:0:0:
256,192,161792,1,8,0:0:0:0:
256,192,162404,1,0,0:0:0:0:
256,192,163322,1,8,0:0:0:0:
256,192,163628,1,0,0:0:0:0:
256,192,164241,1,8,0:0:0:0:
256,192,164853,5,0,0:0:0:0:
256,192,165465,1,8,0:0:0:0:
256,192,165771,1,8,0:0:0:0:
256,96,166077,1,4,0:0:0:0:
256,192,167302,5,0,0:0:0:0:
256,192,167914,1,0,0:0:0:0:
256,192,168220,1,8,0:0:0:0:
256,192,168526,1,0,0:0:0:0:
256,192,169139,1,8,0:0:0:0:
256,192,169751,1,0,0:0:0:0:
256,192,170057,1,8,0:0:0:0:
256,192,170669,1,8,0:0:0:0:
256,192,170975,1,0,0:0:0:0:
256,192,171588,1,8,0:0:0:0:
256,192,172200,1,0,0:0:0:0:
256,192,173118,1,8,0:0:0:0:
256,192,173424,1,0,0:0:0:0:
256,192,174037,1,8,0:0:0:0:
256,192,174649,1,0,0:0:0:0:
256,192,175567,1,8,0:0:0:0:
256,192,175873,1,0,0:0:0:0:
256,192,176486,1,8,0:0:0:0:
256,192,177098,5,0,0:0:0:0:
256,192,177710,1,0,0:0:0:0:
256,192,178016,1,8,0:0:0:0:
256,192,178322,1,0,0:0:0:0:
256,192,178935,1,8,0:0:0:0:
256,192,179547,1,0,0:0:0:0:
256,192,179853,1,8,0:0:0:0:
256,192,180465,1,8,0:0:0:0:
256,192,180771,1,0,0:0:0:0:
256,192,181383,1,8,0:0:0:0:
256,192,181996,1,0,0:0:0:0:
256,192,182914,1,8,0:0:0:0:
256,192,183220,1,0,0:0:0:0:
256,192,183832,1,8,0:0:0:0:
256,192,184445,5,0,0:0:0:0:
256,192,185363,1,8,0:0:0:0:
256,192,185669,1,8,0:0:0:0:
256,192,187506,12,0,191792,0:0:0:0:
256,96,192640,5,12,0:0:0:0:
256,192,193252,1,0,0:0:0:0:
256,192,193558,1,8,0:0:0:0:
256,192,193711,1,0,0:0:0:0:
256,192,193864,1,8,0:0:0:0:
256,192,194170,1,0,0:0:0:0:
256,192,194476,1,0,0:0:0:0:
256,192,194782,1,8,0:0:0:0:
256,192,194935,1,8,0:0:0:0:
256,192,195088,1,0,0:0:0:0:
256,192,195394,1,8,0:0:0:0:
256,192,195701,1,8,0:0:0:0:
256,192,196007,1,0,0:0:0:0:
256,192,196160,1,0,0:0:0:0:
256,192,196313,1,8,0:0:0:0:
256,192,196619,1,8,0:0:0:0:
256,192,196772,1,8,0:0:0:0:
256,192,196925,1,0,0:0:0:0:
256,192,197078,1,0,0:0:0:0:
256,192,197231,1,8,0:0:0:0:
256,192,197537,1,4,0:0:0:0:
256,192,198150,1,8,0:0:0:0:
256,192,198456,1,0,0:0:0:0:
256,192,198609,1,8,0:0:0:0:
256,192,198762,1,0,0:0:0:0:
256,192,199068,1,8,0:0:0:0:
256,192,199374,1,0,0:0:0:0:
256,192,199680,1,8,0:0:0:0:
256,192,199833,1,8,0:0:0:0:
256,192,199986,1,0,0:0:0:0:
256,192,200292,1,0,0:0:0:0:
256,192,200599,1,8,0:0:0:0:
256,192,200905,1,0,0:0:0:0:
256,192,201058,1,8,0:0:0:0:
256,192,201211,1,0,0:0:0:0:
256,96,202435,5,12,0:0:0:0:
256,192,203048,1,0,0:0:0:0:
256,192,203354,1,8,0:0:0:0:
256,192,203507,1,0,0:0:0:0:
256,192,203660,1,8,0:0:0:0:
256,192,203966,1,0,0:0:0:0:
256,192,204272,1,8,0:0:0:0:
256,192,204578,1,0,0:0:0:0:
256,192,204731,1,0,0:0:0:0:
256,192,204884,1,8,0:0:0:0:
256,192,205190,1,8,0:0:0:0:
256,192,205497,1,8,0:0:0:0:
256,192,205803,1,0,0:0:0:0:
256,192,205956,1,0,0:0:0:0:
256,192,206109,1,8,0:0:0:0:
256,192,206415,1,8,0:0:0:0:
256,192,206568,1,8,0:0:0:0:
256,192,206721,1,0,0:0:0:0:
256,192,206874,1,0,0:0:0:0:
256,192,207027,1,8,0:0:0:0:
256,96,207333,1,4,0:0:0:0:
256,192,207946,1,0,0:0:0:0:
256,192,208252,1,8,0:0:0:0:
256,192,208405,1,0,0:0:0:0:
256,192,208558,1,0,0:0:0:0:
256,192,208864,1,8,0:0:0:0:
256,192,209170,1,0,0:0:0:0:
256,192,209476,1,8,0:0:0:0:
256,192,209629,1,8,0:0:0:0:
256,192,209782,1,0,0:0:0:0:
256,192,210088,1,0,0:0:0:0:
256,192,210395,1,8,0:0:0:0:
256,192,210701,1,0,0:0:0:0:
256,192,210854,1,8,0:0:0:0:
256,192,211007,1,0,0:0:0:0:
256,192,211313,1,8,0:0:0:0:
256,192,211619,6,0,L|256:256,3,60
256,96,212231,5,4,0:0:0:0:
256,192,212844,1,8,0:0:0:0:
256,192,213150,1,8,0:0:0:0:
256,192,213303,1,8,0:0:0:0:
256,192,213456,1,0,0:0:0:0:
256,192,213762,1,0,0:0:0:0:
256,192,214068,1,8,0:0:0:0:
256,192,214221,1,0,0:0:0:0:
256,192,214375,1,8,0:0:0:0:
256,192,214681,1,0,0:0:0:0:
256,192,214987,1,8,0:0:0:0:
256,192,215293,1,0,0:0:0:0:
256,192,215446,1,0,0:0:0:0:
256,192,215599,1,8,0:0:0:0:
256,192,215752,1,8,0:0:0:0:
256,192,215905,1,0,0:0:0:0:
256,192,216211,1,0,0:0:0:0:
256,192,216364,1,8,0:0:0:0:
256,192,216517,1,0,0:0:0:0:
256,192,216670,1,0,0:0:0:0:
256,192,216824,1,8,0:0:0:0:
256,96,217130,1,4,0:0:0:0:
256,192,217742,1,8,0:0:0:0:
256,192,218048,1,0,0:0:0:0:
256,192,218354,1,0,0:0:0:0:
256,192,218507,1,0,0:0:0:0:
256,192,218660,1,0,0:0:0:0:
256,192,218966,1,8,0:0:0:0:
256,192,219119,1,8,0:0:0:0:
256,192,219273,1,0,0:0:0:0:
256,192,219426,1,8,0:0:0:0:
256,192,219579,1,0,0:0:0:0:
256,192,219885,1,8,0:0:0:0:
256,192,220191,1,8,0:0:0:0:
256,192,220344,1,0,0:0:0:0:
256,192,220497,1,8,0:0:0:0:
256,192,220650,1,8,0:0:0:0:
256,192,220803,1,0,0:0:0:0:
256,192,221109,1,0,0:0:0:0:
256,192,221262,1,0,0:0:0:0:
256,192,221415,1,8,0:0:0:0:
256,192,221721,1,8,0:0:0:0:
256,192,221875,1,8,0:0:0:0:
256,96,222028,5,4,0:0:0:0:
256,192,222640,1,8,0:0:0:0:
256,192,222946,1,0,0:0:0:0:
256,192,223099,1,8,0:0:0:0:
256,192,223252,1,0,0:0:0:0:
256,192,223558,1,0,0:0:0:0:
256,192,223864,1,8,0:0:0:0:
256,192,224017,1,0,0:0:0:0:
256,192,224171,1,8,0:0:0:0:
256,192,224477,1,0,0:0:0:0:
256,192,224783,1,8,0:0:0:0:
256,192,225089,1,0,0:0:0:0:
256,192,225242,1,8,0:0:0:0:
256,192,225395,1,0,0:0:0:0:
256,192,225548,1,8,0:0:0:0:
256,192,225701,1,0,0:0:0:0:
256,192,226007,1,0,0:0:0:0:
256,192,226160,1,8,0:0:0:0:
256,192,226313,1,0,0:0:0:0:
256,192,226466,1,0,0:0:0:0:
256,192,226620,1,8,0:0:0:0:
256,96,226926,1,4,0:0:0:0:
256,192,227538,1,8,0:0:0:0:
256,192,227844,1,8,0:0:0:0:
256,192,227997,1,8,0:0:0:0:
256,192,228150,1,0,0:0:0:0:
256,192,228456,1,0,0:0:0:0:
256,192,228762,1,8,0:0:0:0:
256,192,228915,1,8,0:0:0:0:
256,192,229069,1,0,0:0:0:0:
256,192,229222,1,8,0:0:0:0:
256,192,229375,1,0,0:0:0:0:
256,192,229681,1,8,0:0:0:0:
256,192,229987,1,8,0:0:0:0:
256,192,230140,1,8,0:0:0:0:
256,192,230293,1,0,0:0:0:0:
256,192,230446,5,0,0:0:0:0:
256,192,230599,1,0,0:0:0:0:
256,192,230905,1,8,0:0:0:0:
256,192,231211,2,0,L|256:256,2,60
256,96,231823,1,4,0:0:0:0:
256,192,233048,5,0,0:0:0:0:
256,192,233660,1,0,0:0:0:0:
256,192,233966,1,8,0:0:0:0:
256,192,234272,1,0,0:0:0:0:
256,192,234884,1,8,0:0:0:0:
256,192,235497,1,0,0:0:0:0:
256,192,235803,1,8,0:0:0:0:
256,192,236415,1,8,0:0:0:0:
256,192,236721,1,0,0:0:0:0:
256,192,237333,1,8,0:0:0:0:
256,192,237946,1,0,0:0:0:0:
256,192,238864,1,8,0:0:0:0:
256,192,239170,1,0,0:0:0:0:
256,192,239782,1,8,0:0:0:0:
256,192,240395,1,0,0:0:0:0:
256,192,241313,5,8,0:0:0:0:
256,192,241619,1,0,0:0:0:0:
256,192,241925,12,0,248966,0:0:0:0:
