osu file format v14

[General]
AudioFilename: audio.mp3
AudioLeadIn: 0
PreviewTime: 146543
Countdown: 0
SampleSet: Soft
StackLeniency: 0.2
Mode: 2
LetterboxInBreaks: 0
WidescreenStoryboard: 1

[Editor]
Bookmarks: 15676,15849,16080,16311,16772,17225,28992,38787,48583,55624,55777,57767,58035,58379,68175,87767,97563,100088,107359,126951,136747,146543,166134,168276,170725,173174,185572,185726,192691,202492,212288,221165,221203,222045,222084,231268,231880
DistanceSpacing: 2.1
BeatDivisor: 8
GridSize: 4
TimelineZoom: 4.200003

[Metadata]
Title:Tool-Assisted Speedcore (TQBF Frame Advance RMX)
TitleUnicode:Tool-Assisted Speedcore (TQBF Frame Advance RMX)
Artist:Kobaryo
ArtistUnicode:Kobaryo
Creator:Henry wong
Version:This is your world,delete it
Source:MIXPEED ACTION
Tags:the quick brown fox lapfox trax halley labs renard MIXPEED ACTION hardcore
BeatmapID:2075059
BeatmapSetID:992229

[Difficulty]
HPDrainRate:3
CircleSize:3
OverallDifficulty:8.5
ApproachRate:9.8
SliderMultiplier:2
SliderTickRate:2

[Events]
//Background and Video events
0,0,"bg.png",0,0
//Break Periods
//Storyboard Layer 0 (Background)
//Storyboard Layer 1 (Fail)
//Storyboard Layer 2 (Pass)
//Storyboard Layer 3 (Foreground)
//Storyboard Sound Samples

[TimingPoints]
1,600,4,2,0,5,1,0
451,600,4,2,0,100,1,0
451,-100,4,2,0,100,0,1
551,428.571428571429,4,2,0,100,1,0
1051,594.059405940594,4,2,0,100,1,0
1645,588.235294117647,4,2,0,100,1,0
2233,582.52427184466,4,2,0,100,1,0
2815,576.923076923077,4,2,0,100,1,0
3391,571.428571428571,4,2,0,100,1,0
5105,560.747663551402,4,2,0,100,1,1
5110,-100,4,2,0,100,0,0
6226,550.45871559633,4,2,0,100,1,0
7326,535.714285714286,4,2,0,100,1,0
8397,526.315789473684,4,2,0,100,1,1
8400,-100,4,2,0,100,0,0
9449,-100,4,2,0,100,0,1
9458,512.820512820513,4,2,0,100,1,0
11509,500,4,2,0,100,1,0
12509,487.80487804878,4,2,0,100,1,0
13482,-100,4,2,0,100,0,1
13484,476.190476190476,4,2,0,100,1,0
15388,461.538461538462,4,2,0,100,1,1
15388,-100,4,2,0,10,0,1
17225,857.142857142857,4,2,0,100,1,0
17225,-100,4,2,0,100,0,1
17227,-100,4,2,0,100,0,0
17439,-100,4,2,0,5,0,0
17546,428.571428571429,4,2,0,100,1,0
17546,428.571428571429,4,2,0,100,1,0
18942,419.58041958042,4,2,0,100,1,0
20615,-100,4,2,0,100,0,1
20617,397.350993377483,4,2,0,100,1,0
22206,377.358490566038,4,2,0,100,1,0
23700,-100,4,2,0,100,0,1
23715,357.142857142857,4,2,0,100,1,0
25140,340.909090909091,4,2,0,100,1,1
25147,-100,4,2,0,100,0,0
26493,-100,4,2,0,100,0,1
26506,326.086956521739,4,2,0,100,1,0
27149,-100,4,2,0,100,0,1
27158,306.122448979592,4,2,0,100,1,0
28992,306.122448979592,4,2,0,100,1,1
29000,-100,4,2,0,100,0,0
48583,-100,4,2,0,100,0,1
51032,-100,4,2,0,100,0,0
51262,-100,4,2,0,100,0,1
53405,-100,4,2,0,100,0,0
53558,-100,4,2,0,100,0,1
55930,-100,4,2,0,100,0,0
56083,-100,4,2,0,100,0,1
57155,-100,4,2,0,100,0,1
57174,-100,4,2,0,100,0,0
57461,-100,4,2,0,100,0,1
57480,-100,4,2,0,100,0,0
57767,-100,4,2,0,100,0,1
57786,-100,4,2,0,100,0,0
58073,-100,4,2,0,100,0,1
58092,-100,4,2,0,100,0,0
58379,-100,4,2,0,100,0,1
60828,-100,4,2,0,100,0,0
60981,-100,4,2,0,100,0,1
63048,-100,4,2,0,100,0,0
63201,-100,4,2,0,100,0,1
65726,-100,4,2,0,100,0,0
65956,-100,4,2,0,100,0,1
67257,-100,4,2,0,100,0,0
67270,-100,4,2,0,100,0,1
67333,-100,4,2,0,100,0,0
67345,-100,4,2,0,100,0,1
67410,-100,4,2,0,100,0,0
67430,-100,4,2,0,100,0,1
67486,-100,4,2,0,100,0,0
67500,-100,4,2,0,100,0,1
67553,-100,4,2,0,100,0,0
67563,-100,4,2,0,100,0,1
68175,-50,4,2,0,100,0,0
87767,-100,4,2,0,100,0,1
100012,-33.3333333333333,4,2,0,100,0,1
101236,-100,4,2,0,100,0,1
106096,-25,4,2,0,100,0,1
106747,-100,4,2,0,100,0,1
106766,-100,4,2,0,100,0,0
106785,-100,4,2,0,100,0,1
106804,-100,4,2,0,100,0,0
106823,-100,4,2,0,100,0,1
106842,-100,4,2,0,100,0,0
106861,-100,4,2,0,100,0,1
106881,-100,4,2,0,100,0,0
106900,-100,4,2,0,100,0,1
106919,-100,4,2,0,100,0,0
106938,-100,4,2,0,100,0,1
106957,-100,4,2,0,100,0,0
106976,-100,4,2,0,100,0,1
106995,-100,4,2,0,100,0,0
107014,-100,4,2,0,100,0,1
107034,-100,4,2,0,100,0,0
107053,-100,4,2,0,100,0,1
107072,-100,4,2,0,100,0,0
107091,-100,4,2,0,100,0,1
107110,-100,4,2,0,100,0,0
107129,-100,4,2,0,100,0,1
107148,-100,4,2,0,100,0,0
107168,-100,4,2,0,100,0,1
107187,-100,4,2,0,100,0,0
107206,-100,4,2,0,100,0,1
107225,-100,4,2,0,100,0,0
107244,-100,4,2,0,100,0,1
107263,-100,4,2,0,100,0,0
107282,-100,4,2,0,100,0,1
107301,-100,4,2,0,100,0,0
107321,-100,4,2,0,100,0,1
107340,-100,4,2,0,100,0,0
107359,-50,4,2,0,100,0,1
107362,-50,4,2,0,100,0,0
115930,-100,4,2,0,100,0,1
117155,-50,4,2,0,100,0,0
125726,-100,4,2,0,100,0,0
126645,-66.6666666666667,4,2,0,100,0,0
126951,-25,4,2,0,100,0,1
127563,-40,4,2,0,100,0,1
138507,-40,4,2,0,100,0,0
138583,-25,4,2,0,100,0,1
139119,-40,4,2,0,100,0,0
139196,-40,4,2,0,100,0,1
140650,-40,4,2,0,100,0,0
140726,-25,4,2,0,100,0,1
140956,-40,4,2,0,100,0,0
141032,-40,4,2,0,100,0,1
141262,-25,4,2,0,100,0,0
141338,-25,4,2,0,100,0,1
141568,-40,4,2,0,100,0,0
141645,-40,4,2,0,100,0,1
143405,-40,4,2,0,100,0,0
143481,-25,4,2,0,100,0,1
144017,-40,4,2,0,100,0,0
144094,-40,4,2,0,100,0,1
145548,-40,4,2,0,100,0,0
145624,-25,4,2,0,100,0,1
146007,-40,4,2,0,100,0,0
146236,-25,4,2,0,100,0,1
146466,-40,4,2,0,100,0,0
146543,612.244897959184,4,2,0,100,1,1
146543,-77.8210116731517,4,2,0,100,0,1
146550,-77.8210116731517,4,2,0,100,0,0
166134,306.122448979592,4,2,0,100,1,0
166134,-200,4,2,0,100,0,0
181890,-200,4,2,0,40,0,0
181910,-200,4,2,0,100,0,0
185725,306.122448979592,4,2,0,5,1,0
185744,-200,4,2,0,100,0,0
192697,306.122448979592,4,2,0,100,1,1
201268,612.244897959184,4,2,0,100,1,0
201268,-25,4,2,0,100,0,0
201382,-25,4,2,0,100,0,1
201459,-25,4,2,0,100,0,0
201688,-25,4,2,0,100,0,1
201765,-25,4,2,0,100,0,0
201995,-25,4,2,0,100,0,1
202071,-25,4,2,0,100,0,0
202301,-25,4,2,0,100,0,1
202377,-25,4,2,0,100,0,0
202492,306.122448979592,4,2,0,100,1,1
202492,-100,4,2,0,100,0,1
211063,-28.5714285714286,4,2,0,100,0,1
211676,-100,4,2,0,100,0,0
212288,-34.4827586206897,4,2,0,100,0,1
215655,-50,4,2,0,100,0,1
215808,-34.4827586206897,4,2,0,100,0,1
220860,-28.5714285714286,4,2,0,100,0,0
222084,-32.258064516129,4,2,0,100,0,1
222160,-32.258064516129,4,2,0,5,0,1
222236,-32.258064516129,4,2,0,100,0,1
227058,-32.258064516129,4,2,0,5,0,1
227134,-32.258064516129,4,2,0,100,0,1
230788,-32.258064516129,4,2,0,5,0,1
230790,-32.258064516129,4,2,0,100,0,1
230941,-32.258064516129,4,2,0,5,0,1
230943,-32.258064516129,4,2,0,100,0,1
231880,-200,4,2,0,100,0,0
231898,-200,4,2,0,50,0,0
239226,-200,4,2,0,50,0,0
241675,-200,4,2,0,45,0,0
242287,-200,4,2,0,43,0,0
242900,-200,4,2,0,40,0,0
243512,-200,4,2,0,40,0,0
244124,-200,4,2,0,45,0,0
244736,-200,4,2,0,35,0,0
245349,-200,4,2,0,30,0,0
245961,-200,4,2,0,25,0,0
246573,-200,4,2,0,20,0,0
247185,-200,4,2,0,15,0,0
247798,-200,4,2,0,10,0,0
248410,-200,4,2,0,5,0,0
249022,-200,4,2,0,0,0,0

[Colours]
Combo1 : 255,255,128
Combo2 : 128,255,128
Combo3 : 128,255,255
Combo4 : 255,128,192
Combo5 : 255,128,128

[HitObjects]
32,192,1,6,0,P|32:180|32:180,12,12.5
0,192,451,5,10,0:0:0:0:
256,192,901,1,0,0:0:0:0:
128,192,1051,1,0,0:0:0:0:
400,192,1348,1,0,0:0:0:0:
0,128,1645,1,0,0:0:0:0:
256,128,1792,1,0,0:0:0:0:
512,128,1939,1,0,0:0:0:0:
0,176,2233,5,0,0:0:0:0:
512,176,2524,1,0,0:0:0:0:
256,176,2669,1,0,0:0:0:0:
0,176,2815,1,0,0:0:0:0:
512,176,3103,1,0,0:0:0:0:
0,176,3391,1,0,0:0:0:0:
256,176,3533,1,0,0:0:0:0:
512,176,3676,1,0,0:0:0:0:
256,192,3962,5,0,0:0:0:0:
0,192,4248,1,0,0:0:0:0:
128,192,4390,1,0,0:0:0:0:
0,192,4533,1,0,0:0:0:0:
384,192,4819,1,0,0:0:0:0:
512,192,5105,5,8,0:0:0:0:
0,192,5525,1,0,0:0:0:0:
128,192,5665,1,0,0:0:0:0:
256,192,5946,1,0,0:0:0:0:
512,192,6226,1,0,0:0:0:0:
256,192,6363,1,0,0:0:0:0:
512,192,6501,1,0,0:0:0:0:
256,192,6776,5,0,0:0:0:0:
0,192,7051,1,0,0:0:0:0:
256,192,7189,1,0,0:0:0:0:
0,192,7326,1,0,0:0:0:0:
256,192,7593,1,0,0:0:0:0:
512,192,7861,1,0,0:0:0:0:
384,192,7995,1,0,0:0:0:0:
256,192,8129,1,0,0:0:0:0:
0,192,8397,5,0,0:0:0:0:
208,192,8660,1,0,0:0:0:0:
304,192,8791,1,0,0:0:0:0:
160,128,8923,1,0,0:0:0:0:
352,128,9054,1,0,0:0:0:0:
256,80,9186,1,0,0:0:0:0:
0,192,9449,5,12,0:0:0:0:
128,192,9842,5,0,0:0:0:0:
384,192,9970,1,0,0:0:0:0:
256,192,10227,1,0,0:0:0:0:
0,192,10483,1,0,0:0:0:0:
128,192,10611,1,0,0:0:0:0:
256,192,10740,1,0,0:0:0:0:
0,192,10996,1,0,0:0:0:0:
512,192,11252,5,0,0:0:0:0:
384,192,11381,1,0,0:0:0:0:
256,192,11509,1,0,0:0:0:0:
512,192,11759,1,0,0:0:0:0:
0,192,12009,1,0,0:0:0:0:
128,192,12134,1,0,0:0:0:0:
256,192,12259,1,0,0:0:0:0:
512,192,12509,5,0,0:0:0:0:
96,192,12752,1,0,0:0:0:0:
32,96,12874,1,0,0:0:0:0:
192,96,12996,1,0,0:0:0:0:
256,192,13240,1,0,0:0:0:0:
384,192,13484,5,12,0:0:0:0:
512,192,13841,1,0,0:0:0:0:
384,192,13960,1,0,0:0:0:0:
0,192,14198,1,0,0:0:0:0:
128,192,14436,1,0,0:0:0:0:
192,192,14555,1,0,0:0:0:0:
256,192,14674,1,0,0:0:0:0:
0,192,14912,5,0,0:0:0:0:
128,192,15150,1,0,0:0:0:0:
192,192,15269,1,0,0:0:0:0:
256,192,15388,5,0,0:0:0:0:
288,192,15416,1,0,0:0:0:0:
256,192,15445,1,0,0:0:0:0:
288,192,15474,1,0,0:0:0:0:
256,192,15503,1,0,0:0:0:0:
288,192,15532,1,0,0:0:0:0:
256,192,15561,1,0,0:0:0:0:
288,192,15589,1,0,0:0:0:0:
256,192,15618,1,0,0:0:0:0:
288,192,15647,1,0,0:0:0:0:
256,192,15676,1,0,0:0:0:0:
384,128,15849,5,0,0:0:0:0:
352,128,15878,1,0,0:0:0:0:
384,128,15907,1,0,0:0:0:0:
352,128,15936,1,0,0:0:0:0:
192,128,16080,1,0,0:0:0:0:
224,128,16109,1,0,0:0:0:0:
192,128,16138,1,0,0:0:0:0:
224,128,16166,1,0,0:0:0:0:
448,64,16311,5,0,0:0:0:0:
416,64,16339,1,0,0:0:0:0:
448,64,16368,1,0,0:0:0:0:
416,64,16397,1,0,0:0:0:0:
160,64,16541,2,0,P|128:96|128:96,1,25
192,64,16657,2,0,P|224:96|224:96,1,25
448,128,16772,6,0,L|464:112,12,12.5
0,192,17225,6,4,P|80:192|80:192,1,66.6666666666667
256,192,17546,1,0,0:0:0:0:
352,192,17653,1,0,0:0:0:0:
160,192,17867,1,0,0:0:0:0:
160,128,18082,1,0,0:0:0:0:
256,128,18189,1,0,0:0:0:0:
352,128,18296,1,0,0:0:0:0:
96,192,18510,5,0,0:0:0:0:
416,192,18725,1,0,0:0:0:0:
256,192,18832,1,0,0:0:0:0:
96,192,18939,1,0,0:0:0:0:
416,192,19151,1,0,0:0:0:0:
96,192,19361,1,0,0:0:0:0:
256,192,19466,1,0,0:0:0:0:
416,192,19571,1,0,0:0:0:0:
96,192,19781,5,0,0:0:0:0:
416,192,19990,1,0,0:0:0:0:
256,192,20095,1,0,0:0:0:0:
96,192,20200,1,0,0:0:0:0:
416,192,20410,1,0,0:0:0:0:
0,192,20617,5,12,0:0:0:0:
192,192,20915,1,0,0:0:0:0:
128,192,21014,1,0,0:0:0:0:
320,192,21213,1,0,0:0:0:0:
512,192,21411,1,0,0:0:0:0:
384,192,21511,1,0,0:0:0:0:
256,192,21610,1,0,0:0:0:0:
0,192,21809,5,0,0:0:0:0:
512,192,22007,1,0,0:0:0:0:
384,192,22107,1,0,0:0:0:0:
256,192,22206,1,0,0:0:0:0:
0,192,22394,1,0,0:0:0:0:
512,192,22583,1,0,0:0:0:0:
384,192,22677,1,0,0:0:0:0:
256,192,22772,1,0,0:0:0:0:
0,192,22960,5,0,0:0:0:0:
512,192,23149,1,0,0:0:0:0:
256,192,23243,1,0,0:0:0:0:
0,192,23338,1,0,0:0:0:0:
256,192,23432,1,0,0:0:0:0:
512,192,23526,1,0,0:0:0:0:
0,192,23715,5,10,0:0:0:0:
320,192,23982,1,0,0:0:0:0:
256,192,24072,1,0,0:0:0:0:
512,192,24250,1,0,0:0:0:0:
0,192,24429,1,0,0:0:0:0:
128,192,24518,1,0,0:0:0:0:
256,192,24607,1,0,0:0:0:0:
512,192,24786,1,0,0:0:0:0:
384,192,24875,1,0,0:0:0:0:
256,192,24965,1,0,0:0:0:0:
0,96,25143,5,10,0:0:0:0:
320,96,25398,1,0,0:0:0:0:
192,96,25483,1,0,0:0:0:0:
512,128,25654,1,0,0:0:0:0:
0,96,25824,1,0,0:0:0:0:
160,96,25910,1,0,0:0:0:0:
320,96,25995,1,0,0:0:0:0:
512,96,26165,1,0,0:0:0:0:
352,96,26250,1,0,0:0:0:0:
192,96,26336,1,0,0:0:0:0:
0,192,26506,5,10,0:0:0:0:
384,192,26750,1,0,0:0:0:0:
128,192,26832,1,0,0:0:0:0:
512,192,26995,1,0,0:0:0:0:
0,192,27158,5,8,0:0:0:0:
448,192,27387,1,0,0:0:0:0:
64,192,27464,1,0,0:0:0:0:
512,192,27617,1,0,0:0:0:0:
256,192,27770,12,0,28765,0:0:0:0:
0,192,28992,5,14,0:0:0:0:
0,192,28994,6,0,L|32:128,2,50
96,192,29298,2,0,L|128:128,2,50
192,192,29604,2,0,L|224:128,2,50
288,192,29910,2,0,L|320:128,2,50
448,192,30216,6,0,L|512:224,2,50
352,192,30522,2,0,L|416:224,2,50
256,192,30828,2,0,L|320:224,2,50
160,192,31134,2,0,L|224:224,2,50
64,192,31440,6,0,L|0:192,2,50
256,192,31747,2,0,L|320:192,2,50
160,192,32053,2,0,L|96:192,2,50
416,192,32359,2,0,L|512:192,2,50
0,192,32665,6,0,L|0:256,2,50
256,192,32971,2,0,L|192:192,2,50
512,192,33277,2,0,L|512:256,2,50
256,192,33583,2,0,L|352:192,2,50
160,192,33889,6,0,L|208:144,2,50
256,192,34196,2,0,L|256:128,2,50
352,192,34502,2,0,L|288:128,2,50
256,192,34808,2,0,L|256:128,2,50
128,192,35114,6,0,L|80:160,2,50
256,192,35420,2,0,L|256:256,2,50
384,192,35726,2,0,L|448:160,2,50
256,192,36032,2,0,L|256:128,2,50
64,128,36338,6,0,L|0:128,2,50
160,128,36645,2,0,L|96:128,2,50
256,128,36951,2,0,L|192:128,2,50
352,128,37257,2,0,L|288:128,2,50
448,192,37563,6,0,L|512:192,2,50
352,192,37869,2,0,L|416:192,2,50
256,192,38175,2,0,L|320:192,2,50
64,192,38481,2,0,L|28:192,7,33.3333333333333
192,64,38940,5,0,0:0:0:0:
320,128,39094,1,0,0:0:0:0:
448,128,39247,2,2,L|512:128,1,50
320,64,39400,2,2,L|256:64,1,50
448,64,39553,1,0,0:0:0:0:
320,192,39706,1,0,0:0:0:0:
192,192,39859,1,0,0:0:0:0:
0,192,40012,5,0,0:0:0:0:
128,192,40165,1,0,0:0:0:0:
256,192,40318,1,0,0:0:0:0:
512,192,40471,2,2,P|448:192|448:192,1,50
352,192,40624,2,2,P|416:192|416:192,1,50
512,192,40777,1,0,0:0:0:0:
352,192,40930,1,0,0:0:0:0:
192,192,41083,1,0,0:0:0:0:
64,192,41236,5,0,0:0:0:0:
256,192,41389,1,0,0:0:0:0:
448,192,41543,1,0,0:0:0:0:
224,192,41696,2,2,L|192:240,1,50
288,192,41849,2,2,P|320:256|320:256,1,50
64,192,42002,1,0,0:0:0:0:
448,192,42155,1,0,0:0:0:0:
256,192,42308,1,0,0:0:0:0:
64,128,42461,5,0,0:0:0:0:
256,128,42614,1,0,0:0:0:0:
448,128,42767,1,0,0:0:0:0:
64,128,42920,2,2,P|128:128|128:128,1,50
448,128,43073,2,2,P|384:128|384:128,1,50
64,128,43226,1,0,0:0:0:0:
448,128,43379,1,0,0:0:0:0:
64,128,43532,1,0,0:0:0:0:
0,192,43685,5,0,0:0:0:0:
64,192,43838,1,0,0:0:0:0:
128,192,43992,1,0,0:0:0:0:
192,192,44145,2,2,P|256:192|256:192,1,50
352,192,44298,2,2,P|288:192|288:192,1,50
0,192,44451,1,0,0:0:0:0:
128,192,44604,1,0,0:0:0:0:
256,192,44757,1,0,0:0:0:0:
512,192,44910,5,0,0:0:0:0:
384,192,45063,1,0,0:0:0:0:
256,192,45216,1,0,0:0:0:0:
128,192,45369,2,2,P|192:192|192:192,1,50
32,192,45522,2,2,P|96:192|96:192,1,50
256,192,45675,1,0,0:0:0:0:
384,192,45828,1,0,0:0:0:0:
512,192,45981,1,0,0:0:0:0:
0,192,46134,5,0,0:0:0:0:
256,192,46287,1,0,0:0:0:0:
512,192,46440,1,0,0:0:0:0:
0,192,46594,2,2,P|96:192|96:192,1,50
512,192,46747,2,2,P|448:192|448:192,1,50
0,192,46900,1,0,0:0:0:0:
256,192,47053,1,0,0:0:0:0:
512,192,47206,1,0,0:0:0:0:
0,192,47359,6,0,P|32:160|32:160,6,25
512,192,47742,2,0,P|480:160|480:160,3,25
0,192,47895,2,0,P|32:160|32:160,4,25
512,192,48277,1,0,0:0:0:0:
0,288,48583,6,0,L|64:256,1,50
224,288,48736,2,0,L|160:256,1,50
96,224,48889,2,0,L|160:192,1,50
320,224,49043,2,0,L|256:192,1,50
192,160,49196,2,0,L|256:128,1,50
416,160,49349,2,0,L|352:128,1,50
288,96,49502,2,0,P|352:64|352:64,1,50
512,96,49655,2,0,P|448:64|448:64,1,50
224,96,49808,5,0,0:0:0:0:
160,96,49884,1,0,0:0:0:0:
320,96,49961,1,0,0:0:0:0:
384,96,50037,1,0,0:0:0:0:
192,64,50114,5,0,0:0:0:0:
128,64,50190,1,0,0:0:0:0:
352,64,50267,1,0,0:0:0:0:
416,64,50344,1,0,0:0:0:0:
160,96,50420,1,0,0:0:0:0:
96,96,50497,1,0,0:0:0:0:
384,96,50573,1,0,0:0:0:0:
448,96,50650,1,0,0:0:0:0:
128,128,50726,6,2,P|96:96|96:96,3,25
192,128,50879,2,2,P|177:113|181:117,3,25
416,128,51032,1,14,0:0:0:0:
256,192,51262,6,0,P|192:160|192:160,1,50
128,192,51415,2,0,P|64:160|64:160,3,50
160,64,51721,2,0,P|224:32|224:32,3,50
288,96,52027,6,0,B|352:96|352:96|384:96,1,50
416,96,52180,2,0,P|480:96|480:96,1,50
384,160,52333,2,0,P|320:160|320:160,1,50
256,160,52486,2,0,P|192:160|192:160,1,50
288,224,52639,2,0,P|352:224|352:224,1,50
416,224,52793,2,0,P|480:224|480:224,1,50
384,288,52946,2,0,P|320:288|320:288,1,50
256,288,53099,2,0,P|192:288|192:288,1,50
96,192,53252,5,14,0:0:0:0:
256,192,53328,1,14,0:0:0:0:
416,192,53405,1,14,0:0:0:0:
272,224,53558,5,0,0:0:0:0:
256,192,53634,1,0,0:0:0:0:
288,192,53711,1,0,0:0:0:0:
256,160,53787,1,0,0:0:0:0:
320,160,53864,1,0,0:0:0:0:
256,128,53940,1,0,0:0:0:0:
288,128,54017,1,0,0:0:0:0:
256,96,54094,1,0,0:0:0:0:
352,96,54170,1,0,0:0:0:0:
256,64,54247,6,0,P|192:64|192:64,1,50
64,64,54400,2,0,B|128:64|128:64,1,50
256,128,54553,2,0,P|192:128|192:128,1,50
64,128,54706,2,0,P|128:128|128:128,1,50
256,192,54859,6,0,P|320:192|320:192,1,50
64,192,55012,2,0,P|0:192|0:192,1,50
256,256,55165,2,0,P|320:256|320:256,1,50
64,256,55318,2,0,P|0:256|0:256,1,50
64,320,55471,5,0,0:0:0:0:
256,320,55548,1,0,0:0:0:0:
0,128,55624,2,2,P|32:96|32:96,3,25
320,128,55777,2,2,P|288:96|288:96,3,25
160,64,55930,1,10,0:0:0:0:
352,64,56083,6,0,L|288:64,1,50
192,128,56236,2,0,L|256:128,1,50
352,192,56389,2,0,L|288:192,1,50
192,256,56543,2,0,L|256:256,1,50
512,256,56696,2,0,P|448:256|448:256,1,50
288,256,56849,2,0,P|224:256|224:256,1,50
64,256,57002,2,0,P|0:256|0:256,1,50
96,192,57155,6,2,L|96:176,12,12.5
416,192,57461,6,2,L|416:176,12,12.5
144,96,57767,6,10,P|144:84|144:84,1,12.5
128,112,57805,2,10,P|125:100|125:100,1,12.5
112,128,57844,2,10,P|107:116|107:116,1,12.5
96,144,57882,2,10,P|90:133|90:133,1,12.5
80,160,57920,2,10,P|72:150|72:150,1,12.5
64,176,57958,2,10,P|54:168|54:168,1,12.5
48,192,57997,2,10,P|37:186|37:186,1,12.5
32,208,58035,2,10,P|20:203|20:203,1,12.5
368,288,58073,6,10,P|368:300|368:300,1,12.5
384,272,58111,2,10,P|386:283|386:283,1,12.5
400,256,58150,2,10,P|404:267|404:267,1,12.5
416,240,58188,2,10,P|422:250|422:250,1,12.5
432,224,58226,2,10,P|439:233|439:233,1,12.5
448,208,58264,2,10,P|457:215|457:215,1,12.5
464,192,58303,2,10,P|474:198|474:198,1,12.5
480,176,58341,2,10,P|491:180|491:180,1,12.5
0,128,58379,6,0,B|64:128|64:128,1,50
128,128,58532,2,0,P|192:128|192:128,1,50
0,192,58685,2,0,P|64:192|64:192,1,50
224,192,58838,2,0,P|288:192|288:192,1,50
0,256,58992,2,0,P|64:256|64:256,1,50
368,256,59145,2,0,P|432:256|432:256,1,50
0,320,59298,2,0,P|64:320|64:320,1,50
464,320,59451,2,0,P|528:320|528:320,1,50
112,192,59604,5,0,0:0:0:0:
160,144,59680,1,0,0:0:0:0:
112,192,59757,1,0,0:0:0:0:
160,144,59833,1,0,0:0:0:0:
400,192,59910,5,0,0:0:0:0:
352,144,59986,1,0,0:0:0:0:
400,192,60063,1,0,0:0:0:0:
352,144,60139,1,0,0:0:0:0:
80,64,60216,2,0,P|144:64|144:64,1,50
432,64,60369,2,0,P|368:64|368:64,1,50
176,192,60522,6,2,P|192:192|192:192,7,12.5
336,192,60675,2,2,P|320:192|320:192,7,12.5
256,192,60828,5,10,0:0:0:0:
0,64,60981,6,0,L|64:64,1,50
256,64,61134,2,0,L|320:64,1,50
0,112,61287,2,0,L|64:112,1,50
256,112,61440,2,0,L|320:112,1,50
512,320,61594,2,0,L|448:320,1,50
256,320,61747,2,0,L|192:320,1,50
512,272,61900,2,0,L|448:272,1,50
256,272,62053,2,0,L|192:272,1,50
0,224,62206,5,0,0:0:0:0:
64,256,62282,1,0,0:0:0:0:
224,256,62359,1,0,0:0:0:0:
160,224,62435,1,0,0:0:0:0:
0,192,62512,1,0,0:0:0:0:
64,224,62588,1,0,0:0:0:0:
256,192,62665,5,0,0:0:0:0:
320,192,62742,1,0,0:0:0:0:
512,192,62818,1,0,0:0:0:0:
512,128,62895,5,4,0:0:0:0:
256,128,62971,1,4,0:0:0:0:
0,144,63048,1,4,0:0:0:0:
512,64,63201,6,0,P|448:64|448:64,1,50
384,64,63354,2,0,P|320:64|320:64,1,50
256,64,63507,2,0,P|192:64|192:64,1,50
96,64,63660,2,0,P|32:64|32:64,1,50
0,64,63813,2,0,P|64:64|64:64,1,50
256,64,63966,2,0,P|320:64|320:64,1,50
512,64,64119,2,0,P|448:64|448:64,1,50
256,64,64272,2,0,L|192:64|192:64,1,50
192,160,64425,6,0,B|128:160|128:160|160:160,1,50
320,160,64578,2,0,P|384:160|384:160,1,50
96,96,64731,2,0,P|32:64|32:64,1,50
416,96,64884,2,0,P|480:64|480:64,1,50
32,128,65037,2,0,P|0:192|0:192,1,50
480,128,65190,2,0,P|512:192|512:192,1,50
256,192,65344,1,0,0:0:0:0:
128,128,65420,6,10,P|140:120|140:120,7,12.5
384,128,65573,2,10,P|372:120|372:120,7,12.5
256,192,65726,1,0,0:0:0:0:
128,192,65956,6,0,P|64:192|64:192,2,50
224,192,66185,2,0,P|288:192|288:192,1,50
160,128,66338,2,0,P|224:128|224:128,1,50
352,128,66492,2,0,P|416:128|416:128,1,50
128,64,66645,2,0,P|192:64|192:64,1,50
384,64,66798,2,0,P|448:64|448:64,1,50
160,0,66951,2,0,P|224:0|224:0,1,50
416,0,67104,2,0,P|480:0|480:0,1,50
128,256,67257,6,12,B|140:256|140:256,1,12.5
384,256,67333,2,12,B|368:256|368:256,1,12.5
32,128,67410,2,12,B|48:128|48:128,1,12.5
480,128,67486,2,12,B|460:128|460:128,1,12.5
128,64,67563,6,2,L|128:48,28,12.5
0,192,68175,6,0,L|128:192,1,100
192,192,68328,1,0,0:0:0:0:
416,128,68481,2,0,P|288:128|288:128,1,100
224,128,68634,1,0,0:0:0:0:
192,64,68787,2,0,L|320:64,1,100
384,64,68940,1,0,0:0:0:0:
224,0,69094,2,0,L|96:0,1,100
32,0,69247,1,0,0:0:0:0:
512,160,69400,6,0,L|416:64,1,100
352,160,69553,1,0,0:0:0:0:
512,224,69706,2,0,L|416:128,1,100
288,224,69859,1,0,0:0:0:0:
512,288,70012,2,0,L|416:192,1,100
224,288,70165,1,0,0:0:0:0:
512,352,70318,2,0,L|416:256,1,100
160,352,70471,1,0,0:0:0:0:
32,256,70624,6,0,L|160:224,1,100
224,224,70777,1,0,0:0:0:0:
480,224,70930,2,0,L|352:192,1,100
288,192,71083,1,0,0:0:0:0:
0,192,71236,2,0,L|128:160,1,100
192,160,71389,1,0,0:0:0:0:
512,160,71543,2,0,L|384:128,1,100
320,128,71696,1,0,0:0:0:0:
32,32,71849,6,0,P|96:160|96:160,1,100
160,160,72002,1,0,0:0:0:0:
384,32,72155,2,0,P|320:160|320:160,1,100
256,160,72308,1,0,0:0:0:0:
0,128,72461,2,0,P|119:206|119:206,1,100
160,224,72614,1,0,0:0:0:0:
416,128,72767,2,0,P|296:206|296:206,1,100
256,224,72920,1,0,0:0:0:0:
256,128,73073,6,0,P|384:128|384:128,2,100
256,128,73379,2,0,P|128:128|128:128,2,100
384,128,73685,2,0,P|512:128|512:128,2,100
128,128,73992,2,0,P|0:128|0:128,2,100
256,128,74298,6,0,P|352:192|352:192,2,100
96,160,74604,2,0,P|64:256|64:256,2,100
416,160,74910,2,0,P|448:256|448:256,2,100
256,128,75216,2,0,P|160:192|160:192,2,100
288,96,75522,6,0,P|384:64|384:64,2,100
224,160,75828,2,0,P|128:128|128:128,2,100
288,224,76134,2,0,P|384:192|384:192,2,100
224,288,76440,2,0,P|128:256|128:256,2,100
96,96,76747,6,0,P|0:64|0:64,2,100
416,160,77053,2,0,P|512:128|512:128,2,100
96,224,77359,2,0,P|0:192|0:192,2,100
416,288,77665,2,0,P|512:256|512:256,2,100
352,288,77971,5,0,0:0:0:0:
416,288,78048,1,0,0:0:0:0:
480,288,78124,1,0,0:0:0:0:
352,224,78277,1,0,0:0:0:0:
416,224,78354,1,0,0:0:0:0:
480,224,78430,1,0,0:0:0:0:
128,288,78583,1,0,0:0:0:0:
64,288,78660,1,0,0:0:0:0:
0,288,78736,1,0,0:0:0:0:
128,224,78889,1,0,0:0:0:0:
64,224,78966,1,0,0:0:0:0:
0,224,79043,1,0,0:0:0:0:
512,192,79196,5,0,0:0:0:0:
256,192,79272,1,0,0:0:0:0:
0,192,79349,1,0,0:0:0:0:
512,128,79502,1,0,0:0:0:0:
256,128,79578,1,0,0:0:0:0:
0,128,79655,1,0,0:0:0:0:
0,256,79808,1,0,0:0:0:0:
256,256,79884,1,0,0:0:0:0:
512,256,79961,1,0,0:0:0:0:
0,320,80114,1,0,0:0:0:0:
256,320,80190,1,0,0:0:0:0:
512,320,80267,1,0,0:0:0:0:
0,224,80420,5,0,0:0:0:0:
32,224,80497,1,0,0:0:0:0:
64,224,80573,1,0,0:0:0:0:
192,224,80726,1,0,0:0:0:0:
160,224,80803,1,0,0:0:0:0:
128,224,80879,1,0,0:0:0:0:
256,224,81032,1,0,0:0:0:0:
288,224,81109,1,0,0:0:0:0:
320,224,81185,1,0,0:0:0:0:
448,224,81338,1,0,0:0:0:0:
416,224,81415,1,0,0:0:0:0:
384,224,81492,1,0,0:0:0:0:
512,192,81645,5,0,0:0:0:0:
448,192,81721,1,0,0:0:0:0:
384,192,81798,1,0,0:0:0:0:
160,192,81951,1,0,0:0:0:0:
224,192,82027,1,0,0:0:0:0:
288,192,82104,1,0,0:0:0:0:
0,192,82257,1,0,0:0:0:0:
64,192,82333,1,0,0:0:0:0:
128,192,82410,1,0,0:0:0:0:
384,192,82563,1,0,0:0:0:0:
320,192,82639,1,0,0:0:0:0:
256,192,82716,1,0,0:0:0:0:
512,192,82869,5,0,0:0:0:0:
384,192,82946,1,0,0:0:0:0:
256,192,83022,1,0,0:0:0:0:
0,192,83175,1,0,0:0:0:0:
128,192,83252,1,0,0:0:0:0:
256,192,83328,1,0,0:0:0:0:
512,192,83481,1,0,0:0:0:0:
384,192,83558,1,0,0:0:0:0:
256,192,83634,1,0,0:0:0:0:
0,192,83787,1,0,0:0:0:0:
128,192,83864,1,0,0:0:0:0:
256,192,83940,1,0,0:0:0:0:
512,192,84094,5,0,0:0:0:0:
320,192,84170,1,0,0:0:0:0:
128,192,84247,1,0,0:0:0:0:
0,192,84400,1,0,0:0:0:0:
192,192,84476,1,0,0:0:0:0:
384,192,84553,1,0,0:0:0:0:
512,192,84706,1,0,0:0:0:0:
320,192,84782,1,0,0:0:0:0:
128,192,84859,1,0,0:0:0:0:
0,192,85012,1,0,0:0:0:0:
192,192,85088,1,0,0:0:0:0:
384,192,85165,1,0,0:0:0:0:
512,192,85318,5,0,0:0:0:0:
256,192,85395,1,0,0:0:0:0:
0,192,85471,1,0,0:0:0:0:
0,192,85624,1,0,0:0:0:0:
256,192,85701,1,0,0:0:0:0:
512,192,85777,1,0,0:0:0:0:
512,192,85930,1,0,0:0:0:0:
256,192,86007,1,0,0:0:0:0:
0,192,86083,1,0,0:0:0:0:
0,192,86236,1,0,0:0:0:0:
256,192,86313,1,0,0:0:0:0:
512,192,86389,1,0,0:0:0:0:
512,96,86543,5,0,0:0:0:0:
384,96,86619,1,0,0:0:0:0:
0,96,86696,1,0,0:0:0:0:
0,256,86849,1,0,0:0:0:0:
128,256,86925,1,0,0:0:0:0:
512,256,87002,1,0,0:0:0:0:
512,96,87155,1,0,0:0:0:0:
448,96,87231,1,0,0:0:0:0:
0,96,87308,1,0,0:0:0:0:
0,256,87461,1,0,0:0:0:0:
64,256,87537,1,0,0:0:0:0:
512,256,87614,1,0,0:0:0:0:
0,96,87767,5,0,0:0:0:0:
64,96,87844,1,0,0:0:0:0:
0,96,87920,1,0,0:0:0:0:
64,96,87997,1,0,0:0:0:0:
512,96,88073,1,0,0:0:0:0:
448,96,88150,1,0,0:0:0:0:
512,96,88226,1,0,0:0:0:0:
448,96,88303,1,0,0:0:0:0:
0,160,88379,6,0,P|64:160|64:160,1,50
256,160,88532,2,0,P|192:160|192:160,1,50
512,160,88685,2,0,P|448:160|448:160,1,50
256,160,88838,2,0,P|320:160|320:160,1,50
256,224,88992,6,0,P|192:224|192:224,1,50
0,224,89145,2,0,P|64:224|64:224,1,50
256,224,89298,2,0,P|320:224|320:224,1,50
512,224,89451,2,0,P|448:224|448:224,1,50
0,160,89604,5,0,0:0:0:0:
256,160,89680,1,0,0:0:0:0:
512,160,89757,1,0,0:0:0:0:
256,96,89833,1,0,0:0:0:0:
0,96,89910,1,0,0:0:0:0:
256,224,89986,5,0,0:0:0:0:
512,224,90063,1,0,0:0:0:0:
256,224,90139,1,0,0:0:0:0:
0,224,90216,1,0,0:0:0:0:
256,224,90293,1,0,0:0:0:0:
512,192,90369,6,0,P|448:192|448:192,1,50
128,192,90522,2,0,P|192:192|192:192,1,50
384,192,90675,2,0,P|320:192|320:192,1,50
0,192,90828,2,0,P|64:192|64:192,1,50
384,128,90981,2,0,P|448:128|448:128,1,50
128,128,91134,2,0,P|64:128|64:128,1,50
512,64,91287,2,0,P|448:64|448:64,1,50
0,64,91440,2,0,P|64:64|64:64,1,50
512,256,91594,5,0,0:0:0:0:
416,256,91670,1,0,0:0:0:0:
320,256,91747,1,0,0:0:0:0:
0,256,91824,1,0,0:0:0:0:
96,256,91900,1,0,0:0:0:0:
192,256,91976,1,0,0:0:0:0:
320,128,92053,6,0,L|320:96,3,25
192,128,92206,2,0,L|192:96,3,25
416,128,92359,2,0,L|416:96,3,25
96,128,92512,2,0,L|96:96,3,25
320,192,92665,5,0,0:0:0:0:
416,192,92742,1,0,0:0:0:0:
192,192,92818,1,0,0:0:0:0:
96,192,92895,1,0,0:0:0:0:
320,256,92971,6,0,P|384:256|384:256,1,50
192,256,93124,2,0,B|128:256|128:256|160:256,1,50
416,256,93277,2,0,P|480:256|480:256,1,50
96,256,93430,2,0,P|32:256|32:256,1,50
0,192,93583,6,0,P|32:128|32:128,1,50
128,192,93736,2,0,P|160:128|160:128,1,50
512,192,93889,2,0,L|480:128,1,50
384,192,94043,2,0,P|352:128|352:128,1,50
96,128,94196,2,0,P|160:64|160:64,1,50
256,128,94349,2,0,P|320:64|320:64,1,50
448,128,94502,2,0,P|384:64|384:64,1,50
256,128,94655,2,0,P|192:64|192:64,1,50
0,128,94808,6,0,P|32:64|32:64,1,50
256,128,94961,2,0,P|224:64|224:64,1,50
64,128,95114,2,0,L|96:64,1,50
320,128,95268,2,0,P|288:64|288:64,1,50
128,128,95421,2,0,P|64:64|64:64,1,50
384,128,95574,2,0,P|448:64|448:64,1,50
192,128,95727,2,0,P|128:64|128:64,1,50
448,128,95880,2,0,P|512:64|512:64,1,50
192,64,96032,6,0,P|176:48|176:48,3,12.5
320,64,96109,2,0,P|336:48|336:48,3,12.5
192,128,96185,5,0,0:0:0:0:
96,128,96262,1,0,0:0:0:0:
320,128,96338,1,0,0:0:0:0:
416,128,96415,1,0,0:0:0:0:
160,128,96492,1,0,0:0:0:0:
64,128,96568,1,0,0:0:0:0:
352,128,96645,1,0,0:0:0:0:
448,128,96721,1,0,0:0:0:0:
128,128,96798,5,14,0:0:0:0:
32,128,96874,5,0,0:0:0:0:
0,192,96951,6,8,L|16:160,1,25
160,160,97027,2,8,L|176:128,1,25
512,192,97104,2,8,L|496:160,1,25
352,160,97180,2,8,L|336:128,1,25
0,192,97257,2,8,L|16:160,1,25
160,160,97333,2,8,L|176:128,1,25
512,192,97410,2,8,L|496:160,1,25
352,160,97486,2,8,L|336:128,1,25
224,192,97563,6,0,L|208:240,1,50
256,160,97716,2,0,L|320:176,1,50
160,192,97869,2,0,L|144:240,1,50
288,96,98022,2,0,L|336:112,1,50
96,192,98175,2,0,L|80:240,1,50
320,64,98328,2,0,L|384:80,1,50
32,192,98481,2,0,L|16:240,1,50
352,0,98634,2,0,L|416:16,1,50
224,160,98787,6,0,L|176:144,1,50
288,128,98940,2,0,L|304:80,1,50
192,224,99094,2,0,L|144:208,1,50
320,192,99247,2,0,L|336:144,1,50
160,288,99400,2,0,L|112:272,1,50
352,256,99553,2,0,L|368:208,1,50
128,352,99707,2,0,L|80:336,1,50
384,320,99860,2,0,L|400:272,1,50
192,160,100012,6,0,P|32:96|32:96,1,150.000005722046
320,128,100165,2,0,P|480:64|480:64,1,150.000005722046
160,224,100318,2,0,P|0:160|0:160,1,150.000005722046
352,192,100471,2,0,P|512:128|512:128,1,150.000005722046
126,274,100624,2,0,P|-2:146|-2:146,1,150.000005722046
385,242,100777,2,0,P|513:114|513:114,1,150.000005722046
126,274,100930,2,0,P|190:114|190:114,1,150.000005722046
385,242,101083,2,0,P|321:82|321:82,1,150.000005722046
192,128,101236,5,0,0:0:0:0:
128,128,101313,1,0,0:0:0:0:
320,128,101389,1,0,0:0:0:0:
384,128,101466,1,0,0:0:0:0:
64,96,101543,1,0,0:0:0:0:
0,96,101619,1,0,0:0:0:0:
448,96,101696,1,0,0:0:0:0:
512,96,101772,1,0,0:0:0:0:
384,64,101849,1,0,0:0:0:0:
128,64,101925,1,0,0:0:0:0:
0,288,102002,6,0,L|16:256,1,25
160,288,102078,2,0,L|176:256,1,25
512,288,102155,2,0,L|496:256,1,25
352,288,102231,2,0,L|336:256,1,25
0,192,102308,2,0,L|16:160,1,25
256,192,102384,2,0,L|272:160,1,25
512,128,102461,6,0,L|448:128,1,50
256,128,102614,2,0,L|320:128,1,50
512,192,102767,2,0,L|448:192,1,50
256,192,102920,2,0,L|192:192,1,50
0,128,103073,2,0,L|64:128,1,50
256,128,103226,2,0,L|192:128,1,50
0,192,103379,2,0,L|64:192,1,50
256,192,103532,2,0,L|320:192,1,50
512,192,103685,6,0,L|448:192,1,50
128,192,103838,2,0,L|64:256,1,50
512,192,103992,2,0,L|448:192,1,50
128,192,104145,2,0,L|48:224,1,50
512,192,104298,2,0,L|448:192,1,50
128,192,104451,2,0,L|64:192,1,50
512,192,104604,2,0,L|448:192,1,50
128,192,104757,2,0,L|80:160,1,50
0,192,104910,6,0,L|64:192,1,50
256,192,105063,2,0,L|256:128,1,50
512,192,105216,2,0,L|448:192,1,50
256,192,105369,2,0,L|256:128,1,50
0,192,105522,2,0,L|80:192,1,50
512,192,105675,2,0,L|448:192,1,50
0,192,105828,2,0,L|64:192,1,50
512,192,105981,2,0,L|448:192,1,50
0,192,106134,6,12,L|224:192,1,200
512,192,106287,2,12,L|288:192,1,200
0,128,106440,2,12,L|200:128,1,200
512,128,106593,2,12,L|312:128,1,200
0,96,106747,6,8,L|0:80,28,12.5
512,96,107359,5,0,0:0:0:0:
416,96,107512,1,0,0:0:0:0:
512,160,107665,1,0,0:0:0:0:
416,160,107818,1,0,0:0:0:0:
512,224,107971,1,0,0:0:0:0:
416,224,108124,1,0,0:0:0:0:
512,288,108277,1,0,0:0:0:0:
416,288,108430,1,0,0:0:0:0:
256,288,108583,5,0,0:0:0:0:
160,256,108736,1,0,0:0:0:0:
256,224,108889,1,0,0:0:0:0:
352,192,109043,1,0,0:0:0:0:
256,160,109196,1,0,0:0:0:0:
160,128,109349,1,0,0:0:0:0:
256,96,109502,1,0,0:0:0:0:
352,64,109655,1,0,0:0:0:0:
0,0,109808,5,0,0:0:0:0:
160,32,109961,1,0,0:0:0:0:
0,64,110114,1,0,0:0:0:0:
160,96,110267,1,0,0:0:0:0:
0,128,110420,1,0,0:0:0:0:
160,160,110573,1,0,0:0:0:0:
0,192,110726,1,0,0:0:0:0:
160,224,110879,1,0,0:0:0:0:
320,256,111032,5,0,0:0:0:0:
480,224,111185,1,0,0:0:0:0:
320,192,111338,1,0,0:0:0:0:
160,160,111492,1,0,0:0:0:0:
320,128,111645,1,0,0:0:0:0:
480,96,111798,1,0,0:0:0:0:
320,64,111951,1,0,0:0:0:0:
160,32,112104,1,10,0:0:0:0:
0,64,112180,1,10,0:0:0:0:
160,96,112257,5,10,0:0:0:0:
256,96,112410,1,0,0:0:0:0:
160,160,112563,1,0,0:0:0:0:
256,160,112716,1,0,0:0:0:0:
160,224,112869,1,0,0:0:0:0:
256,224,113022,1,0,0:0:0:0:
160,288,113175,1,0,0:0:0:0:
256,288,113328,1,0,0:0:0:0:
416,288,113481,5,0,0:0:0:0:
320,288,113634,1,0,0:0:0:0:
416,224,113787,1,0,0:0:0:0:
320,224,113940,1,0,0:0:0:0:
416,160,114094,1,0,0:0:0:0:
320,160,114247,1,0,0:0:0:0:
416,96,114400,1,0,0:0:0:0:
320,96,114553,1,0,0:0:0:0:
256,96,114706,5,0,0:0:0:0:
96,96,114859,1,0,0:0:0:0:
256,64,115012,1,0,0:0:0:0:
128,128,115165,1,0,0:0:0:0:
256,32,115318,1,0,0:0:0:0:
160,160,115471,1,0,0:0:0:0:
256,0,115624,1,0,0:0:0:0:
192,192,115777,1,0,0:0:0:0:
256,256,115930,5,4,0:0:0:0:
384,224,116007,1,4,0:0:0:0:
256,192,116083,1,4,0:0:0:0:
384,160,116160,1,4,0:0:0:0:
256,128,116236,2,0,L|240:112,4,12.5
256,256,116389,1,8,0:0:0:0:
128,224,116466,1,8,0:0:0:0:
256,192,116543,1,8,0:0:0:0:
128,160,116619,1,8,0:0:0:0:
256,128,116696,6,0,L|272:144,4,12.5
384,128,116849,2,0,L|400:144,4,12.5
128,128,117002,2,0,L|112:144,4,12.5
0,64,117155,5,12,0:0:0:0:
256,64,117308,1,0,0:0:0:0:
0,128,117461,1,0,0:0:0:0:
256,128,117614,1,0,0:0:0:0:
0,192,117767,1,0,0:0:0:0:
256,192,117920,1,0,0:0:0:0:
0,256,118073,1,0,0:0:0:0:
256,256,118226,1,0,0:0:0:0:
512,256,118379,5,0,0:0:0:0:
128,256,118532,1,0,0:0:0:0:
512,192,118685,1,0,0:0:0:0:
128,192,118838,1,0,0:0:0:0:
512,128,118992,1,0,0:0:0:0:
128,128,119145,1,0,0:0:0:0:
512,64,119298,1,0,0:0:0:0:
128,64,119451,1,0,0:0:0:0:
0,96,119604,5,0,0:0:0:0:
256,64,119757,1,0,0:0:0:0:
512,160,119910,1,0,0:0:0:0:
256,128,120063,1,0,0:0:0:0:
0,224,120216,1,0,0:0:0:0:
256,192,120369,1,0,0:0:0:0:
512,288,120522,1,0,0:0:0:0:
256,256,120675,1,0,0:0:0:0:
0,256,120828,5,0,0:0:0:0:
128,256,120981,1,0,0:0:0:0:
0,256,121134,1,0,0:0:0:0:
256,256,121287,1,0,0:0:0:0:
0,256,121440,1,0,0:0:0:0:
384,256,121594,1,0,0:0:0:0:
0,256,121747,1,0,0:0:0:0:
384,256,121900,1,10,0:0:0:0:
512,256,121976,1,10,0:0:0:0:
384,256,122053,5,10,0:0:0:0:
128,256,122206,1,0,0:0:0:0:
32,192,122359,1,0,0:0:0:0:
160,192,122512,1,0,0:0:0:0:
256,128,122665,1,0,0:0:0:0:
128,128,122818,1,0,0:0:0:0:
32,64,122971,1,0,0:0:0:0:
160,64,123124,1,0,0:0:0:0:
288,64,123277,6,0,P|512:64|512:64,1,200
288,64,123583,2,0,P|512:64|512:64,1,200
288,64,123889,2,0,P|512:64|512:64,1,200
288,64,124196,2,0,P|512:64|512:64,1,200
416,256,124502,6,0,B|288:224|288:224|224:160,1,200
416,256,124808,2,0,B|288:224|288:224|224:160,1,200
416,256,125114,2,0,B|288:224|288:224|224:160,1,200
416,256,125420,2,0,B|288:224|288:224|224:160,1,200
0,192,125726,6,0,L|64:192,1,50
128,192,125879,2,0,L|192:192,1,50
256,192,126032,2,0,P|256:176|256:176,14,12.5
512,192,126338,6,0,L|448:192,1,50
0,192,126492,2,0,L|64:192,1,50
512,192,126645,2,0,L|480:160,1,25
384,192,126721,2,0,L|352:160,1,25
0,192,126798,2,0,L|32:160,1,25
128,192,126874,2,0,L|160:160,1,25
448,192,126951,6,0,B|224:192,1,200,4|0,3:0|0:0,0:0:0:0:
192,192,127104,2,0,B|-32:192,1,200,4|0,3:0|0:0,0:0:0:0:
0,128,127257,2,0,B|224:128,1,200,4|0,3:0|0:0,0:0:0:0:
256,128,127410,2,0,B|480:128,1,200,4|0,3:0|0:0,0:0:0:0:
480,288,127563,5,0,0:0:0:0:
495,270,127582,1,0,0:0:0:0:
503,248,127601,1,0,0:0:0:0:
504,224,127620,1,0,0:0:0:0:
492,204,127639,1,0,0:0:0:0:
320,192,127716,5,0,0:0:0:0:
480,288,127793,1,0,0:0:0:0:
495,270,127812,1,0,0:0:0:0:
503,248,127831,1,0,0:0:0:0:
504,224,127850,1,0,0:0:0:0:
492,204,127869,1,0,0:0:0:0:
256,192,127946,5,0,0:0:0:0:
32,288,128022,1,0,0:0:0:0:
17,270,128041,1,0,0:0:0:0:
9,248,128060,1,0,0:0:0:0:
8,224,128079,1,0,0:0:0:0:
20,204,128098,1,0,0:0:0:0:
192,320,128175,6,0,L|320:288,1,125,4|0,3:0|0:0,0:0:0:0:
448,352,128328,2,0,L|416:224,1,125,4|0,3:0|0:0,0:0:0:0:
480,96,128481,2,0,L|352:128,1,125,4|0,3:0|0:0,0:0:0:0:
224,64,128634,2,0,L|256:192,1,125,4|0,3:0|0:0,0:0:0:0:
256,288,128787,6,0,B|224:288,4,31.25,2|0|0|0|0,0:0|0:0|0:0|0:0|0:0,0:0:0:0:
384,256,128940,1,0,0:0:0:0:
256,224,129017,1,0,0:0:0:0:
384,192,129094,2,0,B|416:192,4,31.25,2|0|0|0|0,0:0|0:0|0:0|0:0|0:0,0:0:0:0:
256,224,129247,1,0,0:0:0:0:
128,256,129323,1,0,0:0:0:0:
32,288,129400,6,0,L|96:160,3,125,4|0|0|0,3:0|0:0|0:0|0:0,0:0:0:0:
0,192,129706,1,0,0:0:0:0:
32,160,129725,1,0,0:0:0:0:
0,128,129744,1,0,0:0:0:0:
32,96,129763,1,0,0:0:0:0:
64,64,129782,1,0,0:0:0:0:
160,224,129859,1,0,0:0:0:0:
352,224,129935,1,0,0:0:0:0:
512,224,130012,5,0,0:0:0:0:
480,192,130031,1,0,0:0:0:0:
512,160,130050,1,0,0:0:0:0:
480,128,130069,1,0,0:0:0:0:
448,96,130088,1,0,0:0:0:0:
256,160,130165,1,0,0:0:0:0:
224,128,130184,1,0,0:0:0:0:
256,96,130203,1,0,0:0:0:0:
288,64,130222,1,0,0:0:0:0:
256,32,130242,1,0,0:0:0:0:
0,256,130318,5,0,0:0:0:0:
0,320,130394,1,0,0:0:0:0:
0,256,130471,2,0,B|0:224,4,31.25,2|0|0|0|0,0:0|0:0|0:0|0:0|0:0,0:0:0:0:
0,192,130624,6,0,L|128:192,1,125,4|0,3:0|0:0,0:0:0:0:
192,192,130777,2,0,L|320:192,1,125
416,192,130930,1,0,0:0:0:0:
480,192,131007,2,0,B|512:192,4,31.25,2|0|0|0|0,0:0|0:0|0:0|0:0|0:0,0:0:0:0:
416,192,131160,1,0,0:0:0:0:
352,192,131236,2,0,L|320:128,2,62.5,2|0|0,0:0|0:0|0:0,0:0:0:0:
416,192,131389,1,0,0:0:0:0:
480,192,131466,1,0,0:0:0:0:
509,128,131543,2,0,L|381:128,1,125
256,128,131696,2,0,L|224:128,4,31.25,2|0|0|0|0,0:0|0:0|0:0|0:0|0:0,0:0:0:0:
384,128,131849,6,0,B|512:128,1,125,4|0,3:0|0:0,0:0:0:0:
448,192,132002,2,0,B|320:192,1,125,4|0,3:0|0:0,0:0:0:0:
128,128,132155,2,0,B|0:128,1,125,4|0,3:0|0:0,0:0:0:0:
32,192,132308,2,0,B|160:192,1,125,4|0,3:0|0:0,0:0:0:0:
256,192,132461,1,0,0:0:0:0:
352,192,132537,1,0,0:0:0:0:
448,192,132614,2,0,L|480:160,4,31.25,2|0|0|0|0,0:0|0:0|0:0|0:0|0:0,0:0:0:0:
352,192,132767,1,0,0:0:0:0:
256,192,132844,2,0,L|224:160,4,31.25,2|0|0|0|0,0:0|0:0|0:0|0:0|0:0,0:0:0:0:
352,192,132997,1,0,0:0:0:0:
509,128,133073,6,0,L|384:160,1,125,4|0,3:0|0:0,0:0:0:0:
256,192,133226,2,0,L|128:224,1,125
0,128,133379,1,0,0:0:0:0:
128,160,133455,1,0,0:0:0:0:
256,192,133532,1,0,0:0:0:0:
384,224,133609,1,0,0:0:0:0:
448,320,133685,6,0,P|480:256|480:256,1,62.5
480,192,133762,2,0,P|448:128|448:128,1,62.5
352,96,133838,1,0,0:0:0:0:
288,96,133877,1,0,0:0:0:0:
224,96,133915,1,0,0:0:0:0:
160,96,133953,1,0,0:0:0:0:
59,136,133992,2,0,B|64:128|32:192,1,62.5
36,264,134069,2,0,P|32:256|64:320,1,62.5
160,320,134145,2,0,L|192:288,4,31.25,2|0|0|0|0,0:0|0:0|0:0|0:0|0:0,0:0:0:0:
256,224,134298,5,4,3:0:0:0:
32,224,134374,1,0,0:0:0:0:
256,224,134451,1,0,0:0:0:0:
32,224,134527,1,0,0:0:0:0:
256,224,134604,2,0,L|288:224,4,31.25,2|0|0|0|0,0:0|0:0|0:0|0:0|0:0,0:0:0:0:
32,224,134757,1,0,0:0:0:0:
256,224,134833,1,0,0:0:0:0:
32,224,134910,2,0,L|0:224,4,31.25,2|0|0|0|0,0:0|0:0|0:0|0:0|0:0,0:0:0:0:
256,224,135063,2,0,L|288:224,4,31.25,2|0|0|0|0,0:0|0:0|0:0|0:0|0:0,0:0:0:0:
32,224,135216,1,0,0:0:0:0:
256,224,135293,1,0,0:0:0:0:
32,224,135369,2,0,L|0:224,4,31.25,2|0|0|0|0,0:0|0:0|0:0|0:0|0:0,0:0:0:0:
256,224,135522,5,4,3:0:0:0:
352,224,135599,1,0,0:0:0:0:
448,224,135675,1,0,0:0:0:0:
352,224,135752,1,0,0:0:0:0:
256,224,135828,2,0,L|288:224,4,31.25,2|0|0|0|0,0:0|0:0|0:0|0:0|0:0,0:0:0:0:
32,224,135981,2,0,L|0:224,4,31.25,2|0|0|0|0,0:0|0:0|0:0|0:0|0:0,0:0:0:0:
256,224,136134,1,0,0:0:0:0:
352,224,136211,1,0,0:0:0:0:
448,224,136287,1,0,0:0:0:0:
352,224,136364,1,0,0:0:0:0:
256,224,136440,2,0,L|224:160,6,62.5,2|0|0|0|0|0|0,0:0|0:0|0:0|0:0|0:0|0:0|0:0,0:0:0:0:
448,192,136747,5,4,0:3:0:0:
352,128,136823,1,0,0:0:0:0:
256,96,136900,1,0,0:0:0:0:
160,32,136976,1,0,0:0:0:0:
288,192,137053,2,0,B|396:266|391:262,1,125
198,166,137206,2,0,B|96:96,1,125,2|0,0:0|0:0,0:0:0:0:
128,256,137359,2,0,L|95:263,4,31.25,2|0|0|0|0,0:0|0:0|0:0|0:0|0:0,0:0:0:0:
256,288,137512,1,0,0:0:0:0:
384,256,137588,2,0,L|417:263,4,31.25,2|0|0|0|0,0:0|0:0|0:0|0:0|0:0,0:0:0:0:
256,224,137742,1,0,0:0:0:0:
32,192,137818,2,0,L|0:192,4,31.25,2|0|0|0|0,0:0|0:0|0:0|0:0|0:0,0:0:0:0:
128,192,137971,5,4,3:0:0:0:
256,160,138048,1,0,0:0:0:0:
384,128,138124,1,0,0:0:0:0:
256,96,138201,1,0,0:0:0:0:
128,128,138277,1,4,3:0:0:0:
0,160,138354,1,0,0:0:0:0:
128,192,138430,1,0,0:0:0:0:
0,160,138507,1,0,0:0:0:0:
128,192,138583,2,0,B|160:160|160:160|160:128,14,50,2|0|2|0|2|0|2|0|2|0|2|0|2|0|0,0:0|0:0|0:0|0:0|0:0|0:0|0:0|0:0|0:0|0:0|0:0|0:0|0:0|0:0|0:0,0:0:0:0:
64,256,138889,2,0,B|32:288|32:288|32:320,14,50,2|0|2|0|2|0|2|0|2|0|2|0|2|0|0,0:0|0:0|0:0|0:0|0:0|0:0|0:0|0:0|0:0|0:0|0:0|0:0|0:0|0:0|0:0,0:0:0:0:
256,288,139196,5,4,3:0:0:0:
384,224,139273,1,0,0:0:0:0:
480,160,139349,1,0,0:0:0:0:
384,96,139426,1,0,0:0:0:0:
256,96,139502,2,0,L|256:64,4,31.25,2|0|0|0|0,0:0|0:0|0:0|0:0|0:0,0:0:0:0:
128,96,139655,1,0,0:0:0:0:
0,96,139731,1,0,0:0:0:0:
128,96,139808,2,0,L|160:96,4,31.25,2|0|0|0|0,0:0|0:0|0:0|0:0|0:0,0:0:0:0:
0,96,139961,2,0,L|-32:96,4,31.25,2|0|0|0|0,0:0|0:0|0:0|0:0|0:0,0:0:0:0:
128,96,140114,1,0,0:0:0:0:
0,96,140190,1,0,0:0:0:0:
128,96,140267,2,0,L|128:64,4,31.25,2|0|0|0|0,0:0|0:0|0:0|0:0|0:0,0:0:0:0:
256,96,140420,5,4,3:0:0:0:
352,96,140497,1,0,0:0:0:0:
448,160,140573,1,0,0:0:0:0:
352,160,140650,1,0,0:0:0:0:
256,160,140726,2,0,B|192:160,14,50,2|0|2|0|2|0|2|0|2|0|2|0|2|0|0,0:0|0:0|0:0|0:0|0:0|0:0|0:0|0:0|0:0|0:0|0:0|0:0|0:0|0:0|0:0,0:0:0:0:
256,224,141032,2,0,L|288:224,10,31.25,2|0|0|0|0|0|0|0|0|0|0,0:0|0:0|0:0|0:0|0:0|0:0|0:0|0:0|0:0|0:0|0:0,0:0:0:0:
160,288,141262,1,0,0:0:0:0:
64,352,141338,2,0,B|8:320,14,50,2|0|2|0|2|0|2|0|2|0|2|0|2|0|0,0:0|0:0|0:0|0:0|0:0|0:0|0:0|0:0|0:0|0:0|0:0|0:0|0:0|0:0|0:0,0:0:0:0:
160,160,141645,5,4,3:0:0:0:
256,128,141722,1,0,0:0:0:0:
448,160,141798,1,0,0:0:0:0:
352,128,141875,1,0,0:0:0:0:
96,224,141951,1,4,3:0:0:0:
96,288,142027,1,0,0:0:0:0:
384,224,142104,1,0,0:0:0:0:
384,288,142180,1,0,0:0:0:0:
128,352,142257,1,0,0:0:0:0:
32,320,142333,1,0,0:0:0:0:
320,320,142410,2,0,L|352:352,4,31.25,2|0|0|0|0,0:0|0:0|0:0|0:0|0:0,0:0:0:0:
224,288,142563,1,0,0:0:0:0:
128,256,142639,2,0,L|160:224,4,31.25,2|0|0|0|0,0:0|0:0|0:0|0:0|0:0,0:0:0:0:
32,224,142793,1,0,0:0:0:0:
128,160,142869,6,0,L|256:128,1,125,4|0,3:0|0:0,0:0:0:0:
384,192,143022,2,0,L|256:224,1,125,4|0,3:0|0:0,0:0:0:0:
242,201,143175,5,0,0:0:0:0:
326,177,143252,1,0,0:0:0:0:
410,153,143328,1,0,0:0:0:0:
494,129,143405,1,0,0:0:0:0:
416,64,143481,2,0,B|352:64,14,50,2|0|2|0|2|0|2|0|2|0|2|0|2|0|0,0:0|0:0|0:0|0:0|0:0|0:0|0:0|0:0|0:0|0:0|0:0|0:0|0:0|0:0|0:0,0:0:0:0:
448,256,143787,2,0,B|512:256,14,50,2|0|2|0|2|0|2|0|2|0|2|0|2|0|0,0:0|0:0|0:0|0:0|0:0|0:0|0:0|0:0|0:0|0:0|0:0|0:0|0:0|0:0|0:0,0:0:0:0:
125,256,144094,6,0,L|0:256,1,125,4|0,3:0|0:0,0:0:0:0:
387,256,144247,2,0,L|512:256,1,125
0,192,144400,2,0,L|32:160,4,31.25,2|0|2|0|2,0:0|0:0|0:0|0:0|0:0,0:0:0:0:
96,192,144553,1,0,0:0:0:0:
192,192,144629,1,0,0:0:0:0:
288,192,144706,2,0,L|320:160,4,31.25,2|0|2|0|2,0:0|0:0|0:0|0:0|0:0,0:0:0:0:
224,192,144859,2,0,L|192:160,4,31.25,2|0|2|0|2,0:0|0:0|0:0|0:0|0:0,0:0:0:0:
320,192,145012,1,0,0:0:0:0:
416,192,145088,1,0,0:0:0:0:
512,192,145165,2,0,L|512:160,4,31.25,2|0|2|0|2,0:0|0:0|0:0|0:0|0:0,0:0:0:0:
384,192,145318,5,4,3:0:0:0:
256,192,145395,1,0,0:0:0:0:
128,192,145471,1,0,0:0:0:0:
0,192,145548,1,0,0:0:0:0:
64,128,145624,2,0,B|128:128,14,50,2|0|2|0|2|0|2|0|2|0|2|0|2|0|0,0:0|0:0|0:0|0:0|0:0|0:0|0:0|0:0|0:0|0:0|0:0|0:0|0:0|0:0|0:0,0:0:0:0:
0,64,145930,5,4,3:0:0:0:
128,64,146007,1,0,0:0:0:0:
256,64,146083,1,0,0:0:0:0:
384,64,146160,1,0,0:0:0:0:
448,128,146236,2,0,B|384:128,15,50,2|0|2|0|2|0|2|0|2|0|2|0|2|0|0|0,0:0|0:0|0:0|0:0|0:0|0:0|0:0|0:0|0:0|0:0|0:0|0:0|0:0|0:0|0:0|0:0,0:0:0:0:
0,96,146543,5,4,0:0:0:0:
0,96,146543,6,0,B|0:224|0:224|32:352|32:352|64:224|64:224|64:96|64:96|224:64|224:64|384:96|384:96|224:128|224:128,1,899.499968431855
192,128,148991,2,0,B|32:160|32:160|128:192|128:192|64:224|64:224|160:288|256:224|256:224|352:160|448:224|448:224|480:320|352:288|352:288,1,899.499968431855
224,288,151440,2,0,B|128:256|128:256|64:192|128:128|128:128|192:64|128:0|128:0|64:64|64:64|192:192|256:128|256:128|256:128|352:32|384:32|448:96|448:96,1,899.499968431855
512,160,153889,2,0,B|512:128|512:128|512:160|512:160|512:128|512:128|512:160|512:160|512:128|512:128|512:160|512:160|512:128|512:128|512:160|512:160|512:128|512:128|512:160|512:160|512:128|512:128|512:160|512:160|288:96|192:160|192:160|96:224|160:256|160:256|288:288|288:288,1,899.499968431855
320,288,156337,1,8,0:0:0:0:
320,288,156338,6,0,B|480:256|480:256|512:160|512:160|480:64|480:64|320:32|320:32|192:64|192:64|128:160|128:160|192:256|192:256|320:288|320:288,1,899.499968431855
448,256,158787,2,0,B|352:192|352:192|448:256|416:128|416:128|320:32|192:64|192:64|32:96|32:96|96:128|128:160|128:192|160:224|160:256|192:288|256:288|256:288,1,899.499968431855
320,256,161236,2,0,B|416:224|416:224|480:128|480:128|416:224|416:224|320:256|320:256|96:256|96:256|352:256|352:256,1,899.499968431855
224,256,163685,2,0,B|128:224|96:160|128:96|224:32|224:32|320:32|320:32|384:0|384:0|448:32|448:32|480:128|480:128|384:224|384:224,1,770.99997294159
256,256,165828,1,0,0:0:0:0:
32,224,166134,6,0,B|224:224|256:0|256:0|288:224|480:224,1,700
480,352,168582,6,0,B|320:352|320:352|384:288|384:288|256:288|256:288|352:224|352:224|224:224|224:224|128:224|128:224,1,700
0,160,171031,6,0,B|160:160|192:320|320:320|320:320|448:320|512:256|448:128|320:128|320:128,1,700
32,128,173480,6,0,B|128:96|192:32|256:0|256:0|320:32|384:96|512:128|512:128|352:160|352:160,1,700
160,128,175929,6,0,B|64:96|64:96|0:32|0:32|64:-32|64:-32|160:-32|160:-32|224:32|224:32|384:0|384:0|448:64|448:64,1,700
416,192,178378,6,0,B|288:192|288:192|416:192|416:192|288:192|288:192|96:192|96:192|32:128|32:128|64:64|64:64|64:64|64:64,1,700
128,32,180827,6,0,B|352:64|96:224|352:256|352:256,2,350
0,192,183276,6,0,B|96:0|160:0|256:160|256:224|352:384|416:384|512:192|512:192,1,700
256,192,185725,5,14,0:0:0:0:
256,192,185725,5,14,0:0:0:0:
288,192,185725,5,14,0:0:0:0:
224,192,185725,5,14,0:0:0:0:
256,160,185725,5,14,0:0:0:0:
256,192,185725,5,14,0:0:0:0:
256,192,185725,5,14,0:0:0:0:
288,160,185725,5,14,0:0:0:0:
224,160,185725,5,14,0:0:0:0:
288,128,185725,5,14,0:0:0:0:
256,128,185725,5,14,0:0:0:0:
224,128,185725,5,14,0:0:0:0:
288,96,185725,5,14,0:0:0:0:
256,96,185725,5,14,0:0:0:0:
224,96,185725,5,14,0:0:0:0:
288,64,185725,5,14,0:0:0:0:
256,64,185725,5,14,0:0:0:0:
224,64,185725,5,14,0:0:0:0:
288,32,185725,5,14,0:0:0:0:
256,32,185725,5,14,0:0:0:0:
224,32,185725,5,14,0:0:0:0:
288,0,185725,5,14,0:0:0:0:
256,0,185725,5,14,0:0:0:0:
224,0,185725,5,14,0:0:0:0:
256,224,185725,5,14,0:0:0:0:
288,224,185725,5,14,0:0:0:0:
224,224,185725,5,14,0:0:0:0:
288,256,185725,5,14,0:0:0:0:
256,256,185725,5,14,0:0:0:0:
224,256,185725,5,14,0:0:0:0:
288,288,185725,5,14,0:0:0:0:
256,288,185725,5,14,0:0:0:0:
224,288,185725,5,14,0:0:0:0:
288,320,185725,5,14,0:0:0:0:
256,320,185725,5,14,0:0:0:0:
224,320,185725,5,14,0:0:0:0:
288,352,185725,5,14,0:0:0:0:
256,352,185725,5,14,0:0:0:0:
224,352,185725,5,14,0:0:0:0:
256,384,185725,5,14,0:0:0:0:
288,384,185725,5,0,0:0:0:0:
224,384,185725,5,14,0:0:0:0:
256,192,185725,5,14,0:0:0:0:
256,192,185744,12,0,192460,0:0:0:0:
64,192,192697,5,4,0:0:0:0:
160,192,192773,1,0,0:0:0:0:
256,192,192850,1,0,0:0:0:0:
160,192,192926,1,0,0:0:0:0:
256,192,193003,1,0,0:0:0:0:
352,192,193079,1,0,0:0:0:0:
448,192,193156,1,0,0:0:0:0:
352,192,193232,1,0,0:0:0:0:
192,192,193309,5,4,0:0:0:0:
96,160,193385,1,0,0:0:0:0:
128,256,193462,1,0,0:0:0:0:
224,288,193538,1,0,0:0:0:0:
320,192,193615,1,0,0:0:0:0:
416,160,193691,1,0,0:0:0:0:
384,256,193768,1,0,0:0:0:0:
288,288,193844,1,0,0:0:0:0:
160,96,193921,6,4,P|92:96|92:96,1,50,4|0,0:0|0:0,0:0:0:0:
352,96,194074,2,0,P|448:96|448:96,1,50
128,160,194227,2,0,P|32:160|32:160,1,50
384,160,194380,2,0,P|448:160|448:160,1,50
96,224,194533,6,4,P|96:160|96:160,1,50,4|0,0:0|0:0,0:0:0:0:
192,224,194686,2,0,P|192:160|192:160,1,50
288,224,194839,2,0,P|288:160|288:160,1,50
384,224,194992,2,0,P|384:160|384:160,1,50
512,256,195145,6,4,P|448:224|448:224,1,50,4|0,0:0|0:0,0:0:0:0:
320,256,195299,2,0,P|384:224|384:224,1,50
512,192,195452,2,0,P|448:160|448:160,1,50
320,192,195605,2,0,P|384:160|384:160,1,50
192,192,195758,2,0,P|256:160|256:160,1,50,4|0,0:0|0:0,0:0:0:0:
64,192,195911,2,0,P|0:160|0:160,1,50
192,128,196064,2,0,P|256:96|256:96,1,50
64,128,196217,2,0,P|0:96|0:96,1,50
0,64,196370,6,4,P|0:0|0:0,1,50,4|0,0:0|0:0,0:0:0:0:
256,64,196523,2,0,P|256:0|256:0,1,50
512,64,196676,2,0,P|512:0|512:0,1,50
256,64,196829,2,0,P|256:0|256:0,1,50
0,64,196982,2,0,P|32:0|32:0,1,50
256,64,197135,2,0,P|288:0|288:0,1,50
512,64,197288,2,0,P|480:0|480:0,1,50
256,64,197441,2,0,P|224:0|224:0,1,50
0,64,197594,6,4,P|64:32|64:32,1,50,4|0,0:0|0:0,0:0:0:0:
256,64,197748,2,0,P|320:32|320:32,1,50
512,64,197901,2,0,P|448:32|448:32,1,50
256,64,198054,2,0,P|192:32|192:32,1,50
0,64,198207,2,0,P|64:64|64:64,1,50
256,64,198360,2,0,P|320:64|320:64,1,50
512,64,198513,2,0,P|448:64|448:64,1,50
256,64,198666,2,0,P|192:64|192:64,1,50
0,128,198819,5,6,0:0:0:0:
160,128,198895,1,2,0:0:0:0:
320,128,198972,1,2,0:0:0:0:
480,128,199049,1,2,0:0:0:0:
512,192,199125,1,2,0:0:0:0:
352,192,199202,1,2,0:0:0:0:
192,192,199278,1,2,0:0:0:0:
32,192,199355,1,2,0:0:0:0:
0,256,199431,6,4,P|64:288|64:288,1,50,4|0,0:0|0:0,0:0:0:0:
256,256,199584,2,0,P|320:288|320:288,1,50
512,256,199737,2,0,P|448:224|448:224,1,50
256,256,199890,2,0,P|192:224|192:224,1,50
0,192,200043,6,4,P|32:128|32:128,1,50,4|0,0:0|0:0,0:0:0:0:
384,192,200197,2,0,P|352:128|352:128,1,50
128,192,200350,6,4,P|160:128|160:128,1,50,4|0,0:0|0:0,0:0:0:0:
512,192,200503,2,0,P|480:128|480:128,1,50
128,192,200656,6,4,P|96:128|96:128,1,50,4|0,0:0|0:0,0:0:0:0:
384,192,200809,2,0,P|416:128|416:128,1,50
0,192,200962,6,4,P|32:128|32:128,1,50,4|0,0:0|0:0,0:0:0:0:
256,192,201115,2,0,P|256:128|256:128,1,50
512,224,201268,6,14,P|64:224|64:224,1,400
112,224,201574,2,10,P|472:16|472:16,1,400
458,24,201880,2,10,P|250:384|250:384,1,400
258,370,202186,2,10,P|258:128|258:128,1,200
258,170,202492,6,4,P|258:106|258:106,3,50,4|0|4|0,0:0|0:0|0:0|0:0,0:0:0:0:
384,192,202798,2,0,P|429:146|429:146,3,50
258,170,203104,6,4,P|258:106|258:106,3,50,4|0|4|0,0:0|0:0|0:0|0:0,0:0:0:0:
128,192,203410,2,0,P|82:146|82:146,3,50
258,170,203716,6,4,P|258:106|258:106,1,50,4|0,0:0|0:0,0:0:0:0:
384,192,203869,2,0,P|416:128|416:128,1,50
224,160,204022,2,0,P|224:96|224:96,1,50
416,192,204175,2,0,P|448:128|448:128,1,50
192,160,204328,6,4,P|192:96|192:96,1,50,4|0,0:0|0:0,0:0:0:0:
448,192,204481,2,0,P|480:128|480:128,1,50
160,160,204634,2,0,P|160:96|160:96,1,50
480,192,204787,2,0,P|512:128|512:128,1,50
128,160,204940,6,4,P|64:128|64:128,1,50,4|0,0:0|0:0,0:0:0:0:
512,128,205094,2,0,P|480:64|480:64,1,50
160,128,205247,2,0,P|96:96|96:96,1,50
448,128,205400,2,0,P|448:64|448:64,1,50
192,160,205553,2,0,P|160:96|160:96,1,50,4|0,0:0|0:0,0:0:0:0:
384,128,205706,2,0,P|416:64|416:64,1,50
256,160,205859,2,0,P|224:96|224:96,1,50
320,160,206012,2,0,P|352:96|352:96,1,50
0,288,206165,6,4,P|64:288|64:288,1,50
256,288,206318,2,0,P|320:288|320:288,1,50
512,288,206471,2,0,P|448:288|448:288,1,50
256,288,206624,2,0,P|192:288|192:288,1,50
0,288,206777,1,0,0:0:0:0:
96,256,206854,1,0,0:0:0:0:
0,224,206930,1,0,0:0:0:0:
96,192,207007,1,0,0:0:0:0:
256,192,207083,1,0,0:0:0:0:
352,160,207160,1,0,0:0:0:0:
256,128,207236,1,0,0:0:0:0:
352,96,207313,1,0,0:0:0:0:
512,128,207389,5,4,0:0:0:0:
416,160,207466,1,0,0:0:0:0:
512,192,207543,1,0,0:0:0:0:
416,224,207619,1,0,0:0:0:0:
256,256,207696,1,0,0:0:0:0:
160,288,207772,1,0,0:0:0:0:
256,320,207849,1,0,0:0:0:0:
160,352,207925,1,0,0:0:0:0:
128,288,208002,6,0,P|160:224|160:224,1,50
256,288,208155,2,0,P|256:224|256:224,1,50
384,288,208308,2,0,P|352:224|352:224,1,50
256,288,208461,2,0,P|256:224|256:224,1,50
64,288,208614,2,0,P|96:224|96:224,1,50
256,288,208767,2,0,P|256:224|256:224,1,50
448,288,208920,2,0,P|416:224|416:224,1,50
256,288,209073,2,0,P|256:224|256:224,1,50
0,288,209226,6,4,P|96:288|96:288,1,50,4|0,0:0|0:0,0:0:0:0:
256,288,209379,2,0,P|256:224|256:224,1,50
512,288,209532,2,0,P|448:288|448:288,1,50
256,288,209685,2,0,P|256:224|256:224,1,50
64,160,209838,5,4,0:0:0:0:
128,192,209915,1,0,0:0:0:0:
64,224,209992,1,0,0:0:0:0:
0,192,210068,1,0,0:0:0:0:
64,160,210145,5,4,0:0:0:0:
128,128,210221,1,0,0:0:0:0:
192,96,210298,1,0,0:0:0:0:
256,64,210374,1,0,0:0:0:0:
320,96,210451,5,4,0:0:0:0:
384,128,210528,1,0,0:0:0:0:
448,160,210605,1,0,0:0:0:0:
512,192,210681,1,0,0:0:0:0:
448,224,210758,5,4,0:0:0:0:
384,192,210834,1,0,0:0:0:0:
448,160,210911,1,0,0:0:0:0:
512,192,210987,1,0,0:0:0:0:
448,224,211063,6,12,P|256:224|256:224,1,175.00000166893
448,160,211216,6,12,P|224:160|224:160,1,175.00000166893
64,224,211369,6,12,P|256:224|256:224,1,175.00000166893
64,160,211522,6,12,P|256:160|256:160,1,175.00000166893
256,192,211675,1,8,0:0:0:0:
256,192,211676,6,0,L|256:172,28,12.5
256,192,211752,1,8,0:0:0:0:
256,192,211828,1,8,0:0:0:0:
256,192,211905,1,8,0:0:0:0:
256,192,211981,1,8,0:0:0:0:
256,192,212058,1,8,0:0:0:0:
256,192,212134,1,8,0:0:0:0:
256,192,212211,1,8,0:0:0:0:
32,64,212288,6,0,L|192:64,1,145.000004425049,4|0,0:0|0:0,0:0:0:0:
448,64,212440,2,0,L|288:64,1,145.000004425049,4|0,0:0|0:0,0:0:0:0:
160,128,212594,2,0,L|0:128,1,145.000004425049,4|0,0:0|0:0,0:0:0:0:
352,128,212746,2,0,L|512:128,1,145.000004425049,4|0,0:0|0:0,0:0:0:0:
352,128,212901,2,0,L|256:128,2,72.5000022125245,2|0|0,0:0|0:0|0:0,0:0:0:0:
416,128,213054,1,0,0:0:0:0:
256,128,213130,2,0,L|192:128,4,36.2500011062622,2|0|0|0|0,0:0|0:0|0:0|0:0|0:0,0:0:0:0:
480,128,213283,1,0,0:0:0:0:
160,128,213360,2,0,L|96:128,4,36.2500011062622,2|0|0|0|0,0:0|0:0|0:0|0:0|0:0,0:0:0:0:
512,128,213512,6,4,P|352:64|352:64,1,145.000004425049
192,192,213665,2,4,P|256:32|256:32,1,145.000004425049
512,128,213818,2,4,P|352:64|352:64,1,145.000004425049
192,192,213971,2,4,P|256:32|256:32,1,145.000004425049
288,64,214125,2,0,L|320:96,4,36.2500011062622,0|2|0|0|0,0:0|0:0|0:0|0:0|0:0,0:0:0:0:
192,192,214277,2,0,P|256:32|256:32,1,145.000004425049
352,64,214431,2,0,L|384:96,4,36.2500011062622,2|0|0|0|0,0:0|0:0|0:0|0:0|0:0,0:0:0:0:
192,192,214583,2,0,P|256:32|256:32,1,145.000004425049
128,224,214737,6,4,L|288:160,1,145.000004425049,6|4,0:0|0:0,0:0:0:0:
352,224,214890,2,4,L|192:160,1,145.000004425049
192,128,215043,2,0,L|192:64,4,36.2500011062622,2|0|0|0|0,0:0|0:0|0:0|0:0|0:0,0:0:0:0:
64,224,215196,2,0,L|224:160,1,145.000004425049,2|0,0:0|0:0,0:0:0:0:
288,128,215350,2,0,L|288:64,4,36.2500011062622,2|0|0|0|0,0:0|0:0|0:0|0:0|0:0,0:0:0:0:
96,128,215503,2,0,L|96:64,4,36.2500011062622,2|0|0|0|0,0:0|0:0|0:0|0:0|0:0,0:0:0:0:
192,128,215655,2,0,L|96:96,1,100
192,128,215809,2,0,L|128:128,4,36.2500011062622,2|0|0|0|0,0:0|0:0|0:0|0:0|0:0,0:0:0:0:
0,128,215962,6,4,L|160:128,1,145.000004425049,6|4,0:0|0:0,0:0:0:0:
512,128,216115,2,4,L|352:128,1,145.000004425049
0,128,216268,1,0,0:0:0:0:
96,128,216344,2,0,L|96:64,4,36.2500011062622,2|0|0|0|0,0:0|0:0|0:0|0:0|0:0,0:0:0:0:
192,128,216498,1,0,0:0:0:0:
320,128,216574,2,0,L|416:128,4,72.5000022125245,2|0|0|0|0,0:0|0:0|0:0|0:0|0:0,0:0:0:0:
256,64,216804,1,0,0:0:0:0:
512,64,216880,1,0,0:0:0:0:
256,64,216956,1,0,0:0:0:0:
0,64,217033,1,0,0:0:0:0:
256,64,217109,1,0,0:0:0:0:
512,192,217186,6,4,L|512:32,1,145.000004425049,6|4,0:0|0:0,0:0:0:0:
0,192,217339,2,4,L|0:32,1,145.000004425049
512,192,217492,2,4,L|416:64,1,145.000004425049,6|4,0:0|0:0,0:0:0:0:
0,192,217645,2,4,L|96:64,1,145.000004425049
512,256,217798,1,0,0:0:0:0:
0,224,217875,1,0,0:0:0:0:
384,192,217952,2,0,L|416:160,4,36.2500011062622,2|0|0|0|0,0:0|0:0|0:0|0:0|0:0,0:0:0:0:
224,192,218105,1,0,0:0:0:0:
435,192,218182,2,0,L|403:160,4,36.2500011062622,2|0|0|0|0,0:0|0:0|0:0|0:0|0:0,0:0:0:0:
128,192,218334,1,0,0:0:0:0:
384,192,218411,6,0,L|224:192,1,145.000004425049,2|0,0:0|0:0,0:0:0:0:
64,288,218564,1,0,0:0:0:0:
32,256,218640,1,0,0:0:0:0:
192,288,218717,1,0,0:0:0:0:
224,256,218794,1,0,0:0:0:0:
0,192,218871,1,0,0:0:0:0:
32,160,218947,1,0,0:0:0:0:
288,224,219023,2,8,L|256:192,4,36.2500011062622,10|8|8|8|8,0:0|0:0|0:0|0:0|0:0,0:0:0:0:
352,192,219176,2,8,L|384:160,4,36.2500011062622,10|10|8|10|8,0:0|0:0|0:0|0:0|0:0,0:0:0:0:
288,160,219329,2,8,L|256:128,4,36.2500011062622,10|8|8|8|8,0:0|0:0|0:0|0:0|0:0,0:0:0:0:
352,128,219482,2,8,L|384:96,4,36.2500011062622,10|8|8|8|8,0:0|0:0|0:0|0:0|0:0,0:0:0:0:
288,32,219635,5,2,0:0:0:0:
192,32,219712,1,0,0:0:0:0:
288,32,219788,1,0,0:0:0:0:
192,32,219865,1,0,0:0:0:0:
416,32,219941,2,0,L|480:32,4,36.2500011062622,2|0|0|0|0,0:0|0:0|0:0|0:0|0:0,0:0:0:0:
288,32,220094,1,0,0:0:0:0:
192,32,220171,1,0,0:0:0:0:
96,32,220248,2,0,L|32:32,4,36.2500011062622,2|0|0|0|0,0:0|0:0|0:0|0:0|0:0,0:0:0:0:
416,128,220401,2,0,L|352:128,4,36.2500011062622,2|0|0|0|0,0:0|0:0|0:0|0:0|0:0,0:0:0:0:
288,128,220554,1,0,0:0:0:0:
192,128,220630,1,0,0:0:0:0:
288,128,220707,2,0,L|352:128,4,36.2500011062622,2|0|0|0|0,0:0|0:0|0:0|0:0|0:0,0:0:0:0:
192,128,220860,5,0,0:0:0:0:
64,128,220936,1,0,0:0:0:0:
320,128,221013,1,0,0:0:0:0:
480,128,221089,1,0,0:0:0:0:
448,320,221165,6,8,P|480:224|480:224,1,87.500000834465
480,192,221242,6,8,P|448:96|448:96,1,87.500000834465
288,320,221318,6,8,P|256:224|256:224,1,87.500000834465
256,192,221395,6,8,P|288:96|288:96,1,87.500000834465
352,320,221471,6,8,P|416:256|416:256,1,87.500000834465
416,192,221548,6,8,P|352:128|352:128,1,87.500000834465
224,320,221624,6,8,P|160:256|160:256,1,87.500000834465
160,192,221701,6,8,P|224:128|224:128,1,87.500000834465
224,320,221777,6,8,P|320:288|320:288,1,87.500000834465
320,224,221854,6,8,P|224:192|224:192,1,87.500000834465
96,320,221930,6,8,P|0:288|0:288,1,87.500000834465
0,224,222007,6,8,P|96:192|96:192,1,87.500000834465
160,256,222083,6,0,P|160:64|160:64,1,175.00000166893
224,192,222236,1,0,0:0:0:0:
96,192,222314,1,0,0:0:0:0:
224,128,222390,1,2,0:0:0:0:
160,128,222467,1,0,0:0:0:0:
224,64,222543,1,0,0:0:0:0:
96,64,222620,1,0,0:0:0:0:
224,0,222697,2,4,L|288:0,4,38.750000295639,6|4|4|4|4,0:0|0:0|0:0|0:0|0:0,0:0:0:0:
160,0,222850,1,0,0:0:0:0:
224,0,222926,2,4,L|288:0,4,38.750000295639,6|4|4|4|4,0:0|0:0|0:0|0:0|0:0,0:0:0:0:
96,0,223079,1,0,0:0:0:0:
416,0,223156,2,0,L|512:0,2,77.5000005912781,2|0|0,0:0|0:0|0:0,0:0:0:0:
224,64,223308,5,6,0:0:0:0:
69,64,223385,1,0,0:0:0:0:
224,64,223462,2,0,L|64:64,1,155.000001182556
224,64,223615,1,2,0:0:0:0:
69,64,223691,1,0,0:0:0:0:
224,64,223768,2,0,L|64:64,1,155.000001182556
288,64,223920,2,0,L|222:63,4,38.750000295639,2|0|0|0|0,0:0|0:0|0:0|0:0|0:0,0:0:0:0:
384,64,224074,1,0,0:0:0:0:
480,64,224151,1,0,0:0:0:0:
224,64,224227,2,0,L|160:64,4,38.750000295639,2|0|0|0|0,0:0|0:0|0:0|0:0|0:0,0:0:0:0:
480,64,224380,1,0,0:0:0:0:
384,64,224457,1,0,0:0:0:0:
288,64,224533,6,4,L|128:64,1,155.000001182556,6|4,0:0|0:0,0:0:0:0:
64,128,224686,2,0,L|224:128,1,155.000001182556
352,128,224839,2,0,L|416:128,4,38.750000295639,2|0|0|0|0,0:0|0:0|0:0|0:0|0:0,0:0:0:0:
224,128,224992,1,0,0:0:0:0:
64,128,225069,1,0,0:0:0:0:
224,128,225145,1,0,0:0:0:0:
64,128,225222,1,0,0:0:0:0:
64,128,225299,2,0,L|64:64,4,38.750000295639,2|0|0|0|0,0:0|0:0|0:0|0:0|0:0,0:0:0:0:
224,128,225452,1,0,0:0:0:0:
64,128,225528,1,0,0:0:0:0:
224,128,225605,2,0,L|224:192,4,38.750000295639,2|0|0|0|0,0:0|0:0|0:0|0:0|0:0,0:0:0:0:
64,192,225758,6,4,L|25:37,1,155.000001182556
224,64,225911,2,0,L|263:219,1,155.000001182556
64,64,226064,1,0,0:0:0:0:
224,192,226140,2,0,L|288:192,4,38.750000295639,2|0|0|0|0,0:0|0:0|0:0|0:0|0:0,0:0:0:0:
64,192,226293,1,0,0:0:0:0:
224,192,226370,2,0,L|128:192,2,77.5000005912781,2|0|0,0:0|0:0|0:0,0:0:0:0:
352,192,226523,1,0,0:0:0:0:
448,192,226600,1,0,0:0:0:0:
352,128,226676,1,0,0:0:0:0:
448,128,226753,1,0,0:0:0:0:
352,64,226829,1,0,0:0:0:0:
448,64,226906,1,0,0:0:0:0:
352,64,226982,6,4,B|192:64,1,155.000001182556
0,64,227135,2,4,B|160:64,1,155.000001182556
384,96,227288,2,4,B|352:160|352:160|256:160,1,155.000001182556,6|4,0:0|0:0,0:0:0:0:
32,96,227440,2,4,B|64:160|64:160|160:160,1,155.000001182556,6|4,0:0|0:0,0:0:0:0:
416,128,227594,2,0,B|416:192|416:192|352:256,1,155.000001182556,2|0,0:0|0:0,0:0:0:0:
64,224,227748,2,0,B|0:224,4,38.750000295639,2|0|0|0|0,0:0|0:0|0:0|0:0|0:0,0:0:0:0:
160,224,227901,1,0,0:0:0:0:
256,224,227977,2,0,B|320:224,4,38.750000295639,2|0|0|0|0,0:0|0:0|0:0|0:0|0:0,0:0:0:0:
160,224,228130,1,0,0:0:0:0:
64,224,228207,6,4,L|224:224,1,155.000001182556,6|4,0:0|0:0,0:0:0:0:
411,224,228360,2,4,L|251:224,1,155.000001182556
64,224,228513,1,6,0:0:0:0:
411,224,228588,1,4,0:0:0:0:
64,224,228666,2,4,B|224:224,1,155.000001182556
411,224,228819,2,0,B|411:160,4,38.750000295639,2|0|0|0|0,0:0|0:0|0:0|0:0|0:0,0:0:0:0:
256,224,228972,2,0,B|256:160,4,38.750000295639,2|0|0|0|0,0:0|0:0|0:0|0:0|0:0,0:0:0:0:
64,224,229125,2,0,B|64:160,4,38.750000295639,2|0|0|0|0,0:0|0:0|0:0|0:0|0:0,0:0:0:0:
256,224,229278,2,0,B|256:160,4,38.750000295639,2|0|0|0|0,0:0|0:0|0:0|0:0|0:0,0:0:0:0:
416,224,229431,5,6,0:0:0:0:
256,224,229508,1,0,0:0:0:0:
64,224,229585,1,0,0:0:0:0:
256,224,229661,1,0,0:0:0:0:
411,224,229737,2,0,B|352:224,4,38.750000295639,2|0|0|0|0,0:0|0:0|0:0|0:0|0:0,0:0:0:0:
512,128,229889,5,4,0:0:0:0:
416,96,229966,1,0,0:0:0:0:
512,128,230043,1,2,0:0:0:0:
320,64,230120,1,0,0:0:0:0:
512,128,230197,2,0,B|512:64,4,38.750000295639,2|0|0|0|0,0:0|0:0|0:0|0:0|0:0,0:0:0:0:
320,64,230350,5,6,0:0:0:0:
160,128,230426,1,0,0:0:0:0:
320,192,230503,2,0,B|320:256,4,38.750000295639,2|0|0|0|0,0:0|0:0|0:0|0:0|0:0,0:0:0:0:
0,192,230655,6,4,L|288:192,1,271.250002069473,2|0,0:0|0:0,0:0:0:0:
152,192,230731,1,0,0:0:0:0:
512,192,230808,2,4,L|224:192,1,271.250002069473
359,192,230884,1,0,0:0:0:0:
0,192,230961,2,0,B|0:128,12,38.750000295639,2|0|2|0|2|0|2|0|2|0|2|0|2,0:0|0:0|0:0|0:0|0:0|0:0|0:0|0:0|0:0|0:0|0:0|0:0|0:0,0:0:0:0:
288,192,231267,6,8,P|384:192|384:192,1,77.5000005912781
416,128,231344,6,8,P|320:128|320:128,1,77.5000005912781
224,192,231420,6,8,P|128:192|128:192,1,77.5000005912781
96,128,231497,6,8,P|192:128|192:128,1,77.5000005912781
384,192,231573,6,8,P|480:192|480:192,1,77.5000005912781
512,128,231650,6,8,P|416:128|416:128,1,77.5000005912781
128,192,231726,6,8,P|32:192|32:192,1,77.5000005912781
0,128,231803,6,8,P|96:128|96:128,1,77.5000005912781
256,192,231879,5,0,0:0:0:0:
256,192,231898,6,0,B|192:256|192:256|96:256|96:256|96:352|96:352|320:352|320:352|448:224|448:224|448:192|448:192,1,700
192,320,234328,2,0,B|416:320|416:320|512:96|512:96|256:96|256:96,1,700
0,96,236777,2,0,B|256:32|512:96|160:128|32:192|256:192|480:192|352:256|-32:288|256:352|480:288|480:288,1,700
512,320,239226,2,0,B|384:0|256:192|128:384|0:32,1,700
96,192,241675,6,0,B|288:128|288:128|96:64|96:64|288:0|288:0|384:0|384:0,1,700
192,0,244124,2,0,B|288:0|352:32|416:32|448:96|512:192|448:320|416:352|352:352|288:384|192:384,1,700
0,192,246573,2,0,B|64:128|64:128|128:192|128:192|192:128|192:128|256:192|256:192|320:128|320:128|384:192|384:192|448:128|448:128|480:192|480:192,1,700
256,192,249022,5,4,0:0:0:0:
256,192,249023,12,0,254644,0:0:0:0:
