osu file format v14

[General]
AudioFilename: audio.mp3
AudioLeadIn: 0
PreviewTime: 62201
Countdown: 0
SampleSet: Soft
StackLeniency: 0.5
Mode: 0
LetterboxInBreaks: 0
WidescreenStoryboard: 1

[Editor]
Bookmarks: 70,152,234,316,398,480,562,644,726,807,889,971,1053,1135,1217,1299,1381,1463,1545,1627,1709,1791,1873,1955,2037,2119,2201,2283,2365,2447,2529,2611,2693,2775,2857,2939,3021,3103,3185,3266,3348,3430,3512,3594,3676,3758,3840,3922,4004,4086,4168,4250,4332,4414,4496,4578,4660,4742,4824,4906,4988,5070,5152,5234,5316,5398,5480,5562,5644,5726,5807,5889,5971,6053,6135,6217,6299,6381,6463,6545,6627,6709,6791,6873,6955,7037,7119,7201,7283,7365,7447,7529,7611,7693,7775,7857,7939,8021,8103,8185,8266,8348,8430,8512,8594,8676,8758,8840,8922,9004,9086,9168,9250,9332,9414,9496,9578,9660,9742,9824,9906,9988,10070,10152,10234,10316,10398,10480,10562,10644,10726,10807,10889,10971,11053,11135,11217,11299,11381,11463,11545,11627,11709,11791,11873,11955,12037,12119,12201,12283,12365,12447,12529,12611,12693,12775,12857,12939,13021,13103,13185,13266,13348,13430,13512,13594,13676,13758,13840,13922,14004,14086,14168,14250,14332,14414,14496,14578,14660,14742,14824,14906,14988,15070,15152,15234,15316,15398,15480,15562,15644,15726,15807,15889,15971,16053,16135,16217,16299,16381,16463,16545,16627,16709,16791,16873,16955,17037,17119,17201,17283,17365,17447,17529,17611,17693,17775,17857,17939,18021,18103,18185,18266,18348,18430,18512,18594,18676,18758,18840,18922,19004,19086,19168,19250,19332,19414,19496,19578,19660,19742,19824,19906,19988,20070,20152,20234,20316,20398,20480,20562,20644,20726,20807,20889,20971,21053,21135,21217,21299,21381,21463,21545,21627,21709,21791,21873,21955,22037,22119,22201,22283,22365,22447,22529,22611,22693,22775,22857,22939,23021,23103,23185,23266,23348,23430,23512,23594,23676,23758,23840,23922,24004,24086,24168,24250,24332,24414,24496,24578,24660,24742,24824,24906,24988,25070,25152,25234,25316,25398,25480,25562,25644,25726,25807,25889,25971,26053,26135,26217,26299,26381,26463,26545,26627,26709,26791,26873,26955,27037,27119,27201,27283,27365,27447,27529,27611,27693,27775,27857,27939,28021,28103,30726,35971,39906,41217,46463,51709,52037,54332,54660,56955,57283,59578,59906,62201,67447,70070,72693,76955,77529,77939,80562,82857,83185,83512,85807,86135,88430,88758,91053,91381,93348,93676,94004,96299,96627,98922,99250,101545,101873,104168,114660,114742,114824,114906,114988,115070,115152,115234,115316,115398,115480,115562,115644,115725,115807,115889,115971,116053,116135,116217,116299,116381,116463,116545,116627,116709,116791,116873,116955,117037,117119,117201,117283,117365,117447,117529,117611,117693,117775,117857,117939,118021,118103,118185,118266,118348,118430,118512,118594,118676,118758,118840,118922,119004,119086,119168,119250,119332,119414,119496,119578,119660,119742,119824,119906,119988,120070,120152,120234,120316,120398,120480,120562,120644,120725,120807,120889,120971,121053,121135,121217,121299,121381,121463,121545,121627,121709,121791,121873,121955,122037,122119,122201,122283,122365,122447,122529,122611,122693,122775,122857,122939,123021,123103,123185,123266,123348,123430,123512,123594,123676,123758,123840,123922,124004,124086,124168,124250,124332,124414,124496,124578,124660,124742,124824,124906,124988,125070,125152,125234,125316,125398,125480,125562,125644,125725,125807,125889,125971,126053,126135,126217,126299,126381,126463,126545,126627,126709,126791,126873,126955,127037,127119,127201,127283,127365,127447,127529,127611,127693,127775,127857,127939,128021,128103,128185,128266,128348,128430,128512,128594,128676,128758,128840,128922,129004,129086,129168,129250,129332,129414,129496,129578,129660,129742,129824,129906,129988,130070,130152,130234,130316,130398,130480,130562,130644,130725,130807,130889,130971,131053,131135,131217,131299,131381,131463,131545,131627,131709,131791,131873,131955,132037,132119,132201,132283,132365,132447,132529,132611,132693,132775,132857,132939,133021,133103,133185,133266,133348,133430,133512,133594,133676,133758,133840,133922,134004,134086,134168,134250,134332,134414,134496,134578,134660,134742,134824,134906,134988,135070,135152,135234,135316,135398,135480,135562,135644,135725,135807,135889,135971,136053,136135
DistanceSpacing: 2.8
BeatDivisor: 8
GridSize: 8
TimelineZoom: 4.099998

[Metadata]
Title:Theme for Psychopath Justice
TitleUnicode:Theme for Psychopath Justice
Artist:Kobaryo
ArtistUnicode:Kobaryo
Creator:yeahbennou
Version:nobody will ever fc this.
Source:osu!
Tags:
BeatmapID:3090374
BeatmapSetID:1509108

[Difficulty]
HPDrainRate:5
CircleSize:4
OverallDifficulty:10
ApproachRate:10
SliderMultiplier:2
SliderTickRate:0.5

[Events]
//Background and Video events
0,0,"kuronoiparoma.png",0,0
//Break Periods
//Storyboard Layer 0 (Background)
//Storyboard Layer 1 (Fail)
//Storyboard Layer 2 (Pass)
//Storyboard Layer 3 (Foreground)
//Storyboard Layer 4 (Overlay)
//Storyboard Sound Samples

[TimingPoints]
27968,327.868852459016,4,2,1,5,1,0
28127,-100,4,2,1,10,0,0
28262,-100,4,2,1,10,0,0
28295,-100,4,2,1,15,0,0
28430,-100,4,2,1,15,0,0
28459,-100,4,2,1,20,0,0
28594,-100,4,2,1,20,0,0
28627,-100,4,2,1,25,0,0
28762,-100,4,2,1,25,0,0
28787,-100,4,2,1,30,0,0
28922,-100,4,2,1,30,0,0
28955,-100,4,2,1,35,0,0
29090,-100,4,2,1,35,0,0
29115,-100,4,2,1,40,0,0
29250,-100,4,2,1,40,0,0
29283,-100,4,2,1,45,0,0
29418,-100,4,2,1,45,0,0
29443,-100,4,2,1,50,0,0
29578,-100,4,2,1,50,0,0
29611,-100,4,2,1,65,0,0
29746,-100,4,2,1,65,0,0
29771,-100,4,2,1,70,0,0
29906,-100,4,2,1,70,0,0
29939,-100,4,2,1,75,0,0
30074,-100,4,2,1,75,0,0
30099,-100,4,2,1,80,0,0
30234,-100,4,2,1,80,0,0
30267,-100,4,2,1,85,0,0
30402,-100,4,2,1,85,0,0
30427,-100,4,2,1,90,0,0
30562,-100,4,2,1,90,0,0
30631,-100,4,2,1,75,0,0
30766,-100,4,2,1,75,0,0
35181,-47.6190476190476,4,2,1,75,0,0
39771,-133.333333333333,4,2,1,75,0,0
40427,-33.3333333333333,4,2,1,75,0,0
41082,-33.3333333333333,4,2,1,90,0,0
51246,-25,4,2,1,80,0,0
51574,-50,4,2,1,70,0,0
51709,-50,4,2,1,70,0,0
51738,-50,4,2,1,80,0,0
51873,-50,4,2,1,80,0,0
51902,-100,4,2,1,80,0,0
54525,-100,4,2,1,80,0,0
54689,-100,4,2,1,80,0,0
56820,-75.00000001875,4,2,1,80,0,0
57148,-100,4,2,1,80,0,0
59393,-75.00000001875,4,2,1,80,0,0
59771,-100,4,2,1,80,0,0
60017,-100,4,2,1,80,0,0
61738,-33.3333333333333,4,2,1,80,0,0
61820,-100,4,2,2,90,0,0
61943,-100,4,2,1,90,0,0
61955,-100,4,2,1,90,0,0
62066,-100,4,2,1,75,0,0
62078,-100,4,2,1,75,0,0
62201,-100,4,2,1,75,0,0
67312,-40,4,2,1,80,0,0
67447,-40,4,2,1,80,0,0
72558,-142.857142857143,4,2,1,80,0,0
72599,-50,4,2,1,60,0,0
72734,-50,4,2,1,60,0,0
72886,-133.333333333333,4,2,1,60,0,0
76492,-100,4,2,1,60,0,0
77804,-50,4,2,1,70,0,0
77939,-50,4,2,1,70,0,0
78131,-250,4,2,1,70,0,0
79115,-50,4,2,1,70,0,0
80099,-100,4,2,1,70,0,0
80427,-50,4,2,1,80,0,0
80562,-50,4,2,1,80,0,0
81082,-100,4,2,1,80,0,0
82722,-33.3333333333333,4,2,1,80,0,0
83049,-399.999999999997,4,2,1,80,0,0
83377,-50,4,2,1,90,0,0
83512,-50,4,2,1,90,0,0
84361,-50,4,2,1,90,0,0
85672,-399.999999999997,4,2,1,70,0,0
85807,-399.999999999997,4,2,1,70,0,0
85836,-399.999999999997,4,2,1,90,0,0
85971,-399.999999999997,4,2,1,90,0,0
86000,-50,4,2,1,90,0,0
88295,-399.999999999997,4,2,1,70,0,0
88430,-399.999999999997,4,2,1,70,0,0
88459,-399.999999999997,4,2,1,90,0,0
88594,-399.999999999997,4,2,1,90,0,0
88623,-50,4,2,1,90,0,0
90918,-399.999999999997,4,2,1,70,0,0
91053,-399.999999999997,4,2,1,70,0,0
91082,-399.999999999997,4,2,1,90,0,0
91217,-399.999999999997,4,2,1,90,0,0
91246,-50,4,2,1,90,0,0
93541,-181.818181818181,4,2,1,70,0,0
93676,-181.818181818181,4,2,1,70,0,0
93705,-181.818181818181,4,2,1,90,0,0
93840,-181.818181818181,4,2,1,90,0,0
93869,-50,4,2,1,90,0,0
96000,-25,4,2,1,90,0,0
96164,-181.818181818181,4,2,1,70,0,0
96299,-181.818181818181,4,2,1,70,0,0
96328,-181.818181818181,4,2,1,90,0,0
96463,-181.818181818181,4,2,1,90,0,0
96492,-50,4,2,1,90,0,0
98787,-181.818181818181,4,2,1,70,0,0
98922,-181.818181818181,4,2,1,70,0,0
98951,-181.818181818181,4,2,1,90,0,0
99086,-181.818181818181,4,2,1,90,0,0
99115,-50,4,2,1,90,0,0
101410,-400,4,2,1,70,0,0
101545,-400,4,2,1,70,0,0
101574,-400,4,2,1,90,0,0
101709,-400,4,2,1,90,0,0
101738,-25,4,2,1,90,0,0
103705,-25,4,2,1,90,0,0
104033,-227.272727272727,4,2,1,90,0,0
104074,-200,4,2,1,60,0,0
104209,-250,4,2,1,60,0,0
109279,-1000,4,2,1,60,0,0
111902,-333.333333333333,4,2,1,60,0,0
113213,-133.333333333333,4,1,1,90,0,0
113224,-133.333333333333,4,1,2,5,0,0
113295,-133.333333333333,4,1,3,10,0,0
113348,-133.333333333333,4,1,3,10,0,0
113359,-133.333333333333,4,1,3,10,0,0
113377,-133.333333333333,4,1,2,15,0,0
113430,-133.333333333333,4,1,2,15,0,0
113459,-133.333333333333,4,1,3,20,0,0
113512,-133.333333333333,4,1,3,20,0,0
113541,-133.333333333333,4,1,2,25,0,0
113594,-133.333333333333,4,1,2,25,0,0
113623,-133.333333333333,4,1,3,30,0,0
113676,-133.333333333333,4,1,3,30,0,0
113705,-133.333333333333,4,1,2,35,0,0
113758,-133.333333333333,4,1,2,35,0,0
113787,-133.333333333333,4,1,3,40,0,0
113840,-133.333333333333,4,1,3,40,0,0
113869,-66.6666666666667,4,1,2,50,0,0
113922,-66.6666666666667,4,1,2,50,0,0
113951,-66.6666666666667,4,1,3,55,0,0
114004,-66.6666666666667,4,1,3,55,0,0
114033,-66.6666666666667,4,1,2,60,0,0
114086,-66.6666666666667,4,1,2,60,0,0
114115,-66.6666666666667,4,1,3,65,0,0
114168,-66.6666666666667,4,1,3,65,0,0
114197,-66.6666666666667,4,1,2,70,0,0
114250,-66.6666666666667,4,1,2,70,0,0
114279,-66.6666666666667,4,1,3,75,0,0
114332,-66.6666666666667,4,1,3,75,0,0
114361,-66.6666666666667,4,1,2,85,0,0
114414,-66.6666666666667,4,1,2,85,0,0
114443,-66.6666666666667,4,1,3,95,0,0
114496,-66.6666666666667,4,1,3,95,0,0
114525,1311.47540983607,4,2,1,40,1,1
114525,-333.333333333333,4,2,1,40,0,1
114545,-1000,4,2,1,5,0,1
114578,-1000,4,2,1,5,0,1
114660,-1000,4,2,1,5,0,1
114680,-1000,4,2,1,5,0,1
135508,-1000,4,2,1,5,0,0

[Colours]
Combo1 : 255,242,168
Combo2 : 255,179,255
Combo3 : 192,147,255
Combo4 : 137,227,254
Combo5 : 157,255,180
Combo6 : 189,255,123

[HitObjects]
256,192,27968,12,0,30508,0:0:0:0:
119,0,30590,5,0,0:0:0:0:
205,195,30754,5,0,0:0:0:0:
347,119,30918,1,0,0:0:0:0:
199,202,31082,2,0,B|286:181|286:181|314:198|314:198|435:174,1,200
457,56,31574,1,0,0:0:0:0:
375,334,31738,2,0,L|379:246,1,50
381,37,31902,5,0,0:0:0:0:
68,115,32066,5,0,0:0:0:0:
152,276,32230,1,0,0:0:0:0:
64,102,32394,2,0,B|52:173|52:173|40:190|40:190|48:213|48:213|33:318,1,200
29,22,32886,1,0,0:0:0:0:
164,346,33049,2,0,P|194:337|220:297,1,50
298,17,33213,5,0,0:0:0:0:
392,182,33377,5,0,0:0:0:0:
273,279,33541,1,0,0:0:0:0:
385,176,33705,2,0,B|363:208|363:208|402:318|402:318|380:356,1,200
159,114,34197,1,0,0:0:0:0:
455,208,34361,1,0,0:0:0:0:
145,227,34525,5,0,0:0:0:0:
151,232,34689,1,0,0:0:0:0:
206,275,34853,2,0,B|235:299|235:299|311:263|311:263|346:293,1,150
360,384,35181,6,0,B|342:302|342:302|368:206|368:206|366:196|366:196|387:123|387:123|399:153|399:153|405:155|405:155|433:215,1,314.999990386963
420,176,35508,6,0,B|421:172|425:157|425:157|429:204,6,52.4999983978272
474,71,35836,6,0,L|23:10,1,419.999987182618
487,79,36328,6,0,L|36:18,1,419.999987182618
270,218,36820,1,0,0:0:0:0:
305,144,36984,1,0,0:0:0:0:
44,333,37148,6,0,B|234:311|234:311|240:315|240:315|489:286,1,419.999987182618
38,340,37640,6,0,B|228:318|228:318|234:322|234:322|483:293,1,419.999987182618
192,48,38131,1,0,0:0:0:0:
264,232,38295,1,0,0:0:0:0:
53,72,38459,6,0,B|42:143|42:143|44:149|44:149|28:247|28:247|74:219|124:256|124:256|145:239|145:239|204:275|262:231,1,419.999987182618
46,67,38951,6,0,B|35:138|35:138|37:144|37:144|21:242|21:242|67:214|117:251|117:251|138:234|138:234|197:270|255:226,1,419.999987182618
348,51,39443,1,0,0:0:0:0:
341,66,39607,1,0,0:0:0:0:
253,285,39771,6,0,B|229:247|229:247|408:305|408:305|383:265,1,262.500010013581
343,198,40427,6,0,B|332:284|332:284|293:172|293:172|286:171|286:171|261:97|261:97|293:74|340:66|340:66|290:74|200:42,1,450.000017166138
206,60,40754,6,0,B|192:79|192:79|210:169,1,75.0000028610231
223,340,40836,2,0,B|237:321|237:321|219:231,1,75.0000028610231
234,21,40918,6,0,B|216:36|216:36|217:128,1,75.0000028610231
201,374,41000,2,0,B|218:358|218:358|217:266,1,75.0000028610231
346,91,41082,6,0,B|364:68|364:68|349:168|349:168|405:102,1,150.000005722046
114,270,41246,2,0,B|126:285|126:285|111:185|111:185|129:208,1,150.000005722046
361,266,41410,5,0,0:0:0:0:
342,104,41492,1,0,0:0:0:0:
360,282,41574,5,0,0:0:0:0:
437,73,41656,1,0,0:0:0:0:
366,368,41738,6,0,B|434:353|434:353|443:353|443:353|543:330,1,150.000005722046
183,300,41902,2,0,B|115:285|115:285|106:285|106:285|6:262,1,150.000005722046
512,328,42066,6,0,B|442:343|442:343|433:343|433:343|365:358,1,150.000005722046
181,290,42230,2,0,B|113:275|113:275|104:275|104:275|35:260,1,150.000005722046
129,75,42394,5,0,0:0:0:0:
200,220,42476,1,0,0:0:0:0:
205,68,42558,5,0,0:0:0:0:
272,194,42640,1,0,0:0:0:0:
282,59,42722,5,0,0:0:0:0:
326,142,42804,1,0,0:0:0:0:
359,54,42886,5,0,0:0:0:0:
395,142,42968,1,0,0:0:0:0:
443,85,43049,5,0,0:0:0:0:
360,264,43131,1,0,0:0:0:0:
448,93,43213,5,0,0:0:0:0:
362,274,43295,1,0,0:0:0:0:
107,73,43377,6,0,B|63:88|63:88|71:164|71:164|84:112,1,150.000005722046
445,0,43541,1,0,0:0:0:0:
380,353,43623,1,0,0:0:0:0:
39,0,43705,6,0,B|137:-17|137:-17|178:11,1,150.000005722046
424,235,43869,2,0,B|326:259|326:259|286:231,1,150.000005722046
79,269,44033,5,0,0:0:0:0:
235,107,44115,1,0,0:0:0:0:
85,275,44197,5,0,0:0:0:0:
239,117,44279,1,0,0:0:0:0:
8,228,44361,6,0,B|12:160|12:160|16:155|16:155|21:59,1,150.000005722046
250,211,44525,2,0,B|253:286|253:286|257:291|257:291|261:359,1,150.000005722046
0,229,44689,6,0,B|4:161|4:161|8:156|8:156|13:60,1,150.000005722046
331,9,44853,2,0,B|334:84|334:84|338:89|338:89|342:157,1,150.000005722046
79,269,45017,6,0,B|107:242|107:242|112:241|112:241|137:218|137:218|161:234|161:234|165:232|165:232|219:264,1,150.000005722046
456,306,45181,2,0,B|428:333|428:333|423:334|423:334|398:357|398:357|374:341|374:341|370:343|370:343|316:311,1,150.000005722046
136,35,45345,6,0,B|174:35|174:35|179:38|179:38|213:39|213:39|218:68|218:68|222:69|222:69|238:130,1,150.000005722046
396,354,45509,2,0,B|357:353|357:353|352:350|352:350|318:349|318:349|313:320|313:320|309:319|309:319|293:258,1,150.000005722046
315,58,45672,5,0,0:0:0:0:
223,319,45754,1,0,0:0:0:0:
244,117,45836,1,0,0:0:0:0:
297,273,45918,1,0,0:0:0:0:
136,35,46000,6,0,L|51:25,3,75.0000028610231
149,124,46164,1,0,0:0:0:0:
150,134,46205,1,0,0:0:0:0:
151,143,46246,1,0,0:0:0:0:
152,152,46287,1,0,0:0:0:0:
158,148,46328,6,0,B|137:182|137:182|171:265|171:265|134:313,1,150.000005722046
396,354,46492,2,0,B|383:337|383:337|417:254|417:254|396:220,1,150.000005722046
285,32,46656,5,0,0:0:0:0:
239,188,46738,1,0,0:0:0:0:
289,20,46820,5,0,0:0:0:0:
331,228,46902,1,0,0:0:0:0:
81,79,46984,6,0,B|135:37|135:37|138:42|138:42|137:37|137:37|235:65,1,150.000005722046
247,321,47148,2,0,B|193:363|193:363|190:358|190:358|191:363|191:363|93:335,1,150.000005722046
512,59,47312,6,0,B|458:17|458:17|455:22|455:22|456:17|456:17|358:45,1,150.000005722046
346,301,47476,2,0,B|400:343|400:343|403:338|403:338|402:343|402:343|500:315,1,150.000005722046
81,79,47640,5,0,0:0:0:0:
244,104,47722,1,0,0:0:0:0:
99,153,47804,5,0,0:0:0:0:
225,31,47886,1,0,0:0:0:0:
145,250,47967,5,0,0:0:0:0:
235,175,48049,1,0,0:0:0:0:
225,305,48131,5,0,0:0:0:0:
163,183,48213,1,0,0:0:0:0:
328,365,48295,5,0,0:0:0:0:
392,118,48377,1,0,0:0:0:0:
319,369,48459,5,0,0:0:0:0:
383,121,48541,1,0,0:0:0:0:
107,338,48623,6,0,B|143:352|143:352|192:293|192:293|262:318,1,150.000005722046
307,22,48787,1,0,0:0:0:0:
405,347,48869,1,0,0:0:0:0:
15,211,48951,6,0,L|237:168,1,150.000005722046
512,236,49115,2,0,L|290:279,1,150.000005722046
184,71,49279,5,0,0:0:0:0:
280,232,49361,1,0,0:0:0:0:
309,22,49443,5,0,0:0:0:0:
278,247,49525,1,0,0:0:0:0:
177,61,49607,6,0,B|205:105|205:105|189:142|189:142|189:148|189:148|157:219,1,150.000005722046
249,380,49771,2,0,B|246:329|246:329|248:323|248:323|248:282|248:282|291:252,1,150.000005722046
0,239,49935,6,0,L|222:196,1,150.000005722046
493,255,50099,2,0,L|271:298,1,150.000005722046
84,105,50263,5,0,0:0:0:0:
92,213,50345,1,0,0:0:0:0:
152,114,50427,5,0,0:0:0:0:
159,192,50508,1,0,0:0:0:0:
223,121,50590,6,0,B|224:57|224:57|274:197,1,150.000005722046
228,255,50754,2,0,B|229:319|229:319|279:179,1,150.000005722046
355,56,50918,5,0,0:0:0:0:
457,238,51000,1,0,0:0:0:0:
430,0,51082,1,0,0:0:0:0:
384,299,51164,1,0,0:0:0:0:
223,121,51246,5,0,0:0:0:0:
207,119,51287,1,0,0:0:0:0:
192,115,51328,1,0,0:0:0:0:
176,112,51369,1,0,0:0:0:0:
158,108,51410,5,0,0:0:0:0:
126,112,51451,1,0,0:0:0:0:
86,120,51492,1,0,0:0:0:0:
17,134,51533,1,0,0:0:0:0:
85,106,51574,6,0,B|138:169|138:169|95:354|95:354|3:386,1,350
21,379,51902,6,0,P|24:339|14:292,1,50
0,202,52066,1,0,0:0:0:0:
42,255,52148,1,0,0:0:0:0:
132,286,52230,5,0,0:0:0:0:
180,167,52312,1,0,0:0:0:0:
199,313,52394,1,0,0:0:0:0:
200,305,52476,1,0,0:0:0:0:
137,373,52558,5,0,0:0:0:0:
328,275,52640,1,0,0:0:0:0:
132,286,52722,1,0,0:0:0:0:
334,362,52804,1,0,0:0:0:0:
344,177,52886,5,0,0:0:0:0:
376,113,52968,1,0,0:0:0:0:
315,83,53049,1,0,0:0:0:0:
286,145,53131,1,0,0:0:0:0:
437,214,53213,5,0,0:0:0:0:
225,44,53295,1,0,0:0:0:0:
455,62,53377,1,0,0:0:0:0:
208,184,53459,1,0,0:0:0:0:
63,89,53541,5,0,0:0:0:0:
74,162,53623,1,0,0:0:0:0:
139,104,53705,1,0,0:0:0:0:
142,117,53787,1,0,0:0:0:0:
208,184,53869,5,0,0:0:0:0:
225,44,53951,1,0,0:0:0:0:
266,312,54033,5,0,0:0:0:0:
305,2,54115,1,0,0:0:0:0:
334,362,54197,6,0,P|380:329|492:338,1,150
470,327,54525,6,0,B|464:302|464:302|475:245,1,50
473,135,54689,1,0,0:0:0:0:
437,214,54771,1,0,0:0:0:0:
366,232,54853,5,0,0:0:0:0:
279,149,54935,1,0,0:0:0:0:
302,251,55017,1,0,0:0:0:0:
302,261,55099,1,0,0:0:0:0:
201,213,55181,5,0,0:0:0:0:
235,12,55263,1,0,0:0:0:0:
207,221,55345,1,0,0:0:0:0:
237,22,55427,1,0,0:0:0:0:
91,109,55508,5,0,0:0:0:0:
58,172,55590,1,0,0:0:0:0:
117,208,55672,1,0,0:0:0:0:
147,144,55754,1,0,0:0:0:0:
71,18,55836,5,0,0:0:0:0:
201,297,55918,1,0,0:0:0:0:
71,4,56000,1,0,0:0:0:0:
57,315,56082,1,0,0:0:0:0:
207,221,56164,5,0,0:0:0:0:
302,251,56246,1,0,0:0:0:0:
279,149,56328,1,0,0:0:0:0:
274,161,56410,1,0,0:0:0:0:
300,71,56492,5,0,0:0:0:0:
393,284,56574,1,0,0:0:0:0:
231,0,56656,5,0,0:0:0:0:
499,326,56738,1,0,0:0:0:0:
274,382,56820,6,0,B|290:214|290:214|328:148,1,200
305,186,57148,6,0,P|287:237|287:257,1,50
397,107,57312,1,0,0:0:0:0:
410,183,57394,1,0,0:0:0:0:
393,284,57476,5,0,0:0:0:0:
493,215,57558,1,0,0:0:0:0:
458,40,57640,1,0,0:0:0:0:
457,32,57722,1,0,0:0:0:0:
246,96,57804,5,0,0:0:0:0:
502,122,57886,1,0,0:0:0:0:
244,104,57968,1,0,0:0:0:0:
503,112,58049,1,0,0:0:0:0:
208,166,58131,5,0,0:0:0:0:
163,103,58213,1,0,0:0:0:0:
200,36,58295,1,0,0:0:0:0:
246,96,58377,1,0,0:0:0:0:
138,295,58459,5,0,0:0:0:0:
102,20,58541,1,0,0:0:0:0:
240,348,58623,1,0,0:0:0:0:
75,144,58705,1,0,0:0:0:0:
341,111,58787,5,0,0:0:0:0:
208,166,58869,1,0,0:0:0:0:
401,206,58951,1,0,0:0:0:0:
410,183,59033,1,0,0:0:0:0:
375,273,59115,5,0,0:0:0:0:
322,27,59197,1,0,0:0:0:0:
463,334,59279,5,0,0:0:0:0:
318,13,59361,1,0,0:0:0:0:
463,340,59443,6,0,B|443:358|443:358|470:209|470:209|445:238,1,200
442,255,59771,2,0,P|464:227|472:178,1,50
375,64,59935,1,0,0:0:0:0:
318,13,60017,1,0,0:0:0:0:
260,134,60099,5,0,0:0:0:0:
452,73,60181,1,0,0:0:0:0:
191,93,60263,1,0,0:0:0:0:
181,93,60345,1,0,0:0:0:0:
119,284,60427,5,0,0:0:0:0:
348,167,60508,1,0,0:0:0:0:
106,286,60590,1,0,0:0:0:0:
375,273,60672,1,0,0:0:0:0:
276,373,60754,5,0,0:0:0:0:
240,316,60836,1,0,0:0:0:0:
294,279,60918,1,0,0:0:0:0:
330,335,61000,1,0,0:0:0:0:
122,171,61082,5,0,0:0:0:0:
384,51,61164,1,0,0:0:0:0:
226,202,61246,1,0,0:0:0:0:
500,76,61328,1,0,0:0:0:0:
204,6,61410,6,0,L|159:-4,6,25
238,215,61738,5,0,0:0:0:0:
105,35,61820,1,0,0:0:0:0:
176,370,61902,5,0,0:0:0:0:
340,12,61984,1,0,0:0:0:0:
443,367,62066,6,0,B|516:348|516:348|430:331|430:331|422:325|422:325|355:313|355:313|433:292,1,300
512,264,62722,5,0,0:0:0:0:
512,264,63377,6,0,B|497:167|497:167|492:164|492:164|480:85|480:85|422:100|422:100|416:97|416:97|348:114,1,300
283,254,64033,5,0,0:0:0:0:
152,0,64361,1,0,0:0:0:0:
93,245,64689,6,0,B|112:240|141:223|141:223|130:264|139:313|139:313|103:273|60:269|60:269|68:195|68:195|73:190|73:190|88:82,1,400
84,108,66000,6,0,B|55:146|55:146|148:130|148:130|154:135|154:135|260:118|260:118|234:110|220:91,1,300
302,30,66656,6,0,L|274:209,1,150
298,249,66984,6,0,L|303:274,1,25
314,297,67066,2,0,L|318:272,1,25
371,195,67148,6,0,L|366:219,1,25
391,313,67230,2,0,L|386:288,1,25
465,143,67312,6,0,P|411:92|327:110,1,125
232,332,67476,2,0,P|286:383|370:365,1,125
65,60,67640,6,0,P|119:9|203:27,1,125
298,249,67804,2,0,P|244:300|160:282,1,125
306,49,67968,5,0,0:0:0:0:
187,124,68049,1,0,0:0:0:0:
348,112,68131,5,0,0:0:0:0:
176,126,68213,1,0,0:0:0:0:
394,178,68295,5,0,0:0:0:0:
306,49,68377,1,0,0:0:0:0:
401,186,68459,5,0,0:0:0:0:
386,0,68541,1,0,0:0:0:0:
432,249,68623,6,0,B|438:195|438:195|434:188|434:188|442:111,1,125
172,252,68787,2,0,B|178:314|178:314|174:321|174:321|180:375,1,125
339,235,68951,6,0,B|345:181|345:181|341:174|341:174|349:97,1,125
79,238,69115,2,0,B|85:300|85:300|81:307|81:307|87:361,1,125
202,136,69279,5,0,0:0:0:0:
241,220,69361,1,0,0:0:0:0:
275,95,69443,5,0,0:0:0:0:
172,252,69525,1,0,0:0:0:0:
175,61,69607,5,0,0:0:0:0:
275,293,69689,1,0,0:0:0:0:
205,143,69771,5,0,0:0:0:0:
239,215,69853,1,0,0:0:0:0:
412,51,69935,6,0,B|385:52|385:52|386:58|386:58|378:53|378:53|325:56,1,62.5
375,250,70017,2,0,B|402:249|402:249|401:243|401:243|409:248|409:248|462:245,1,62.5
414,43,70099,6,0,B|384:44|384:44|385:51|385:51|376:45|376:45|318:49,1,62.5
372,257,70181,2,0,B|402:256|402:256|401:249|401:249|410:255|410:255|468:251,1,62.5
416,36,70263,6,0,B|383:37|383:37|384:44|384:44|375:38|375:38|311:42,1,62.5
370,264,70345,2,0,B|403:263|403:263|402:256|402:256|411:262|411:262|475:258,1,62.5
418,29,70427,6,0,B|383:30|383:30|384:38|384:38|373:31|373:31|323:35,1,62.5
368,271,70508,2,0,B|403:270|403:270|402:262|402:262|413:269|413:269|458:266,1,62.5
205,143,70590,6,0,B|232:138|232:138|240:141|240:141|266:136,1,62.5
492,111,70672,2,0,B|465:116|465:116|457:113|457:113|430:117,1,62.5
192,144,70754,6,0,B|222:138|222:138|230:142|230:142|259:136,1,62.5
504,109,70836,2,0,B|474:115|474:115|466:111|466:111|437:117,1,62.5
187,144,70918,6,0,B|218:139|218:139|227:142|227:142|256:137,1,62.5
509,109,71000,2,0,B|478:114|478:114|469:111|469:111|440:116,1,62.5
174,276,71082,6,0,B|199:259|199:259|209:259|209:259|234:243,1,62.5
509,109,71164,2,0,B|483:125|483:125|473:125|473:125|448:141,1,62.5
105,331,71246,6,0,L|92:282,4,31.25
222,0,71410,2,0,L|211:69,1,62.5
174,276,71492,2,0,L|187:227,4,31.25
49,59,71656,2,0,L|60:128,1,62.5
63,217,71738,5,0,0:0:0:0:
91,203,71779,1,0,0:0:0:0:
111,195,71820,1,0,0:0:0:0:
120,190,71861,1,0,0:0:0:0:
156,172,71902,6,0,L|262:155,14,62.5
311,186,72558,5,0,0:0:0:0:
315,191,72886,5,0,0:0:0:0:
318,196,73213,5,0,0:0:0:0:
322,201,73541,5,0,0:0:0:0:
225,263,73869,5,0,0:0:0:0:
221,268,74197,5,0,0:0:0:0:
218,273,74524,5,0,0:0:0:0:
214,278,74852,5,0,0:0:0:0:
388,319,75181,5,0,0:0:0:0:
384,314,75509,5,0,0:0:0:0:
381,309,75836,5,0,0:0:0:0:
377,304,76164,5,0,0:0:0:0:
206,384,76492,5,0,0:0:0:0:
210,379,76820,5,0,0:0:0:0:
213,374,77147,5,0,0:0:0:0:
217,369,77475,5,0,0:0:0:0:
168,153,77804,6,0,B|168:218|168:218|174:227|174:227|175:302|175:302|183:213|280:177,1,300
257,187,78131,6,0,P|243:227|247:276,2,80
314,112,79115,6,0,B|369:104|369:104|373:106|373:106|429:98|429:98|434:96|434:96|485:89|485:89|505:194|505:194|500:223|500:223|513:320,1,400
207,45,79771,2,0,B|151:37|151:37|147:39|147:39|91:31|91:31|86:29|86:29|35:22|35:22|15:127|15:127|20:156|20:156|7:253,1,400
243,340,80427,5,0,0:0:0:0:
336,293,80590,1,0,0:0:0:0:
288,199,80754,1,0,0:0:0:0:
193,243,80918,1,0,0:0:0:0:
31,78,81082,5,0,0:0:0:0:
275,113,81246,1,0,0:0:0:0:
238,355,81410,1,0,0:0:0:0:
1,326,81573,1,0,0:0:0:0:
426,65,81738,5,0,0:0:0:0:
448,282,81820,1,0,0:0:0:0:
347,47,81902,5,0,0:0:0:0:
370,313,81984,1,0,0:0:0:0:
263,28,82066,5,0,0:0:0:0:
288,348,82148,1,0,0:0:0:0:
175,13,82230,5,0,0:0:0:0:
201,371,82312,1,0,0:0:0:0:
183,0,82394,6,0,L|185:47,1,25
209,384,82476,6,0,L|207:359,1,25
270,21,82558,6,0,L|272:68,1,25
294,354,82640,6,0,L|292:329,1,25
83,6,82722,6,0,B|62:5|62:5|124:48,1,75.0000028610231
382,300,82804,2,0,B|402:300|402:300|340:257,1,75.0000028610231
0,215,82886,6,0,B|-15:229|-15:229|59:216,1,75.0000028610231
464,156,82967,2,0,B|479:142|479:142|405:155,1,75.0000028610231
90,349,83049,6,0,B|95:343|95:343|102:348|102:348|107:341|107:341|112:346|112:346|116:338|116:338|118:338,1,43.75
340,141,83377,6,0,L|330:190,2,50
228,53,83541,2,0,L|218:3,2,50
294,354,83705,5,0,0:0:0:0:
109,44,83787,1,0,0:0:0:0:
445,158,83869,5,0,0:0:0:0:
153,287,83951,1,0,0:0:0:0:
461,19,84033,5,0,0:0:0:0:
512,235,84115,1,0,0:0:0:0:
84,356,84197,1,0,0:0:0:0:
45,151,84279,1,0,0:0:0:0:
330,147,84361,5,0,0:0:0:0:
153,287,84443,1,0,0:0:0:0:
445,158,84525,5,0,0:0:0:0:
467,154,84566,1,0,0:0:0:0:
488,149,84607,1,0,0:0:0:0:
165,118,84689,5,0,0:0:0:0:
395,256,84771,2,0,L|444:288,2,50
157,108,84935,1,0,0:0:0:0:
256,384,85017,6,0,L|270:327,6,50
331,8,85345,5,0,0:0:0:0:
395,256,85427,1,0,0:0:0:0:
145,103,85508,2,0,L|151:78,4,25
401,244,85672,6,0,B|392:227|392:227|382:246,1,37.5
27,257,86000,6,0,L|99:240,2,50
286,196,86164,2,0,L|213:212,2,50
67,360,86328,5,0,0:0:0:0:
307,51,86410,1,0,0:0:0:0:
61,368,86492,5,0,0:0:0:0:
411,235,86574,1,0,0:0:0:0:
148,68,86656,5,0,0:0:0:0:
288,378,86738,1,0,0:0:0:0:
505,223,86820,1,0,0:0:0:0:
408,14,86902,1,0,0:0:0:0:
459,351,86984,5,0,0:0:0:0:
37,246,87066,1,0,0:0:0:0:
314,62,87148,5,0,0:0:0:0:
311,78,87189,1,0,0:0:0:0:
308,93,87230,1,0,0:0:0:0:
286,359,87312,5,0,0:0:0:0:
148,165,87394,2,0,L|135:242,2,50
284,340,87558,1,0,0:0:0:0:
507,44,87640,6,0,B|519:24|519:24|516:68,2,50
70,46,87804,6,0,L|143:57,1,50
421,86,87886,1,0,0:0:0:0:
91,321,87967,5,0,0:0:0:0:
315,64,88049,1,0,0:0:0:0:
414,384,88131,1,0,0:0:0:0:
321,46,88213,1,0,0:0:0:0:
272,197,88295,6,0,L|311:189,1,37.5,0|0,2:0|2:0,2:0:0:0:
403,177,88623,6,0,B|420:201|420:201|412:226,2,50
315,64,88787,2,0,B|298:40|298:40|303:20,2,50
229,306,88951,5,0,0:0:0:0:
421,86,89033,1,0,0:0:0:0:
512,354,89115,5,0,0:0:0:0:
225,312,89197,1,0,0:0:0:0:
315,64,89279,5,0,0:0:0:0:
344,351,89361,1,0,0:0:0:0:
51,339,89443,1,0,0:0:0:0:
35,150,89525,1,0,0:0:0:0:
225,312,89607,5,0,0:0:0:0:
427,211,89689,1,0,0:0:0:0:
192,90,89771,5,0,0:0:0:0:
191,109,89812,1,0,0:0:0:0:
189,130,89853,1,0,0:0:0:0:
158,375,89935,5,0,0:0:0:0:
304,249,90017,2,0,L|298:199,2,50
153,384,90181,1,0,0:0:0:0:
443,324,90263,6,0,L|504:306,6,50
130,243,90590,5,0,0:0:0:0:
420,116,90672,1,0,0:0:0:0:
121,249,90754,2,0,L|76:243,4,25
304,249,90918,6,0,P|318:243|306:244,1,37.5
168,54,91246,6,0,L|185:3,2,50
248,270,91410,2,0,L|231:219,2,50
72,338,91574,5,0,0:0:0:0:
295,87,91656,1,0,0:0:0:0:
163,304,91738,5,0,0:0:0:0:
210,132,91820,1,0,0:0:0:0:
72,338,91902,5,0,0:0:0:0:
470,384,91984,1,0,0:0:0:0:
369,52,92066,1,0,0:0:0:0:
120,168,92148,1,0,0:0:0:0:
248,270,92230,5,0,0:0:0:0:
494,146,92312,1,0,0:0:0:0:
112,106,92394,5,0,0:0:0:0:
109,141,92435,1,0,0:0:0:0:
120,168,92476,1,0,0:0:0:0:
492,140,92558,5,0,0:0:0:0:
244,275,92640,2,0,L|172:279,2,50
492,140,92804,1,0,0:0:0:0:
38,13,92886,6,0,B|30:32|30:32|55:17,2,50
74,346,93049,6,0,L|85:297,1,50
143,52,93131,1,0,0:0:0:0:
350,364,93213,6,0,L|300:359,1,50
137,46,93295,1,0,0:0:0:0:
496,210,93377,6,0,P|494:185|484:162,1,50
23,133,93459,1,0,0:0:0:0:
439,335,93541,6,0,P|442:297|442:297,3,27.5000008392334
38,14,93869,6,0,L|64:92,1,50
166,382,93951,1,0,0:0:0:0:
442,58,94033,6,0,L|366:69,1,50
23,133,94115,1,0,0:0:0:0:
337,159,94197,6,0,L|276:156,1,50
10,140,94279,1,0,0:0:0:0:
240,9,94361,5,0,0:0:0:0:
194,256,94443,1,0,0:0:0:0:
249,3,94525,5,0,0:0:0:0:
12,315,94607,1,0,0:0:0:0:
383,373,94689,1,0,0:0:0:0:
240,9,94771,1,0,0:0:0:0:
189,262,94853,5,0,0:0:0:0:
437,174,94935,1,0,0:0:0:0:
167,92,95017,6,0,B|92:116|92:116|114:94,1,100
445,172,95181,1,0,0:0:0:0:
181,273,95263,2,0,B|256:297|256:297|240:281,1,100
477,184,95427,1,0,0:0:0:0:
83,186,95508,5,0,0:0:0:0:
405,44,95590,1,0,0:0:0:0:
259,378,95672,1,0,0:0:0:0:
308,166,95754,1,0,0:0:0:0:
179,282,95836,5,0,0:0:0:0:
512,93,95918,1,0,0:0:0:0:
23,274,96000,6,0,B|49:267|49:267|24:289,4,50
230,25,96164,6,0,L|238:68,3,27.5000008392334
290,344,96492,6,0,L|309:278,1,50
361,51,96574,1,0,0:0:0:0:
423,360,96656,6,0,L|384:295,1,50
230,25,96738,1,0,0:0:0:0:
296,355,96820,6,0,L|315:289,1,50
365,69,96902,1,0,0:0:0:0:
157,172,96984,5,0,0:0:0:0:
483,290,97066,1,0,0:0:0:0:
98,292,97148,5,0,0:0:0:0:
497,295,97230,1,0,0:0:0:0:
225,13,97312,1,0,0:0:0:0:
133,381,97394,1,0,0:0:0:0:
416,350,97476,5,0,0:0:0:0:
494,96,97558,1,0,0:0:0:0:
113,302,97640,6,0,L|225:274,1,100
418,231,97804,1,0,0:0:0:0:
222,3,97886,2,0,L|249:119,1,100
310,357,98049,1,0,0:0:0:0:
393,49,98131,6,0,L|373:-20,2,50
46,26,98295,2,0,L|39:77,1,50
321,156,98377,1,0,0:0:0:0:
13,236,98459,5,0,0:0:0:0:
312,169,98541,1,0,0:0:0:0:
113,302,98623,1,0,0:0:0:0:
435,240,98705,1,0,0:0:0:0:
108,311,98787,6,0,L|110:274,3,27.5000008392334
96,21,99115,6,0,P|91:60|97:82,1,50
306,375,99197,1,0,0:0:0:0:
276,12,99279,6,0,P|281:51|275:73,1,50
115,383,99361,1,0,0:0:0:0:
111,82,99443,6,0,P|116:120|127:140,1,50
291,359,99525,1,0,0:0:0:0:
409,131,99607,5,0,0:0:0:0:
54,243,99689,1,0,0:0:0:0:
444,233,99771,5,0,0:0:0:0:
39,248,99853,1,0,0:0:0:0:
378,29,99935,1,0,0:0:0:0:
198,351,100017,1,0,0:0:0:0:
55,142,100099,5,0,0:0:0:0:
333,244,100181,1,0,0:0:0:0:
2,349,100263,6,0,L|129:323,1,100
345,245,100427,1,0,0:0:0:0:
31,252,100508,2,0,L|158:226,1,100
391,158,100672,1,0,0:0:0:0:
82,19,100754,5,0,0:0:0:0:
198,351,100836,1,0,0:0:0:0:
171,52,100918,1,0,0:0:0:0:
253,261,101000,1,0,0:0:0:0:
3,67,101082,5,0,0:0:0:0:
203,363,101164,1,0,0:0:0:0:
257,11,101246,2,0,L|246:53,4,25
225,170,101410,6,0,B|237:154|237:154|240:171,1,37.5
3,67,101738,6,0,P|51:67|123:156,1,100
12,355,101820,1,0,0:0:0:0:
509,67,101902,6,0,P|461:67|389:156,1,100
469,247,101984,1,0,0:0:0:0:
162,0,102066,6,0,B|150:67|150:67|145:15,1,100
110,291,102148,1,0,0:0:0:0:
289,47,102230,5,0,0:0:0:0:
104,301,102312,1,0,0:0:0:0:
469,247,102394,5,0,0:0:0:0:
20,207,102476,1,0,0:0:0:0:
509,67,102558,1,0,0:0:0:0:
12,355,102640,1,0,0:0:0:0:
296,38,102722,5,0,0:0:0:0:
363,373,102804,1,0,0:0:0:0:
204,26,102886,6,0,B|185:100|185:100|193:77|211:60,1,100
112,327,102967,1,0,0:0:0:0:
364,185,103049,6,0,B|293:228|293:228|315:218|339:218,1,100
96,337,103130,1,0,0:0:0:0:
509,67,103213,5,0,0:0:0:0:
256,354,103295,1,0,0:0:0:0:
22,48,103377,6,0,B|15:55|17:71|17:71|32:62|31:46,10,50
70,131,103623,2,0,P|99:91|111:42,1,100
485,7,103705,6,0,B|501:17|533:9|533:9|505:22|481:72,1,100
14,339,103787,2,0,B|-2:329|-34:337|-34:337|-6:324|18:274,1,100
332,0,103869,6,0,B|351:42|351:42|354:41|354:41|349:43|349:43|351:41|351:41|376:93,1,100
512,384,103951,2,0,B|493:344|493:344|491:346|491:346|495:344|495:344|492:345|492:345|473:303,1,100
53,249,104033,6,0,B|42:271|42:271|44:283|44:283|13:336|13:336|68:326|68:326|80:331|80:331|204:311|204:311|269:228|269:228|269:222|269:222|357:136|357:136|395:138|429:174|429:174|406:149|392:108|392:108|408:95|408:95|431:79|431:79|437:62|437:62|446:68|446:68|457:66|457:66|462:53|462:53|471:50|471:50|484:51|484:51|487:41|487:41|474:43|474:43|467:50|467:50|456:57|445:59|445:59|437:68|433:75|433:75|413:77|413:77|402:79|402:79|379:96|379:96|356:74|349:26|349:26|356:64|338:109|338:109|220:146|220:146|215:145|215:145|100:170|100:170|75:218,2,1408.00004296875
