osu file format v14

[General]
AudioFilename: audio.mp3
AudioLeadIn: 0
PreviewTime: -1
Countdown: 3
SampleSet: None
StackLeniency: 0.7
Mode: 0
LetterboxInBreaks: 0
WidescreenStoryboard: 0

[Editor]
DistanceSpacing: 0.5
BeatDivisor: 4
GridSize: 8
TimelineZoom: 1

[Metadata]
Title:Theme for Psychopath Justice
TitleUnicode:Theme for Psychopath Justice
Artist:Kobaryo
ArtistUnicode:Kobaryo
Creator:bannerisred
Version:The Rising Hero
Source:
Tags:banner, bannerisred, theme, of, psychopath, justice, kobaryo, streams, jumps,
BeatmapID:4556032
BeatmapSetID:2160555

[Difficulty]
HPDrainRate:5
CircleSize:4
OverallDifficulty:10
ApproachRate:9.5
SliderMultiplier:1.4
SliderTickRate:1

[Events]
//Background and Video events
0,0,"Milky_Way_Galaxy_shimmering_over_Nanga_Parbat_Pakistan.jpg",0,0
//Break Periods
2,62265,66459
2,72758,75967
//Storyboard Layer 0 (Background)
//Storyboard Layer 1 (Fail)
//Storyboard Layer 2 (Pass)
//Storyboard Layer 3 (Foreground)
//Storyboard Layer 4 (Overlay)
//Storyboard Sound Samples

[TimingPoints]
30591,327.868852459016,4,2,0,100,1,0
35836,-125,4,2,0,100,0,0
36984,-100,4,2,0,100,0,0
38295,-90.9090909090909,4,2,0,100,0,0
39607,-125,4,2,0,100,0,0
41082,-41.6666666666667,4,2,0,100,0,0
42394,-33.3333333333333,4,2,0,100,0,0
42722,-41.6666666666667,4,2,0,100,0,0
51574,-100,4,2,0,100,0,0
67312,-83.3333333333333,4,2,0,100,0,0
83050,-153.846153846154,4,2,0,100,0,0
83541,-66.6666666666667,4,2,0,100,0,0

[HitObjects]
133,92,30591,6,0,L|193:137,1,70
277,124,30918,1,0,0:0:0:0:
359,157,31082,1,0,0:0:0:0:
179,223,31410,5,0,0:0:0:0:
129,290,31574,1,0,0:0:0:0:
224,292,31738,1,0,0:0:0:0:
382,299,31902,6,0,P|383:256|364:220,1,70
329,158,32230,1,0,0:0:0:0:
392,99,32394,1,0,0:0:0:0:
218,196,32722,5,0,0:0:0:0:
124,140,32886,1,0,0:0:0:0:
89,244,33050,1,0,0:0:0:0:
194,292,33213,6,0,L|222:199,1,70
290,76,33541,1,0,0:0:0:0:
385,162,33705,1,0,0:0:0:0:
297,305,34033,5,0,0:0:0:0:
200,298,34197,1,0,0:0:0:0:
221,199,34361,1,0,0:0:0:0:
324,203,34525,1,0,0:0:0:0:
256,192,34853,12,0,35509,0:0:0:0:
392,323,35836,6,0,L|399:209,1,112
410,137,36328,2,0,B|353:77|353:77|269:113,1,168
131,113,37148,6,0,B|123:157|154:157|120:167|145:169|112:181|135:193|112:207|132:249,1,140
164,312,37640,2,0,B|192:339|192:339|203:304|203:304|218:344|218:344|247:297|247:297|194:304,1,210
331,328,38459,6,0,B|380:278|380:278|331:242|331:242|301:236,1,154.000004699707
349,168,38951,2,0,B|392:165|392:165|337:117|338:117|291:157|291:157|262:142|262:142|261:187,1,231.000007049561
256,192,39771,12,0,40754,0:0:0:0:
330,25,41082,6,0,B|273:76|273:76|291:174,1,167.999994873047
392,259,41410,2,0,B|480:290|480:290|350:328,1,167.999994873047
327,219,41738,2,0,B|235:254|235:254|167:230,1,167.999994873047
152,304,42066,2,0,B|65:262|65:262|105:178,1,167.999994873047
316,57,42394,6,0,B|211:63|187:63|187:63|230:138,1,210.000008010865
274,183,42722,2,0,B|337:238|337:238|246:280,1,167.999994873047
183,277,43050,2,0,B|111:229|111:229|178:176,1,167.999994873047
239,133,43377,2,0,B|306:75|306:75|210:67,1,167.999994873047
147,63,43705,6,0,B|62:71|63:72|141:173,1,167.999994873047
181,216,44033,2,0,P|124:284|194:303,1,167.999994873047
244,317,44361,2,0,P|308:256|226:252,1,167.999994873047
268,156,44689,2,0,B|361:160|362:160|439:176|439:176|405:142,1,167.999994873047
260,222,45017,6,0,P|362:219|457:241,1,167.999994873047
251,291,45345,2,0,P|361:273|472:293,1,167.999994873047
185,290,45672,2,0,P|68:278|7:300,1,167.999994873047
195,222,46000,2,0,P|105:208|-9:233,1,167.999994873047
314,46,46328,6,0,L|230:205,1,167.999994873047
128,333,46656,2,0,L|246:119,1,167.999994873047
138,55,46984,2,0,L|251:184,1,167.999994873047
362,331,47312,2,0,L|231:188,1,167.999994873047
357,59,47640,6,0,L|133:63,1,167.999994873047
112,60,47968,2,0,L|119:253,1,167.999994873047
125,298,48295,2,0,L|324:308,1,167.999994873047
375,313,48623,2,0,L|360:76,1,167.999994873047
244,91,48951,6,0,L|121:218,1,167.999994873047
71,265,49279,2,0,L|215:360,1,167.999994873047
291,322,49607,2,0,L|432:212,1,167.999994873047
367,163,49935,2,0,L|219:74,1,167.999994873047
219,160,50263,6,0,L|157:219,2,83.9999974365235
211,271,50591,2,0,L|297:266,2,83.9999974365235
361,226,50918,2,0,P|410:154|349:164,3,167.999994873047
242,58,51574,6,0,B|216:82|283:78|208:98|253:93|181:125|208:136,1,70
335,149,51902,1,8,0:0:0:0:
257,157,52066,1,0,0:0:0:0:
187,164,52230,1,0,0:0:0:0:
115,168,52394,1,0,0:0:0:0:
118,242,52558,1,8,0:0:0:0:
193,238,52722,1,0,0:0:0:0:
266,229,52886,1,0,0:0:0:0:
336,226,53050,1,0,0:0:0:0:
344,298,53213,1,8,0:0:0:0:
271,303,53377,1,0,0:0:0:0:
199,307,53541,1,0,0:0:0:0:
126,306,53705,1,0,0:0:0:0:
124,227,53869,2,0,L|177:171,1,70,8|0,0:0|0:0,0:0:0:0:
256,34,54197,6,0,B|270:59|231:56|269:74|228:76|256:100,1,70
372,105,54525,1,8,0:0:0:0:
297,117,54689,1,0,0:0:0:0:
224,125,54853,1,0,0:0:0:0:
150,146,55017,1,0,0:0:0:0:
78,166,55181,1,8,0:0:0:0:
90,238,55345,1,0,0:0:0:0:
161,221,55509,1,0,0:0:0:0:
230,203,55672,1,0,0:0:0:0:
301,182,55836,1,8,0:0:0:0:
370,155,56000,1,0,0:0:0:0:
431,128,56164,1,0,0:0:0:0:
464,178,56328,1,0,0:0:0:0:
408,218,56492,2,0,L|358:163,1,70
251,45,56820,6,0,B|286:55|234:66|282:68|233:83|282:83|233:106,1,70
165,166,57148,1,8,0:0:0:0:
162,299,57312,1,0,0:0:0:0:
281,302,57476,1,0,0:0:0:0:
283,167,57640,1,0,0:0:0:0:
165,166,57804,1,8,0:0:0:0:
162,299,57968,1,0,0:0:0:0:
281,302,58131,1,0,0:0:0:0:
283,167,58295,1,0,0:0:0:0:
165,166,58459,1,8,0:0:0:0:
162,299,58623,1,0,0:0:0:0:
281,302,58787,2,0,L|282:222,1,70
283,167,59115,2,0,L|285:227,2,35
256,52,59443,6,0,B|295:58|228:81|268:80|233:92|295:93|222:118|277:118,1,70
197,182,59771,1,8,0:0:0:0:
108,269,59935,1,0,0:0:0:0:
218,328,60099,1,0,0:0:0:0:
294,244,60263,1,0,0:0:0:0:
197,182,60427,1,8,0:0:0:0:
108,269,60591,1,0,0:0:0:0:
218,328,60754,1,0,0:0:0:0:
294,244,60918,1,0,0:0:0:0:
197,182,61082,1,8,0:0:0:0:
108,269,61246,1,0,0:0:0:0:
218,328,61410,1,0,0:0:0:0:
294,244,61574,1,0,0:0:0:0:
197,182,61738,2,0,L|224:122,4,35,8|0|0|0|0,0:0|0:0|0:0|0:0|0:0,0:0:0:0:
93,327,66984,6,0,L|146:253,1,70
211,66,67312,2,0,L|244:169,1,83.9999974365235
295,289,67640,2,0,L|257:192,1,83.9999974365235
205,57,67968,2,0,L|244:163,1,83.9999974365235
302,283,68295,2,0,L|256:171,1,83.9999974365235
315,78,68623,2,0,L|256:160,1,83.9999974365235
170,270,68951,2,0,L|230:182,1,83.9999974365235
314,77,69279,2,0,L|256:159,1,83.9999974365235
179,266,69607,2,0,L|232:190,1,83.9999974365235
348,279,69935,5,0,0:0:0:0:
296,223,70099,1,0,0:0:0:0:
221,211,70263,1,0,0:0:0:0:
189,144,70427,1,0,0:0:0:0:
151,204,70591,1,0,0:0:0:0:
95,252,70754,1,0,0:0:0:0:
166,274,70918,1,0,0:0:0:0:
233,274,71082,1,0,0:0:0:0:
305,270,71246,6,0,L|323:310,2,41.9999987182618
353,221,71574,2,0,L|382:256,3,27.9999991455078
325,153,71902,1,0,0:0:0:0:
248,149,72066,1,0,0:0:0:0:
216,213,72230,1,0,0:0:0:0:
175,150,72394,1,0,0:0:0:0:
148,211,72558,1,0,0:0:0:0:
256,192,76492,12,0,77476,0:0:0:0:
175,118,77804,6,0,B|232:120|232:120|253:152|253:152|288:124|288:124|327:128,3,167.999994873047
335,220,79115,2,0,B|340:277|340:278|298:290,1,83.9999974365235
221,292,79443,2,0,B|177:332|177:332|175:275,1,83.9999974365235
94,308,79771,2,0,P|92:235|108:193,1,83.9999974365235
126,151,80099,2,0,B|161:186|161:186|184:149|184:149|197:152,1,83.9999974365235
309,109,80427,6,0,B|265:106|265:106|249:141|249:141|207:113|207:113|166:122,3,167.999994873047
256,192,81738,12,0,82722,0:0:0:0:
255,68,83050,6,0,B|255:109|255:95|254:112|254:92|256:121|256:107|258:125|250:117|258:133|246:135|255:146|253:159,1,83.9999974365235
317,185,83541,1,0,0:0:0:0:
274,244,83623,1,0,0:0:0:0:
212,214,83705,1,0,0:0:0:0:
161,258,83787,1,0,0:0:0:0:
141,212,83869,1,0,0:0:0:0:
179,177,83951,1,0,0:0:0:0:
166,212,84033,1,0,0:0:0:0:
185,213,84115,1,0,0:0:0:0:
212,214,84197,1,0,0:0:0:0:
236,323,84361,5,0,0:0:0:0:
273,291,84443,1,0,0:0:0:0:
293,252,84525,1,0,0:0:0:0:
278,219,84607,1,0,0:0:0:0:
307,205,84689,1,0,0:0:0:0:
346,199,84771,1,0,0:0:0:0:
305,166,84853,1,0,0:0:0:0:
268,192,84935,1,0,0:0:0:0:
231,124,85017,2,0,L|207:109,5,26.2500010013581
201,170,85263,2,0,L|186:177,14,13.125000500679
186,232,85672,6,0,B|199:291|232:241|251:275|267:230,1,105.000004005432
336,153,86000,1,0,0:0:0:0:
361,162,86082,1,0,0:0:0:0:
323,184,86164,1,0,0:0:0:0:
296,151,86246,1,0,0:0:0:0:
335,122,86328,1,0,0:0:0:0:
362,164,86410,1,0,0:0:0:0:
310,177,86492,1,0,0:0:0:0:
307,138,86574,1,0,0:0:0:0:
368,135,86656,1,0,0:0:0:0:
354,180,86738,1,0,0:0:0:0:
301,178,86820,1,0,0:0:0:0:
321,126,86902,1,0,0:0:0:0:
380,138,86984,1,0,0:0:0:0:
356,192,87066,1,0,0:0:0:0:
295,177,87148,1,0,0:0:0:0:
307,129,87230,1,0,0:0:0:0:
355,131,87312,1,0,0:0:0:0:
353,188,87394,1,0,0:0:0:0:
300,174,87455,2,0,L|284:187,2,13.125000500679
309,127,87476,2,0,L|298:116,5,13.125000500679
354,132,87558,2,0,L|369:120,5,13.125000500679
356,190,87640,2,0,L|362:201,5,13.125000500679
310,182,87722,1,0,0:0:0:0:
314,137,87804,1,0,0:0:0:0:
355,141,87886,1,0,0:0:0:0:
361,193,87968,1,0,0:0:0:0:
312,182,88050,1,0,0:0:0:0:
302,147,88131,1,0,0:0:0:0:
232,52,88295,6,0,B|277:78|226:74|249:81|276:84|226:88|250:90|277:89|247:103|223:97|244:121|272:101|244:138|226:124|240:150|259:131|224:167,1,105.000004005432
177,242,88623,1,0,0:0:0:0:
203,255,88705,1,0,0:0:0:0:
164,233,88787,1,0,0:0:0:0:
218,263,88869,1,0,0:0:0:0:
150,226,88951,1,0,0:0:0:0:
239,268,89033,1,0,0:0:0:0:
136,220,89115,1,0,0:0:0:0:
256,272,89197,1,0,0:0:0:0:
116,210,89279,1,0,0:0:0:0:
280,280,89361,1,0,0:0:0:0:
93,200,89443,1,0,0:0:0:0:
264,275,89525,1,0,0:0:0:0:
121,212,89607,1,0,0:0:0:0:
245,273,89689,1,0,0:0:0:0:
141,219,89771,1,0,0:0:0:0:
212,257,89853,1,0,0:0:0:0:
155,228,89935,1,0,0:0:0:0:
207,248,90017,1,0,0:0:0:0:
164,234,90099,1,0,0:0:0:0:
204,248,90181,1,0,0:0:0:0:
169,251,90263,1,0,0:0:0:0:
196,224,90345,1,0,0:0:0:0:
212,257,90427,1,0,0:0:0:0:
158,222,90509,1,0,0:0:0:0:
162,258,90591,1,0,0:0:0:0:
199,220,90672,1,0,0:0:0:0:
198,255,90754,1,0,0:0:0:0:
255,48,90918,6,0,B|211:84|293:78|211:92|276:104|199:112|267:80|253:124|216:118|303:161|194:143,1,105.000004005432
293,292,91246,1,0,0:1:0:0:
294,243,91328,1,0,0:1:0:0:
339,244,91410,1,0,0:1:0:0:
341,298,91492,1,0,0:1:0:0:
292,284,91574,1,0,0:1:0:0:
297,237,91656,1,0,0:1:0:0:
346,236,91738,1,0,0:1:0:0:
347,286,91820,1,0,0:1:0:0:
295,282,91902,1,0,0:1:0:0:
297,228,91984,1,0,0:1:0:0:
345,227,92066,1,0,0:1:0:0:
346,284,92148,1,0,0:1:0:0:
322,258,92230,1,0,0:1:0:0:
292,284,92312,1,0,0:1:0:0:
303,223,92394,1,0,0:1:0:0:
351,226,92476,1,0,0:1:0:0:
322,258,92558,1,0,0:1:0:0:
356,285,92640,1,0,0:1:0:0:
300,275,92722,1,0,0:0:0:0:
312,227,92804,1,0,0:0:0:0:
364,232,92886,1,0,0:0:0:0:
356,278,92968,1,0,0:0:0:0:
322,258,93050,1,0,0:0:0:0:
298,277,93131,1,0,0:0:0:0:
319,248,93213,1,0,0:0:0:0:
303,223,93295,1,0,0:0:0:0:
330,249,93377,1,0,0:0:0:0:
255,42,93541,6,0,B|210:71|276:67|229:72|279:73|236:78|267:78|210:82|290:84|211:87|327:89|180:101|288:100|176:105|290:108|220:142,1,105.000004005432
111,144,93869,1,0,0:0:0:0:
137,192,93951,1,0,0:0:0:0:
184,237,94033,1,0,0:0:0:0:
246,259,94115,1,0,0:0:0:0:
302,235,94197,1,0,0:0:0:0:
343,187,94279,1,0,0:0:0:0:
359,128,94361,1,0,0:0:0:0:
322,85,94443,1,0,0:0:0:0:
260,49,94525,1,0,0:0:0:0:
191,70,94607,1,0,0:0:0:0:
149,118,94689,1,0,0:0:0:0:
121,181,94771,1,0,0:0:0:0:
155,268,94853,1,0,0:0:0:0:
257,304,94935,1,0,0:0:0:0:
346,247,95017,1,0,0:0:0:0:
354,162,95099,1,0,0:0:0:0:
288,110,95181,1,0,0:0:0:0:
192,125,95263,1,0,0:0:0:0:
148,197,95345,1,0,0:0:0:0:
183,286,95427,1,0,0:0:0:0:
279,314,95509,1,0,0:0:0:0:
357,250,95590,1,0,0:0:0:0:
346,150,95672,1,0,0:0:0:0:
283,115,95754,1,0,0:0:0:0:
197,133,95836,1,0,0:0:0:0:
159,199,95918,1,0,0:0:0:0:
190,277,96000,1,0,0:0:0:0:
276,306,96082,1,0,0:0:0:0:
258,42,96164,6,0,B|205:67|331:52|203:76|352:51|197:83|342:61|213:91|355:52|271:112,1,105.000004005432
366,165,96492,1,0,0:0:0:0:
339,243,96574,1,0,0:0:0:0:
273,286,96656,1,0,0:0:0:0:
196,253,96738,1,0,0:0:0:0:
158,182,96820,5,0,0:0:0:0:
209,253,96902,1,0,0:0:0:0:
288,286,96984,1,0,0:0:0:0:
352,244,97066,1,0,0:0:0:0:
382,163,97148,5,0,0:0:0:0:
328,243,97230,1,0,0:0:0:0:
260,284,97312,1,0,0:0:0:0:
182,251,97394,1,0,0:0:0:0:
145,180,97476,1,0,0:0:0:0:
192,83,97558,5,0,0:0:0:0:
202,152,97640,1,0,0:0:0:0:
221,224,97722,1,0,0:0:0:0:
235,293,97804,1,0,0:0:0:0:
289,340,97886,1,0,0:0:0:0:
303,268,97968,1,0,0:0:0:0:
284,202,98050,1,0,0:0:0:0:
262,134,98131,1,0,0:0:0:0:
251,86,98213,1,0,0:0:0:0:
319,82,98295,1,0,0:0:0:0:
330,150,98377,1,0,0:0:0:0:
345,214,98459,1,0,0:0:0:0:
364,278,98541,1,0,0:0:0:0:
360,344,98623,2,0,L|371:353,3,13.125000500679
246,57,98787,6,0,B|180:76|271:68|180:86|315:83|183:113|321:89|207:136,1,105.000004005432
78,111,99115,2,0,L|91:193,1,52.5000020027161
105,223,99279,2,0,L|145:264,1,52.5000020027161
211,284,99443,2,0,L|276:279,1,52.5000020027161
342,274,99607,2,0,L|372:223,1,52.5000020027161
411,144,99771,2,0,B|402:96|401:92|401:92|390:100,1,52.5000020027161
390,46,99935,2,0,L|403:117,1,52.5000020027161
399,197,100099,2,0,L|366:245,1,52.5000020027161
303,286,100263,2,0,L|234:284,1,52.5000020027161
185,253,100427,2,0,L|153:182,1,52.5000020027161
149,139,100590,2,0,P|164:79|164:77,1,52.5000020027161
169,53,100754,2,0,L|187:115,1,52.5000020027161
215,173,100918,2,0,L|274:223,1,52.5000020027161
329,211,101082,2,0,L|310:155,1,52.5000020027161
305,89,101246,2,0,L|293:70,5,13.125000500679
255,46,101410,6,0,B|216:81|283:65|204:86|298:68|204:98|316:70|193:103|324:71|256:128,1,105.000004005432
150,217,101738,2,0,B|133:281|162:264|118:275|166:290|111:282|148:273|186:296,1,105.000004005432
248,299,102066,2,0,B|291:333|282:334|296:323|275:332|293:333|282:310|279:330|308:273,1,105.000004005432
337,202,102394,2,0,B|388:167|388:167|362:126,1,105.000004005432
307,79,102722,2,0,B|255:36|255:36|204:63,1,105.000004005432
151,92,103050,2,0,B|94:106|94:106|97:152,1,105.000004005432
106,239,103377,2,0,B|69:280|69:280|118:303,1,105.000004005432
186,327,103705,2,0,L|309:323,1,105.000004005432
256,192,104033,12,0,109279,0:0:0:0:
