osu file format v14

[General]
AudioFilename: audio.mp3
AudioLeadIn: 0
PreviewTime: 53961
Countdown: 0
SampleSet: Normal
StackLeniency: 0.7
Mode: 1
LetterboxInBreaks: 0
WidescreenStoryboard: 1

[Editor]
DistanceSpacing: 0.3
BeatDivisor: 4
GridSize: 8
TimelineZoom: 2.3

[Metadata]
Title:The Lightning Sword
TitleUnicode:The Lightning Sword
Artist:Kobaryo
ArtistUnicode:Kobaryo
Creator:Cynplytholowazy
Version:Muzukashii
Source:
Tags:osu! Featured Artist FA Power Metal Speedcore Heavy Hardcore Electronic Instrumental Elder Dragon Legend II ~The Revenge of Swamp Queen~
BeatmapID:3676406
BeatmapSetID:1793821

[Difficulty]
HPDrainRate:6
CircleSize:10
OverallDifficulty:5
ApproachRate:10
SliderMultiplier:1.4
SliderTickRate:1

[Events]
//Background and Video events
0,0,"cassiano-k-wehr-MmPV29DcwME-unsplash.jpg",0,0
//Break Periods
//Storyboard Layer 0 (Background)
//Storyboard Layer 1 (Fail)
//Storyboard Layer 2 (Pass)
//Storyboard Layer 3 (Foreground)
//Storyboard Layer 4 (Overlay)
//Storyboard Sound Samples

[TimingPoints]
2137,270.270270270271,4,1,0,100,1,0
2407,-100,4,1,0,5,0,0
4028,-100,4,1,0,100,0,0
4569,-100,4,1,0,5,0,0
5650,-100,4,1,0,100,0,0
6731,-100,4,1,0,5,0,0
7001,-100,4,1,0,100,0,0
10785,-100,4,1,0,100,0,1
18353,-100,4,1,0,100,0,0
19434,-100,4,1,0,100,0,1
27001,-100,4,1,0,100,0,0
54028,-100,4,1,0,100,0,1
65920,-100,4,1,0,100,0,0
67001,-100,4,1,0,100,0,1
70245,-100,4,1,0,100,0,0
71326,-100,4,1,0,100,0,1
78893,-100,4,1,0,100,0,0
79974,-100,4,1,0,100,0,1
87542,-100,4,1,0,100,0,0
140785,-100,4,1,0,5,0,0
141326,-100,4,1,0,100,0,0
142947,-100,4,1,0,5,0,0
143353,-100,4,1,0,100,0,0
167272,-100,4,1,0,100,0,0
167542,-100,4,1,0,100,0,1
175109,-100,4,1,0,100,0,0
176191,-100,4,1,0,100,0,1
180245,-100,4,1,0,100,0,0
180515,-100,4,1,0,100,0,1
183758,-100,4,1,0,100,0,0
184839,-100,4,1,0,100,0,1
192407,-100,4,1,0,100,0,0
193488,-100,4,1,0,100,0,1
201055,-100,4,1,0,100,0,0
202137,-100,4,1,0,100,0,1
205245,-100,4,1,0,100,0,0

[HitObjects]
314,154,2137,5,6,0:0:0:0:
314,154,4299,1,6,0:0:0:0:
314,154,5920,1,2,0:0:0:0:
314,154,5988,1,2,0:0:0:0:
314,154,6055,1,2,0:0:0:0:
314,154,6191,1,0,0:0:0:0:
314,154,6461,1,6,0:0:0:0:
314,154,7272,1,2,0:0:0:0:
314,154,7407,1,0,0:0:0:0:
314,154,7542,1,6,0:0:0:0:
314,154,8082,1,0,0:0:0:0:
314,154,8218,1,2,0:0:0:0:
314,154,8353,1,0,0:0:0:0:
314,154,8623,1,2,0:0:0:0:
314,154,8758,1,2,0:0:0:0:
314,154,8826,1,2,0:0:0:0:
314,154,8893,1,2,0:0:0:0:
314,154,9028,1,0,0:0:0:0:
314,154,9164,1,0,0:0:0:0:
314,154,9231,1,0,0:0:0:0:
314,154,9299,1,0,0:0:0:0:
314,154,9434,1,0,0:0:0:0:
279,162,9704,1,2,0:0:0:0:
279,162,9839,1,2,0:0:0:0:
279,162,9907,1,2,0:0:0:0:
302,210,9974,1,2,0:0:0:0:
358,162,10109,1,0,0:0:0:0:
358,162,10245,1,0,0:0:0:0:
358,162,10312,1,0,0:0:0:0:
358,162,10380,1,0,0:0:0:0:
358,162,10515,1,2,0:0:0:0:
306,231,10785,1,4,0:0:0:0:
214,192,11326,1,2,0:0:0:0:
214,192,11461,1,2,0:0:0:0:
227,266,11596,1,0,0:0:0:0:
227,266,11731,1,2,0:0:0:0:
345,148,12001,1,2,0:0:0:0:
290,153,12069,1,2,0:0:0:0:
344,156,12137,1,2,0:0:0:0:
343,156,12407,1,0,0:0:0:0:
343,156,12542,1,2,0:0:0:0:
126,168,12677,1,0,0:0:0:0:
126,168,12812,1,2,0:0:0:0:
290,245,12947,1,0,0:0:0:0:
252,236,13488,1,2,0:0:0:0:
246,170,13623,1,2,0:0:0:0:
246,170,13758,1,0,0:0:0:0:
246,170,13893,1,2,0:0:0:0:
239,116,14164,1,2,0:0:0:0:
239,116,14231,1,2,0:0:0:0:
239,116,14299,1,2,0:0:0:0:
239,116,14569,1,0,0:0:0:0:
239,116,14704,1,2,0:0:0:0:
203,295,14839,1,0,0:0:0:0:
203,295,14974,1,2,0:0:0:0:
330,243,15109,1,0,0:0:0:0:
330,243,15650,1,2,0:0:0:0:
330,243,15785,1,2,0:0:0:0:
240,247,15920,1,0,0:0:0:0:
240,247,16055,1,2,0:0:0:0:
223,177,16326,1,2,0:0:0:0:
223,177,16461,1,0,0:0:0:0:
223,177,16596,1,2,0:0:0:0:
223,177,16664,1,2,0:0:0:0:
223,177,16731,1,2,0:0:0:0:
223,177,16866,1,2,0:0:0:0:
194,185,17001,1,0,0:0:0:0:
194,185,17137,1,2,0:0:0:0:
277,238,17272,1,0,0:0:0:0:
262,128,17812,1,2,0:0:0:0:
262,128,17947,1,2,0:0:0:0:
262,128,18082,1,0,0:0:0:0:
262,128,18353,1,2,0:0:0:0:
262,128,18420,1,2,0:0:0:0:
343,178,18488,1,2,0:0:0:0:
343,178,18623,1,0,0:0:0:0:
343,178,18758,1,2,0:0:0:0:
343,178,18826,1,2,0:0:0:0:
343,178,18893,1,2,0:0:0:0:
343,178,19028,1,0,0:0:0:0:
343,178,19164,1,2,0:0:0:0:
306,231,19434,1,0,0:0:0:0:
214,192,19974,1,2,0:0:0:0:
214,192,20109,1,2,0:0:0:0:
227,266,20245,1,0,0:0:0:0:
227,266,20380,1,2,0:0:0:0:
345,148,20650,1,2,0:0:0:0:
290,153,20718,1,2,0:0:0:0:
344,156,20785,1,2,0:0:0:0:
343,156,21055,1,0,0:0:0:0:
343,156,21191,1,2,0:0:0:0:
126,168,21326,1,0,0:0:0:0:
126,168,21461,1,2,0:0:0:0:
290,245,21596,1,0,0:0:0:0:
252,236,22137,1,2,0:0:0:0:
246,170,22272,1,2,0:0:0:0:
246,170,22407,1,0,0:0:0:0:
246,170,22542,1,2,0:0:0:0:
239,116,22812,1,2,0:0:0:0:
239,116,22880,1,2,0:0:0:0:
239,116,22947,1,2,0:0:0:0:
239,116,23218,1,0,0:0:0:0:
239,116,23353,1,2,0:0:0:0:
203,295,23488,1,0,0:0:0:0:
203,295,23623,1,2,0:0:0:0:
330,243,23758,1,0,0:0:0:0:
330,243,24299,1,2,0:0:0:0:
330,243,24434,1,2,0:0:0:0:
240,247,24569,1,0,0:0:0:0:
240,247,24704,1,2,0:0:0:0:
223,177,24974,1,2,0:0:0:0:
223,177,25109,1,0,0:0:0:0:
223,177,25245,1,2,0:0:0:0:
223,177,25312,1,2,0:0:0:0:
223,177,25380,1,2,0:0:0:0:
223,177,25515,1,2,0:0:0:0:
194,185,25650,1,0,0:0:0:0:
322,123,25920,1,2,0:0:0:0:
322,123,26055,1,0,0:0:0:0:
322,123,26123,1,0,0:0:0:0:
319,227,26191,1,0,0:0:0:0:
319,227,26326,1,2,0:0:0:0:
126,149,26461,1,0,0:0:0:0:
126,149,26528,1,0,0:0:0:0:
246,266,26596,1,0,0:0:0:0:
364,177,26731,1,2,0:0:0:0:
364,177,27001,1,2,0:0:0:0:
256,202,27812,1,2,0:0:0:0:
256,202,28082,1,6,0:0:0:0:
211,217,28488,1,2,0:0:0:0:
211,217,28758,1,2,0:0:0:0:
212,312,28893,1,0,0:0:0:0:
304,168,29164,1,0,0:0:0:0:
304,168,29299,1,2,0:0:0:0:
304,168,29434,1,0,0:0:0:0:
208,128,29569,1,2,0:0:0:0:
244,129,29839,1,2,0:0:0:0:
244,129,29974,1,0,0:0:0:0:
355,131,30109,1,2,0:0:0:0:
355,131,30245,1,0,0:0:0:0:
297,213,30650,1,2,0:0:0:0:
361,194,30920,1,2,0:0:0:0:
361,194,31055,1,0,0:0:0:0:
195,200,31326,1,0,0:0:0:0:
249,166,31461,1,2,0:0:0:0:
136,199,31596,1,0,0:0:0:0:
136,199,31731,1,2,0:0:0:0:
292,165,32001,1,2,0:0:0:0:
292,165,32137,1,0,0:0:0:0:
292,165,32272,1,2,0:0:0:0:
364,109,32407,1,4,0:0:0:0:
232,166,32677,1,0,0:0:0:0:
232,166,32812,1,2,0:0:0:0:
232,166,33082,1,2,0:0:0:0:
232,166,33218,1,0,0:0:0:0:
273,237,33353,1,2,0:0:0:0:
273,237,33488,1,0,0:0:0:0:
273,237,33623,1,2,0:0:0:0:
275,162,33893,1,2,0:0:0:0:
180,252,34164,1,2,0:0:0:0:
312,190,34299,1,0,0:0:0:0:
166,141,34434,1,2,0:0:0:0:
166,141,34569,1,0,0:0:0:0:
300,155,34974,1,2,0:0:0:0:
221,191,35245,1,2,0:0:0:0:
221,191,35380,1,0,0:0:0:0:
198,288,35650,1,0,0:0:0:0:
198,288,35785,1,2,0:0:0:0:
198,288,35853,1,2,0:0:0:0:
128,164,35920,1,2,0:0:0:0:
205,116,36055,1,0,0:0:0:0:
128,164,36123,1,0,0:0:0:0:
236,194,36191,1,0,0:0:0:0:
236,194,36326,1,2,0:0:0:0:
236,194,36461,1,0,0:0:0:0:
236,194,36731,1,6,0:0:0:0:
211,217,37137,1,2,0:0:0:0:
211,217,37407,1,2,0:0:0:0:
212,312,37542,1,0,0:0:0:0:
304,168,37812,1,0,0:0:0:0:
304,168,37947,1,2,0:0:0:0:
304,168,38082,1,0,0:0:0:0:
208,128,38218,1,2,0:0:0:0:
244,129,38488,1,2,0:0:0:0:
244,129,38623,1,0,0:0:0:0:
355,131,38758,1,2,0:0:0:0:
355,131,38893,1,0,0:0:0:0:
297,213,39299,1,2,0:0:0:0:
361,194,39569,1,2,0:0:0:0:
361,194,39704,1,0,0:0:0:0:
195,200,39974,1,0,0:0:0:0:
249,166,40109,1,2,0:0:0:0:
136,199,40245,1,0,0:0:0:0:
136,199,40380,1,2,0:0:0:0:
292,165,40650,1,2,0:0:0:0:
292,165,40785,1,0,0:0:0:0:
292,165,40920,1,2,0:0:0:0:
364,109,41055,1,4,0:0:0:0:
232,166,41326,1,0,0:0:0:0:
232,166,41461,1,2,0:0:0:0:
232,166,41731,1,2,0:0:0:0:
232,166,41866,1,0,0:0:0:0:
273,237,42001,1,2,0:0:0:0:
273,237,42137,1,0,0:0:0:0:
273,237,42272,1,2,0:0:0:0:
275,162,42542,1,2,0:0:0:0:
180,252,42812,1,2,0:0:0:0:
312,190,42947,1,0,0:0:0:0:
166,141,43082,1,2,0:0:0:0:
117,91,43218,1,2,0:0:0:0:
222,101,43353,1,0,0:0:0:0:
222,101,43420,1,0,0:0:0:0:
222,101,43488,1,0,0:0:0:0:
273,91,43623,1,2,0:0:0:0:
273,91,43758,1,0,0:0:0:0:
265,171,43893,1,2,0:0:0:0:
219,187,43961,1,2,0:0:0:0:
142,95,44028,1,2,0:0:0:0:
173,116,44299,1,2,0:0:0:0:
173,116,44434,1,2,0:0:0:0:
173,116,44501,1,2,0:0:0:0:
120,165,44569,1,2,0:0:0:0:
274,158,44704,1,0,0:0:0:0:
274,158,44839,1,2,0:0:0:0:
192,217,44974,1,0,0:0:0:0:
251,130,45042,1,0,0:0:0:0:
272,215,45109,1,0,0:0:0:0:
272,215,45380,1,4,0:0:0:0:
176,265,45785,1,0,0:0:0:0:
176,265,45920,1,2,0:0:0:0:
188,128,46055,1,0,0:0:0:0:
188,128,46123,1,0,0:0:0:0:
188,128,46191,1,0,0:0:0:0:
283,166,46461,1,2,0:0:0:0:
233,202,46866,1,0,0:0:0:0:
233,202,47001,1,2,0:0:0:0:
233,202,47137,1,0,0:0:0:0:
233,202,47204,1,0,0:0:0:0:
233,202,47272,1,0,0:0:0:0:
233,202,47542,1,2,0:0:0:0:
286,209,47947,1,0,0:0:0:0:
286,209,48082,1,2,0:0:0:0:
286,209,48218,1,0,0:0:0:0:
204,130,48285,1,0,0:0:0:0:
342,220,48623,1,2,0:0:0:0:
340,155,48758,1,0,0:0:0:0:
340,155,48826,1,0,0:0:0:0:
270,185,49164,1,2,0:0:0:0:
270,185,49299,1,0,0:0:0:0:
270,185,49434,1,2,0:0:0:0:
201,196,49704,1,2,0:0:0:0:
202,131,50109,1,0,0:0:0:0:
202,131,50245,1,2,0:0:0:0:
167,215,50380,1,0,0:0:0:0:
167,215,50515,1,2,0:0:0:0:
237,243,50785,1,2,0:0:0:0:
237,243,50920,1,0,0:0:0:0:
237,243,51055,1,2,0:0:0:0:
237,243,51191,1,0,0:0:0:0:
237,243,51326,1,2,0:0:0:0:
237,243,51461,1,0,0:0:0:0:
237,243,51596,1,2,0:0:0:0:
282,200,51866,1,2,0:0:0:0:
282,200,52001,1,0,0:0:0:0:
282,200,52069,1,0,0:0:0:0:
282,200,52137,1,0,0:0:0:0:
282,200,52272,1,2,0:0:0:0:
432,50,52339,1,2,0:0:0:0:
282,200,52407,1,2,0:0:0:0:
282,200,52542,1,0,0:0:0:0:
282,200,52677,1,0,0:0:0:0:
282,200,52812,1,0,0:0:0:0:
282,200,52947,1,2,0:0:0:0:
262,148,54028,1,6,0:0:0:0:
186,90,54299,1,2,0:0:0:0:
227,163,54434,1,2,0:0:0:0:
205,225,54501,1,2,0:0:0:0:
190,126,54569,1,2,0:0:0:0:
259,93,54704,1,0,0:0:0:0:
250,180,54974,1,2,0:0:0:0:
250,180,55380,1,0,0:0:0:0:
250,180,55650,1,2,0:0:0:0:
250,180,55785,1,0,0:0:0:0:
250,180,55920,1,2,0:0:0:0:
149,121,56191,1,2,0:0:0:0:
258,198,56326,1,2,0:0:0:0:
149,121,56461,1,0,0:0:0:0:
221,100,56731,1,2,0:0:0:0:
221,100,56799,1,2,0:0:0:0:
221,100,56866,1,2,0:0:0:0:
200,146,57137,1,2,0:0:0:0:
214,154,57272,1,0,0:0:0:0:
214,154,57407,1,2,0:0:0:0:
228,220,57474,1,2,0:0:0:0:
124,143,57542,1,2,0:0:0:0:
133,227,57677,1,0,0:0:0:0:
275,121,57745,1,0,0:0:0:0:
312,207,57812,1,0,0:0:0:0:
312,207,57947,1,2,0:0:0:0:
224,210,58082,1,0,0:0:0:0:
286,295,58353,1,2,0:0:0:0:
364,98,58623,1,2,0:0:0:0:
364,98,58758,1,2,0:0:0:0:
364,98,58826,1,2,0:0:0:0:
364,98,58893,1,2,0:0:0:0:
381,222,59028,1,0,0:0:0:0:
381,222,59299,1,2,0:0:0:0:
296,200,59704,1,0,0:0:0:0:
181,200,59974,1,2,0:0:0:0:
181,200,60245,1,2,0:0:0:0:
181,200,60312,1,2,0:0:0:0:
181,200,60380,1,2,0:0:0:0:
241,175,60515,1,0,0:0:0:0:
270,108,60785,1,0,0:0:0:0:
270,108,60853,1,0,0:0:0:0:
270,108,60920,1,0,0:0:0:0:
270,108,61055,1,0,0:0:0:0:
179,85,61191,1,2,0:0:0:0:
206,122,61461,1,2,0:0:0:0:
272,177,61596,1,2,0:0:0:0:
272,177,61664,1,2,0:0:0:0:
180,202,61731,1,2,0:0:0:0:
180,202,61866,1,0,0:0:0:0:
310,153,62001,1,2,0:0:0:0:
180,202,62069,1,2,0:0:0:0:
180,202,62137,1,2,0:0:0:0:
310,153,62272,1,0,0:0:0:0:
310,153,62407,1,2,0:0:0:0:
257,177,62677,1,2,0:0:0:0:
292,231,62947,1,2,0:0:0:0:
214,253,63082,1,2,0:0:0:0:
256,249,63150,1,2,0:0:0:0:
210,267,63218,1,2,0:0:0:0:
210,267,63353,1,0,0:0:0:0:
262,253,63623,1,2,0:0:0:0:
289,277,64028,1,0,0:0:0:0:
283,162,64299,1,2,0:0:0:0:
312,225,64434,1,0,0:0:0:0:
312,225,64569,1,2,0:0:0:0:
308,234,64839,1,2,0:0:0:0:
346,187,64974,1,2,0:0:0:0:
343,196,65109,1,0,0:0:0:0:
283,211,65380,1,0,0:0:0:0:
283,211,65515,1,2,0:0:0:0:
191,225,65785,1,2,0:0:0:0:
340,169,65920,1,4,0:0:0:0:
343,168,66191,1,2,0:0:0:0:
343,168,66258,1,2,0:0:0:0:
343,168,66326,1,2,0:0:0:0:
358,149,66461,1,0,0:0:0:0:
358,149,66528,1,0,0:0:0:0:
358,149,66596,1,0,0:0:0:0:
358,149,66731,1,2,0:0:0:0:
246,215,66866,1,0,0:0:0:0:
246,215,67001,1,2,0:0:0:0:
276,189,67272,1,0,0:0:0:0:
276,189,67407,1,2,0:0:0:0:
318,228,67542,1,0,0:0:0:0:
280,153,67677,1,2,0:0:0:0:
280,153,67947,1,2,0:0:0:0:
300,224,68353,1,0,0:0:0:0:
235,138,68623,1,2,0:0:0:0:
235,138,68893,1,2,0:0:0:0:
235,138,68961,1,2,0:0:0:0:
235,138,69028,1,2,0:0:0:0:
235,138,69164,1,4,0:0:0:0:
337,185,69434,1,0,0:0:0:0:
337,185,69501,1,0,0:0:0:0:
337,185,69569,1,0,0:0:0:0:
287,221,69704,1,0,0:0:0:0:
355,169,69839,1,2,0:0:0:0:
355,169,70109,1,2,0:0:0:0:
287,189,70245,1,2,0:0:0:0:
168,241,70380,1,0,0:0:0:0:
168,241,70447,1,0,0:0:0:0:
222,249,70515,1,0,0:0:0:0:
222,249,70650,1,2,0:0:0:0:
317,246,70785,1,0,0:0:0:0:
317,246,70853,1,0,0:0:0:0:
276,254,70920,1,0,0:0:0:0:
276,254,71055,1,2,0:0:0:0:
217,220,71326,1,0,0:0:0:0:
217,220,71461,1,2,0:0:0:0:
232,90,71528,1,2,0:0:0:0:
190,159,71596,1,2,0:0:0:0:
241,126,71731,1,0,0:0:0:0:
241,126,71866,1,2,0:0:0:0:
241,126,71934,1,2,0:0:0:0:
241,128,72001,1,2,0:0:0:0:
264,135,72137,1,2,0:0:0:0:
146,138,72542,1,2,0:0:0:0:
146,138,72609,1,2,0:0:0:0:
146,138,72677,1,2,0:0:0:0:
192,159,72812,1,0,0:0:0:0:
200,174,72947,1,2,0:0:0:0:
200,174,73015,1,2,0:0:0:0:
200,174,73082,1,2,0:0:0:0:
251,200,73218,1,0,0:0:0:0:
257,170,73488,1,0,0:0:0:0:
257,170,73623,1,2,0:0:0:0:
257,170,73691,1,2,0:0:0:0:
274,198,73758,1,2,0:0:0:0:
274,198,73893,1,0,0:0:0:0:
274,198,74028,1,2,0:0:0:0:
274,198,74096,1,2,0:0:0:0:
274,198,74164,1,2,0:0:0:0:
274,198,74299,1,2,0:0:0:0:
188,196,74704,1,2,0:0:0:0:
191,262,74772,1,2,0:0:0:0:
191,262,74839,1,2,0:0:0:0:
188,196,74974,1,0,0:0:0:0:
207,181,75109,1,2,0:0:0:0:
207,181,75245,1,0,0:0:0:0:
207,181,75312,1,0,0:0:0:0:
207,181,75380,1,0,0:0:0:0:
257,170,75650,1,0,0:0:0:0:
257,170,75785,1,2,0:0:0:0:
257,170,75853,1,2,0:0:0:0:
274,198,75920,1,2,0:0:0:0:
274,198,76055,1,0,0:0:0:0:
274,198,76191,1,2,0:0:0:0:
274,198,76258,1,2,0:0:0:0:
274,198,76326,1,2,0:0:0:0:
274,198,76461,1,2,0:0:0:0:
188,196,76866,1,2,0:0:0:0:
191,262,76934,1,2,0:0:0:0:
191,262,77001,1,2,0:0:0:0:
188,196,77137,1,0,0:0:0:0:
207,181,77272,1,2,0:0:0:0:
207,181,77339,1,2,0:0:0:0:
207,181,77407,1,2,0:0:0:0:
207,181,77542,1,0,0:0:0:0:
257,170,77812,1,0,0:0:0:0:
257,170,77947,1,2,0:0:0:0:
257,170,78015,1,2,0:0:0:0:
274,198,78082,1,2,0:0:0:0:
274,198,78218,1,0,0:0:0:0:
274,198,78353,1,2,0:0:0:0:
274,198,78420,1,2,0:0:0:0:
274,198,78488,1,2,0:0:0:0:
274,198,78623,1,2,0:0:0:0:
323,257,78893,1,0,0:0:0:0:
205,138,79028,1,2,0:0:0:0:
267,116,79096,1,2,0:0:0:0:
231,163,79164,1,2,0:0:0:0:
267,116,79299,1,2,0:0:0:0:
207,225,79434,1,0,0:0:0:0:
183,207,79501,1,0,0:0:0:0:
207,225,79569,1,0,0:0:0:0:
257,209,79704,1,2,0:0:0:0:
257,209,79839,1,2,0:0:0:0:
319,150,79974,1,0,0:0:0:0:
319,150,80245,1,0,0:0:0:0:
319,150,80380,1,2,0:0:0:0:
257,191,80515,1,0,0:0:0:0:
204,116,80582,1,0,0:0:0:0:
257,191,80650,1,0,0:0:0:0:
204,116,80785,1,0,0:0:0:0:
223,133,81191,1,2,0:0:0:0:
232,199,81326,1,0,0:0:0:0:
232,199,81393,1,0,0:0:0:0:
232,199,81461,1,0,0:0:0:0:
232,199,81596,1,2,0:0:0:0:
232,199,81664,1,2,0:0:0:0:
232,199,81731,1,2,0:0:0:0:
232,199,81866,1,0,0:0:0:0:
306,177,82137,1,0,0:0:0:0:
306,177,82407,1,0,0:0:0:0:
306,177,82542,1,2,0:0:0:0:
306,177,82677,1,0,0:0:0:0:
306,177,82745,1,0,0:0:0:0:
319,162,82812,1,0,0:0:0:0:
240,227,82947,1,0,0:0:0:0:
223,149,83353,1,2,0:0:0:0:
223,149,83488,1,0,0:0:0:0:
223,149,83555,1,0,0:0:0:0:
230,147,83623,1,0,0:0:0:0:
230,147,83758,1,2,0:0:0:0:
230,147,83826,1,2,0:0:0:0:
230,147,83893,1,2,0:0:0:0:
230,147,84028,1,0,0:0:0:0:
351,143,84299,1,4,0:0:0:0:
345,178,84569,1,0,0:0:0:0:
345,178,84704,1,2,0:0:0:0:
345,178,84839,1,0,0:0:0:0:
345,178,84907,1,0,0:0:0:0:
345,178,84974,1,0,0:0:0:0:
345,178,85109,1,0,0:0:0:0:
345,178,85515,1,2,0:0:0:0:
345,178,85650,1,0,0:0:0:0:
345,178,85718,1,0,0:0:0:0:
345,178,85785,1,0,0:0:0:0:
345,178,85920,1,2,0:0:0:0:
345,178,85988,1,2,0:0:0:0:
345,178,86055,1,2,0:0:0:0:
345,178,86191,1,0,0:0:0:0:
345,178,86461,1,2,0:0:0:0:
345,178,86528,1,2,0:0:0:0:
345,178,86596,1,2,0:0:0:0:
265,218,86731,1,2,0:0:0:0:
265,218,86866,1,0,0:0:0:0:
259,180,86934,1,0,0:0:0:0:
259,180,87001,1,0,0:0:0:0:
244,127,87137,1,2,0:0:0:0:
316,140,87204,1,2,0:0:0:0:
217,138,87272,1,2,0:0:0:0:
217,138,87542,1,4,0:0:0:0:
263,102,88353,1,2,0:0:0:0:
235,193,88623,1,0,0:0:0:0:
235,193,88758,1,2,0:0:0:0:
235,193,88893,1,2,0:0:0:0:
251,179,89028,1,0,0:0:0:0:
251,179,89164,1,2,0:0:0:0:
251,179,89299,1,2,0:0:0:0:
251,179,89434,1,0,0:0:0:0:
251,179,89569,1,2,0:0:0:0:
251,179,89704,1,2,0:0:0:0:
251,179,89839,1,0,0:0:0:0:
276,184,89974,1,2,0:0:0:0:
276,184,90042,1,2,0:0:0:0:
276,184,90109,1,2,0:0:0:0:
203,227,90515,1,0,0:0:0:0:
229,234,90582,1,0,0:0:0:0:
203,227,90650,1,0,0:0:0:0:
259,255,90785,1,2,0:0:0:0:
259,255,90920,1,0,0:0:0:0:
285,252,91055,1,2,0:0:0:0:
285,252,91123,1,2,0:0:0:0:
285,252,91191,1,2,0:0:0:0:
304,244,91326,1,0,0:0:0:0:
304,244,91596,1,0,0:0:0:0:
304,244,91731,1,2,0:0:0:0:
304,244,91799,1,2,0:0:0:0:
304,244,91866,1,2,0:0:0:0:
304,113,92001,1,2,0:0:0:0:
279,136,92137,1,0,0:0:0:0:
279,136,92204,1,0,0:0:0:0:
236,176,92272,1,0,0:0:0:0:
198,100,92677,1,0,0:0:0:0:
229,230,92947,1,4,0:0:0:0:
258,215,93353,1,2,0:0:0:0:
151,255,93623,1,2,0:0:0:0:
176,252,93758,1,0,0:0:0:0:
373,247,94028,1,0,0:0:0:0:
401,224,94164,1,2,0:0:0:0:
276,116,94231,1,2,0:0:0:0:
276,116,94299,1,2,0:0:0:0:
309,189,94434,1,2,0:0:0:0:
309,189,94569,1,0,0:0:0:0:
309,189,94637,1,0,0:0:0:0:
306,264,94704,1,0,0:0:0:0:
306,264,94839,1,2,0:0:0:0:
226,215,95109,1,2,0:0:0:0:
226,215,95177,1,2,0:0:0:0:
226,215,95245,1,2,0:0:0:0:
230,144,95380,1,2,0:0:0:0:
230,144,95515,1,0,0:0:0:0:
230,144,95582,1,0,0:0:0:0:
178,113,95650,1,0,0:0:0:0:
178,113,95785,1,0,0:0:0:0:
237,87,95920,1,2,0:0:0:0:
292,194,96191,1,2,0:0:0:0:
227,203,96258,1,2,0:0:0:0:
227,203,96326,1,2,0:0:0:0:
292,194,96461,1,0,0:0:0:0:
211,128,96596,1,2,0:0:0:0:
211,128,96664,1,2,0:0:0:0:
211,128,96731,1,2,0:0:0:0:
211,128,96866,1,0,0:0:0:0:
262,135,97001,1,2,0:0:0:0:
120,105,97272,1,2,0:0:0:0:
243,180,97407,1,2,0:0:0:0:
186,199,97474,1,2,0:0:0:0:
148,148,97677,1,2,0:0:0:0:
242,163,97880,1,2,0:0:0:0:
133,61,98082,1,2,0:0:0:0:
171,271,98218,1,2,0:0:0:0:
121,290,98285,1,2,0:0:0:0:
226,160,98488,1,2,0:0:0:0:
271,138,98691,1,2,0:0:0:0:
260,148,98893,1,2,0:0:0:0:
256,181,99434,1,2,0:0:0:0:
204,293,99569,1,2,0:0:0:0:
256,181,99637,1,2,0:0:0:0:
256,181,99839,1,2,0:0:0:0:
226,204,100042,1,2,0:0:0:0:
147,131,100245,1,2,0:0:0:0:
117,274,100380,1,2,0:0:0:0:
313,119,100447,1,2,0:0:0:0:
259,123,100650,1,2,0:0:0:0:
259,123,100853,1,2,0:0:0:0:
186,134,101055,1,2,0:0:0:0:
186,134,101596,1,2,0:0:0:0:
186,134,101731,1,0,0:0:0:0:
248,173,101866,1,2,0:0:0:0:
248,173,102001,1,2,0:0:0:0:
248,173,102137,1,0,0:0:0:0:
171,143,102272,1,2,0:0:0:0:
171,143,102407,1,2,0:0:0:0:
258,182,102542,1,0,0:0:0:0:
262,110,102677,1,2,0:0:0:0:
262,110,102812,1,2,0:0:0:0:
224,134,102947,1,2,0:0:0:0:
301,131,103082,1,0,0:0:0:0:
301,131,103218,1,2,0:0:0:0:
301,131,103353,1,0,0:0:0:0:
179,110,103488,1,2,0:0:0:0:
284,58,103758,1,2,0:0:0:0:
270,154,103893,1,0,0:0:0:0:
270,154,103961,1,0,0:0:0:0:
270,154,104028,1,0,0:0:0:0:
179,60,104164,1,2,0:0:0:0:
249,69,104299,1,2,0:0:0:0:
249,69,104366,1,2,0:0:0:0:
286,103,104434,1,2,0:0:0:0:
242,108,104569,1,0,0:0:0:0:
283,233,104704,1,0,0:0:0:0:
329,128,104839,1,2,0:0:0:0:
283,233,105650,1,2,0:0:0:0:
236,124,105920,1,6,0:0:0:0:
236,124,106326,1,2,0:0:0:0:
196,137,106596,1,2,0:0:0:0:
202,189,106731,1,0,0:0:0:0:
201,193,106799,1,0,0:0:0:0:
293,247,106866,1,0,0:0:0:0:
293,247,107001,1,2,0:0:0:0:
196,206,107272,1,0,0:0:0:0:
158,287,107542,1,0,0:0:0:0:
158,287,107677,1,2,0:0:0:0:
252,262,107812,1,0,0:0:0:0:
252,262,107880,1,0,0:0:0:0:
252,262,107947,1,0,0:0:0:0:
252,262,108082,1,0,0:0:0:0:
237,205,108218,1,2,0:0:0:0:
237,205,108285,1,2,0:0:0:0:
237,205,108353,1,2,0:0:0:0:
298,221,108488,1,2,0:0:0:0:
298,221,108623,1,0,0:0:0:0:
276,156,108758,1,2,0:0:0:0:
276,156,108893,1,0,0:0:0:0:
146,172,109164,1,2,0:0:0:0:
146,172,109299,1,0,0:0:0:0:
194,159,109366,1,0,0:0:0:0:
246,226,109434,1,0,0:0:0:0:
221,247,109569,1,0,0:0:0:0:
184,232,109704,1,2,0:0:0:0:
184,232,109772,1,2,0:0:0:0:
184,232,109839,1,2,0:0:0:0:
231,199,109974,1,0,0:0:0:0:
295,128,110245,1,4,0:0:0:0:
166,262,110515,1,0,0:0:0:0:
166,262,110650,1,2,0:0:0:0:
202,192,110785,1,0,0:0:0:0:
202,192,110920,1,2,0:0:0:0:
257,273,111191,1,2,0:0:0:0:
157,202,111596,1,0,0:0:0:0:
157,202,111664,1,0,0:0:0:0:
157,202,111731,1,0,0:0:0:0:
320,308,111866,1,0,0:0:0:0:
320,308,112001,1,2,0:0:0:0:
275,175,112137,1,0,0:0:0:0:
275,175,112272,1,2,0:0:0:0:
217,217,112542,1,2,0:0:0:0:
242,119,112609,1,2,0:0:0:0:
242,119,112677,1,2,0:0:0:0:
242,119,112812,1,2,0:0:0:0:
263,257,112947,1,0,0:0:0:0:
263,257,113082,1,2,0:0:0:0:
263,257,113218,1,0,0:0:0:0:
286,203,113353,1,2,0:0:0:0:
286,203,113488,1,2,0:0:0:0:
286,203,113555,1,2,0:0:0:0:
201,213,113623,1,2,0:0:0:0:
201,213,113758,1,0,0:0:0:0:
287,186,113893,1,2,0:0:0:0:
96,220,114028,1,0,0:0:0:0:
96,220,114096,1,0,0:0:0:0:
96,220,114164,1,0,0:0:0:0:
185,121,114299,1,2,0:0:0:0:
250,133,114569,1,6,0:0:0:0:
308,126,114974,1,2,0:0:0:0:
247,218,115245,1,2,0:0:0:0:
247,218,115380,1,0,0:0:0:0:
247,218,115447,1,0,0:0:0:0:
279,239,115515,1,0,0:0:0:0:
196,212,115650,1,2,0:0:0:0:
175,120,115920,1,2,0:0:0:0:
196,212,116055,1,2,0:0:0:0:
273,165,116326,1,2,0:0:0:0:
232,179,116461,1,0,0:0:0:0:
232,179,116528,1,0,0:0:0:0:
232,179,116596,1,0,0:0:0:0:
313,168,116731,1,2,0:0:0:0:
313,168,116866,1,0,0:0:0:0:
313,168,117001,1,2,0:0:0:0:
313,168,117137,1,0,0:0:0:0:
164,207,117407,1,2,0:0:0:0:
164,207,117474,1,2,0:0:0:0:
164,207,117542,1,2,0:0:0:0:
248,202,117812,1,0,0:0:0:0:
248,202,117947,1,2,0:0:0:0:
239,169,118082,1,0,0:0:0:0:
239,169,118150,1,0,0:0:0:0:
297,234,118218,1,0,0:0:0:0:
265,117,118353,1,2,0:0:0:0:
298,119,118893,1,2,0:0:0:0:
298,119,118961,1,2,0:0:0:0:
298,119,119028,1,2,0:0:0:0:
156,151,119164,1,2,0:0:0:0:
251,89,119299,1,0,0:0:0:0:
195,138,119434,1,2,0:0:0:0:
195,138,119569,1,0,0:0:0:0:
290,163,119704,1,2,0:0:0:0:
304,163,119974,1,2,0:0:0:0:
304,163,120109,1,0,0:0:0:0:
304,163,120177,1,0,0:0:0:0:
304,163,120245,1,0,0:0:0:0:
333,157,120380,1,2,0:0:0:0:
310,131,120515,1,2,0:0:0:0:
310,131,120582,1,2,0:0:0:0:
237,220,120650,1,2,0:0:0:0:
237,220,120785,1,2,0:0:0:0:
248,160,121055,1,2,0:0:0:0:
248,160,121123,1,2,0:0:0:0:
248,160,121191,1,2,0:0:0:0:
248,160,121326,1,0,0:0:0:0:
227,171,121461,1,2,0:0:0:0:
227,171,121596,1,2,0:0:0:0:
168,183,121664,1,2,0:0:0:0:
168,183,121731,1,2,0:0:0:0:
168,183,121866,1,0,0:0:0:0:
220,169,122137,1,6,0:0:0:0:
253,220,122407,1,2,0:0:0:0:
253,220,122474,1,2,0:0:0:0:
256,122,122542,1,2,0:0:0:0:
256,122,122677,1,2,0:0:0:0:
253,131,122812,1,0,0:0:0:0:
282,164,122880,1,0,0:0:0:0:
282,164,122947,1,0,0:0:0:0:
308,169,123218,1,6,0:0:0:0:
308,169,123623,1,2,0:0:0:0:
353,182,123893,1,2,0:0:0:0:
353,182,124028,1,0,0:0:0:0:
353,182,124299,1,2,0:0:0:0:
173,176,124366,1,2,0:0:0:0:
173,176,124434,1,2,0:0:0:0:
285,175,124569,1,0,0:0:0:0:
285,175,124704,1,2,0:0:0:0:
261,200,124839,1,0,0:0:0:0:
261,200,124974,1,2,0:0:0:0:
261,200,125109,1,0,0:0:0:0:
292,176,125380,1,2,0:0:0:0:
292,176,125447,1,2,0:0:0:0:
292,176,125515,1,2,0:0:0:0:
292,176,125650,1,0,0:0:0:0:
322,165,125785,1,2,0:0:0:0:
322,165,125920,1,2,0:0:0:0:
322,165,125988,1,2,0:0:0:0:
322,165,126055,1,2,0:0:0:0:
322,165,126191,1,0,0:0:0:0:
322,165,126461,1,2,0:0:0:0:
322,165,126596,1,2,0:0:0:0:
322,165,126731,1,0,0:0:0:0:
322,165,126799,1,0,0:0:0:0:
322,165,126866,1,0,0:0:0:0:
316,209,127137,1,2,0:0:0:0:
363,166,127542,1,4,0:0:0:0:
363,166,127677,1,2,0:0:0:0:
361,166,127745,1,2,0:0:0:0:
363,166,127812,1,2,0:0:0:0:
363,166,127947,1,0,0:0:0:0:
215,179,128082,1,2,0:0:0:0:
215,179,128150,1,2,0:0:0:0:
295,133,128218,1,2,0:0:0:0:
295,133,128353,1,2,0:0:0:0:
317,127,128623,1,0,0:0:0:0:
220,148,128758,1,2,0:0:0:0:
220,148,128826,1,2,0:0:0:0:
220,148,128893,1,2,0:0:0:0:
251,142,129164,1,2,0:0:0:0:
251,142,129231,1,2,0:0:0:0:
251,142,129299,1,2,0:0:0:0:
251,142,129434,1,0,0:0:0:0:
251,142,129501,1,0,0:0:0:0:
251,142,129569,1,0,0:0:0:0:
351,168,129704,1,0,0:0:0:0:
281,201,130109,1,0,0:0:0:0:
280,83,130245,1,2,0:0:0:0:
301,137,130312,1,2,0:0:0:0:
301,137,130380,1,2,0:0:0:0:
310,134,130515,1,0,0:0:0:0:
328,131,130785,1,2,0:0:0:0:
351,106,130920,1,0,0:0:0:0:
348,107,130988,1,0,0:0:0:0:
348,107,131055,1,0,0:0:0:0:
340,113,131191,1,2,0:0:0:0:
338,115,131326,1,2,0:0:0:0:
338,115,131393,1,2,0:0:0:0:
338,115,131461,1,2,0:0:0:0:
345,180,131596,1,0,0:0:0:0:
345,180,131866,1,2,0:0:0:0:
279,161,131934,1,2,0:0:0:0:
279,161,132001,1,2,0:0:0:0:
295,146,132137,1,2,0:0:0:0:
296,117,132272,1,0,0:0:0:0:
296,117,132407,1,2,0:0:0:0:
397,167,132542,1,0,0:0:0:0:
397,169,132609,1,0,0:0:0:0:
397,167,132677,1,0,0:0:0:0:
231,149,132947,1,0,0:0:0:0:
337,209,133218,1,0,0:0:0:0:
362,206,133353,1,2,0:0:0:0:
361,209,133623,1,2,0:0:0:0:
358,210,133691,1,2,0:0:0:0:
358,210,133758,1,2,0:0:0:0:
360,214,134028,1,2,0:0:0:0:
360,214,134096,1,2,0:0:0:0:
360,214,134164,1,2,0:0:0:0:
360,214,134299,1,0,0:0:0:0:
360,214,134434,1,2,0:0:0:0:
360,214,134569,1,0,0:0:0:0:
360,214,134637,1,0,0:0:0:0:
360,214,134704,1,0,0:0:0:0:
360,214,134839,1,2,0:0:0:0:
241,98,134974,1,2,0:0:0:0:
360,214,135109,1,0,0:0:0:0:
289,176,135515,1,2,0:0:0:0:
350,147,135785,1,2,0:0:0:0:
350,147,135920,1,0,0:0:0:0:
350,147,135988,1,0,0:0:0:0:
350,147,136055,1,0,0:0:0:0:
304,164,136191,1,2,0:0:0:0:
304,164,136258,1,2,0:0:0:0:
304,164,136326,1,2,0:0:0:0:
240,192,136461,1,2,0:0:0:0:
240,192,136596,1,0,0:0:0:0:
327,172,136731,1,2,0:0:0:0:
303,210,136799,1,2,0:0:0:0:
303,210,136866,1,2,0:0:0:0:
310,187,137001,1,2,0:0:0:0:
320,205,137272,1,2,0:0:0:0:
319,202,137339,1,2,0:0:0:0:
319,202,137407,1,2,0:0:0:0:
381,205,137542,1,0,0:0:0:0:
410,208,137677,1,2,0:0:0:0:
419,201,137812,1,0,0:0:0:0:
419,201,137880,1,0,0:0:0:0:
444,194,137947,1,0,0:0:0:0:
269,130,138082,1,2,0:0:0:0:
438,220,138353,1,2,0:0:0:0:
442,225,138488,1,2,0:0:0:0:
438,242,138555,1,2,0:0:0:0:
394,242,138623,1,2,0:0:0:0:
412,245,138758,1,0,0:0:0:0:
416,248,138893,1,2,0:0:0:0:
294,209,139434,1,4,0:0:0:0:
345,214,139704,1,2,0:0:0:0:
348,216,139772,1,2,0:0:0:0:
345,214,139839,1,2,0:0:0:0:
348,216,139974,1,0,0:0:0:0:
312,193,140109,1,2,0:0:0:0:
312,195,140177,1,2,0:0:0:0:
337,187,140245,1,2,0:0:0:0:
340,179,140380,1,0,0:0:0:0:
280,250,140515,1,6,0:0:0:0:
385,169,141596,1,0,0:0:0:0:
383,171,141866,1,0,0:0:0:0:
385,172,142001,1,2,0:0:0:0:
181,219,142272,1,0,0:0:0:0:
181,219,142407,1,0,0:0:0:0:
226,262,142677,1,6,0:0:0:0:
295,245,143758,1,0,0:0:0:0:
295,257,143894,1,0,0:0:0:0:
297,278,144029,1,0,0:0:0:0:
245,144,144164,1,2,0:0:0:0:
245,147,144434,1,0,0:0:0:0:
247,151,144569,1,2,0:0:0:0:
240,156,144704,1,0,0:0:0:0:
232,156,144839,1,6,0:0:0:0:
311,141,145380,1,0,0:0:0:0:
305,148,145650,1,2,0:0:0:0:
269,219,145920,1,0,0:0:0:0:
267,234,146191,1,2,0:0:0:0:
220,204,146461,1,0,0:0:0:0:
222,206,146731,1,2,0:0:0:0:
352,258,147001,1,4,0:0:0:0:
317,177,147542,1,0,0:0:0:0:
315,178,147812,1,0,0:0:0:0:
364,145,148082,1,2,0:0:0:0:
371,159,148218,1,0,0:0:0:0:
371,159,148285,1,0,0:0:0:0:
354,169,148353,1,0,0:0:0:0:
156,176,148488,1,2,0:0:0:0:
158,176,148623,1,0,0:0:0:0:
158,176,148691,1,0,0:0:0:0:
212,237,148758,1,0,0:0:0:0:
212,250,148893,1,2,0:0:0:0:
236,194,149164,1,4,0:0:0:0:
211,217,149570,1,2,0:0:0:0:
211,217,149840,1,2,0:0:0:0:
212,312,149975,1,0,0:0:0:0:
304,168,150245,1,0,0:0:0:0:
304,168,150380,1,2,0:0:0:0:
304,168,150515,1,0,0:0:0:0:
208,128,150651,1,2,0:0:0:0:
244,129,150921,1,2,0:0:0:0:
244,129,151056,1,0,0:0:0:0:
355,131,151191,1,2,0:0:0:0:
355,131,151326,1,0,0:0:0:0:
297,213,151732,1,2,0:0:0:0:
361,194,152002,1,2,0:0:0:0:
361,194,152137,1,0,0:0:0:0:
195,200,152407,1,0,0:0:0:0:
249,166,152542,1,2,0:0:0:0:
136,199,152678,1,0,0:0:0:0:
136,199,152813,1,2,0:0:0:0:
292,165,153083,1,2,0:0:0:0:
292,165,153218,1,0,0:0:0:0:
292,165,153353,1,2,0:0:0:0:
364,109,153488,1,4,0:0:0:0:
232,166,153759,1,0,0:0:0:0:
232,166,153894,1,2,0:0:0:0:
232,166,154164,1,2,0:0:0:0:
232,166,154299,1,0,0:0:0:0:
273,237,154434,1,2,0:0:0:0:
273,237,154570,1,0,0:0:0:0:
273,237,154705,1,2,0:0:0:0:
275,162,154975,1,2,0:0:0:0:
180,252,155245,1,2,0:0:0:0:
312,190,155380,1,0,0:0:0:0:
166,141,155515,1,2,0:0:0:0:
117,91,155651,1,4,0:0:0:0:
222,101,155921,1,0,0:0:0:0:
273,91,156056,1,2,0:0:0:0:
273,91,156191,1,0,0:0:0:0:
265,171,156326,1,2,0:0:0:0:
219,187,156394,1,2,0:0:0:0:
142,95,156461,1,2,0:0:0:0:
173,116,156732,1,2,0:0:0:0:
173,116,156867,1,2,0:0:0:0:
173,116,156934,1,2,0:0:0:0:
120,165,157002,1,2,0:0:0:0:
274,158,157137,1,0,0:0:0:0:
274,158,157272,1,2,0:0:0:0:
192,217,157407,1,0,0:0:0:0:
251,130,157475,1,0,0:0:0:0:
272,215,157542,1,0,0:0:0:0:
272,215,157813,1,4,0:0:0:0:
176,265,158218,1,0,0:0:0:0:
176,265,158353,1,2,0:0:0:0:
188,128,158488,1,0,0:0:0:0:
188,128,158556,1,0,0:0:0:0:
188,128,158624,1,0,0:0:0:0:
283,166,158894,1,2,0:0:0:0:
233,202,159299,1,0,0:0:0:0:
233,202,159434,1,2,0:0:0:0:
233,202,159570,1,0,0:0:0:0:
233,202,159637,1,0,0:0:0:0:
233,202,159705,1,0,0:0:0:0:
233,202,159975,1,2,0:0:0:0:
286,209,160380,1,0,0:0:0:0:
286,209,160515,1,2,0:0:0:0:
286,209,160651,1,0,0:0:0:0:
204,130,160718,1,0,0:0:0:0:
342,220,161056,1,2,0:0:0:0:
340,155,161191,1,0,0:0:0:0:
340,155,161259,1,0,0:0:0:0:
270,185,161597,1,2,0:0:0:0:
270,185,161732,1,0,0:0:0:0:
270,185,161867,1,2,0:0:0:0:
201,196,162137,1,2,0:0:0:0:
202,131,162542,1,0,0:0:0:0:
202,131,162678,1,2,0:0:0:0:
167,215,162813,1,0,0:0:0:0:
167,215,162948,1,2,0:0:0:0:
237,243,163218,1,2,0:0:0:0:
237,243,163353,1,0,0:0:0:0:
237,243,163488,1,2,0:0:0:0:
237,243,163624,1,0,0:0:0:0:
237,243,163759,1,2,0:0:0:0:
237,243,163894,1,0,0:0:0:0:
237,243,164029,1,2,0:0:0:0:
282,200,164299,1,2,0:0:0:0:
282,200,164434,1,0,0:0:0:0:
282,200,164502,1,0,0:0:0:0:
282,200,164570,1,0,0:0:0:0:
282,200,164705,1,2,0:0:0:0:
432,50,164772,1,2,0:0:0:0:
282,200,164840,1,2,0:0:0:0:
282,200,164975,1,0,0:0:0:0:
282,200,165110,1,0,0:0:0:0:
282,200,165245,1,0,0:0:0:0:
282,200,165380,1,6,0:0:0:0:
288,277,165650,1,0,0:0:0:0:
272,279,165785,1,6,0:0:0:0:
290,263,165920,1,0,0:0:0:0:
319,179,165988,1,0,0:0:0:0:
296,255,166055,1,0,0:0:0:0:
177,264,166191,1,6,0:0:0:0:
262,148,167542,1,6,0:0:0:0:
186,90,167813,1,2,0:0:0:0:
227,163,167948,1,2,0:0:0:0:
205,225,168015,1,2,0:0:0:0:
190,126,168083,1,2,0:0:0:0:
259,93,168218,1,0,0:0:0:0:
250,180,168488,1,2,0:0:0:0:
250,180,168894,1,0,0:0:0:0:
250,180,169164,1,2,0:0:0:0:
250,180,169299,1,0,0:0:0:0:
250,180,169434,1,2,0:0:0:0:
149,121,169705,1,2,0:0:0:0:
258,198,169840,1,2,0:0:0:0:
149,121,169975,1,0,0:0:0:0:
221,100,170245,1,2,0:0:0:0:
221,100,170313,1,2,0:0:0:0:
221,100,170380,1,2,0:0:0:0:
200,146,170651,1,2,0:0:0:0:
214,154,170786,1,0,0:0:0:0:
214,154,170921,1,2,0:0:0:0:
228,220,170988,1,2,0:0:0:0:
124,143,171056,1,2,0:0:0:0:
133,227,171191,1,0,0:0:0:0:
275,121,171259,1,0,0:0:0:0:
312,207,171326,1,0,0:0:0:0:
312,207,171461,1,2,0:0:0:0:
224,210,171596,1,0,0:0:0:0:
286,295,171867,1,2,0:0:0:0:
364,98,172137,1,2,0:0:0:0:
364,98,172272,1,2,0:0:0:0:
364,98,172340,1,2,0:0:0:0:
364,98,172407,1,2,0:0:0:0:
381,222,172542,1,0,0:0:0:0:
381,222,172813,1,2,0:0:0:0:
296,200,173218,1,0,0:0:0:0:
181,200,173488,1,2,0:0:0:0:
181,200,173759,1,2,0:0:0:0:
181,200,173826,1,2,0:0:0:0:
181,200,173894,1,2,0:0:0:0:
241,175,174029,1,0,0:0:0:0:
270,108,174299,1,0,0:0:0:0:
270,108,174367,1,0,0:0:0:0:
270,108,174434,1,0,0:0:0:0:
270,108,174569,1,0,0:0:0:0:
179,85,174705,1,2,0:0:0:0:
206,122,174975,1,2,0:0:0:0:
272,177,175110,1,2,0:0:0:0:
272,177,175178,1,2,0:0:0:0:
180,202,175245,1,2,0:0:0:0:
180,202,175380,1,0,0:0:0:0:
310,153,175515,1,2,0:0:0:0:
180,202,175583,1,2,0:0:0:0:
180,202,175651,1,2,0:0:0:0:
310,153,175786,1,0,0:0:0:0:
310,153,175921,1,2,0:0:0:0:
257,177,176191,1,2,0:0:0:0:
292,231,176461,1,2,0:0:0:0:
214,253,176596,1,2,0:0:0:0:
256,249,176664,1,2,0:0:0:0:
210,267,176732,1,2,0:0:0:0:
210,267,176867,1,0,0:0:0:0:
262,253,177137,1,2,0:0:0:0:
289,277,177542,1,0,0:0:0:0:
283,162,177813,1,2,0:0:0:0:
312,225,177948,1,0,0:0:0:0:
312,225,178083,1,2,0:0:0:0:
308,234,178353,1,2,0:0:0:0:
346,187,178488,1,2,0:0:0:0:
343,196,178623,1,0,0:0:0:0:
283,211,178894,1,0,0:0:0:0:
283,211,179029,1,2,0:0:0:0:
191,225,179299,1,2,0:0:0:0:
340,169,179434,1,4,0:0:0:0:
343,168,179705,1,2,0:0:0:0:
343,168,179772,1,2,0:0:0:0:
343,168,179840,1,2,0:0:0:0:
358,149,179975,1,0,0:0:0:0:
358,149,180042,1,0,0:0:0:0:
358,149,180110,1,0,0:0:0:0:
358,149,180245,1,2,0:0:0:0:
246,215,180380,1,0,0:0:0:0:
246,215,180515,1,2,0:0:0:0:
276,189,180786,1,0,0:0:0:0:
276,189,180921,1,2,0:0:0:0:
318,228,181056,1,0,0:0:0:0:
280,153,181191,1,2,0:0:0:0:
280,153,181461,1,2,0:0:0:0:
300,224,181867,1,0,0:0:0:0:
235,138,182137,1,2,0:0:0:0:
235,138,182407,1,2,0:0:0:0:
235,138,182475,1,2,0:0:0:0:
235,138,182542,1,2,0:0:0:0:
235,138,182678,1,4,0:0:0:0:
337,185,182948,1,0,0:0:0:0:
337,185,183015,1,0,0:0:0:0:
337,185,183083,1,0,0:0:0:0:
287,221,183218,1,0,0:0:0:0:
355,169,183353,1,2,0:0:0:0:
355,169,183623,1,2,0:0:0:0:
287,189,183759,1,2,0:0:0:0:
168,241,183894,1,0,0:0:0:0:
168,241,183961,1,0,0:0:0:0:
222,249,184029,1,0,0:0:0:0:
222,249,184164,1,2,0:0:0:0:
317,246,184299,1,0,0:0:0:0:
317,246,184367,1,0,0:0:0:0:
276,254,184434,1,0,0:0:0:0:
276,254,184569,1,2,0:0:0:0:
217,220,184840,1,0,0:0:0:0:
217,220,184975,1,2,0:0:0:0:
232,90,185042,1,2,0:0:0:0:
190,159,185110,1,2,0:0:0:0:
241,126,185245,1,0,0:0:0:0:
241,126,185380,1,2,0:0:0:0:
241,126,185448,1,2,0:0:0:0:
241,128,185515,1,2,0:0:0:0:
264,135,185651,1,2,0:0:0:0:
146,138,186056,1,2,0:0:0:0:
146,138,186123,1,2,0:0:0:0:
146,138,186191,1,2,0:0:0:0:
192,159,186326,1,0,0:0:0:0:
200,174,186461,1,2,0:0:0:0:
200,174,186529,1,2,0:0:0:0:
200,174,186596,1,2,0:0:0:0:
251,200,186732,1,0,0:0:0:0:
257,170,187002,1,0,0:0:0:0:
257,170,187137,1,2,0:0:0:0:
257,170,187205,1,2,0:0:0:0:
274,198,187272,1,2,0:0:0:0:
274,198,187407,1,0,0:0:0:0:
274,198,187542,1,2,0:0:0:0:
274,198,187610,1,2,0:0:0:0:
274,198,187678,1,2,0:0:0:0:
274,198,187813,1,2,0:0:0:0:
188,196,188218,1,2,0:0:0:0:
191,262,188286,1,2,0:0:0:0:
191,262,188353,1,2,0:0:0:0:
188,196,188488,1,0,0:0:0:0:
207,181,188623,1,2,0:0:0:0:
207,181,188759,1,0,0:0:0:0:
207,181,188826,1,0,0:0:0:0:
207,181,188894,1,0,0:0:0:0:
257,170,189164,1,0,0:0:0:0:
257,170,189299,1,2,0:0:0:0:
257,170,189367,1,2,0:0:0:0:
274,198,189434,1,2,0:0:0:0:
274,198,189569,1,0,0:0:0:0:
274,198,189705,1,2,0:0:0:0:
274,198,189772,1,2,0:0:0:0:
274,198,189840,1,2,0:0:0:0:
274,198,189975,1,2,0:0:0:0:
188,196,190380,1,2,0:0:0:0:
191,262,190448,1,2,0:0:0:0:
191,262,190515,1,2,0:0:0:0:
188,196,190651,1,0,0:0:0:0:
207,181,190786,1,2,0:0:0:0:
207,181,190853,1,2,0:0:0:0:
207,181,190921,1,2,0:0:0:0:
207,181,191056,1,0,0:0:0:0:
257,170,191326,1,0,0:0:0:0:
257,170,191461,1,2,0:0:0:0:
257,170,191529,1,2,0:0:0:0:
274,198,191596,1,2,0:0:0:0:
274,198,191732,1,0,0:0:0:0:
274,198,191867,1,2,0:0:0:0:
274,198,191934,1,2,0:0:0:0:
274,198,192002,1,2,0:0:0:0:
274,198,192137,1,2,0:0:0:0:
323,257,192407,1,0,0:0:0:0:
205,138,192542,1,2,0:0:0:0:
267,116,192610,1,2,0:0:0:0:
231,163,192678,1,2,0:0:0:0:
267,116,192813,1,2,0:0:0:0:
207,225,192948,1,0,0:0:0:0:
183,207,193015,1,0,0:0:0:0:
207,225,193083,1,0,0:0:0:0:
257,209,193218,1,2,0:0:0:0:
257,209,193353,1,2,0:0:0:0:
319,150,193488,1,0,0:0:0:0:
319,150,193759,1,0,0:0:0:0:
319,150,193894,1,2,0:0:0:0:
257,191,194029,1,0,0:0:0:0:
204,116,194096,1,0,0:0:0:0:
257,191,194164,1,0,0:0:0:0:
204,116,194299,1,0,0:0:0:0:
223,133,194705,1,2,0:0:0:0:
232,199,194840,1,0,0:0:0:0:
232,199,194907,1,0,0:0:0:0:
232,199,194975,1,0,0:0:0:0:
232,199,195110,1,2,0:0:0:0:
232,199,195178,1,2,0:0:0:0:
232,199,195245,1,2,0:0:0:0:
232,199,195380,1,0,0:0:0:0:
306,177,195651,1,0,0:0:0:0:
306,177,195921,1,0,0:0:0:0:
306,177,196056,1,2,0:0:0:0:
306,177,196191,1,0,0:0:0:0:
306,177,196259,1,0,0:0:0:0:
319,162,196326,1,0,0:0:0:0:
240,227,196461,1,0,0:0:0:0:
223,149,196867,1,2,0:0:0:0:
223,149,197002,1,0,0:0:0:0:
223,149,197069,1,0,0:0:0:0:
230,147,197137,1,0,0:0:0:0:
230,147,197272,1,2,0:0:0:0:
230,147,197340,1,2,0:0:0:0:
230,147,197407,1,2,0:0:0:0:
230,147,197542,1,0,0:0:0:0:
351,143,197813,1,4,0:0:0:0:
345,178,198083,1,0,0:0:0:0:
345,178,198218,1,2,0:0:0:0:
345,178,198353,1,0,0:0:0:0:
345,178,198421,1,0,0:0:0:0:
345,178,198488,1,0,0:0:0:0:
345,178,198623,1,0,0:0:0:0:
345,178,199029,1,2,0:0:0:0:
345,178,199164,1,0,0:0:0:0:
345,178,199232,1,0,0:0:0:0:
345,178,199299,1,0,0:0:0:0:
345,178,199434,1,2,0:0:0:0:
345,178,199502,1,2,0:0:0:0:
345,178,199569,1,2,0:0:0:0:
345,178,199705,1,0,0:0:0:0:
345,178,199975,1,2,0:0:0:0:
345,178,200042,1,2,0:0:0:0:
345,178,200110,1,2,0:0:0:0:
265,218,200245,1,2,0:0:0:0:
265,218,200380,1,0,0:0:0:0:
259,180,200448,1,0,0:0:0:0:
259,180,200515,1,0,0:0:0:0:
244,127,200651,1,2,0:0:0:0:
316,140,200718,1,2,0:0:0:0:
217,138,200786,1,2,0:0:0:0:
217,138,201056,1,4,0:0:0:0:
310,196,202137,5,4,0:0:0:0:
256,192,202407,8,0,204028,0:0:0:0:
352,88,204299,5,6,0:0:0:0:
334,96,204704,1,6,0:0:0:0:
242,187,205109,1,4,0:0:0:0:
242,187,205245,1,4,0:0:0:0:
