osu file format v14

[General]
AudioFilename: audio.mp3
AudioLeadIn: 0
PreviewTime: 159555
Countdown: 0
SampleSet: Soft
StackLeniency: 0.2
Mode: 0
LetterboxInBreaks: 0
WidescreenStoryboard: 0

[Editor]
Bookmarks: 17940,28045,38150,48255,58361,68466,78571,88676,97678,109678,121678,133678,145678,157686,164215,175762,189684,207447,218741,230033,241004,251975,262947,273918,284890,295861,306603,316543,326143,335743,345343,354943,364543,374143,383743,388543
DistanceSpacing: 0.7
BeatDivisor: 4
GridSize: 16
TimelineZoom: 4.099998

[Metadata]
Title:SUPER MEMORIES X [feat. HiTNEX-X]
TitleUnicode:SUPER MEMORIES X [feat. HiTNEX-X]
Artist:Kobaryo
ArtistUnicode:Kobaryo
Creator:Otosaka-Yu
Version:SUPER REUNION
Source:
Tags:HARDCORE TANO*C TEMPOCOP TCPLUS-0025 SUPER DREAM ZONE HNXCD-001 ヒットネックストラックス スーパーリリース21 HiTNEX TRAX 蛇塚透花 Srezcat DJ NECOJITA Nyankovsky Shinonome Interface I/F blaxervant Persian Groovies uk hardcore tribecore hi-tech psytrance hard techno schranz breakcore hardtek frenchcore pumpcore uplifting trance dubstep future bass Noise crossbreed EDM wub wobble metal hr hm BerryVerrine 窓壁九真好キ Suzuki_1112 video game electronic instrumental
BeatmapID:2714880
BeatmapSetID:1309585

[Difficulty]
HPDrainRate:5
CircleSize:4.3
OverallDifficulty:9
ApproachRate:9.5
SliderMultiplier:2
SliderTickRate:1

[Events]
//Background and Video events
0,0,"12.jpg",0,0
//Break Periods
2,157958,162672
2,174033,174765
2,204366,205582
2,257733,259751
2,336015,340090
//Storyboard Layer 0 (Background)
//Storyboard Layer 1 (Fail)
//Storyboard Layer 2 (Pass)
//Storyboard Layer 3 (Foreground)
//Storyboard Layer 4 (Overlay)
//Storyboard Sound Samples

[TimingPoints]
328,315.789473684211,4,2,1,5,1,0
18012,-200,4,2,1,50,0,0
23064,-133.333333333333,4,2,1,50,0,0
25591,-100,4,2,1,50,0,0
27801,-50,4,2,1,50,0,0
28117,-100,4,2,1,60,0,0
37590,-66.6666666666667,4,2,1,60,0,0
37906,-58.8235294117647,4,2,1,60,0,0
38222,-100,4,2,1,60,0,0
40433,-133.333333333333,4,2,1,60,0,0
40538,-133.333333333333,4,2,1,5,0,0
40590,-38.4615384615385,4,2,1,60,0,0
40696,-38.4615384615385,4,2,1,5,0,0
40748,-100,4,2,1,60,0,0
42327,-58.8235294117647,4,2,1,60,0,0
42564,-58.8235294117647,4,2,1,5,0,0
42643,-41.6666666666667,4,2,1,60,0,0
42801,-66.6666666666667,4,2,1,60,0,0
42959,-50,4,2,2,60,0,0
43064,-50,4,2,2,5,0,0
43117,-45.4545454545455,4,2,1,60,0,0
43590,-100,4,2,1,60,0,0
44222,-58.8235294117647,4,2,1,60,0,0
44459,-58.8235294117647,4,2,1,5,0,0
44538,-58.8235294117647,4,2,1,60,0,0
44854,-52.6315789473684,4,2,1,60,0,0
45169,-45.4545454545455,4,2,2,60,0,0
45406,-45.4545454545455,4,2,2,5,0,0
45485,-45.4545454545455,4,2,2,60,0,0
45722,-45.4545454545455,4,2,2,5,0,0
45801,-52.6315789473684,4,2,2,60,0,0
45959,-52.6315789473684,4,2,2,5,0,0
46038,-52.6315789473684,4,2,2,60,0,0
46196,-52.6315789473684,4,2,2,5,0,0
46275,-52.6315789473684,4,2,2,60,0,0
46433,-52.6315789473684,4,2,2,5,0,0
46512,-52.6315789473684,4,2,2,60,0,0
46670,-52.6315789473684,4,2,2,5,0,0
46748,-47.6190476190476,4,2,2,60,0,0
46828,-47.6190476190476,4,2,2,5,0,0
46906,-47.6190476190476,4,2,2,60,0,0
46985,-47.6190476190476,4,2,2,5,0,0
47064,-47.6190476190476,4,2,1,60,0,0
48012,-25,4,2,1,60,0,0
48327,-66.6666666666667,4,3,2,60,0,0
57169,-76.9230769230769,4,2,1,60,0,0
58117,-58.8235294117647,4,2,1,60,0,0
58433,-76.9230769230769,4,2,1,60,0,0
59538,-50,4,2,1,60,0,0
59643,-50,4,2,1,5,0,0
59696,-76.9230769230769,4,2,1,60,0,0
60643,-58.8235294117647,4,2,1,60,0,0
60880,-58.8235294117647,4,2,1,5,0,0
60959,-76.9230769230769,4,2,1,60,0,0
62064,-50,4,2,1,60,0,0
62170,-50,4,2,1,5,0,0
62222,-76.9230769230769,4,2,1,60,0,0
64433,-66.6666666666667,4,2,1,60,0,0
64748,-76.9230769230769,4,2,1,60,0,0
65380,-66.6666666666667,4,2,1,60,0,0
65617,-66.6666666666667,4,2,1,5,0,0
65696,-66.6666666666667,4,2,1,60,0,0
66012,-100,4,2,2,60,0,0
68538,-83.3333333333333,4,2,1,70,0,1
87485,-83.3333333333333,4,2,2,70,0,1
88749,-83.3333333333333,4,2,1,70,0,0
88828,-83.3333333333333,4,2,1,5,0,0
91906,-1000,4,2,1,40,0,0
93250,375.000000000001,4,2,2,40,1,0
93250,-1000,4,2,2,40,0,0
94750,-200,4,2,2,45,0,0
95125,-166.666666666667,4,2,2,45,0,0
95500,-142.857142857143,4,2,2,50,0,0
95875,-125,4,2,2,50,0,0
96250,-111.111111111111,4,2,2,55,0,0
96625,-100,4,2,2,55,0,0
97000,-90.9090909090909,4,2,2,60,0,0
97375,-83.3333333333333,4,2,2,60,0,0
97750,-66.6666666666667,4,2,2,60,0,0
109375,-50,4,2,1,60,0,0
109750,-50,4,2,3,65,0,0
132250,-50,4,1,3,65,0,0
133375,-50,4,1,3,65,0,0
133750,-50,4,2,3,70,0,1
156250,-100,4,1,3,70,0,0
157758,339.943342776204,4,2,2,70,1,8
163197,272.727272727273,4,2,2,70,1,0
164287,-55.5555555555556,4,2,1,80,0,1
167560,-50,4,2,1,80,0,1
167765,-50,4,2,1,5,0,1
167833,-41.6666666666667,4,2,1,80,0,1
168037,-41.6666666666667,4,2,1,5,0,1
168106,-50,4,2,1,80,0,1
168787,-55.5555555555556,4,2,1,80,0,1
171924,-50,4,2,1,80,0,1
172128,-50,4,2,1,5,0,1
172197,-41.6666666666667,4,2,1,80,0,1
172401,-41.6666666666667,4,2,1,5,0,1
172469,-35.7142857142857,4,2,1,80,0,1
172674,-35.7142857142857,4,2,1,5,0,1
172742,-31.25,4,2,1,80,0,1
172947,-31.25,4,2,1,5,0,1
173015,-333.333333333333,4,2,1,80,0,0
173083,-333.333333333333,4,2,1,5,0,0
174094,435.097897026831,4,2,1,70,1,0
175290,-133.333333333333,4,2,1,70,0,0
175834,-66.6666666666667,4,2,1,70,0,1
182795,-133.333333333333,4,2,1,70,0,1
188452,-133.333333333333,4,2,1,60,0,1
188887,-133.333333333333,4,2,1,50,0,0
188996,-133.333333333333,4,2,1,40,0,0
189104,-133.333333333333,4,2,1,30,0,0
189213,-133.333333333333,4,2,1,20,0,0
189756,422.535211267606,4,2,1,50,1,0
189756,-133.333333333333,4,3,2,50,0,0
193136,-66.6666666666667,4,3,2,50,0,0
193558,-133.333333333333,4,3,2,50,0,0
196516,-100,4,3,2,55,0,0
202432,-83.3333333333333,4,3,2,55,0,0
202854,-66.6666666666667,4,3,2,55,0,0
203284,352.941176470588,4,2,2,55,1,8
203284,-200,4,2,2,55,0,8
206107,-100,4,2,2,60,0,8
207166,-50,4,2,1,60,0,8
207519,-76.9230769230769,4,2,1,75,0,9
208489,-76.9230769230769,4,2,1,5,0,9
208578,-76.9230769230769,4,2,1,75,0,9
209901,-76.9230769230769,4,2,1,5,0,9
209989,-76.9230769230769,4,2,1,75,0,9
214136,-76.9230769230769,4,2,1,5,0,9
214225,-76.9230769230769,4,2,1,75,0,9
215548,-76.9230769230769,4,2,1,5,0,9
215636,-76.9230769230769,4,2,1,75,0,9
217401,-76.9230769230769,4,2,2,70,0,9
218107,-50,4,2,2,75,0,9
218460,-133.333333333333,4,2,1,75,0,9
218813,-76.9230769230769,4,2,1,75,0,9
219784,-76.9230769230769,4,2,1,5,0,9
219872,-76.9230769230769,4,2,1,75,0,9
221195,-76.9230769230769,4,2,1,5,0,9
221284,-76.9230769230769,4,2,1,75,0,9
225431,-76.9230769230769,4,2,1,5,0,9
225519,-76.9230769230769,4,2,1,75,0,9
226842,-76.9230769230769,4,2,1,5,0,9
226931,-76.9230769230769,4,2,1,75,0,9
228695,-76.9230769230769,4,2,2,75,0,9
230019,-76.9230769230769,4,2,2,5,0,9
230105,342.857142857143,4,2,1,70,1,0
230105,-100,4,2,2,70,0,0
230790,-133.333333333333,4,2,2,70,0,0
231133,-66.6666666666667,4,2,2,70,0,0
231305,-43.4782608695652,4,2,2,70,0,0
231476,-58.8235294117647,4,2,2,70,0,0
231647,-133.333333333333,4,2,2,70,0,0
231819,-52.6315789473684,4,2,2,70,0,0
232162,-66.6666666666667,4,2,2,70,0,0
232676,-58.8235294117647,4,2,2,70,0,0
232847,-58.8235294117647,4,2,2,70,0,0
233019,-55.5555555555556,4,2,2,70,0,0
233533,-41.6666666666667,4,2,2,70,0,0
233876,-66.6666666666667,4,2,2,70,0,0
234047,-52.6315789473684,4,2,2,70,0,0
234219,-58.8235294117647,4,2,2,70,0,0
234390,-50,4,2,2,70,0,0
234505,-50,4,2,2,5,0,0
234562,-50,4,2,2,70,0,0
234676,-50,4,2,2,5,0,0
234733,-50,4,2,2,70,0,0
234905,-66.6666666666667,4,2,2,70,0,0
235247,-66.6666666666667,4,2,2,70,0,0
235590,-100,4,2,2,70,0,0
236276,-133.333333333333,4,2,2,70,0,0
236619,-66.6666666666667,4,2,2,70,0,0
236790,-58.8235294117647,4,2,2,70,0,0
236962,-58.8235294117647,4,2,2,70,0,0
237133,-55.5555555555556,4,2,2,70,0,0
237305,-50,4,2,2,70,0,0
237647,-100,4,2,2,70,0,0
237990,-66.6666666666667,4,2,2,70,0,0
238162,-66.6666666666667,4,2,2,70,0,0
238333,-100,4,2,2,70,0,1
239362,-100,4,2,2,70,0,1
240047,-100,4,2,2,70,0,1
241076,-1000,4,1,3,70,0,0
243133,-100,4,1,3,70,0,0
243476,-50,4,1,3,70,0,0
243819,-1000,4,1,3,70,0,0
245190,-100,4,1,3,70,0,0
245533,-50,4,1,3,70,0,0
245705,-100,4,1,3,70,0,0
245876,-66.6666666666667,4,1,3,70,0,0
246219,-50,4,1,3,70,0,0
246562,-500,4,1,3,70,0,0
248619,-100,4,1,3,70,0,0
248962,-50,4,1,3,70,0,0
249305,-100,4,1,3,70,0,0
252047,-100,4,2,2,70,0,0
252133,-100,4,2,2,70,0,0
263019,-133.333333333333,4,2,2,60,0,0
267990,-100,4,2,2,60,0,0
268505,-133.333333333333,4,2,2,60,0,0
273990,-100,4,2,1,50,0,0
284962,-100,4,2,4,50,0,0
298676,338.983050847458,4,2,4,50,1,0
298676,-111.111111111111,4,2,4,50,0,0
301387,333.333333333333,4,2,4,50,1,0
301387,-125,4,2,4,50,0,0
304053,327.868852459016,4,2,4,50,1,0
304053,-125,4,2,4,50,0,0
306675,319.148936170212,4,2,4,60,1,0
309228,314.13612565445,4,2,4,60,1,0
311741,309.278350515464,4,2,4,65,1,0
314215,300,4,2,4,65,1,0
314815,-66.6666666666667,4,2,4,65,0,0
315565,-66.6666666666667,4,2,6,65,0,0
315715,-100,4,2,6,65,0,0
316615,-76.9230769230769,4,2,5,70,0,1
317215,-66.6666666666667,4,2,5,70,0,0
317665,-133.333333333333,4,2,5,70,0,0
318415,-66.6666666666667,4,2,5,70,0,1
318940,-66.6666666666667,4,2,5,70,0,0
319015,-76.9230769230769,4,2,5,70,0,1
319615,-66.6666666666667,4,2,5,70,0,0
320515,-133.333333333333,4,2,5,70,0,0
320815,-66.6666666666667,4,2,5,70,0,1
321340,-66.6666666666667,4,2,5,70,0,0
321415,-76.9230769230769,4,2,5,70,0,1
322015,-66.6666666666667,4,2,5,70,0,0
322465,-133.333333333333,4,2,5,70,0,0
323215,-66.6666666666667,4,2,5,70,0,1
323740,-66.6666666666667,4,2,5,70,0,0
323815,-62.5,4,2,5,70,0,1
326140,-62.5,4,2,5,70,0,0
326215,-76.9230769230769,4,2,5,70,0,1
326815,-50,4,2,5,70,0,0
327115,-66.6666666666667,4,2,5,70,0,0
327415,-58.8235294117647,4,2,5,70,0,0
327715,-52.6315789473684,4,2,5,70,0,0
328015,-66.6666666666667,4,2,5,70,0,1
328540,-66.6666666666667,4,2,5,70,0,0
328615,-76.9230769230769,4,2,5,70,0,1
329215,-66.6666666666667,4,2,5,70,0,0
329815,-50,4,2,5,70,0,0
330415,-66.6666666666667,4,2,5,70,0,1
330940,-66.6666666666667,4,2,5,70,0,0
331015,-76.9230769230769,4,2,5,70,0,1
331615,-50,4,2,5,70,0,0
331915,-66.6666666666667,4,2,5,70,0,0
332365,-58.8235294117647,4,2,5,70,0,0
332515,-52.6315789473684,4,2,5,70,0,0
332815,-66.6666666666667,4,2,5,70,0,1
333415,-62.5,4,2,5,70,0,1
334765,-62.5,4,2,6,70,0,1
334915,-100,4,2,6,70,0,0
335815,-100,4,2,1,70,0,0
345415,-83.3333333333333,4,2,4,70,0,0
353815,-83.3333333333333,4,2,2,70,0,0
354715,-50,4,2,1,70,0,0
355015,-66.6666666666667,4,2,1,80,0,1
356065,-76.9230769230769,4,2,1,80,0,1
356215,-66.6666666666667,4,2,1,80,0,1
357265,-55.5555555555556,4,2,1,80,0,1
357415,-66.6666666666667,4,2,1,80,0,1
358465,-55.5555555555556,4,2,1,80,0,1
358615,-66.6666666666667,4,2,1,80,0,1
359215,-58.8235294117647,4,2,1,80,0,1
359815,-66.6666666666667,4,2,1,80,0,1
360865,-76.9230769230769,4,2,1,80,0,1
361015,-66.6666666666667,4,2,1,80,0,1
362065,-58.8235294117647,4,2,1,80,0,1
362215,-66.6666666666667,4,2,1,80,0,1
363265,-55.5555555555556,4,2,1,80,0,1
363415,-66.6666666666667,4,2,1,80,0,1
364615,-66.6666666666667,4,2,1,80,0,1
365515,-58.8235294117647,4,2,1,80,0,1
365815,-66.6666666666667,4,2,1,80,0,1
366715,-58.8235294117647,4,2,1,80,0,1
367015,-66.6666666666667,4,2,1,80,0,1
367915,-58.8235294117647,4,2,1,80,0,1
368215,-66.6666666666667,4,2,1,80,0,1
368815,-58.8235294117647,4,2,1,80,0,1
369415,-66.6666666666667,4,2,1,80,0,1
370315,-58.8235294117647,4,2,1,80,0,1
370615,-66.6666666666667,4,2,1,80,0,1
371515,-58.8235294117647,4,2,1,80,0,1
371815,-66.6666666666667,4,2,1,80,0,1
372715,-58.8235294117647,4,2,1,80,0,1
373015,-66.6666666666667,4,2,1,80,0,1
373165,-58.8235294117647,4,2,2,80,0,1
374215,-100,4,2,1,80,0,0
374290,-100,4,2,1,60,0,0
383815,-133.333333333333,4,2,1,60,0,0
393490,-133.333333333333,4,2,1,5,0,0

[Colours]
Combo1 : 255,172,214
Combo2 : 255,128,128
Combo3 : 255,172,132
Combo4 : 255,255,128
Combo5 : 128,255,128
Combo6 : 0,234,234
Combo7 : 0,128,255
Combo8 : 159,107,184

[HitObjects]
256,192,328,12,0,17696,0:0:0:0:
466,118,18012,6,0,L|474:186,1,50,4|2,0:0|0:0,0:0:0:0:
391,63,18327,2,0,L|396:13,1,50,0|2,0:0|0:0,0:0:0:0:
377,189,18643,6,0,L|385:257,1,50,0|2,0:0|0:0,0:0:0:0:
302,134,18959,2,0,L|307:84,1,50,0|2,0:0|0:0,0:0:0:0:
503,366,19276,5,8,0:0:0:0:
426,329,19434,1,2,0:0:0:0:
356,376,19591,2,0,P|320:363|292:365,1,50,0|2,0:0|0:0,0:0:0:0:
320,286,19907,5,0,0:0:0:0:
243,323,20065,1,2,0:0:0:0:
173,276,20222,2,0,P|137:289|109:287,1,50,0|2,0:0|0:0,0:0:0:0:
46,266,20539,6,0,L|38:198,1,50,0|2,0:0|0:0,0:0:0:0:
121,321,20854,2,0,L|116:371,1,50,0|2,0:0|0:0,0:0:0:0:
135,195,21170,6,0,L|127:127,1,50,0|2,0:0|0:0,0:0:0:0:
210,250,21485,2,0,L|205:300,1,50,0|2,0:0|0:0,0:0:0:0:
9,18,21802,5,8,0:0:0:0:
86,55,21960,1,2,0:0:0:0:
156,8,22117,2,0,P|192:21|220:19,1,50,0|2,0:0|0:0,0:0:0:0:
192,98,22433,5,0,0:0:0:0:
269,61,22591,1,2,0:0:0:0:
339,108,22748,2,0,P|375:95|403:97,1,50,0|2,0:0|0:0,0:0:0:0:
463,127,23064,6,0,B|474:93|474:93|458:33,1,75.0000028610231,0|2,1:0|0:0,0:0:0:0:
392,196,23380,2,0,B|381:230|381:230|397:290,1,75.0000028610231,0|2,1:0|0:0,0:0:0:0:
339,108,23696,6,0,B|350:74|350:74|334:14,1,75.0000028610231,0|2,1:0|0:0,0:0:0:0:
268,177,24012,2,0,B|257:211|257:211|273:271,1,75.0000028610231,0|2,1:0|0:0,0:0:0:0:
465,257,24327,6,0,L|361:271,1,75.0000028610231,8|2,1:2|0:0,0:0:0:0:
342,166,24643,2,0,L|238:180,1,75.0000028610231,0|2,1:0|0:0,0:0:0:0:
267,248,24959,6,0,L|163:262,1,75.0000028610231,0|2,1:0|0:0,0:0:0:0:
144,157,25275,2,0,L|40:171,1,75.0000028610231,0|2,1:0|0:0,0:0:0:0:
203,88,25590,5,0,1:0:0:0:
203,88,25749,2,0,L|153:80,1,50,2|0,0:0|0:0,0:0:0:0:
138,233,25906,5,0,1:0:0:0:
138,233,26064,2,0,L|88:241,1,50,2|0,0:0|0:0,0:0:0:0:
143,7,26222,5,0,1:0:0:0:
143,7,26380,2,0,L|93:-1,1,50,2|0,0:0|0:0,0:0:0:0:
78,152,26538,5,0,1:0:0:0:
78,152,26696,2,0,L|28:160,1,50,2|0,0:0|0:0,0:0:0:0:
227,339,26854,6,0,L|282:347,1,50,8|0,1:2|0:0,0:0:0:0:
207,269,27012,1,2,0:0:0:0:
271,77,27170,6,0,L|221:84,1,50,0|0,1:0|0:0,0:0:0:0:
306,142,27327,1,2,0:0:0:0:
380,210,27485,6,0,L|440:210,1,50,0|0,1:0|0:0,0:0:0:0:
255,204,27643,1,2,0:0:0:0:
100,300,27801,6,0,L|75:300,12,25,2|2|2|2|2|2|2|2|2|2|2|2|2,0:3|0:3|0:3|0:3|0:3|0:3|0:3|0:3|0:3|0:3|0:3|0:3|0:3,0:0:0:0:
113,223,28117,6,0,P|77:185|82:129,1,100,4|2,1:2|0:0,0:0:0:0:
256,221,28433,1,8,1:0:0:0:
256,221,28590,1,2,0:0:0:0:
136,62,28748,6,0,P|186:49|232:82,1,100,0|2,1:0|0:0,0:0:0:0:
229,199,29064,2,0,L|151:136,1,100,8|2,1:0|0:0,0:0:0:0:
85,369,29380,6,0,B|43:344|43:344|89:321,1,100,0|2,1:0|0:0,0:0:0:0:
334,348,29696,1,8,1:0:0:0:
334,348,29854,1,2,0:0:0:0:
160,346,30012,6,0,B|207:348|207:348|214:342|214:342|276:346,1,100,0|2,1:0|0:0,0:0:0:0:
410,384,30327,2,0,P|424:328|357:286,1,100,8|2,1:0|0:0,0:0:0:0:
287,142,30643,5,0,1:0:0:0:
287,142,30801,1,2,0:0:0:0:
438,203,30959,2,0,P|447:133|472:103,1,100,8|2,1:0|0:0,0:0:0:0:
287,142,31275,6,0,L|371:237,1,100,0|2,1:0|0:0,0:0:0:0:
306,288,31591,2,0,P|236:276|200:291,1,100,8|2,1:0|0:0,0:0:0:0:
221,86,31906,6,0,L|288:161,1,100,0|2,1:0|0:0,0:0:0:0:
364,17,32222,2,0,P|316:28|269:15,1,100,8|2,1:0|0:0,0:0:0:0:
353,216,32538,6,0,L|287:142,1,100,0|2,1:0|0:0,0:0:0:0:
210,285,32854,2,0,P|258:274|306:288,1,100,8|2,1:0|0:0,0:0:0:0:
91,372,33170,6,0,B|115:346|115:346|91:247,1,100,0|2,1:0|0:0,0:0:0:0:
52,111,33485,1,8,1:0:0:0:
52,111,33643,1,2,0:0:0:0:
15,277,33801,6,0,B|-9:303|-9:303|15:402,1,100,0|2,1:0|0:0,0:0:0:0:
191,372,34117,2,0,L|313:383,1,100,8|2,1:0|0:0,0:0:0:0:
467,208,34433,6,0,B|454:214|454:214|345:228,1,100,0|2,1:0|0:0,0:0:0:0:
483,121,34748,1,8,1:0:0:0:
483,121,34906,1,2,0:0:0:0:
313,68,35064,6,0,B|324:76|324:76|391:163,1,100,0|2,1:0|0:0,0:0:0:0:
263,268,35380,2,0,B|264:253|264:253|306:152,1,100,8|2,1:0|0:0,0:0:0:0:
404,14,35696,5,0,1:0:0:0:
404,14,35854,1,2,0:0:0:0:
297,174,36012,2,0,P|266:184|191:156,1,100,8|2,1:0|0:0,0:0:0:0:
38,221,36327,6,0,B|95:207|64:257|167:233,1,100,0|2,1:0|0:0,0:0:0:0:
179,87,36643,2,0,P|140:118|125:165,1,100,8|2,1:0|0:0,0:0:0:0:
192,290,36959,5,0,1:0:0:0:
415,201,37117,1,0,1:0:0:0:
415,201,37196,1,0,1:0:0:0:
415,201,37275,6,0,L|406:257,1,50,0|0,1:0|0:0,0:0:0:0:
508,187,37433,2,0,L|499:243,1,50,0|0,1:0|0:0,0:0:0:0:
333,327,37591,6,0,B|326:301|326:301|321:298|321:298|325:295|325:295|313:240,1,75.0000028610231,8|0,0:3|0:0,0:0:0:0:
266,34,37748,1,8,0:3:0:0:
282,110,37827,1,8,0:3:0:0:
297,183,37906,2,0,B|319:133|319:133|248:144|248:144|218:139|218:139|191:154|191:154|99:167,1,255.000004863739,4|0,0:3|0:0,0:0:0:0:
87,242,38222,5,4,1:2:0:0:
87,242,38380,1,2,0:0:0:0:
52,0,38538,2,0,B|76:9|76:9|96:114,1,100,8|2,1:0|0:0,0:0:0:0:
125,164,38854,5,0,1:0:0:0:
125,164,39012,1,2,0:0:0:0:
161,314,39170,2,0,B|185:305|185:305|205:200,1,100,8|2,1:0|0:0,0:0:0:0:
245,150,39485,5,0,1:0:0:0:
245,150,39643,1,2,0:0:0:0:
267,20,39801,2,0,B|291:29|291:29|311:134,1,100,8|2,1:0|0:0,0:0:0:0:
346,177,40117,5,0,1:0:0:0:
346,177,40275,1,2,0:0:0:0:
346,177,40433,2,0,L|418:175,1,50.0000019073487,0|0,1:0|0:0,0:0:0:0:
422,179,40590,6,0,P|367:122|316:180,1,173.333325398763
371,252,40748,5,0,1:0:0:0:
371,252,40906,1,2,0:0:0:0:
180,384,41064,2,0,B|165:368|165:368|143:289,1,100,8|2,1:0|0:0,0:0:0:0:
195,203,41380,5,0,1:0:0:0:
195,203,41538,1,2,0:0:0:0:
281,270,41696,2,0,B|296:254|296:254|318:175,1,100,8|2,1:0|0:0,0:0:0:0:
305,102,42012,5,0,1:0:0:0:
305,102,42170,1,2,0:0:0:0:
229,120,42328,2,0,B|206:109|206:109|186:34|186:34|208:7|208:7|391:23,1,255.000004863739,8|0,1:0|0:0,0:0:0:0:
385,80,42643,6,0,B|441:72|441:72|450:75|450:75|529:61,1,119.999996337891,4|0,1:0|0:0,0:0:0:0:
486,263,42801,6,0,L|491:221,1,37.5000014305115,2|0,0:0|0:0,0:0:0:0:
479,264,42880,2,0,L|484:222,1,37.5000014305115,2|0,0:0|0:0,0:0:0:0:
472,265,42959,6,0,B|449:260|426:267|426:267|410:280|410:280|372:297|309:266,1,133.333333333333,8|0,0:1|0:0,0:0:0:0:
336,282,43117,6,0,B|288:310|288:310|216:263,1,110.000003356934,8|4,0:3|0:3,0:0:0:0:
229,120,43275,5,4,1:2:0:0:
229,120,43433,1,2,0:0:0:0:
171,336,43591,2,0,B|156:323|156:323|66:303,1,100,8|2,1:0|0:0,0:0:0:0:
0,288,43906,5,0,1:0:0:0:
77,305,44064,2,0,L|93:367,1,50,2|0,0:0|0:0,0:0:0:0:
17,366,44222,6,0,B|-1:326|-1:288|-1:288|6:291|6:291|27:247|2:213|2:213|-3:221|-3:221|-23:178|-2:110,1,255.000004863739,8|0,1:0|0:0,0:0:0:0:
11,63,44538,5,0,1:0:0:0:
11,63,44696,1,2,0:0:0:0:
279,165,44854,6,0,B|316:191|316:191|293:246|293:246|241:262|241:262|193:189,1,189.999994926453,8|2,1:0|0:0,0:0:0:0:
104,78,45169,6,0,B|116:37|116:37|206:18|206:18|219:8|219:8|230:11|230:11|293:-1|293:-1|327:29|327:29|293:110,1,330.000010070801,2|0,1:2|0:0,0:0:0:0:
224,236,45485,6,0,B|180:294|180:294|212:359|212:359|301:348|301:348|305:353|305:353|307:348|307:348|457:327,1,330.000010070801,2|0,1:2|0:0,0:0:0:0:
498,205,45801,6,0,B|468:295|468:295|337:195,1,189.999994926453,2|0,1:2|0:0,0:0:0:0:
375,0,46038,2,0,P|427:92|424:202,1,189.999994926453,2|0,1:2|0:0,0:0:0:0:
506,307,46275,6,0,B|460:318|406:310|424:274|371:256|288:290,1,189.999994926453,2|0,1:2|0:0,0:0:0:0:
375,0,46512,2,0,B|329:-11|275:-3|293:33|240:51|157:17,1,189.999994926453,2|0,1:2|0:0,0:0:0:0:
41,107,46749,6,0,B|36:128|36:128|45:141|45:141|63:249,1,104.999996795654,2|0,1:2|0:0,0:0:0:0:
182,282,46906,2,0,B|187:303|187:303|178:316|178:316|160:424,1,104.999996795654,2|0,1:2|0:0,0:0:0:0:
0,213,47064,5,2,0:3:0:0:
28,210,47142,1,2,0:3:0:0:
57,208,47221,1,2,0:3:0:0:
85,206,47300,1,2,0:3:0:0:
114,204,47379,1,2,0:3:0:0:
142,202,47458,1,2,0:3:0:0:
171,200,47537,1,2,0:3:0:0:
199,198,47616,1,2,0:3:0:0:
228,196,47695,1,2,0:3:0:0:
257,194,47774,1,2,0:3:0:0:
285,192,47853,1,2,0:3:0:0:
314,190,47932,1,2,0:3:0:0:
392,177,48012,6,0,B|416:185|416:185|365:207,12,50,2|2|2|2|2|2|2|2|2|2|2|2|2,0:3|0:3|0:3|0:3|0:3|0:3|0:3|0:3|0:3|0:3|0:3|0:3|0:3,0:0:0:0:
339,114,48327,6,0,P|325:81|341:36,1,75.0000028610231,4|0,0:2|0:0,0:0:0:0:
356,268,48485,1,4,0:0:0:0:
356,268,48564,1,0,0:0:0:0:
356,268,48643,2,0,P|370:301|354:346,1,75.0000028610231,8|0,0:0|0:0,0:0:0:0:
251,97,48801,1,4,0:0:0:0:
251,97,48880,1,0,0:0:0:0:
251,97,48959,6,0,L|176:87,1,75.0000028610231,2|0,0:0|0:0,0:0:0:0:
85,223,49117,2,0,L|160:213,1,75.0000028610231,4|0,0:0|0:0,0:0:0:0:
284,348,49275,2,0,L|96:337,1,150.000005722046,8|4,0:0|0:0,0:0:0:0:
58,338,49512,1,0,0:0:0:0:
17,272,49591,6,0,P|3:213|15:182,1,75.0000028610231,2|0,0:0|0:0,0:0:0:0:
165,15,49749,2,0,P|179:74|167:105,1,75.0000028610231,4|0,0:0|0:0,0:0:0:0:
30,123,49906,1,8,0:0:0:0:
30,123,50064,2,0,L|135:108,1,75.0000028610231,4|0,0:0|0:0,0:0:0:0:
367,19,50222,5,2,0:0:0:0:
331,85,50301,1,0,0:0:0:0:
338,159,50380,1,4,0:0:0:0:
383,220,50459,1,0,0:0:0:0:
459,237,50538,1,8,0:0:0:0:
459,237,50696,6,0,L|384:247,1,75.0000028610231,4|0,0:0|0:0,0:0:0:0:
253,263,50854,5,2,0:0:0:0:
253,263,50933,1,0,0:0:0:0:
253,263,51012,2,0,B|244:288|244:288|257:351,1,75.0000028610231,4|0,0:0|0:0,0:0:0:0:
114,377,51169,5,8,0:0:0:0:
114,377,51248,1,0,0:0:0:0:
114,377,51327,2,0,B|123:352|123:352|110:289,1,75.0000028610231,4|0,0:0|0:0,0:0:0:0:
12,167,51485,5,2,0:0:0:0:
80,170,51564,1,0,0:0:0:0:
148,175,51643,1,4,0:0:0:0:
217,178,51722,1,0,0:0:0:0:
289,184,51801,2,0,L|274:29,1,150.000005722046,8|4,0:0|0:0,0:0:0:0:
346,8,52038,1,0,0:0:0:0:
346,8,52117,6,0,P|384:3|463:28,1,75.0000028610231,2|0,0:0|0:0,0:0:0:0:
200,87,52275,2,0,P|162:92|83:67,1,75.0000028610231,4|0,0:0|0:0,0:0:0:0:
339,261,52433,1,8,0:0:0:0:
339,261,52591,2,0,L|330:356,1,75.0000028610231,4|0,0:0|0:0,0:0:0:0:
250,372,52748,5,2,0:0:0:0:
191,336,52827,1,0,0:0:0:0:
167,270,52906,1,4,0:0:0:0:
190,202,52985,1,0,0:0:0:0:
260,171,53064,2,0,P|192:187|109:147,1,150.000005722046,8|4,0:0|0:0,0:0:0:0:
126,87,53301,1,0,0:0:0:0:
68,38,53380,6,0,B|49:56|49:56|59:117,1,75.0000028610231,2|0,0:0|0:0,0:0:0:0:
324,229,53538,1,4,0:0:0:0:
324,229,53617,1,0,0:0:0:0:
324,229,53696,6,0,B|343:211|343:211|333:150,1,75.0000028610231,8|0,0:0|0:0,0:0:0:0:
54,181,53854,1,4,0:0:0:0:
54,181,53933,1,0,0:0:0:0:
54,181,54012,5,2,0:0:0:0:
122,175,54090,1,0,0:0:0:0:
192,171,54169,1,4,0:0:0:0:
262,168,54248,1,0,0:0:0:0:
335,162,54327,6,0,L|346:75,1,75.0000028610231,8|0,0:0|0:0,0:0:0:0:
458,200,54485,2,0,L|467:274,1,75.0000028610231,4|0,0:0|0:0,0:0:0:0:
362,360,54643,5,2,0:0:0:0:
292,371,54722,1,0,0:0:0:0:
224,349,54801,1,4,0:0:0:0:
199,285,54880,1,0,0:0:0:0:
211,215,54959,2,0,B|133:200|149:266|45:229,1,150.000005722046,8|4,0:0|0:0,0:0:0:0:
2,181,55196,1,0,0:0:0:0:
2,181,55275,6,0,P|-6:124|8:97,1,75.0000028610231,2|0,0:0|0:0,0:0:0:0:
202,39,55433,2,0,P|210:96|196:123,1,75.0000028610231,4|0,0:0|0:0,0:0:0:0:
33,30,55590,1,8,0:0:0:0:
33,30,55749,2,0,L|140:37,1,75.0000028610231,4|0,0:0|0:0,0:0:0:0:
320,44,55906,5,2,0:0:0:0:
289,113,55985,1,0,0:0:0:0:
296,188,56064,1,4,0:0:0:0:
349,241,56143,1,0,0:0:0:0:
420,259,56222,2,0,L|503:252,1,75.0000028610231,8|0,0:0|0:0,0:0:0:0:
339,364,56380,2,0,L|256:357,1,75.0000028610231,4|0,0:0|0:0,0:0:0:0:
296,188,56538,6,0,L|379:181,1,75.0000028610231,2|0,0:0|0:0,0:0:0:0:
215,293,56696,2,0,L|132:286,1,75.0000028610231,4|0,0:0|0:0,0:0:0:0:
215,98,56854,5,8,0:0:0:0:
215,98,57012,2,0,P|214:176|195:203,1,75.0000028610231,4|0,0:0|0:0,0:0:0:0:
11,274,57170,6,0,B|63:276|63:276|86:284|86:284|168:287,1,129.999994049073,0|0,1:0|1:0,0:0:0:0:
252,19,57485,2,0,L|180:10,1,64.9999970245363,8|0,0:1|0:0,0:0:0:0:
66,150,57643,2,0,L|138:141,1,64.9999970245363,0|0,1:0|0:0,0:0:0:0:
420,79,57801,6,0,P|451:72|482:82,1,64.9999970245363,8|0,0:1|0:0,0:0:0:0:
358,191,57959,2,0,P|326:197|295:187,1,64.9999970245363,8|0,0:1|0:0,0:0:0:0:
375,10,58117,6,0,B|384:124|384:124|391:137|391:137|401:283,1,255.000004863739,8|0,0:1|0:0,0:0:0:0:
472,296,58433,5,4,3:2:0:0:
472,296,58591,2,0,L|488:139,1,129.999994049073,2|8,0:0|3:1,0:0:0:0:
282,58,58906,2,0,L|295:187,1,129.999994049073,2|0,0:0|3:0,0:0:0:0:
323,312,59222,2,0,L|172:295,1,129.999994049073,2|8,0:0|3:1,0:0:0:0:
463,333,59538,6,0,P|418:322|466:322,1,133.333333333333,2|0,0:0|0:0,0:0:0:0:
323,312,59696,5,0,3:0:0:0:
323,312,59854,2,0,P|343:243|405:209,1,129.999994049073,2|8,0:0|3:1,0:0:0:0:
505,50,60170,2,0,P|485:119|423:153,1,129.999994049073,2|0,0:0|3:0,0:0:0:0:
364,142,60406,5,0,0:0:0:0:
288,137,60485,1,2,0:0:0:0:
214,132,60564,1,0,0:0:0:0:
388,82,60643,6,0,B|327:95|327:95|315:90|315:90|278:177|278:177|265:171|265:171|159:194,1,255.000004863739,0|0,0:0|0:0,0:0:0:0:
77,206,60959,5,0,3:0:0:0:
77,206,61117,2,0,L|67:60,1,129.999994049073,2|8,0:0|3:1,0:0:0:0:
195,186,61433,2,0,L|205:332,1,129.999994049073,2|0,0:0|3:0,0:0:0:0:
0,338,61748,2,0,B|63:327|63:327|171:362,1,129.999994049073,2|8,0:0|3:1,0:0:0:0:
286,213,62064,6,0,P|331:224|283:224,1,133.333333333333,2|0,0:0|0:0,0:0:0:0:
400,172,62222,5,0,3:0:0:0:
400,172,62380,2,0,P|413:245|379:309,1,129.999994049073,2|8,0:0|3:1,0:0:0:0:
318,12,62696,2,0,P|305:85|339:149,1,129.999994049073,2|0,0:0|3:0,0:0:0:0:
328,361,63012,6,0,B|298:346|298:346|194:355,1,129.999994049073,2|8,0:0|3:1,0:0:0:0:
25,368,63327,1,2,0:0:0:0:
99,204,63485,6,0,B|153:243|153:243|83:300,1,129.999994049073,0|2,3:0|0:0,0:0:0:0:
29,245,63801,1,8,3:1:0:0:
29,245,63959,1,2,0:0:0:0:
205,148,64117,6,0,B|151:109|151:109|221:52,1,129.999994049073,0|2,3:0|0:0,0:0:0:0:
366,101,64433,6,0,B|331:104|331:104|324:102|324:102|266:106,1,75.0000028610231,0|0,0:0|0:0,0:0:0:0:
404,18,64590,1,0,0:0:0:0:
391,102,64669,1,0,0:0:0:0:
387,185,64748,6,0,B|388:216|388:216|384:219|384:219|388:219|388:219|392:320,1,129.999994049073,0|2,3:0|0:0,0:0:0:0:
468,199,65064,1,8,3:1:0:0:
468,199,65222,1,2,0:0:0:0:
488,360,65380,6,0,B|486:343|460:327|460:327|335:340|335:340|301:331|300:277,1,225.000008583069,0|0,3:0|0:0,0:0:0:0:
288,216,65696,1,8,3:1:0:0:
288,216,65854,1,2,0:0:0:0:
243,369,66012,5,4,0:1:0:0:
211,166,66169,1,8,0:1:0:0:
480,225,66327,5,8,0:1:0:0:
445,231,66406,1,8,0:1:0:0:
407,237,66485,2,0,L|357:246,1,50,2|0,0:0|0:0,0:0:0:0:
226,85,66643,6,0,L|276:76,1,50,8|0,0:1|0:0,0:0:0:0:
220,270,66801,2,0,L|170:279,1,50,8|2,0:1|0:0,0:0:0:0:
345,157,66959,2,0,B|373:199|373:199|350:266,1,100,8|2,0:1|0:0,0:0:0:0:
231,358,67275,6,0,B|203:316|203:316|226:249,1,100,4|8,0:1|0:1,0:0:0:0:
345,157,67590,1,8,0:1:0:0:
345,157,67669,1,8,0:1:0:0:
345,157,67749,2,0,L|395:148,1,50,8|0,0:1|0:0,0:0:0:0:
276,76,67906,6,0,L|226:85,1,50,8|0,0:1|0:0,0:0:0:0:
195,180,68064,2,0,L|145:189,1,50,2|0,0:0|0:0,0:0:0:0:
66,112,68222,1,8,0:1:0:0:
66,112,68380,1,2,0:0:0:0:
246,368,68538,6,0,L|113:353,1,119.999996337891,4|2,3:2|0:0,0:0:0:0:
336,154,68854,2,0,L|319:294,1,119.999996337891,8|2,3:2|0:0,0:0:0:0:
145,188,69169,1,0,3:0:0:0:
417,164,69327,2,0,P|405:106|358:71,2,119.999996337891,2|8|2,0:0|3:2|0:0,0:0:0:0:
260,302,69801,6,0,B|311:307|311:307|318:315|318:315|389:325,1,119.999996337891,0|2,3:0|0:0,0:0:0:0:
506,148,70117,2,0,B|494:53|494:53|471:27,1,119.999996337891,8|2,3:2|0:0,0:0:0:0:
416,249,70433,1,0,3:0:0:0:
416,249,70591,2,0,B|428:344|428:344|451:370,2,119.999996337891,2|8|2,0:0|3:2|0:0,0:0:0:0:
209,37,71064,5,0,3:0:0:0:
116,141,71222,2,0,B|69:99|69:99|138:58,1,119.999996337891,2|8,0:0|3:2,0:0:0:0:
209,37,71538,1,2,0:0:0:0:
145,242,71696,2,0,L|-2:279,2,119.999996337891,0|2|8,3:0|0:0|3:2,0:0:0:0:
209,37,72169,1,2,0:0:0:0:
357,289,72327,6,0,L|504:326,2,119.999996337891,0|2|8,3:0|0:0|3:2,0:0:0:0:
293,84,72800,1,2,0:0:0:0:
159,355,72959,6,0,L|12:392,2,119.999996337891,0|2|8,3:0|0:0|3:2,0:0:0:0:
223,150,73432,1,2,0:0:0:0:
443,139,73591,6,0,P|459:81|421:22,1,119.999996337891,0|2,3:0|0:0,0:0:0:0:
448,246,73906,2,0,P|431:303|469:362,1,119.999996337891,8|2,3:2|0:0,0:0:0:0:
307,202,74222,1,0,3:0:0:0:
503,186,74380,2,0,B|449:190|449:190|443:195|443:195|342:202,2,119.999996337891,2|8|2,0:0|3:2|0:0,0:0:0:0:
75,35,74854,6,0,B|105:91|105:91|84:164,1,119.999996337891,0|2,3:0|0:0,0:0:0:0:
84,353,75170,2,0,B|54:297|54:297|75:224,1,119.999996337891,8|2,3:2|0:0,0:0:0:0:
217,184,75485,1,0,3:0:0:0:
22,185,75643,2,0,B|87:172|76:215|161:191,2,119.999996337891,2|8|2,0:0|3:2|0:0,0:0:0:0:
276,135,76117,5,0,3:0:0:0:
196,260,76275,2,0,P|261:249|293:203,2,119.999996337891,2|8|2,0:0|3:2|0:0,0:0:0:0:
267,52,76748,1,0,3:0:0:0:
474,155,76906,2,0,L|488:312,2,119.999996337891,2|8|2,0:0|3:2|0:0,0:0:0:0:
345,3,77380,5,0,3:0:0:0:
253,196,77538,2,0,L|267:39,2,119.999996337891,2|8|2,0:0|3:2|0:0,0:0:0:0:
496,275,78012,6,0,L|485:155,1,119.999996337891,0|2,3:0|0:0,0:0:0:0:
254,77,78248,1,0,3:0:0:0:
254,77,78327,2,0,L|243:196,1,119.999996337891,8|0,3:2|3:0,0:0:0:0:
97,347,78643,5,4,3:2:0:0:
97,347,78801,1,2,0:0:0:0:
17,304,78959,2,0,B|40:267|40:267|146:243,1,119.999996337891,8|2,3:2|0:0,0:0:0:0:
181,72,79275,5,2,3:1:0:0:
181,72,79433,1,2,0:0:0:0:
101,115,79591,2,0,B|124:152|124:152|230:176,1,119.999996337891,8|2,3:2|0:0,0:0:0:0:
318,369,79906,5,0,3:0:0:0:
318,369,80064,1,2,0:0:0:0:
238,326,80222,2,0,B|261:289|261:289|367:265,1,119.999996337891,8|2,3:2|0:0,0:0:0:0:
432,34,80538,5,2,3:1:0:0:
432,34,80696,1,2,0:0:0:0:
352,77,80854,2,0,B|375:114|375:114|481:138,1,119.999996337891,8|2,3:2|0:0,0:0:0:0:
409,288,81169,5,0,3:0:0:0:
409,288,81327,1,2,0:0:0:0:
318,369,81485,2,0,L|326:233,1,119.999996337891,8|2,3:2|0:0,0:0:0:0:
85,242,81801,5,2,3:1:0:0:
85,242,81959,1,2,0:0:0:0:
205,325,82117,2,0,L|197:189,1,119.999996337891,8|2,3:2|0:0,0:0:0:0:
489,90,82433,5,0,3:0:0:0:
489,90,82591,1,2,0:0:0:0:
352,180,82749,2,0,L|360:44,1,119.999996337891,8|2,3:2|0:0,0:0:0:0:
0,70,83064,5,2,3:1:0:0:
0,70,83222,1,2,0:0:0:0:
160,120,83380,2,0,L|152:-16,1,119.999996337891,8|2,3:2|0:0,0:0:0:0:
42,226,83696,5,4,3:2:0:0:
65,153,83854,1,2,0:0:0:0:
87,291,84012,2,0,B|136:262|136:262|204:272,1,119.999996337891,8|2,3:2|0:0,0:0:0:0:
65,153,84328,5,2,3:1:0:0:
87,291,84485,1,2,0:0:0:0:
176,133,84643,2,0,B|127:162|127:162|64:152,1,119.999996337891,8|2,3:2|0:0,0:0:0:0:
470,158,84959,5,4,3:2:0:0:
447,231,85117,1,2,0:0:0:0:
425,93,85275,2,0,B|376:122|376:122|308:112,1,119.999996337891,8|2,3:2|0:0,0:0:0:0:
447,231,85591,5,2,3:1:0:0:
425,93,85749,1,2,0:0:0:0:
336,251,85906,2,0,B|385:222|385:222|447:231,1,119.999996337891,8|2,3:2|0:0,0:0:0:0:
237,257,86222,5,4,3:2:0:0:
54,102,86380,1,2,0:0:0:0:
195,190,86538,2,0,L|58:177,1,119.999996337891,8|2,3:2|0:0,0:0:0:0:
262,374,86854,5,4,3:2:0:0:
445,219,87012,1,2,0:0:0:0:
304,307,87170,2,0,L|441:294,1,119.999996337891,8|2,3:2|0:0,0:0:0:0:
76,168,87485,6,0,L|195:179,1,119.999996337891,2|4,0:2|0:3,0:0:0:0:
377,67,87801,2,0,L|313:74,1,59.9999981689454,8|0,0:1|0:0,0:0:0:0:
177,92,87959,2,0,L|237:86,1,59.9999981689454,8|0,0:1|0:0,0:0:0:0:
434,20,88117,6,0,P|446:47|449:76,1,59.9999981689454,8|0,0:1|0:0,0:0:0:0:
112,127,88275,2,0,P|104:98|107:69,1,59.9999981689454,2|0,0:0|0:0,0:0:0:0:
285,143,88433,2,0,L|308:292,1,119.999996337891,8|2,0:1|0:0,0:0:0:0:
326,370,88748,5,4,3:2:0:0:
256,192,88827,12,0,91827,0:0:0:0:
472,192,91906,6,0,L|392:192,1,80,0|0,0:0|0:0,0:0:0:0:
384,192,93250,6,0,L|309:192,1,75,0|0,0:0|0:0,0:0:0:0:
285,203,94750,6,0,L|291:152,1,50
214,205,95125,6,0,L|225:132,1,59.9999981689454
142,205,95500,6,0,L|158:118,1,69.9999978637696
69,207,95875,6,0,L|91:100,1,80
250,285,96250,6,0,L|235:407,1,89.9999972534181
322,273,96625,6,0,L|307:395,1,100
394,261,97000,6,0,L|377:393,1,110.000003356934
466,247,97375,6,0,L|450:381,1,119.999996337891
452,367,97750,6,0,L|432:180,1,150.000005722046,12|4,0:0|0:3,0:0:0:0:
403,140,98031,1,4,0:3:0:0:
376,61,98125,6,0,L|359:210,1,150.000005722046,8|4,0:0|0:3,0:0:0:0:
332,283,98406,1,4,0:3:0:0:
305,362,98500,6,0,L|288:212,1,150.000005722046,8|4,0:0|0:3,0:0:0:0:
249,133,98781,1,4,0:3:0:0:
222,54,98875,6,0,L|205:203,1,150.000005722046,8|4,0:0|0:3,0:0:0:0:
182,362,99156,1,4,0:3:0:0:
182,362,99250,6,0,B|168:351|168:351|-12:368,1,150.000005722046,8|4,0:0|0:3,0:0:0:0:
59,204,99531,1,4,0:3:0:0:
59,204,99625,6,0,B|73:215|73:215|253:198,1,150.000005722046,8|4,0:0|0:3,0:0:0:0:
308,184,99906,1,4,0:3:0:0:
308,184,100000,6,0,B|322:173|322:173|502:190,1,150.000005722046,8|4,0:0|0:3,0:0:0:0:
431,26,100281,1,4,0:3:0:0:
431,26,100375,6,0,B|417:37|417:37|237:20,1,150.000005722046,8|4,0:0|0:3,0:0:0:0:
209,52,100656,1,4,0:3:0:0:
209,52,100750,6,0,P|203:156|118:172,1,150.000005722046,8|4,0:0|0:3,0:0:0:0:
58,135,101031,1,4,0:3:0:0:
58,135,101125,6,0,P|64:31|149:15,1,150.000005722046,8|4,0:0|0:3,0:0:0:0:
172,174,101406,1,4,0:3:0:0:
172,174,101500,6,0,P|178:278|263:294,1,150.000005722046,8|4,0:0|0:3,0:0:0:0:
323,257,101781,1,4,0:3:0:0:
323,257,101875,6,0,P|317:153|232:137,1,150.000005722046,8|4,0:0|0:3,0:0:0:0:
282,339,102156,1,4,0:3:0:0:
282,339,102250,6,0,B|338:334|338:334|370:339|370:339|489:328,1,150.000005722046,8|4,0:0|0:3,0:0:0:0:
463,256,102531,1,4,0:3:0:0:
431,333,102625,6,0,B|426:277|426:277|431:245|431:245|420:126,1,150.000005722046,8|4,0:0|0:3,0:0:0:0:
348,151,102906,1,4,0:3:0:0:
425,183,103000,6,0,B|369:188|369:188|337:183|337:183|218:194,1,150.000005722046,8|4,0:0|0:3,0:0:0:0:
243,265,103281,1,4,0:3:0:0:
275,188,103375,6,0,B|280:244|280:244|275:276|275:276|286:395,1,150.000005722046,8|4,0:0|0:3,0:0:0:0:
208,337,103656,1,4,0:3:0:0:
208,337,103750,6,0,P|145:317|39:305,1,150.000005722046,8|4,0:0|0:3,0:0:0:0:
75,185,104031,1,4,0:3:0:0:
0,198,104125,6,0,P|71:219|145:229,1,150.000005722046,8|4,0:0|0:3,0:0:0:0:
159,110,104406,1,4,0:3:0:0:
83,122,104500,6,0,P|146:142|252:154,1,150.000005722046,8|4,0:0|0:3,0:0:0:0:
216,274,104781,1,4,0:3:0:0:
291,261,104875,6,0,P|219:239|145:229,1,150.000005722046,8|4,0:0|0:3,0:0:0:0:
370,221,105156,1,4,0:3:0:0:
370,221,105250,6,0,B|363:186|363:186|412:114|412:114|477:100,1,150.000005722046,8|4,0:0|0:3,0:0:0:0:
310,139,105531,1,4,0:3:0:0:
310,139,105625,6,0,B|329:109|329:109|415:93|415:93|471:129,1,150.000005722046,8|4,0:0|0:3,0:0:0:0:
370,221,105906,1,4,0:3:0:0:
370,221,106000,6,0,B|377:256|377:256|328:328|328:328|263:342,1,150.000005722046,8|4,0:0|0:3,0:0:0:0:
430,303,106281,1,4,0:3:0:0:
430,303,106375,6,0,B|410:332|410:332|324:348|324:348|268:312,1,150.000005722046,8|4,0:0|0:3,0:0:0:0:
179,207,106656,1,4,0:3:0:0:
179,207,106750,6,0,B|143:174|143:174|79:158|79:158|109:182,1,150.000005722046,8|4,0:0|0:3,0:0:0:0:
241,115,107031,1,4,0:3:0:0:
241,115,107125,6,0,B|274:79|274:79|290:15|290:15|266:45,1,150.000005722046,8|4,0:0|0:3,0:0:0:0:
333,177,107406,1,4,0:3:0:0:
333,177,107500,6,0,B|369:210|369:210|433:226|433:226|403:202,1,150.000005722046,8|4,0:0|0:3,0:0:0:0:
271,269,107781,1,4,0:3:0:0:
271,269,107875,6,0,B|238:305|238:305|222:369|222:369|246:339,1,150.000005722046,8|4,0:0|0:3,0:0:0:0:
256,192,108156,1,4,0:3:0:0:
271,269,108250,6,0,B|204:254|165:307|165:307|157:357,1,150.000005722046,8|4,0:0|0:3,0:0:0:0:
256,192,108531,1,4,0:3:0:0:
181,166,108625,6,0,B|228:115|201:55|201:55|162:23,1,150.000005722046,8|4,0:0|0:3,0:0:0:0:
256,192,108906,1,4,0:3:0:0:
315,140,109000,6,0,B|335:206|401:213|401:213|448:195,1,150.000005722046,8|4,0:0|0:3,0:0:0:0:
256,192,109281,1,4,0:3:0:0:
256,192,109375,6,0,B|256:228,12,25,2|2|2|2|2|2|2|2|2|2|2|2|2,0:3|0:3|0:3|0:3|0:3|0:3|0:3|0:3|0:3|0:3|0:3|0:3|0:3,0:0:0:0:
329,310,109750,6,0,P|240:264|117:259,1,200,12|2,0:0|0:0,0:0:0:0:
63,267,110031,1,2,0:0:0:0:
135,353,110125,2,0,P|146:285|133:232,1,100,8|0,0:0|0:0,0:0:0:0:
97,94,110312,2,0,P|86:162|99:215,1,100,2|2,0:0|0:0,0:0:0:0:
183,67,110500,6,0,B|264:58|264:58|298:41|298:41|415:28,1,200,8|2,0:0|0:0,0:0:0:0:
472,25,110781,1,2,0:0:0:0:
430,104,110875,2,0,L|415:244,1,100,8|0,0:0|0:0,0:0:0:0:
470,354,111062,2,0,L|480:254,1,100,2|2,0:0|0:0,0:0:0:0:
338,194,111250,6,0,P|377:268|494:234,1,200,8|2,0:0|0:0,0:0:0:0:
272,155,111531,1,2,0:0:0:0:
272,155,111625,2,0,B|221:150|221:150|148:175,1,100,8|0,0:0|0:0,0:0:0:0:
185,334,111812,2,0,B|214:292|214:292|229:216,1,100,2|2,0:0|0:0,0:0:0:0:
120,48,112000,6,0,L|145:276,1,200,8|2,0:0|0:0,0:0:0:0:
96,319,112281,1,2,0:0:0:0:
224,244,112375,2,0,P|308:224|367:233,1,100,8|0,0:0|0:0,0:0:0:0:
456,283,112562,2,0,P|372:303|313:294,1,100,2|2,0:0|0:0,0:0:0:0:
342,142,112750,6,0,P|397:202|349:309,1,200,8|2,0:0|0:0,0:0:0:0:
283,329,113031,1,2,0:0:0:0:
261,151,113125,2,0,L|266:35,1,100,8|0,0:0|0:0,0:0:0:0:
141,246,113312,2,0,L|145:345,1,100,2|2,0:0|0:0,0:0:0:0:
207,205,113500,6,0,B|58:193|58:193|18:125,1,200,8|2,0:0|0:0,0:0:0:0:
110,115,113781,1,2,0:0:0:0:
43,248,113875,2,0,L|29:127,1,100,8|0,0:0|0:0,0:0:0:0:
98,15,114062,2,0,L|109:114,1,100,2|2,0:0|0:0,0:0:0:0:
141,246,114250,6,0,P|222:176|360:210,1,200,8|2,0:0|0:0,0:0:0:0:
383,223,114531,1,2,0:0:0:0:
385,46,114625,2,0,P|373:120|394:172,1,100,8|0,0:0|0:0,0:0:0:0:
313,354,114812,2,0,P|320:304|306:256,1,100,2|2,0:0|0:0,0:0:0:0:
208,60,115000,6,0,P|142:63|219:72,1,300,8|2,0:0|0:0,0:0:0:0:
71,28,115375,2,0,P|53:139|64:169,1,100,8|0,0:0|0:0,0:0:0:0:
228,221,115562,1,2,0:0:0:0:
138,172,115656,1,8,0:0:0:0:
7,316,115750,6,0,L|275:278,1,200,8|2,0:0|0:0,0:0:0:0:
277,277,116031,1,2,0:0:0:0:
354,263,116125,2,0,P|345:341|348:376,1,100,8|0,0:0|0:0,0:0:0:0:
236,147,116312,2,0,P|245:69|242:34,1,100,2|2,0:0|0:0,0:0:0:0:
407,156,116500,6,0,B|303:143|339:230|227:220,1,200,8|2,0:0|0:0,0:0:0:0:
166,177,116781,1,2,0:0:0:0:
243,47,116875,2,0,L|376:36,1,100,8|0,0:0|0:0,0:0:0:0:
166,177,117062,2,0,L|33:166,1,100,2|2,0:0|0:0,0:0:0:0:
54,14,117250,6,0,P|102:135|8:172,1,200,8|2,0:0|0:0,0:0:0:0:
6,213,117531,1,2,0:0:0:0:
88,339,117625,2,0,B|134:317|134:317|206:325,1,100,8|0,0:0|0:0,0:0:0:0:
322,203,117812,2,0,B|276:225|276:225|227:219,1,100,2|2,0:0|0:0,0:0:0:0:
316,108,118000,6,0,L|299:356,1,200,8|2,0:0|0:0,0:0:0:0:
368,355,118281,1,2,0:0:0:0:
477,269,118375,2,0,L|467:153,1,100,8|0,0:0|0:0,0:0:0:0:
412,11,118562,2,0,L|403:110,1,100,2|2,0:0|0:0,0:0:0:0:
379,254,118750,6,0,P|319:221|205:308,1,200,8|2,0:0|0:0,0:0:0:0:
75,205,119031,1,2,0:0:0:0:
138,349,119125,2,0,L|141:242,1,100,8|0,0:0|0:0,0:0:0:0:
77,105,119312,2,0,L|74:204,1,100,2|2,0:0|0:0,0:0:0:0:
140,59,119500,6,0,B|210:46|210:46|266:52|266:52|358:36,1,200,8|2,0:0|0:0,0:0:0:0:
486,108,119781,1,2,0:0:0:0:
350,22,119875,2,0,B|340:71|340:71|367:156,1,100,8|0,0:0|0:0,0:0:0:0:
432,321,120062,2,0,B|442:272|442:272|415:187,1,100,2|2,0:0|0:0,0:0:0:0:
313,215,120250,6,0,L|512:191,1,200,8|2,0:0|0:0,0:0:0:0:
265,284,120531,1,2,0:0:0:0:
233,208,120625,2,0,P|239:165|237:98,1,100,8|0,0:0|0:0,0:0:0:0:
265,284,120812,2,0,P|259:327|261:394,1,100,2|2,0:0|0:0,0:0:0:0:
24,342,121000,6,0,B|77:266|171:289|171:289|153:338,1,200,8|2,0:0|0:0,0:0:0:0:
368,230,121281,6,0,B|315:154|221:177|221:177|239:226,1,200,8|0,0:0|0:0,0:0:0:0:
378,333,121562,6,0,P|448:305|471:247,1,100,8|0,0:0|0:0,0:0:0:0:
477,60,121750,5,12,0:0:0:0:
421,47,121843,1,0,0:0:0:0:
363,51,121937,1,2,0:0:0:0:
312,80,122031,1,2,0:0:0:0:
240,111,122125,2,0,P|189:97|132:102,1,100,8|0,0:0|0:0,0:0:0:0:
32,47,122312,2,0,L|56:173,1,100,2|2,0:0|0:0,0:0:0:0:
113,294,122500,5,8,0:0:0:0:
146,290,122593,1,0,0:0:0:0:
182,288,122687,1,2,0:0:0:0:
216,284,122781,1,2,0:0:0:0:
252,280,122875,2,0,L|270:390,1,100,8|0,0:0|0:0,0:0:0:0:
445,355,123062,2,0,P|449:292|417:247,1,100,2|2,0:0|0:0,0:0:0:0:
334,172,123250,5,8,0:0:0:0:
334,172,123343,1,0,0:0:0:0:
334,172,123437,2,0,P|325:117|346:71,1,100,2|2,0:0|0:0,0:0:0:0:
505,12,123625,2,0,B|457:29|457:29|372:14,1,100,8|0,0:0|0:0,0:0:0:0:
247,81,123812,2,0,B|198:72|198:72|150:89,1,100,2|2,0:0|0:0,0:0:0:0:
60,50,124000,5,8,0:0:0:0:
49,123,124093,1,0,0:0:0:0:
38,199,124187,2,0,L|151:216,1,100,2|2,0:0|0:0,0:0:0:0:
238,238,124375,2,0,P|241:295|216:365,1,100,8|0,0:0|0:0,0:0:0:0:
379,347,124562,2,0,P|376:290|401:220,1,100,2|2,0:0|0:0,0:0:0:0:
465,183,124750,5,8,0:0:0:0:
492,127,124843,1,0,0:0:0:0:
478,66,124937,1,2,0:0:0:0:
425,40,125031,1,2,0:0:0:0:
347,58,125125,2,0,P|324:113|312:181,1,100,8|0,0:0|0:0,0:0:0:0:
354,343,125312,2,0,P|377:288|389:220,1,100,2|2,0:0|0:0,0:0:0:0:
280,61,125500,6,0,L|323:205,1,100,8|0,0:0|0:0,0:0:0:0:
420,339,125687,2,0,L|391:243,1,100,2|2,0:0|0:0,0:0:0:0:
220,156,125875,1,8,0:0:0:0:
220,156,125968,1,0,0:0:0:0:
220,156,126062,2,0,B|177:153|177:153|165:157|165:157|81:149,1,100,2|2,0:0|0:0,0:0:0:0:
58,278,126250,5,8,0:0:0:0:
111,255,126343,1,0,0:0:0:0:
167,251,126437,1,2,0:0:0:0:
223,259,126531,1,2,0:0:0:0:
305,348,126625,2,0,L|310:236,1,100,8|0,0:0|0:0,0:0:0:0:
442,84,126812,2,0,P|434:169|404:204,1,100,2|2,0:0|0:0,0:0:0:0:
311,232,127000,6,0,P|291:186|253:154,1,100,8|0,0:0|0:0,0:0:0:0:
136,62,127187,2,0,L|-19:69,1,100,2|2,0:0|0:0,0:0:0:0:
10,232,127375,1,8,0:0:0:0:
55,267,127468,1,0,0:0:0:0:
111,259,127562,5,2,0:0:0:0:
75,151,127656,1,8,0:0:0:0:
11,347,127750,6,0,L|130:332,1,100,8|0,0:0|0:0,0:0:0:0:
257,367,127937,2,0,P|272:255|270:225,1,100,2|2,0:0|0:0,0:0:0:0:
192,76,128125,1,8,0:0:0:0:
192,76,128218,1,0,0:0:0:0:
192,76,128312,2,0,P|181:124|176:174,1,100,2|2,0:0|0:0,0:0:0:0:
352,166,128500,6,0,L|233:151,1,100,8|0,0:0|0:0,0:0:0:0:
191,273,128687,2,0,P|176:161|178:131,1,100,2|2,0:0|0:0,0:0:0:0:
92,4,128875,1,8,0:0:0:0:
92,4,128968,1,0,0:0:0:0:
92,4,129062,2,0,P|102:52|107:102,1,100,2|2,0:0|0:0,0:0:0:0:
55,289,129250,5,8,0:0:0:0:
89,336,129343,1,0,0:0:0:0:
143,357,129437,1,2,0:0:0:0:
201,355,129531,1,2,0:0:0:0:
254,333,129625,2,0,L|366:325,1,100,8|0,0:0|0:0,0:0:0:0:
440,137,129812,2,0,B|430:183|430:183|448:250,1,100,2|2,0:0|0:0,0:0:0:0:
456,327,130000,6,0,B|466:281|466:281|452:229,1,100,8|0,0:0|0:0,0:0:0:0:
288,79,130187,2,0,L|387:71,1,100,2|2,0:0|0:0,0:0:0:0:
365,248,130375,6,0,L|265:255,1,100,8|0,0:0|0:0,0:0:0:0:
198,0,130562,2,0,B|188:46|188:46|201:97,1,100,2|2,0:0|0:0,0:0:0:0:
189,279,130750,5,8,0:0:0:0:
189,279,130843,1,0,0:0:0:0:
189,279,130937,2,0,P|133:255|65:255,1,100,2|2,0:0|0:0,0:0:0:0:
32,96,131125,2,0,L|48:251,1,100,8|0,0:0|0:0,0:0:0:0:
15,372,131312,2,0,L|25:272,1,100,2|2,0:0|0:0,0:0:0:0:
147,168,131500,5,8,0:0:0:0:
147,168,131593,1,0,0:0:0:0:
147,168,131687,2,0,P|203:192|271:192,1,100,2|2,0:0|0:0,0:0:0:0:
304,351,131875,2,0,L|288:196,1,100,8|0,0:0|0:0,0:0:0:0:
321,75,132062,2,0,L|310:174,1,100,2|2,0:0|0:0,0:0:0:0:
369,229,132250,5,8,0:0:0:0:
424,224,132343,1,0,0:0:0:0:
376,236,132437,5,2,0:0:0:0:
431,231,132530,1,0,0:0:0:0:
304,351,132625,5,8,0:0:0:0:
359,346,132718,1,0,0:0:0:0:
311,358,132812,5,2,0:0:0:0:
366,353,132905,1,0,0:0:0:0:
257,261,133000,5,8,0:0:0:0:
238,262,133093,1,0,0:0:0:0:
219,264,133187,1,2,0:0:0:0:
200,265,133280,1,0,0:0:0:0:
117,273,133375,5,8,0:0:0:0:
98,274,133468,1,0,0:0:0:0:
79,276,133562,1,2,0:0:0:0:
60,277,133655,1,0,0:0:0:0:
19,197,133750,5,12,0:0:0:0:
20,120,133843,1,0,0:0:0:0:
62,60,133937,1,2,0:0:0:0:
131,35,134031,1,2,0:0:0:0:
207,46,134125,2,0,P|254:75|268:155,1,100,8|0,0:0|0:0,0:0:0:0:
350,286,134312,2,0,L|361:186,1,100,2|2,0:0|0:0,0:0:0:0:
389,53,134500,5,8,0:0:0:0:
345,116,134593,1,0,0:0:0:0:
361,186,134687,1,2,0:0:0:0:
423,234,134781,1,2,0:0:0:0:
499,231,134875,2,0,B|509:283|509:283|487:365,1,100,8|0,0:0|0:0,0:0:0:0:
347,383,135062,2,0,B|337:331|337:331|359:249,1,100,2|2,0:0|0:0,0:0:0:0:
418,133,135250,5,8,0:0:0:0:
345,116,135343,1,0,0:0:0:0:
276,130,135437,1,2,0:0:0:0:
221,180,135531,1,2,0:0:0:0:
205,254,135625,6,0,B|107:222,1,100,8|0,0:0|0:0,0:0:0:0:
33,44,135812,2,0,B|114:70|114:70|120:100,1,100,2|2,0:0|0:0,0:0:0:0:
157,278,136000,6,0,B|79:210,1,100,8|0,0:0|0:0,0:0:0:0:
80,18,136187,2,0,B|147:70|147:70|142:95,1,100,2|2,0:0|0:0,0:0:0:0:
104,275,136375,6,0,B|58:182,1,100,8|0,0:0|0:0,0:0:0:0:
134,5,136562,2,0,B|179:77|179:77|167:99,1,100,2|2,0:0|0:0,0:0:0:0:
104,275,136750,5,8,0:0:0:0:
161,231,136843,1,0,0:0:0:0:
232,228,136937,1,2,0:0:0:0:
295,268,137031,1,2,0:0:0:0:
313,341,137125,2,0,P|393:350|428:331,1,100,8|0,0:0|0:0,0:0:0:0:
497,219,137312,2,0,L|485:96,1,100,2|2,0:0|0:0,0:0:0:0:
389,29,137500,5,8,0:0:0:0:
343,84,137593,1,0,0:0:0:0:
276,102,137687,1,2,0:0:0:0:
207,87,137781,1,2,0:0:0:0:
150,36,137875,2,0,B|118:46|118:46|35:42,1,100,8|0,0:0|0:0,0:0:0:0:
10,224,138062,2,0,B|42:214|42:214|125:218,1,100,2|2,0:0|0:0,0:0:0:0:
159,270,138250,5,8,0:0:0:0:
221,305,138343,1,0,0:0:0:0:
292,302,138437,1,2,0:0:0:0:
352,264,138531,1,2,0:0:0:0:
370,191,138625,5,8,0:0:0:0:
301,187,138718,1,0,0:0:0:0:
236,156,138812,1,2,0:0:0:0:
207,87,138906,1,2,0:0:0:0:
222,11,139000,5,8,0:0:0:0:
221,87,139093,2,0,L|208:221,2,100,0|2|2,0:0|0:0|0:0,0:0:0:0:
380,15,139375,5,8,0:0:0:0:
379,91,139468,2,0,L|366:225,1,100,0|2,0:0|0:0,0:0:0:0:
315,54,139656,1,8,0:0:0:0:
450,55,139750,5,8,0:0:0:0:
482,118,139843,1,0,0:0:0:0:
492,189,139937,1,2,0:0:0:0:
481,259,140031,1,2,0:0:0:0:
444,326,140125,2,0,P|408:316|313:314,1,100,8|0,0:0|0:0,0:0:0:0:
159,212,140312,2,0,P|195:222|290:224,1,100,2|2,0:0|0:0,0:0:0:0:
200,333,140500,5,8,0:0:0:0:
122,317,140593,1,0,0:0:0:0:
62,266,140687,1,2,0:0:0:0:
35,196,140781,1,2,0:0:0:0:
32,120,140875,2,0,L|44:5,1,100,8|0,0:0|0:0,0:0:0:0:
241,29,141062,2,0,B|248:83|248:83|222:155,1,100,2|2,0:0|0:0,0:0:0:0:
159,212,141250,5,8,0:0:0:0:
221,167,141343,1,0,0:0:0:0:
296,155,141437,1,2,0:0:0:0:
367,164,141531,1,2,0:0:0:0:
438,197,141625,6,0,P|439:153|458:93,1,100,8|0,0:0|0:0,0:0:0:0:
305,257,141812,2,0,B|307:300|291:343|291:343|260:358,1,100,2|2,0:0|0:0,0:0:0:0:
445,229,142000,6,0,P|463:188|504:141,1,100,8|0,0:0|0:0,0:0:0:0:
299,232,142187,2,0,B|286:273|256:308|256:308|222:311,1,100,2|2,0:0|0:0,0:0:0:0:
430,259,142375,6,0,P|462:229|518:201,1,100,8|0,0:0|0:0,0:0:0:0:
294,204,142562,2,0,B|267:238|227:260|227:260|194:252,1,100,2|2,0:0|0:0,0:0:0:0:
44,321,142750,5,8,0:0:0:0:
20,252,142843,1,0,0:0:0:0:
43,181,142937,1,2,0:0:0:0:
108,146,143031,1,2,0:0:0:0:
177,140,143125,2,0,P|186:87|178:37,1,100,8|0,0:0|0:0,0:0:0:0:
0,32,143312,2,0,L|110:40,1,100,2|2,0:0|0:0,0:0:0:0:
269,140,143500,5,8,0:0:0:0:
247,214,143593,1,0,0:0:0:0:
270,287,143687,1,2,0:0:0:0:
337,326,143781,1,2,0:0:0:0:
412,326,143875,2,0,L|425:203,1,100,8|0,0:0|0:0,0:0:0:0:
432,93,144062,2,0,P|391:81|302:105,1,100,2|2,0:0|0:0,0:0:0:0:
247,214,144250,5,8,0:0:0:0:
173,226,144343,1,0,0:0:0:0:
103,194,144437,1,2,0:0:0:0:
78,123,144531,1,2,0:0:0:0:
118,190,144625,5,8,0:0:0:0:
105,266,144718,1,0,0:0:0:0:
138,343,144812,1,2,0:0:0:0:
211,370,144906,1,2,0:0:0:0:
289,357,145000,5,8,0:0:0:0:
334,290,145093,2,0,B|325:242|325:242|336:186,1,100,0|2,0:0|0:0,0:0:0:0:
387,20,145281,5,8,0:0:0:0:
342,87,145374,2,0,B|351:135|351:135|340:191,1,100,0|0,0:0|0:0,0:0:0:0:
204,275,145562,6,0,L|94:264,1,100,8|0,0:0|0:0,0:0:0:0:
24,91,145750,5,12,0:0:0:0:
88,55,145843,1,0,0:0:0:0:
160,52,145937,1,2,0:0:0:0:
228,83,146031,1,2,0:0:0:0:
274,143,146125,2,0,L|286:17,1,100,8|0,0:0|0:0,0:0:0:0:
414,171,146312,2,0,P|418:212|386:294,1,100,2|2,0:0|0:0,0:0:0:0:
272,370,146500,5,8,0:0:0:0:
212,327,146593,1,0,0:0:0:0:
143,313,146687,1,2,0:0:0:0:
72,324,146781,1,2,0:0:0:0:
14,367,146875,2,0,L|25:244,1,100,8|0,0:0|0:0,0:0:0:0:
131,178,147062,2,0,P|142:101|112:46,1,100,2|2,0:0|0:0,0:0:0:0:
5,32,147250,5,8,0:0:0:0:
63,76,147343,1,0,0:0:0:0:
135,81,147437,1,2,0:0:0:0:
205,50,147531,1,2,0:0:0:0:
279,60,147625,6,0,L|270:192,1,100,8|0,0:0|0:0,0:0:0:0:
406,114,147812,2,0,B|343:169|343:169|334:218,1,100,2|2,0:0|0:0,0:0:0:0:
307,357,148000,6,0,L|316:225,1,100,8|0,0:0|0:0,0:0:0:0:
180,303,148187,2,0,B|243:248|243:248|252:199,1,100,2|2,0:0|0:0,0:0:0:0:
340,185,148375,6,0,P|406:228|433:309,1,100,8|0,0:0|0:0,0:0:0:0:
246,232,148562,2,0,B|198:219|181:181|181:181|150:170,1,100,2|2,0:0|0:0,0:0:0:0:
139,31,148750,5,8,0:0:0:0:
79,80,148843,1,0,0:0:0:0:
52,152,148937,1,2,0:0:0:0:
46,232,149031,1,2,0:0:0:0:
79,303,149125,2,0,B|56:349|56:349|-42:417,1,100,8|0,0:0|0:0,0:0:0:0:
233,371,149312,2,0,B|193:343|193:343|170:297,1,100,2|2,0:0|0:0,0:0:0:0:
184,106,149500,5,8,0:0:0:0:
167,176,149593,1,0,0:0:0:0:
211,237,149687,1,2,0:0:0:0:
281,235,149781,1,2,0:0:0:0:
325,175,149875,2,0,P|354:244|330:292,1,100,8|0,0:0|0:0,0:0:0:0:
233,371,150062,2,0,L|381:361,1,100,2|2,0:0|0:0,0:0:0:0:
473,294,150250,5,8,0:0:0:0:
455,221,150343,1,0,0:0:0:0:
458,148,150437,1,2,0:0:0:0:
485,78,150531,1,2,0:0:0:0:
436,19,150625,5,8,0:0:0:0:
363,13,150718,1,0,0:0:0:0:
290,38,150812,1,2,0:0:0:0:
244,100,150906,1,2,0:0:0:0:
241,178,151000,5,8,0:0:0:0:
175,135,151093,2,0,B|150:130|150:130|54:125,2,100,0|2|2,0:0|0:0|0:0,0:0:0:0:
170,212,151375,5,8,0:0:0:0:
236,255,151468,2,0,B|261:260|261:260|357:265,1,100,0|2,0:0|0:0,0:0:0:0:
375,127,151656,1,8,0:0:0:0:
412,267,151750,5,8,0:0:0:0:
373,201,151843,1,0,0:0:0:0:
375,127,151937,1,2,0:0:0:0:
417,61,152031,1,2,0:0:0:0:
482,26,152125,2,0,L|342:39,1,100,8|0,0:0|0:0,0:0:0:0:
190,47,152312,2,0,L|290:38,1,100,2|2,0:0|0:0,0:0:0:0:
256,195,152500,5,8,0:0:0:0:
190,156,152593,1,0,0:0:0:0:
117,145,152687,1,2,0:0:0:0:
47,166,152781,1,2,0:0:0:0:
62,95,152875,2,0,B|83:54|83:54|34:0,1,100,8|0,0:0|0:0,0:0:0:0:
24,238,153062,2,0,B|3:279|3:279|52:333,1,100,2|2,0:0|0:0,0:0:0:0:
160,381,153250,5,8,0:0:0:0:
169,307,153343,1,0,0:0:0:0:
180,231,153437,1,2,0:0:0:0:
190,156,153531,1,2,0:0:0:0:
198,80,153625,6,0,P|261:67|322:47,1,100,8|0,0:0|0:0,0:0:0:0:
450,22,153812,2,0,L|418:153,1,100,2|2,0:0|0:0,0:0:0:0:
442,214,154000,6,0,P|379:201|318:181,1,100,8|0,0:0|0:0,0:0:0:0:
190,156,154187,2,0,L|222:287,1,100,2|2,0:0|0:0,0:0:0:0:
181,339,154375,6,0,P|244:326|305:306,1,100,8|0,0:0|0:0,0:0:0:0:
433,281,154562,2,0,L|401:412,1,100,2|2,0:0|0:0,0:0:0:0:
278,315,154750,5,8,0:0:0:0:
291,244,154843,1,0,0:0:0:0:
273,173,154937,1,2,0:0:0:0:
244,103,155031,1,2,0:0:0:0:
184,52,155125,2,0,L|47:61,1,100,8|0,0:0|0:0,0:0:0:0:
20,167,155312,2,0,P|19:243|53:285,1,100,2|2,0:0|0:0,0:0:0:0:
216,362,155500,5,8,0:0:0:0:
278,315,155593,1,0,0:0:0:0:
352,305,155687,1,2,0:0:0:0:
425,317,155781,1,2,0:0:0:0:
495,353,155875,2,0,L|509:221,1,100,8|0,0:0|0:0,0:0:0:0:
403,64,156062,2,0,L|413:163,1,100,2|2,0:0|0:0,0:0:0:0:
306,234,156250,5,8,0:0:0:0:
311,182,156343,1,0,0:0:0:0:
298,225,156437,5,2,0:0:0:0:
303,173,156530,1,0,0:0:0:0:
224,187,156625,5,8,0:0:0:0:
229,135,156718,1,0,0:0:0:0:
216,178,156812,5,2,0:0:0:0:
221,126,156905,1,0,0:0:0:0:
142,135,157000,5,8,0:0:0:0:
140,114,157093,1,0,0:0:0:0:
138,91,157187,1,2,0:0:0:0:
136,67,157281,1,0,0:0:0:0:
134,45,157375,6,0,L|71:39,1,50,8|0,0:0|0:0,0:0:0:0:
12,109,157562,2,0,L|62:114,1,50,2|0,0:0|0:0,0:0:0:0:
413,163,157758,5,12,0:0:0:0:
378,300,163197,6,0,L|321:305,1,50,2|0,0:0|0:0,0:0:0:0:
297,231,163333,2,0,L|346:226,1,50,2|0,0:0|0:0,0:0:0:0:
427,235,163469,2,0,L|396:120,1,100,8|8,0:1|0:1,0:0:0:0:
391,110,163674,1,4,0:3:0:0:
357,120,163742,5,8,0:1:0:0:
324,118,163810,1,8,0:1:0:0:
299,98,163878,2,0,L|313:30,1,50,2|2,0:0|0:0,0:0:0:0:
177,47,164015,2,0,L|203:143,1,100,8|2,0:1|0:0,0:0:0:0:
200,168,164219,1,8,0:1:0:0:
194,192,164287,5,4,3:2:0:0:
38,337,164424,2,0,P|113:290|225:322,1,179.999994506836,2|8,0:0|3:2,0:0:0:0:
496,240,164697,2,0,L|518:363,1,89.9999972534181,2|0,0:0|0:0,0:0:0:0:
383,384,164833,2,0,B|323:319|323:319|364:208,1,179.999994506836,0|2,3:0|0:0,0:0:0:0:
322,72,165037,1,0,0:0:0:0:
322,72,165106,2,0,P|378:69|431:42,1,89.9999972534181,8|0,3:2|0:0,0:0:0:0:
290,158,165242,2,0,P|247:143|203:143,1,89.9999972534181,2|0,0:0|0:0,0:0:0:0:
73,14,165378,5,0,3:0:0:0:
154,230,165515,2,0,B|104:284|30:243|30:243|62:126,1,179.999994506836,2|8,0:0|3:2,0:0:0:0:
212,53,165787,2,0,L|198:179,1,89.9999972534181,2|0,0:0|0:0,0:0:0:0:
221,311,165924,2,0,B|278:302|278:302|309:289|309:289|340:291|340:291|434:279,1,179.999994506836,0|2,3:0|0:0,0:0:0:0:
501,208,166128,1,0,0:0:0:0:
492,200,166197,2,0,L|497:320,1,89.9999972534181,8|0,3:2|0:0,0:0:0:0:
393,373,166333,2,0,L|396:283,1,89.9999972534181,2|0,0:0|0:0,0:0:0:0:
407,17,166469,5,0,3:0:0:0:
407,17,166606,2,0,B|343:-9|277:31|277:31|319:30|351:62,1,179.999994506836,2|8,0:0|3:2,0:0:0:0:
376,200,166878,2,0,P|383:165|364:109,1,89.9999972534181,2|0,0:0|0:0,0:0:0:0:
157,128,167015,2,0,B|167:179|167:179|328:156,1,179.999994506836,0|2,3:0|0:0,0:0:0:0:
367,113,167219,1,0,0:0:0:0:
367,113,167287,2,0,B|412:105|412:105|509:133,1,89.9999972534181,8|0,3:2|0:0,0:0:0:0:
395,283,167424,2,0,B|350:291|350:291|253:263,1,89.9999972534181,2|0,0:0|0:0,0:0:0:0:
61,159,167560,6,0,P|143:247|157:128,1,300,0|0,3:0|0:0,0:0:0:0:
61,159,167833,6,0,P|147:268|154:126,1,359.999989013672,8|0,3:2|0:0,0:0:0:0:
61,159,168106,6,0,P|40:207|60:269,1,100,0|0,3:0|0:0,0:0:0:0:
142,364,168242,2,0,P|167:360|191:354,2,50,2|2|2,0:3|0:3|0:3,0:0:0:0:
157,127,168378,6,0,P|200:150|222:194,1,100,2|0,0:3|0:0,0:0:0:0:
148,290,168515,2,0,B|146:254|146:254|129:239|129:239|127:198,1,100,2|0,0:3|0:0,0:0:0:0:
92,87,168651,5,0,3:0:0:0:
331,0,168787,2,0,B|358:35|358:35|347:129|347:129|277:177,1,179.999994506836,2|8,0:0|3:2,0:0:0:0:
157,127,169060,2,0,L|272:112,1,89.9999972534181,2|0,0:0|0:0,0:0:0:0:
437,252,169197,2,0,B|396:226|396:226|223:253,1,179.999994506836,0|2,3:0|0:0,0:0:0:0:
196,214,169401,1,0,0:0:0:0:
196,214,169469,2,0,P|193:270|239:316,1,89.9999972534181,8|0,3:2|0:0,0:0:0:0:
395,384,169606,2,0,P|398:328|352:282,1,89.9999972534181,2|0,0:0|0:0,0:0:0:0:
246,115,169742,5,0,3:0:0:0:
497,94,169878,2,0,B|417:88|417:88|404:81|404:81|272:71,1,179.999994506836,2|8,0:0|3:2,0:0:0:0:
316,229,170151,2,0,B|337:187|337:187|297:128,1,89.9999972534181,2|0,0:0|0:0,0:0:0:0:
134,18,170287,2,0,L|160:239,1,179.999994506836,0|2,3:0|0:0,0:0:0:0:
149,356,170492,1,0,0:0:0:0:
149,356,170560,2,0,P|87:342|35:341,1,89.9999972534181,8|0,3:2|0:0,0:0:0:0:
257,294,170697,2,0,P|319:308|371:309,1,89.9999972534181,2|0,0:0|0:0,0:0:0:0:
484,219,170833,5,0,3:0:0:0:
469,42,170969,2,0,B|475:101|475:101|469:130|469:130|478:158|478:158|487:247,1,179.999994506836,2|8,0:0|3:2,0:0:0:0:
420,376,171242,2,0,L|429:268,1,89.9999972534181,2|0,0:0|0:0,0:0:0:0:
372,67,171378,2,0,B|238:50|238:50|281:87,1,179.999994506836,0|2,3:0|0:0,0:0:0:0:
359,197,171583,1,0,0:0:0:0:
359,197,171651,2,0,P|322:184|263:187,1,89.9999972534181,8|0,3:2|0:0,0:0:0:0:
103,247,171787,2,0,P|146:261|191:260,1,89.9999972534181,2|0,0:0|0:0,0:0:0:0:
484,219,171924,6,0,B|444:74|444:74|356:202,1,300,0|0,3:0|0:0,0:0:0:0:
359,197,172197,6,0,B|412:62|412:62|480:73|480:73|485:246,1,359.999989013672,8|0,3:2|0:0,0:0:0:0:
484,219,172469,6,0,B|514:102|514:102|452:37|452:37|373:78|373:78|357:217,1,419.999987182618,0|0,3:0|0:0,0:0:0:0:
359,197,172742,6,0,B|361:69|361:69|398:27|398:27|496:39|496:39|528:90|528:90|480:231,1,480,8|0,3:2|0:0,0:0:0:0:
407,280,173015,6,0,B|325:287|325:287|318:293|318:293|224:300,1,179.999994506836,4|0,3:2|0:0,0:0:0:0:
117,111,175290,5,8,0:3:0:0:
100,97,175399,2,0,L|117:197,1,75.0000028610231,8|4,0:3|0:3,0:0:0:0:
71,298,175725,1,4,0:3:0:0:
54,286,175834,6,0,P|135:254|228:272,1,150.000005722046,4|2,1:2|0:0,0:0:0:0:
291,230,176160,2,0,L|282:320,1,75.0000028610231,0|8,0:0|1:2,0:0:0:0:
219,117,176378,1,0,0:0:0:0:
202,99,176487,2,0,L|211:189,1,75.0000028610231,2|0,0:0|0:0,0:0:0:0:
417,103,176704,5,0,1:0:0:0:
431,87,176813,2,0,P|383:72|340:79,1,75.0000028610231,0|2,0:0|0:0,0:0:0:0:
202,99,177030,1,0,0:0:0:0:
341,1,177139,2,0,L|323:187,1,150.000005722046,8|2,1:2|0:0,0:0:0:0:
340,355,177574,5,0,1:0:0:0:
353,340,177683,2,0,L|254:344,1,75.0000028610231,0|2,0:0|0:0,0:0:0:0:
122,187,177901,5,0,0:0:0:0:
109,172,178010,2,0,L|208:176,1,75.0000028610231,8|0,1:2|0:0,0:0:0:0:
159,363,178227,5,2,0:0:0:0:
144,376,178336,2,0,L|148:277,1,75.0000028610231,0|0,0:0|1:0,0:0:0:0:
326,150,178553,5,0,0:0:0:0:
311,137,178662,2,0,L|315:236,1,75.0000028610231,2|0,0:0|0:0,0:0:0:0:
449,306,178880,2,0,B|479:259|479:259|349:268,1,150.000005722046,8|2,1:2|0:0,0:0:0:0:
302,15,179315,5,0,1:0:0:0:
319,34,179423,2,0,P|280:49|232:41,1,75.0000028610231,0|2,0:0|0:0,0:0:0:0:
164,195,179641,5,0,0:0:0:0:
181,176,179750,2,0,P|142:161|94:169,1,75.0000028610231,8|0,1:2|0:0,0:0:0:0:
16,54,179967,5,2,0:0:0:0:
42,35,180076,2,0,L|30:151,1,75.0000028610231,0|0,0:0|1:0,0:0:0:0:
107,319,180294,5,0,0:0:0:0:
133,338,180403,2,0,L|121:222,1,75.0000028610231,2|0,0:0|0:0,0:0:0:0:
188,94,180620,2,0,B|229:93|229:93|268:151|268:151|248:243,1,150.000005722046,8|2,1:2|0:0,0:0:0:0:
332,217,180946,1,0,0:0:0:0:
361,213,181055,5,0,1:0:0:0:
388,208,181164,2,0,L|375:308,1,75.0000028610231,0|2,0:0|0:0,0:0:0:0:
233,358,181381,5,0,0:0:0:0:
206,363,181490,2,0,L|215:288,1,75.0000028610231,8|0,1:2|0:0,0:0:0:0:
259,189,181708,1,2,0:0:0:0:
224,119,181816,1,0,0:0:0:0:
264,49,181925,6,0,B|315:22|315:22|298:141,1,150.000005722046,0|2,1:0|0:0,0:0:0:0:
203,213,182252,1,0,0:0:0:0:
184,195,182360,2,0,L|275:187,1,75.0000028610231,8|0,1:2|0:0,0:0:0:0:
453,288,182578,2,0,L|362:280,1,75.0000028610231,2|0,0:0|0:0,0:0:0:0:
292,259,182795,6,0,L|299:322,1,37.5000014305115,0|2,1:0|0:3,0:0:0:0:
414,365,183013,2,0,L|343:371,1,37.5000014305115,2|2,0:3|0:3,0:0:0:0:
207,175,183231,6,0,L|200:238,1,37.5000014305115,8|2,1:2|0:3,0:0:0:0:
90,293,183449,2,0,L|161:299,1,37.5000014305115,2|2,0:3|0:3,0:0:0:0:
309,74,183666,6,0,L|316:137,1,37.5000014305115,0|2,1:0|0:3,0:0:0:0:
460,208,183884,2,0,L|389:214,1,37.5000014305115,2|2,0:3|0:3,0:0:0:0:
195,5,184101,6,0,L|188:68,1,37.5000014305115,8|2,1:2|0:3,0:0:0:0:
0,129,184319,2,0,L|71:135,1,37.5000014305115,2|2,0:3|0:3,0:0:0:0:
269,240,184536,5,0,1:0:0:0:
218,210,184645,1,2,0:3:0:0:
157,203,184753,1,2,0:3:0:0:
97,214,184862,1,2,0:3:0:0:
47,248,184971,5,8,1:2:0:0:
100,222,185080,1,2,0:3:0:0:
136,173,185188,1,2,0:3:0:0:
149,112,185297,1,2,0:3:0:0:
98,6,185406,5,0,1:0:0:0:
169,0,185515,1,2,0:3:0:0:
236,25,185624,1,2,0:3:0:0:
284,81,185732,1,2,0:3:0:0:
301,151,185841,5,8,1:2:0:0:
368,128,185950,1,2,0:3:0:0:
437,127,186059,1,2,0:3:0:0:
502,153,186167,1,2,0:3:0:0:
492,80,186276,6,0,L|489:51,6,18.7500007152558,0|0|2|0|2|0|2,1:0|0:0|0:3|0:0|0:3|0:0|0:3,0:0:0:0:
396,228,186711,2,0,L|394:246,6,18.7500007152558,8|0|2|0|2|0|2,1:2|0:0|0:3|0:0|0:3|0:0|0:3,0:0:0:0:
369,33,187146,6,0,L|344:37,2,18.7500007152558,0|2|2,1:0|0:3|0:3,0:0:0:0:
301,151,187364,2,0,L|282:148,2,18.7500007152558,2|2|2,0:3|0:3|0:3,0:0:0:0:
212,81,187582,6,0,L|237:85,2,18.7500007152558,8|2|2,1:2|0:3|0:3,0:0:0:0:
384,147,187800,2,0,L|402:144,2,18.7500007152558,2|2|2,0:3|0:3|0:3,0:0:0:0:
361,320,188017,6,0,L|370:352,1,18.7500007152558,0|2,1:3|0:3,0:0:0:0:
307,332,188125,2,0,L|302:364,1,18.7500007152558,2|2,0:3|0:3,0:0:0:0:
253,319,188234,2,0,L|236:347,1,18.7500007152558,2|2,0:3|0:3,0:0:0:0:
210,285,188343,2,0,L|183:304,1,18.7500007152558,2|2,0:3|0:3,0:0:0:0:
184,203,188452,6,0,L|193:171,1,18.7500007152558,2|2,0:3|0:3,0:0:0:0:
130,191,188560,2,0,L|125:158,1,18.7500007152558,2|2,0:3|0:3,0:0:0:0:
76,204,188669,2,0,L|59:175,1,18.7500007152558,2|2,0:3|0:3,0:0:0:0:
33,238,188778,2,0,L|6:218,1,18.7500007152558,2|2,0:3|0:3,0:0:0:0:
18,317,188887,6,0,L|-14:309,12,18.7500007152558,2|2|2|2|2|2|2|2|2|2|2|2|2,0:3|0:3|0:3|0:3|0:3|0:3|0:3|0:3|0:3|0:3|0:3|0:3|0:3,0:0:0:0:
111,108,189756,6,0,P|103:70|114:39,1,50.0000019073487,6|0,0:2|0:0,0:0:0:0:
171,0,190038,1,0,0:0:0:0:
175,150,190178,6,0,P|146:175|113:181,1,50.0000019073487,6|0,0:0|0:0,0:0:0:0:
53,152,190460,1,0,0:0:0:0:
181,74,190601,6,0,P|217:86|239:111,1,50.0000019073487,6|0,0:0|0:0,0:0:0:0:
243,184,190883,1,0,0:0:0:0:
307,89,191023,5,6,0:0:0:0:
348,84,191164,1,0,0:0:0:0:
394,78,191305,1,0,0:0:0:0:
441,73,191446,5,6,0:0:0:0:
372,7,191586,1,0,0:0:0:0:
391,154,191727,1,0,0:0:0:0:
441,73,191868,6,0,L|508:66,2,50.0000019073487,6|0|0,0:0|0:0|0:0,0:0:0:0:
334,226,192291,6,0,L|267:219,1,50.0000019073487,6|0,0:0|0:0,0:0:0:0:
203,217,192572,1,0,0:0:0:0:
118,206,192713,5,6,0:0:0:0:
250,126,192854,2,0,L|248:164,1,25.0000009536744,0|0,0:0|0:0,0:0:0:0:
241,285,192995,2,0,L|239:323,1,25.0000009536744,0|0,0:0|0:0,0:0:0:0:
345,327,193136,6,0,B|312:332|312:332|287:326|287:326|264:336|264:336|233:340|233:340|205:354|205:354|180:347|180:347|113:355,1,200.000007629395,6|0,0:0|0:0,0:0:0:0:
71,274,193558,6,0,P|62:303|67:337,1,50.0000019073487,6|0,0:0|0:0,0:0:0:0:
118,206,193840,1,0,0:0:0:0:
201,213,193981,6,0,P|230:206|257:184,1,50.0000019073487,6|0,0:0|0:0,0:0:0:0:
118,206,194263,1,0,0:0:0:0:
83,131,194403,6,0,P|62:108|30:96,1,50.0000019073487,6|0,0:0|0:0,0:0:0:0:
118,206,194685,1,0,0:0:0:0:
174,96,194826,5,6,0:0:0:0:
190,63,194967,1,0,0:0:0:0:
205,30,195108,1,0,0:0:0:0:
319,189,195248,5,6,0:0:0:0:
282,191,195389,1,0,0:0:0:0:
246,195,195530,1,0,0:0:0:0:
336,18,195671,5,6,0:0:0:0:
356,49,195812,1,0,0:0:0:0:
377,78,195953,1,0,0:0:0:0:
270,90,196094,5,6,0:0:0:0:
423,189,196234,2,0,L|440:222,1,25.0000009536744,0|0,0:0|0:0,0:0:0:0:
319,189,196375,2,0,L|308:227,1,25.0000009536744,0|0,0:0|0:0,0:0:0:0:
270,90,196516,6,0,L|207:117,1,66.6666666666667,6|0,0:0|0:0,0:0:0:0:
132,94,196798,1,0,0:0:0:0:
254,311,196939,6,0,L|262:242,1,66.6666666666667,14|0,0:0|0:0,0:0:0:0:
319,189,197221,1,0,0:0:0:0:
80,189,197361,6,0,L|134:230,1,66.6666666666667,6|0,0:0|0:0,0:0:0:0:
153,306,197643,1,0,0:0:0:0:
15,316,197784,5,14,0:0:0:0:
153,306,197925,1,0,0:0:0:0:
80,189,198065,1,0,0:0:0:0:
112,376,198206,6,0,P|167:381|197:372,1,66.6666666666667,6|0,0:0|0:0,0:0:0:0:
82,268,198488,1,0,0:0:0:0:
251,362,198629,6,0,P|293:326|308:299,1,66.6666666666667,14|0,0:0|0:0,0:0:0:0:
153,306,198911,1,0,0:0:0:0:
342,254,199051,6,0,P|347:198|338:169,1,66.6666666666667,6|0,0:0|0:0,0:0:0:0:
233,283,199333,1,0,0:0:0:0:
399,344,199474,5,14,0:0:0:0:
399,344,199615,2,0,L|406:301,1,33.3333333333333,0|0,0:0|0:0,0:0:0:0:
422,200,199756,2,0,L|429:157,1,33.3333333333333,0|0,0:0|0:0,0:0:0:0:
449,32,199896,6,0,B|464:45|464:45|517:44,1,66.6666666666667,6|0,0:0|0:0,0:0:0:0:
365,179,200178,1,0,0:0:0:0:
365,179,200319,6,0,B|380:166|380:166|433:167,1,66.6666666666667,14|0,0:0|0:0,0:0:0:0:
241,92,200601,1,0,0:0:0:0:
241,92,200742,6,0,B|256:105|256:105|309:104,1,66.6666666666667,6|0,0:0|0:0,0:0:0:0:
185,165,201023,1,0,0:0:0:0:
185,165,201164,5,14,0:0:0:0:
287,25,201305,1,0,0:0:0:0:
281,203,201446,1,0,0:0:0:0:
185,165,201586,5,6,0:0:0:0:
202,268,201727,1,0,0:0:0:0:
281,203,201868,1,0,0:0:0:0:
314,318,202009,5,14,0:0:0:0:
297,215,202150,1,0,0:0:0:0:
218,280,202291,1,0,0:0:0:0:
81,179,202432,6,0,L|91:259,1,79.9999975585938,6|0,0:0|0:0,0:0:0:0:
107,368,202713,1,0,0:0:0:0:
0,313,202854,2,0,B|55:305|55:305|95:287|95:287|137:292|137:292|216:281,1,200.000007629395,14|0,0:0|0:0,0:0:0:0:
394,280,203284,6,0,P|452:270|387:274,1,250,6|0,0:0|0:0,0:0:0:0:
377,22,206107,5,2,0:0:0:0:
322,225,206284,1,8,0:1:0:0:
460,115,206460,5,8,0:1:0:0:
420,119,206548,1,8,0:1:0:0:
384,122,206636,1,8,0:1:0:0:
347,126,206725,1,8,0:1:0:0:
309,130,206813,6,0,L|315:65,1,50,8|0,0:1|0:0,0:0:0:0:
224,223,206989,2,0,L|228:272,1,50,2|0,0:0|0:0,0:0:0:0:
166,95,207166,6,0,L|126:89,12,25,2|2|2|2|2|2|2|2|2|2|2|2|2,0:3|0:3|0:3|0:3|0:3|0:3|0:3|0:3|0:3|0:3|0:3|0:3|0:3,0:0:0:0:
224,223,207519,6,0,L|80:231,1,129.999994049073,4|2,3:2|0:0,0:0:0:0:
285,384,207872,2,0,P|315:329|293:250,1,129.999994049073,8|2,3:2|0:0,0:0:0:0:
305,0,208225,2,0,B|257:88|257:88|315:205,1,194.999991073609,0|0,3:0|0:0,0:0:0:0:
373,215,208578,1,8,3:2:0:0:
234,318,208754,1,2,0:0:0:0:
383,380,208931,6,0,L|512:372,1,129.999994049073,0|2,3:0|0:0,0:0:0:0:
373,215,209284,2,0,L|243:207,1,129.999994049073,8|2,3:2|0:0,0:0:0:0:
467,279,209636,2,0,B|473:197|473:197|460:166|460:166|470:47,1,194.999991073609,0|0,3:0|0:0,0:0:0:0:
466,9,209989,1,8,3:2:0:0:
321,181,210166,1,2,0:0:0:0:
445,353,210342,6,0,B|347:342|347:342|322:370,1,129.999994049073,0|2,3:0|0:0,0:0:0:0:
254,148,210695,2,0,B|351:158|351:158|376:130,1,129.999994049073,8|2,3:2|0:0,0:0:0:0:
247,345,211048,6,0,B|258:247|258:247|230:222,1,129.999994049073,0|2,3:0|0:0,0:0:0:0:
452,154,211401,2,0,B|442:251|442:251|470:276,1,129.999994049073,8|2,3:2|0:0,0:0:0:0:
127,335,211754,6,0,B|65:345|65:345|-11:328,1,129.999994049073,0|2,3:0|0:0,0:0:0:0:
70,144,212107,2,0,P|130:123|191:141,1,129.999994049073,8|2,3:2|0:0,0:0:0:0:
74,237,212460,6,0,P|135:256|196:234,1,129.999994049073,0|2,3:0|0:0,0:0:0:0:
267,48,212813,2,0,B|201:34|201:34|140:45,1,129.999994049073,8|2,3:2|0:0,0:0:0:0:
438,137,213166,6,0,L|450:5,1,129.999994049073,0|2,3:0|0:0,0:0:0:0:
369,223,213519,2,0,B|420:259|420:259|524:233,1,129.999994049073,8|2,3:2|0:0,0:0:0:0:
337,120,213872,2,0,B|235:112|259:177|135:153,1,194.999991073609,0|0,3:0|0:0,0:0:0:0:
79,151,214225,1,8,3:2:0:0:
264,258,214401,1,2,0:0:0:0:
77,366,214578,6,0,P|55:288|72:237,1,129.999994049073,0|2,3:0|0:0,0:0:0:0:
255,135,214931,2,0,P|277:213|260:264,1,129.999994049073,8|2,3:2|0:0,0:0:0:0:
69,244,215284,2,0,L|294:260,1,194.999991073609,0|0,3:0|0:0,0:0:0:0:
304,333,215636,1,8,3:2:0:0:
317,54,215813,1,2,0:0:0:0:
393,251,215989,6,0,L|240:258,1,129.999994049073,0|2,3:0|0:0,0:0:0:0:
317,54,216342,2,0,L|324:207,1,129.999994049073,8|2,3:2|0:0,0:0:0:0:
118,131,216695,6,0,L|271:124,1,129.999994049073,0|2,3:0|0:0,0:0:0:0:
195,330,217048,2,0,L|188:177,1,129.999994049073,8|2,3:2|0:0,0:0:0:0:
177,21,217401,5,2,0:0:0:0:
256,192,217578,1,8,0:1:0:0:
118,131,217754,1,8,0:1:0:0:
93,130,217842,1,8,0:1:0:0:
71,129,217931,1,8,0:1:0:0:
48,127,218019,1,8,0:1:0:0:
25,126,218107,6,0,P|106:133|108:24,1,200,8|0,0:1|0:0,0:0:0:0:
20,196,218372,1,2,0:0:0:0:
14,264,218460,6,0,L|21:322,1,37.5000014305115,0|0,3:0|0:0,0:0:0:0:
151,327,218636,2,0,L|147:290,1,37.5000014305115,0|0,3:0|0:0,0:0:0:0:
18,302,218813,6,0,L|173:288,1,129.999994049073,4|2,3:2|0:0,0:0:0:0:
315,223,219166,2,0,B|345:280|345:280|319:348,1,129.999994049073,8|2,3:2|0:0,0:0:0:0:
187,180,219519,2,0,B|212:17|212:17|256:89,1,194.999991073609,0|0,3:0|0:0,0:0:0:0:
272,110,219872,1,8,3:2:0:0:
92,80,220048,1,2,0:0:0:0:
272,110,220225,6,0,P|322:59|394:54,1,129.999994049073,0|2,3:0|0:0,0:0:0:0:
439,226,220578,2,0,P|469:170|461:106,1,129.999994049073,8|2,3:2|0:0,0:0:0:0:
370,146,220931,2,0,L|233:288,1,194.999991073609,0|0,3:0|0:0,0:0:0:0:
182,339,221284,1,8,3:2:0:0:
201,177,221460,1,2,0:0:0:0:
356,303,221636,6,0,P|370:353|458:383,1,129.999994049073,0|2,3:0|0:0,0:0:0:0:
428,182,221989,2,0,L|286:226,1,129.999994049073,8|2,3:2|0:0,0:0:0:0:
208,220,222342,6,0,L|84:182,1,129.999994049073,0|2,3:0|0:0,0:0:0:0:
75,386,222695,2,0,P|134:362|155:302,1,129.999994049073,8|2,3:2|0:0,0:0:0:0:
90,107,223048,6,0,P|31:131|9:190,1,129.999994049073,0|2,3:0|0:0,0:0:0:0:
195,90,223401,2,0,B|157:36|157:36|66:1,1,129.999994049073,8|2,3:2|0:0,0:0:0:0:
414,13,223754,6,0,B|355:36|355:36|317:90,1,129.999994049073,0|2,3:0|0:0,0:0:0:0:
502,190,224107,2,0,P|480:131|422:107,1,129.999994049073,8|2,3:2|0:0,0:0:0:0:
359,194,224460,6,0,L|371:359,1,129.999994049073,0|2,3:0|0:0,0:0:0:0:
242,384,224813,2,0,L|251:254,1,129.999994049073,8|2,3:2|0:0,0:0:0:0:
451,200,225166,2,0,B|348:209|358:118|207:167,1,194.999991073609,0|0,3:0|0:0,0:0:0:0:
193,135,225519,1,8,3:2:0:0:
80,223,225695,1,2,0:0:0:0:
54,26,225872,6,0,B|79:88|79:88|48:164,1,129.999994049073,0|2,3:0|0:0,0:0:0:0:
194,255,226225,2,0,B|169:193|169:193|200:117,1,129.999994049073,8|2,3:2|0:0,0:0:0:0:
105,304,226578,2,0,B|192:300|192:300|214:289|214:289|305:284,1,194.999991073609,0|0,3:0|0:0,0:0:0:0:
374,282,226931,1,8,3:2:0:0:
257,193,227107,1,2,0:0:0:0:
262,360,227284,6,0,P|336:360|374:297,1,129.999994049073,0|2,3:0|0:0,0:0:0:0:
88,198,227636,2,0,P|88:272|151:310,1,129.999994049073,8|2,3:2|0:0,0:0:0:0:
250,24,227989,6,0,P|176:24|138:87,1,129.999994049073,0|2,3:0|0:0,0:0:0:0:
424,186,228341,2,0,P|424:112|361:74,1,129.999994049073,8|2,3:2|0:0,0:0:0:0:
256,192,228695,5,2,0:0:0:0:
384,78,228872,1,8,0:1:0:0:
350,288,229048,1,8,0:1:0:0:
350,288,229136,1,8,0:1:0:0:
350,288,229225,2,0,P|347:324|353:356,1,64.9999970245363,8|8,0:1|0:1,0:0:0:0:
467,211,229401,6,0,B|434:197|434:197|291:209,1,129.999994049073,8|2,0:1|0:0,0:0:0:0:
210,354,229754,2,0,B|59:369|59:369|97:322,1,194.999991073609,8|0,0:1|0:0,0:0:0:0:
168,52,230105,6,0,B|255:91|255:91|202:279|202:279|126:287,1,350,6|0,0:2|0:0,0:0:0:0:
16,204,230790,6,0,L|140:193,1,112.500004291535,2|0,0:1|0:0,0:0:0:0:
86,335,231133,6,0,P|58:298|103:283,1,75.0000028610231
196,106,231305,6,0,B|167:180|224:143|192:237,1,115.000002193451
261,376,231476,5,2,0:0:0:0:
261,376,231647,2,0,P|298:353|321:353,1,37.5000014305115,4|0,0:3|0:0,0:0:0:0:
452,293,231819,6,0,B|409:346|304:332|272:250|272:250|347:187,1,284.999992389679,4|0,0:3|0:0,0:0:0:0:
473,220,232162,6,0,P|500:235|514:255,6,37.5000014305115,2|0|0|0|0|0|0,0:1|0:0|0:0|0:0|0:0|0:0|0:0,0:0:0:0:
457,218,232505,6,0,B|470:184|470:184|452:131,1,75.0000028610231,0|0,0:0|0:0,0:0:0:0:
252,67,232676,2,0,B|294:66|294:66|297:70|297:70|355:70,1,85.0000016212464
472,54,232847,5,2,0:0:0:0:
472,54,233019,2,0,B|326:-5|385:164|263:179|112:78|233:-58|361:31|397:92|414:127,1,449.99998626709,4|0,0:3|0:0,0:0:0:0:
379,333,233533,6,0,B|372:298|372:298|477:328|477:328|445:159|445:159|423:180|382:176,1,359.999989013672,2|0,0:1|0:0,0:0:0:0:
304,346,233876,6,0,B|266:336|266:336|226:347,1,75.0000028610231
69,285,234047,6,0,B|114:297|114:297|181:280,1,94.9999974632264
313,58,234219,5,2,0:0:0:0:
313,58,234390,2,0,P|245:30|190:58,1,133.333333333333,4|0,0:3|0:0,0:0:0:0:
128,89,234562,2,0,P|68:113|9:86,1,133.333333333333,4|0,0:3|0:0,0:0:0:0:
70,37,234733,1,2,0:0:0:0:
252,104,234905,6,0,B|241:293|241:293|276:331,1,225.000008583069,2|0,0:1|0:0,0:0:0:0:
339,379,235247,2,0,B|350:190|350:190|315:152,1,225.000008583069,0|0,0:0|0:0,0:0:0:0:
252,104,235590,6,0,B|328:101|328:101|382:152|382:152|485:140|485:140|406:68,1,350,6|0,0:2|0:0,0:0:0:0:
208,0,236276,6,0,B|160:26|160:26|192:109,1,112.500004291535,2|0,0:1|0:0,0:0:0:0:
166,154,236619,6,0,L|159:229,1,75.0000028610231,0|0,0:0|0:0,0:0:0:0:
254,343,236790,2,0,B|282:309|282:309|235:265,1,85.0000016212464,0|0,0:0|0:0,0:0:0:0:
18,196,236962,5,2,0:0:0:0:
18,196,237133,2,0,B|14:240|14:240|16:245|16:245|9:304,1,89.9999972534181,4|0,0:3|0:0,0:0:0:0:
121,335,237305,6,0,B|144:352|144:352|155:256|155:256|127:228|127:228|136:131|136:131|183:167,1,300,4|0,0:3|0:0,0:0:0:0:
307,153,237647,6,0,L|310:193,6,25,2|0|0|0|0|0|0,0:1|0:0|0:0|0:0|0:0|0:0|0:0,0:0:0:0:
310,134,237990,6,0,B|282:132|282:132|271:134|271:134|261:129|261:129|217:127,1,75.0000028610231,0|0,0:0|0:0,0:0:0:0:
0,32,238162,2,0,B|25:31|25:31|35:26|35:26|46:28|46:28|74:26,1,75.0000028610231,0|0,0:0|0:0,0:0:0:0:
171,230,238333,6,0,L|163:330,1,100,6|0,0:0|0:0,0:0:0:0:
88,171,238676,2,0,L|80:271,1,100,4|0,0:3|0:0,0:0:0:0:
59,384,239019,2,0,L|243:369,1,150,2|0,0:1|0:0,0:0:0:0:
285,362,239362,2,0,B|306:319|306:319|266:278,1,100,4|0,0:3|0:0,0:0:0:0:
303,12,239705,6,0,L|453:0,1,150,6|0,0:0|0:0,0:0:0:0:
242,102,240047,2,0,B|206:65|206:65|227:22,1,100,4|2,0:3|0:0,0:0:0:0:
424,213,240390,2,0,L|432:113,1,100,2|0,0:1|0:0,0:0:0:0:
349,54,240733,2,0,L|341:154,1,100,2|2,0:1|0:1,0:0:0:0:
395,353,241076,6,0,L|412:350,1,15,12|0,1:2|0:0,0:0:0:0:
307,244,241419,2,0,L|321:246,1,15,8|0,0:2|0:0,0:0:0:0:
267,325,241762,6,0,L|284:322,1,15,8|0,0:2|0:0,0:0:0:0:
179,216,242105,2,0,L|193:218,1,15,8|0,0:2|0:0,0:0:0:0:
129,292,242447,6,0,L|146:289,1,15,8|0,0:2|0:0,0:0:0:0:
41,183,242790,2,0,L|55:185,1,15,8|0,0:2|0:0,0:0:0:0:
126,83,243133,6,0,L|137:168,1,50,8|0,0:2|0:0,0:0:0:0:
38,329,243305,2,0,L|44:279,1,50,8|0,0:2|0:0,0:0:0:0:
235,1,243476,6,0,P|251:142|112:68,1,300,8|0,0:3|0:0,0:0:0:0:
45,38,243819,6,0,L|47:23,1,15,8|0,0:2|0:0,0:0:0:0:
134,147,244162,2,0,L|132:132,1,15,8|0,0:2|0:0,0:0:0:0:
55,185,244505,6,0,L|57:170,1,15,8|0,0:2|0:0,0:0:0:0:
144,294,244848,2,0,L|142:279,1,15,8|0,0:2|0:0,0:0:0:0:
29,372,245190,6,0,P|66:361|90:366,1,50,8|0,0:2|0:0,0:0:0:0:
144,294,245362,2,0,P|181:305|205:300,1,50,8|0,0:2|0:0,0:0:0:0:
282,384,245533,6,0,L|403:369,1,100,2|0,0:3|0:0,0:0:0:0:
411,259,245705,6,0,L|494:272,1,50,8|0,0:2|0:0,0:0:0:0:
491,341,245876,6,0,L|478:181,1,150.000005722046,8|0,0:2|0:0,0:0:0:0:
443,45,246133,1,8,0:2:0:0:
478,191,246219,6,0,B|335:173|335:173|388:109|388:109|490:121,1,300,8|0,0:3|0:0,0:0:0:0:
335,251,246562,6,0,L|302:246,1,30,8|0,1:2|0:0,0:0:0:0:
232,237,246905,2,0,L|199:232,1,30,8|0,1:2|0:0,0:0:0:0:
277,162,247247,6,0,L|244:157,1,30,8|0,1:2|0:0,0:0:0:0:
174,148,247590,2,0,L|141:143,1,30,8|0,1:2|0:0,0:0:0:0:
217,73,247933,6,0,L|184:68,1,30,8|0,1:2|0:0,0:0:0:0:
114,59,248276,2,0,L|81:54,1,30,8|0,1:2|0:0,0:0:0:0:
4,40,248619,6,0,L|16:119,1,50,8|0,0:2|0:0,0:0:0:0:
157,276,248790,2,0,L|164:226,1,50,8|0,0:2|0:0,0:0:0:0:
2,290,248962,6,0,B|176:253|124:379|305:325,1,300,8|0,0:3|0:0,0:0:0:0:
463,285,249305,6,0,L|449:401,1,100,12|0,0:2|0:0,0:0:0:0:
372,292,249647,2,0,P|393:224|496:200,1,150,2|0,0:3|0:0,0:0:0:0:
460,192,249990,6,0,P|401:202|362:165,1,100,8|0,0:2|0:0,0:0:0:0:
356,6,250333,1,2,0:3:0:0:
431,94,250505,1,8,0:2:0:0:
298,242,250676,6,0,L|138:236,1,150,12|0,0:2|0:0,0:0:0:0:
130,250,251019,2,0,B|109:204|109:204|127:139,1,100,2|0,0:3|0:0,0:0:0:0:
313,45,251362,5,8,0:2:0:0:
298,242,251533,1,8,0:2:0:0:
107,353,251705,5,8,0:3:0:0:
122,156,251876,1,0,0:0:0:0:
206,303,252047,5,12,0:0:0:0:
256,192,252133,12,0,257533,0:0:0:0:
256,192,260276,12,0,262933,0:0:0:0:
418,54,263019,6,0,L|414:111,1,37.5000014305115,6|0,0:0|0:0,0:0:0:0:
397,151,263190,2,0,L|394:113,1,37.5000014305115,2|0,0:0|0:0,0:0:0:0:
335,46,263362,2,0,L|241:39,1,75.0000028610231,8|4,0:1|0:3,0:0:0:0:
243,54,263619,1,0,0:0:0:0:
225,67,263705,2,0,L|170:84,2,37.5000014305115,4|0|2,0:3|0:0|0:0,0:0:0:0:
268,160,264047,2,0,B|263:199|263:199|267:246,1,75.0000028610231,8|4,0:1|0:3,0:0:0:0:
272,253,264305,1,0,0:0:0:0:
286,236,264390,6,0,L|202:246,2,75.0000028610231,2|2|8,0:0|0:0|0:1,0:0:0:0:
407,250,264905,1,4,0:3:0:0:
407,250,264990,1,0,0:0:0:0:
407,250,265076,2,0,L|458:265,1,37.5000014305115,4|0,0:3|0:0,0:0:0:0:
334,365,265247,2,0,L|340:271,1,75.0000028610231,2|8,0:0|0:1,0:0:0:0:
359,116,265590,1,4,0:3:0:0:
359,116,265676,1,0,0:0:0:0:
359,116,265762,6,0,L|296:108,1,37.5000014305115,2|0,0:0|0:0,0:0:0:0:
262,162,265933,2,0,L|199:170,1,37.5000014305115,2|0,0:0|0:0,0:0:0:0:
157,129,266105,1,8,0:1:0:0:
56,206,266276,5,4,0:3:0:0:
78,202,266362,1,0,0:0:0:0:
105,206,266447,1,4,0:3:0:0:
127,202,266533,1,0,0:0:0:0:
150,213,266619,2,0,L|141:261,1,37.5000014305115,2|0,0:0|0:0,0:0:0:0:
202,324,266790,2,0,L|219:241,1,75.0000028610231,8|4,0:1|0:3,0:0:0:0:
224,166,267047,1,0,0:0:0:0:
224,166,267133,6,0,B|261:173|261:173|321:160,2,75.0000028610231,2|2|8,0:0|0:0|0:1,0:0:0:0:
385,183,267647,1,4,0:3:0:0:
385,183,267733,1,0,0:0:0:0:
385,183,267819,2,0,L|437:183,1,37.5000014305115,4|0,0:3|0:0,0:0:0:0:
458,110,267990,6,0,B|442:187|442:187|460:264,1,150,12|0,0:1|0:0,0:0:0:0:
446,381,268333,2,0,L|472:305,1,50,12|0,0:1|0:0,0:0:0:0:
396,300,268505,6,0,L|289:300,1,75.0000028610231,2|2,0:0|0:0,0:0:0:0:
202,300,268847,1,8,0:1:0:0:
266,177,269019,1,4,0:3:0:0:
285,201,269105,1,0,0:0:0:0:
254,205,269190,6,0,L|297:170,1,37.5000014305115,4|0,0:3|0:0,0:0:0:0:
370,159,269362,2,0,B|336:138|336:138|314:87,1,75.0000028610231,2|8,0:0|0:1,0:0:0:0:
461,42,269705,1,4,0:3:0:0:
461,42,269790,1,0,0:0:0:0:
461,42,269876,6,0,L|394:89,2,75.0000028610231,2|2|8,0:0|0:0|0:1,0:0:0:0:
468,147,270390,1,4,0:3:0:0:
468,147,270476,1,0,0:0:0:0:
468,147,270562,6,0,L|468:213,1,37.5000014305115,4|0,0:3|0:0,0:0:0:0:
453,284,270733,2,0,L|391:240,2,75.0000028610231,2|8|4,0:0|0:1|0:3,0:0:0:0:
467,280,271162,1,0,0:0:0:0:
479,277,271247,6,0,L|472:335,1,37.5000014305115,2|0,0:0|0:0,0:0:0:0:
395,332,271419,2,0,L|388:390,1,37.5000014305115,2|0,0:0|0:0,0:0:0:0:
302,372,271590,1,8,0:1:0:0:
318,285,271762,5,4,0:3:0:0:
321,270,271847,1,0,0:0:0:0:
315,256,271933,1,4,0:3:0:0:
318,241,272018,1,0,0:0:0:0:
314,222,272105,2,0,L|310:164,1,37.5000014305115,2|0,0:0|0:0,0:0:0:0:
316,82,272276,2,0,B|352:94|352:94|391:127,1,75.0000028610231,8|4,0:1|0:3,0:0:0:0:
380,100,272533,1,0,0:0:0:0:
380,81,272619,5,2,0:0:0:0:
256,192,272705,12,0,273905,0:0:0:0:
3,364,273990,6,0,B|43:166|43:166|96:270|96:270|83:340|83:340|224:305|224:305|187:253|187:253|330:285,1,700,4|0,1:2|0:0,0:0:0:0:
356,330,275362,6,0,B|461:372|522:288|522:288|490:148|490:148|399:175|419:265|419:265|455:193|382:147|382:147|329:182|344:246,1,700,0|0,0:0|0:0,0:0:0:0:
153,79,276733,6,0,B|198:26|285:69|285:69|263:170|157:215|69:144|69:144|15:163|8:269|69:293|69:293|19:246|44:189,1,700,0|0,0:0|0:0,0:0:0:0:
158,290,278105,6,0,B|162:189|305:169|330:261|330:261|266:316,1,300,0|0,0:0|0:0,0:0:0:0:
424,300,278790,2,0,B|420:401|277:421|252:329|252:329|316:274,1,300,0|0,0:0|0:0,0:0:0:0:
392,84,279476,6,0,B|437:175|345:241|246:158|285:65|347:15|347:15|307:55|309:103|309:103|237:17|136:64|136:64|181:81|200:152,1,700,0|0,0:0|0:0,0:0:0:0:
178,198,280847,6,0,B|71:173|1:255|1:255|131:268|177:289|177:289|151:264|111:267|111:267|35:332|35:332|112:334|207:385,1,700,0|0,0:0|0:0,0:0:0:0:
262,321,282219,6,0,B|263:168|426:152|538:226|525:349|418:387|334:369|334:369|390:368|435:325|430:273|377:260|338:267|333:323,1,700,0|0,0:0|0:0,0:0:0:0:
79,97,283590,6,0,B|196:228|342:144|343:67|343:67|231:83|197:-5|197:-5|199:77|175:133|147:92|115:137|133:224,1,750,0|0,0:0|0:0,0:0:0:0:
90,342,284962,6,0,P|147:303|257:324,1,150,12|0,1:2|0:0,0:0:0:0:
296,336,285305,2,0,L|431:330,1,100,8|0,0:0|0:0,0:0:0:0:
233,380,285647,5,8,0:0:0:0:
285,261,285819,2,0,L|420:255,2,100,0|8|0,0:0|0:0|0:0,0:0:0:0:
228,26,286333,6,0,B|168:58|168:58|194:167,1,150,8|0,0:0|0:0,0:0:0:0:
202,214,286676,2,0,L|92:203,1,100,8|0,0:0|0:0,0:0:0:0:
262,162,287019,5,8,0:0:0:0:
177,289,287190,2,0,L|67:278,2,100,0|8|0,0:0|0:0|0:0,0:0:0:0:
262,162,287705,6,0,B|346:145|317:212|441:172,1,150,8|0,0:0|0:0,0:0:0:0:
477,156,288047,2,0,P|494:88|472:57,1,100,8|0,0:0|0:0,0:0:0:0:
461,234,288390,5,8,0:0:0:0:
421,15,288562,2,0,P|404:83|426:114,1,100,0|8,0:0|0:0,0:0:0:0:
461,234,288905,2,0,L|451:305,1,50,0|0,0:0|0:0,0:0:0:0:
475,364,289076,6,0,P|434:319|336:328,1,150,8|0,0:0|0:0,0:0:0:0:
284,358,289419,2,0,B|236:372|236:372|165:348,1,100,8|0,0:0|0:0,0:0:0:0:
230,183,289762,6,0,L|236:302,1,100,8|0,0:0|0:0,0:0:0:0:
107,370,290105,2,0,L|101:270,1,100,8|0,0:0|0:0,0:0:0:0:
189,110,290447,6,0,P|271:116|314:197,1,150,8|0,0:0|0:0,0:0:0:0:
338,236,290790,2,0,P|375:257|447:236,1,100,8|0,0:0|0:0,0:0:0:0:
393,184,291133,5,8,0:0:0:0:
427,325,291305,2,0,P|468:313|504:247,2,100,0|8|0,0:0|0:0|0:0,0:0:0:0:
393,184,291819,6,0,L|405:22,1,150,8|0,0:0|0:0,0:0:0:0:
496,23,292162,2,0,B|462:45|462:45|383:30,1,100,8|0,0:0|0:0,0:0:0:0:
323,17,292505,5,8,0:0:0:0:
230,118,292676,2,0,B|264:96|264:96|343:111,2,100,0|8|0,0:0|0:0|0:0,0:0:0:0:
88,15,293190,6,0,B|95:76|95:76|104:96|104:96|115:195,1,150,8|0,0:0|0:0,0:0:0:0:
124,240,293533,2,0,P|81:286|10:270,1,100,8|0,0:0|0:0,0:0:0:0:
51,215,293876,5,8,0:0:0:0:
183,185,294047,2,0,P|226:139|297:155,2,100,0|8|0,0:0|0:0|0:0,0:0:0:0:
247,358,294562,6,0,P|234:281|258:203,1,150,8|0,0:0|0:0,0:0:0:0:
327,177,294905,1,8,0:0:0:0:
157,303,295076,1,0,0:0:0:0:
351,340,295247,5,8,0:0:0:0:
397,134,295419,1,0,0:0:0:0:
203,97,295590,1,8,0:0:0:0:
157,303,295762,1,0,0:0:0:0:
351,340,295933,6,0,P|466:339|503:287,1,150,12|0,1:2|0:0,0:0:0:0:
364,224,296276,2,0,P|405:256|451:257,1,100,10|0,0:0|0:0,0:0:0:0:
483,192,296619,5,8,0:0:0:0:
452,155,296790,2,0,P|480:191|506:195,1,50,0|0,0:0|0:0,0:0:0:0:
439,34,296962,2,0,P|433:79|448:100,1,50,10|0,0:0|0:0,0:0:0:0:
512,103,297133,2,0,L|440:119,1,50,0|0,0:0|0:0,0:0:0:0:
371,130,297305,6,0,P|288:49|226:59,1,150,8|0,0:0|0:0,0:0:0:0:
280,203,297648,2,0,P|273:151|241:118,1,100,10|0,0:0|0:0,0:0:0:0:
174,142,297991,5,8,0:0:0:0:
169,190,298162,2,0,P|174:144|159:123,1,50,0|0,0:0|0:0,0:0:0:0:
93,285,298334,2,0,P|128:257|132:231,1,50,10|0,0:0|0:0,0:0:0:0:
90,184,298505,2,0,L|152:223,1,50,0|0,0:0|0:0,0:0:0:0:
219,264,298676,6,0,L|355:277,1,134.999995880127,8|0,0:0|0:0,0:0:0:0:
249,359,299014,2,0,L|357:343,1,89.9999972534181,10|0,0:0|0:0,0:0:0:0:
414,326,299353,5,8,0:0:0:0:
414,326,299523,2,0,L|499:341,1,44.999998626709,0|0,0:0|0:0,0:0:0:0:
427,248,299692,2,0,L|512:263,1,44.999998626709,10|0,0:0|0:0,0:0:0:0:
441,174,299862,2,0,L|526:189,1,44.999998626709,0|0,0:0|0:0,0:0:0:0:
394,98,300031,6,0,L|258:111,1,134.999995880127,8|0,0:0|0:0,0:0:0:0:
364,193,300370,2,0,L|256:177,1,89.9999972534181,10|0,0:0|0:0,0:0:0:0:
199,160,300708,5,8,0:0:0:0:
199,160,300879,2,0,L|114:175,1,44.999998626709,0|0,0:0|0:0,0:0:0:0:
186,82,301048,2,0,L|101:97,1,44.999998626709,10|0,0:0|0:0,0:0:0:0:
172,8,301218,2,0,L|87:23,1,44.999998626709,0|0,0:0|0:0,0:0:0:0:
29,150,301387,6,0,B|74:157|88:217|88:217|58:300,1,160,8|10,0:0|0:0,0:0:0:0:
47,363,301887,2,0,L|151:351,1,80,0|8,0:0|0:0,0:0:0:0:
192,297,302220,1,0,0:0:0:0:
192,297,302387,2,0,B|220:325|220:325|211:390,1,80,10|0,0:0|0:0,0:0:0:0:
302,345,302720,6,0,B|328:308|296:255|296:255|216:218,1,160,8|10,0:0|0:0,0:0:0:0:
164,181,303220,2,0,L|246:115,1,80,0|8,0:0|0:0,0:0:0:0:
313,125,303553,1,0,0:0:0:0:
313,125,303720,2,0,B|313:85|313:85|260:45,1,80,10|0,0:0|0:0,0:0:0:0:
210,34,304053,6,0,B|284:31|284:31|301:36|301:36|371:32,1,160,8|10,0:0|0:0,0:0:0:0:
446,10,304544,2,0,P|443:73|403:93,1,80,0|8,0:0|0:0,0:0:0:0:
373,131,304872,1,0,0:0:0:0:
440,159,305036,2,0,P|393:201|350:187,1,80,10|0,0:0|0:0,0:0:0:0:
312,172,305364,6,0,B|237:169|237:169|221:174|221:174|151:170,1,160,8|10,0:0|0:0,0:0:0:0:
76,148,305856,2,0,P|79:211|119:231,1,80,0|8,0:0|0:0,0:0:0:0:
149,269,306183,1,0,0:0:0:0:
82,297,306348,2,0,P|128:339|171:325,1,80,10|0,0:0|0:0,0:0:0:0:
292,359,306675,6,0,P|357:354|402:356,1,100,12|0,1:2|0:0,0:0:0:0:
431,121,306994,2,0,L|422:288,1,150,10|0,3:2|0:0,0:0:0:0:
422,270,307313,6,0,P|357:265|312:267,1,100,8|0,3:2|0:0,0:0:0:0:
283,32,307632,2,0,L|292:199,1,150,10|0,3:2|0:0,0:0:0:0:
376,36,307951,6,0,L|263:21,1,100,8|0,3:2|0:0,0:0:0:0:
189,104,308270,2,0,P|112:151|36:133,1,150,10|0,3:2|0:0,0:0:0:0:
73,241,308589,6,0,L|186:226,1,100,8|0,3:2|0:0,0:0:0:0:
260,309,308908,2,0,P|337:356|413:338,1,150,10|0,3:2|0:0,0:0:0:0:
458,301,309228,6,0,L|469:136,1,150,8|0,3:2|0:0,0:0:0:0:
484,134,309542,2,0,L|343:154,1,100,10|0,3:2|0:0,0:0:0:0:
311,121,309856,5,8,3:2:0:0:
410,41,310013,2,0,P|384:67|350:70,1,50,0|0,0:0|0:0,0:0:0:0:
311,121,310170,2,0,P|274:121|248:99,1,50,10|0,3:2|0:0,0:0:0:0:
186,127,310327,2,0,P|160:100|156:66,1,50,0|0,0:0|0:0,0:0:0:0:
69,25,310484,6,0,L|58:190,1,150,8|0,3:2|0:0,0:0:0:0:
43,192,310798,2,0,L|184:172,1,100,10|0,3:2|0:0,0:0:0:0:
216,205,311112,5,8,3:2:0:0:
117,285,311269,2,0,P|143:259|177:256,1,50,0|0,0:0|0:0,0:0:0:0:
216,205,311426,2,0,P|252:205|278:226,1,50,10|0,3:2|0:0,0:0:0:0:
341,199,311583,2,0,P|367:225|370:259,1,50,0|0,0:0|0:0,0:0:0:0:
414,328,311741,5,4,1:2:0:0:
439,154,311895,1,0,3:0:0:0:
384,321,312050,5,10,3:2:0:0:
398,87,312204,1,0,3:0:0:0:
349,321,312359,5,8,3:2:0:0:
329,56,312514,1,0,3:0:0:0:
316,332,312668,5,10,3:2:0:0:
252,50,312823,1,0,3:0:0:0:
287,352,312978,5,4,1:2:0:0:
173,75,313132,1,0,3:0:0:0:
214,369,313287,5,10,3:2:0:0:
138,73,313442,1,0,3:0:0:0:
136,357,313596,5,8,3:2:0:0:
105,66,313751,1,0,3:0:0:0:
70,318,313905,5,10,3:2:0:0:
74,47,314060,1,0,3:0:0:0:
293,21,314215,5,12,1:2:0:0:
271,35,314290,1,0,1:0:0:0:
252,61,314365,1,0,1:0:0:0:
245,101,314440,1,0,1:0:0:0:
254,145,314515,1,10,1:2:0:0:
287,189,314590,1,0,1:0:0:0:
352,203,314665,1,0,1:0:0:0:
419,170,314740,1,0,1:0:0:0:
433,93,314815,6,0,P|474:99|507:101,1,75.0000028610231,8|0,1:2|1:0,0:0:0:0:
489,253,314965,2,0,P|448:247|415:245,1,75.0000028610231,0|0,1:0|1:0,0:0:0:0:
254,145,315115,6,0,P|295:151|328:153,1,75.0000028610231,10|0,1:2|1:0,0:0:0:0:
310,305,315265,2,0,P|269:299|236:297,1,75.0000028610231,0|0,1:0|1:0,0:0:0:0:
120,296,315415,5,0,1:0:0:0:
101,70,315565,1,2,0:3:0:0:
113,84,315640,1,2,0:3:0:0:
125,99,315715,6,0,P|117:130|124:158,1,50,2|0,0:3|0:0,0:0:0:0:
192,29,315865,2,0,P|208:56|233:71,1,50,2|0,0:3|0:0,0:0:0:0:
235,296,316015,6,0,P|227:265|234:237,1,50,4|0,0:3|0:0,0:0:0:0:
302,366,316165,2,0,P|318:338|343:323,1,50,4|0,0:3|0:0,0:0:0:0:
362,164,316315,5,8,0:3:0:0:
431,205,316465,1,8,0:3:0:0:
447,0,316615,6,0,B|511:104|511:104|279:155|279:155|368:66,1,454.999979171754,4|0,1:3|0:0,0:0:0:0:
431,205,317215,6,0,L|416:326,1,75.0000028610231,8|0,0:0|0:0,0:0:0:0:
356,223,317365,2,0,L|341:344,1,75.0000028610231,0|0,0:0|0:0,0:0:0:0:
281,242,317515,2,0,L|266:363,1,75.0000028610231,0|0,0:0|0:0,0:0:0:0:
203,259,317665,6,0,L|181:255,2,18.7500007152558,8|8|8,0:1|0:1|0:1,0:0:0:0:
203,259,317965,1,2,0:3:0:0:
109,78,318115,2,0,P|71:98|-3:106,1,112.500004291535,0|0,3:0|0:0,0:0:0:0:
2,106,318415,6,0,B|-63:29|26:-72|140:-30|150:68|152:190|46:222|46:222|113:207|151:258,1,525.000020027161,8|0,0:0|0:0,0:0:0:0:
324,227,319015,6,0,B|262:206|164:262|225:288|160:336|58:308|58:308|98:407|203:378,1,454.999979171754,4|0,1:3|0:0,0:0:0:0:
308,322,319615,6,0,P|349:312|407:310,1,75.0000028610231,8|0,0:0|0:0,0:0:0:0:
324,227,319765,2,0,P|365:217|423:215,1,75.0000028610231,0|0,0:0|0:0,0:0:0:0:
343,135,319915,2,0,P|384:125|442:123,1,75.0000028610231,0|0,0:0|0:0,0:0:0:0:
367,43,320065,5,8,0:1:0:0:
488,217,320365,1,2,0:3:0:0:
488,217,320515,6,0,B|474:306|474:306|437:322,1,112.500004291535,0|0,3:0|0:0,0:0:0:0:
454,315,320815,6,0,B|373:349|373:349|407:162,1,225.000008583069,8|0,0:0|0:0,0:0:0:0:
506,146,321115,2,0,B|461:157|418:144|418:144|382:173|382:173|336:155|266:172,1,225.000008583069,8|0,0:1|0:0,0:0:0:0:
255,3,321415,6,0,P|333:76|180:30,1,454.999979171754,4|0,1:3|0:0,0:0:0:0:
31,77,322015,6,0,P|23:133|5:177,1,75.0000028610231,8|0,0:0|0:0,0:0:0:0:
129,280,322165,2,0,L|116:177,1,75.0000028610231,0|0,0:0|0:0,0:0:0:0:
164,51,322315,2,0,P|175:86|192:119,1,75.0000028610231,0|0,0:0|0:0,0:0:0:0:
296,238,322465,6,0,L|322:240,2,18.7500007152558,8|8|8,0:1|0:1|0:1,0:0:0:0:
221,234,322765,1,2,3:3:0:0:
289,353,322915,6,0,L|409:342,1,112.500004291535,0|0,3:0|0:0,0:0:0:0:
401,342,323215,6,0,B|235:305|183:97|343:21|457:121|412:288|259:305,1,525.000020027161,8|0,0:0|0:0,0:0:0:0:
230,303,323815,6,0,B|165:253|76:275|76:275|121:292|134:349,1,240,4|0,1:3|0:0,0:0:0:0:
0,376,324115,2,0,B|11:351|11:351|0:292,1,80,2|0,0:0|0:0,0:0:0:0:
28,61,324265,2,0,B|20:132|20:132|24:151|24:151|12:260,2,160,2|8|2,0:0|0:1|0:0,0:0:0:0:
291,11,324715,6,0,P|281:27|215:47,1,80,8|0,0:3|0:0,0:0:0:0:
239,139,324865,2,0,P|220:143|159:110,1,80,8|0,0:1|0:0,0:0:0:0:
151,47,325015,5,0,3:0:0:0:
317,106,325165,2,0,P|392:65|491:60,2,160,8|0|0,0:1|1:0|0:0,0:0:0:0:
88,0,325615,6,0,P|108:128|113:291,1,240,8|0,0:1|0:0,0:0:0:0:
40,350,325915,2,0,P|94:321|149:336,1,80,8|0,0:3|0:0,0:0:0:0:
184,276,326065,2,0,P|242:293|270:343,1,80,8|0,0:3|0:0,0:0:0:0:
497,233,326215,6,0,B|381:244|340:380|340:380|368:223|251:167,1,454.999979171754,4|0,1:3|0:0,0:0:0:0:
396,119,326815,6,0,P|411:116|389:129,1,100,8|0,0:1|0:0,0:0:0:0:
256,45,326965,2,0,P|324:35|375:8,1,100,2|0,0:0|0:0,0:0:0:0:
273,179,327115,6,0,P|166:144|92:143,1,150.000005722046,2|8,0:0|0:1,0:0:0:0:
0,319,327415,6,0,B|55:313|55:313|78:296|78:296|153:334|153:334|169:318|169:318|240:307,1,255.000004863739,8|0,0:3|0:0,0:0:0:0:
420,261,327715,2,0,B|446:304|446:304|412:385,1,94.9999974632264,0|0,3:0|0:0,0:0:0:0:
336,350,327865,2,0,B|310:307|310:307|344:226,1,94.9999974632264,2|0,0:3|0:0,0:0:0:0:
399,37,328015,6,0,B|481:16|519:96|519:96|435:180|345:98|345:98|334:89|334:89|321:97|321:97|308:94|308:94|295:97|295:97|239:39|139:87,1,525.000020027161,8|0,0:0|0:0,0:0:0:0:
52,40,328615,6,0,B|133:-14|133:-14|205:125|90:232|90:232|13:139,1,454.999979171754,4|0,1:3|0:0,0:0:0:0:
0,332,329215,6,0,B|38:299|38:299|85:328|85:328|121:311|121:311|217:301,1,225.000008583069,8|0,0:1|0:0,0:0:0:0:
285,348,329515,6,0,P|315:317|319:265,1,75.0000028610231,2|0,0:0|0:0,0:0:0:0:
398,303,329665,2,0,P|398:260|364:221,1,75.0000028610231,8|0,0:1|0:0,0:0:0:0:
241,173,329815,6,0,B|213:216|213:216|269:257,1,100,8|0,0:3|0:0,0:0:0:0:
312,195,329965,2,0,B|325:98|325:98|331:92|331:92|343:0,2,200,8|0|2,0:1|3:0|0:3,0:0:0:0:
312,195,330415,6,0,B|277:138|277:138|459:163,1,225.000008583069,8|0,0:0|0:0,0:0:0:0:
433,344,330715,2,0,B|395:315|395:257|395:257|396:361|313:356,1,225.000008583069,8|0,0:1|0:0,0:0:0:0:
336,356,331015,6,0,B|368:421|445:412|519:324|394:227|270:209|137:285,1,454.999979171754,4|0,1:3|0:0,0:0:0:0:
18,255,331615,6,0,B|6:283|6:283|52:254|95:264,1,100,8|0,0:1|0:0,0:0:0:0:
191,94,331765,2,0,P|140:80|92:47,1,100,2|0,0:0|0:0,0:0:0:0:
0,73,331915,6,0,B|30:85|62:130|36:124|40:174|158:204,1,150.000005722046,2|8,0:0|0:1,0:0:0:0:
261,32,332215,5,8,0:3:0:0:
261,32,332365,2,0,B|276:43|276:43|294:133,1,85.0000016212464,8|0,0:1|0:0,0:0:0:0:
279,264,332515,6,0,B|208:205|208:205|456:151,1,284.999992389679,0|0,3:0|0:0,0:0:0:0:
455,0,332815,6,0,B|524:69|487:168|397:164|397:164|414:81|414:81|363:90|363:90|361:82|361:82|358:91|358:91|288:108|288:108|250:82|185:102,1,525.000020027161,8|0,0:0|0:0,0:0:0:0:
239,168,333415,6,0,B|273:6|273:6|176:25,1,240,4|0,1:3|0:0,0:0:0:0:
174,212,333715,2,0,P|218:248|290:225,1,80,2|0,0:0|0:0,0:0:0:0:
455,160,333865,2,0,B|364:166|405:234|247:206,2,160,2|8|2,0:0|0:1|0:0,0:0:0:0:
350,358,334315,6,0,P|321:307|279:275,1,80,8|0,0:3|0:0,0:0:0:0:
226,319,334465,2,0,P|107:293|56:293,2,160,8|0|2,0:1|1:0|0:3,0:0:0:0:
243,311,334840,1,2,0:3:0:0:
259,310,334915,6,0,P|275:301|309:291,1,50,2|0,0:3|0:0,0:0:0:0:
265,174,335065,2,0,P|252:195|245:219,1,50,2|0,0:3|0:0,0:0:0:0:
377,5,335215,6,0,P|393:14|427:24,1,50,2|0,0:3|0:0,0:0:0:0:
383,141,335365,2,0,P|370:119|363:95,1,50,4|0,0:3|0:0,0:0:0:0:
308,44,335515,5,4,0:3:0:0:
452,91,335665,1,8,0:3:0:0:
327,219,335815,5,4,1:2:0:0:
256,192,340615,12,0,345340,0:0:0:0:
52,45,345415,6,0,B|76:64|76:64|103:226,1,179.999994506836,12|0,1:2|0:0,0:0:0:0:
133,277,345715,2,0,P|59:273|33:237,1,119.999996337891,8|0,1:2|0:0,0:0:0:0:
184,212,346015,1,8,1:2:0:0:
184,212,346165,2,0,P|258:216|284:252,2,119.999996337891,0|8|0,0:0|1:2|0:0,0:0:0:0:
236,335,346615,6,0,L|443:321,1,179.999994506836,8|0,1:2|0:0,0:0:0:0:
484,362,346915,2,0,P|513:307|484:239,1,119.999996337891,8|0,1:2|0:0,0:0:0:0:
434,82,347215,1,8,1:2:0:0:
434,82,347365,2,0,P|405:133|419:189,2,119.999996337891,0|8|0,0:0|1:2|0:0,0:0:0:0:
325,10,347815,6,0,P|296:65|189:39,1,179.999994506836,8|0,1:2|0:0,0:0:0:0:
155,122,348115,2,0,P|98:92|91:33,1,119.999996337891,8|0,1:2|0:0,0:0:0:0:
88,41,348415,1,8,1:2:0:0:
0,115,348565,2,0,P|5:49|27:-5,1,119.999996337891,0|8,0:0|1:2,0:0:0:0:
148,216,348865,2,0,L|140:298,1,59.9999981689454
61,315,349015,6,0,B|141:304|141:304|161:310|161:310|269:297,1,179.999994506836,8|0,1:2|0:0,0:0:0:0:
305,221,349315,2,0,B|326:248|326:248|308:358,1,119.999996337891,8|0,1:2|0:0,0:0:0:0:
430,375,349615,6,0,B|450:236|450:236|494:207,1,179.999994506836,8|0,1:2|0:0,0:0:0:0:
510,142,349915,2,0,L|430:49,1,119.999996337891,8|0,1:2|0:0,0:0:0:0:
98,56,350215,5,12,1:2:0:0:
73,230,350365,1,0,1:0:0:0:
128,63,350515,5,8,1:2:0:0:
114,297,350665,1,0,1:0:0:0:
163,63,350815,5,8,1:2:0:0:
183,328,350965,1,0,1:0:0:0:
196,52,351115,5,8,1:2:0:0:
260,334,351265,1,0,1:0:0:0:
225,32,351415,5,12,1:2:0:0:
339,309,351565,1,0,1:0:0:0:
298,15,351715,5,8,1:2:0:0:
374,311,351865,1,0,1:0:0:0:
376,27,352015,5,8,1:2:0:0:
407,318,352165,1,0,1:0:0:0:
442,66,352315,5,8,1:2:0:0:
438,337,352465,1,0,1:0:0:0:
222,370,352615,5,12,1:2:0:0:
225,346,352690,1,0,1:0:0:0:
229,323,352765,1,0,1:0:0:0:
233,300,352840,1,0,1:0:0:0:
236,277,352915,1,8,1:2:0:0:
240,254,352990,1,0,1:0:0:0:
244,231,353065,1,0,1:0:0:0:
247,208,353140,1,0,1:0:0:0:
265,184,353215,5,12,1:2:0:0:
268,160,353290,1,0,1:0:0:0:
272,137,353365,1,0,1:0:0:0:
276,114,353440,1,0,1:0:0:0:
279,91,353515,1,8,1:2:0:0:
283,68,353590,1,0,1:0:0:0:
287,45,353665,1,0,1:0:0:0:
290,22,353740,1,0,1:0:0:0:
211,11,353815,5,2,0:0:0:0:
355,95,353965,1,8,0:1:0:0:
152,144,354115,2,0,L|63:163,1,59.9999981689454,8|0,0:1|0:0,0:0:0:0:
367,254,354265,2,0,L|452:274,1,59.9999981689454,8|0,0:1|0:0,0:0:0:0:
137,277,354415,2,0,P|74:279|11:315,1,119.999996337891,8|2,0:1|0:0,0:0:0:0:
396,364,354715,6,0,L|424:370,12,25,2|2|2|2|2|2|2|2|2|2|2|2|2,0:3|0:3|0:3|0:3|0:3|0:3|0:3|0:3|0:3|0:3|0:3|0:3|0:3,0:0:0:0:
375,384,355015,6,0,B|381:301|381:301|360:257|360:257|369:143,1,225.000008583069,4|0,3:2|0:0,0:0:0:0:
377,74,355315,1,8,3:2:0:0:
276,161,355465,2,0,P|296:107|382:75,1,150.000005722046,2|0,0:0|3:0,0:0:0:0:
452,125,355765,1,2,0:0:0:0:
234,11,355915,6,0,P|215:71|214:108,1,75.0000028610231,8|0,3:2|0:0,0:0:0:0:
131,109,356065,2,0,P|122:78|123:46,1,64.9999970245363,2|0,0:0|0:0,0:0:0:0:
276,161,356215,6,0,L|-5:147,1,225.000008583069,0|0,3:0|0:0,0:0:0:0:
5,87,356515,1,8,3:2:0:0:
4,233,356665,2,0,B|11:181|11:181|-2:147|-2:147|6:73,1,150.000005722046,2|0,0:0|3:0,0:0:0:0:
10,1,356965,1,2,0:0:0:0:
92,302,357115,6,0,P|127:288|155:263,1,75.0000028610231,8|0,3:2|0:0,0:0:0:0:
212,382,357265,2,0,P|225:346|224:282,1,89.9999972534181,2|0,0:0|0:0,0:0:0:0:
330,369,357415,6,0,P|334:279|268:153,1,225.000008583069,0|0,3:0|0:0,0:0:0:0:
269,66,357715,1,8,3:2:0:0:
428,39,357865,2,0,L|265:50,1,150.000005722046,2|0,0:0|3:0,0:0:0:0:
171,55,358165,1,2,0:0:0:0:
0,213,358315,6,0,P|49:209|86:187,1,75.0000028610231,8|0,3:2|0:0,0:0:0:0:
91,301,358465,2,0,P|63:336|24:357,1,89.9999972534181,2|0,0:0|0:0,0:0:0:0:
167,381,358615,6,0,B|219:352|208:285|208:285|243:211|330:243,1,225.000008583069,0|0,3:0|0:0,0:0:0:0:
298,234,358915,1,8,3:2:0:0:
120,76,359065,1,2,0:0:0:0:
355,23,359215,6,0,B|394:99|394:99|349:187,1,170.000003242493,0|2,3:0|0:0,0:0:0:0:
442,364,359515,2,0,B|403:288|403:288|448:200,1,170.000003242493,8|2,3:2|0:0,0:0:0:0:
494,100,359815,6,0,L|249:89,1,225.000008583069,0|0,3:0|0:0,0:0:0:0:
198,42,360115,1,8,3:2:0:0:
191,255,360265,2,0,P|218:177|171:107,1,150.000005722046,2|0,0:0|3:0,0:0:0:0:
120,76,360565,1,2,0:0:0:0:
84,315,360715,6,0,P|133:319|179:339,1,75.0000028610231,8|0,3:2|0:0,0:0:0:0:
191,255,360865,2,0,P|165:236|136:224,1,64.9999970245363,2|0,0:0|0:0,0:0:0:0:
244,322,361015,6,0,B|382:305|325:383|482:356,1,225.000008583069,0|0,3:0|0:0,0:0:0:0:
504,298,361315,1,8,3:2:0:0:
404,38,361465,2,0,P|338:84|324:169,1,150.000005722046,2|0,0:0|3:0,0:0:0:0:
386,207,361765,1,2,0:0:0:0:
194,85,361915,6,0,P|194:141|216:194,1,75.0000028610231,8|0,3:2|0:0,0:0:0:0:
120,76,362065,2,0,P|98:127|98:185,1,85.0000016212464,2|0,0:0|0:0,0:0:0:0:
94,0,362215,6,0,B|12:-5|-7:89|-7:89|31:231,1,225.000008583069,0|0,3:0|0:0,0:0:0:0:
60,228,362515,1,8,3:2:0:0:
0,371,362665,2,0,B|60:364|60:364|80:348|80:348|190:335,1,150.000005722046,2|0,0:0|3:0,0:0:0:0:
237,320,362965,1,2,0:0:0:0:
430,334,363115,6,0,P|437:292|461:241,1,75.0000028610231,8|0,3:2|0:0,0:0:0:0:
385,227,363265,2,0,P|355:261|331:299,1,89.9999972534181,2|0,0:0|0:0,0:0:0:0:
446,187,363415,6,0,P|454:85|317:102,1,225.000008583069,0|0,3:0|0:0,0:0:0:0:
370,75,363715,2,0,P|423:84|430:185,1,150.000005722046,8|0,0:0|0:0,0:0:0:0:
331,299,364015,6,0,B|258:284|258:284|174:322,1,150.000005722046,2|0,0:0|0:0,0:0:0:0:
93,345,364240,1,0,3:0:0:0:
170,384,364315,6,0,L|174:276,1,75.0000028610231,8|0,3:2|0:0,0:0:0:0:
141,106,364465,2,0,L|138:180,1,75.0000028610231,0|0,3:0|0:0,0:0:0:0:
331,299,364615,6,0,B|267:328|267:328|291:171,1,225.000008583069,4|0,3:2|0:0,0:0:0:0:
293,155,364915,2,0,P|248:158|197:168,1,75.0000028610231,8|0,3:2|0:0,0:0:0:0:
309,30,365065,2,0,P|404:20|506:-3,1,150.000005722046,2|0,0:0|3:0,0:0:0:0:
138,181,365365,1,2,0:0:0:0:
434,102,365515,2,0,L|417:286,1,170.000003242493,8|2,3:2|0:0,0:0:0:0:
317,372,365815,6,0,B|270:338|266:279|266:279|234:351|122:370,1,225.000008583069,0|0,3:0|0:0,0:0:0:0:
331,377,366115,2,0,P|388:364|435:364,1,75.0000028610231,8|0,3:2|0:0,0:0:0:0:
154,272,366265,2,0,P|88:292|3:312,1,150.000005722046,2|0,0:0|3:0,0:0:0:0:
224,216,366565,1,2,0:0:0:0:
72,1,366715,2,0,B|19:67|19:67|56:153,1,170.000003242493,8|2,3:2|0:0,0:0:0:0:
280,63,367015,6,0,P|197:39|241:155,1,225.000008583069,0|0,3:0|0:0,0:0:0:0:
224,216,367315,2,0,P|253:193|267:159,1,75.0000028610231,8|0,3:2|0:0,0:0:0:0:
341,121,367465,2,0,P|347:198|314:300,1,150.000005722046,2|0,0:0|3:0,0:0:0:0:
363,41,367765,1,2,0:0:0:0:
289,330,367915,2,0,P|340:344|385:218,1,170.000003242493,8|2,3:2|0:0,0:0:0:0:
180,28,368215,6,0,B|238:36|248:106|248:106|214:261,1,225.000008583069,0|0,3:0|0:0,0:0:0:0:
205,304,368515,1,8,3:2:0:0:
169,107,368665,1,2,0:0:0:0:
289,330,368815,6,0,P|202:334|72:355,1,170.000003242493,0|2,3:0|0:0,0:0:0:0:
0,123,369115,2,0,P|87:119|217:98,1,170.000003242493,8|2,3:2|0:0,0:0:0:0:
354,16,369415,6,0,B|347:88|347:88|326:124|326:124|344:169|344:169|331:300,1,225.000008583069,0|0,3:0|0:0,0:0:0:0:
261,261,369715,2,0,B|273:275|273:275|296:356,1,75.0000028610231,8|0,3:2|0:0,0:0:0:0:
366,373,369865,2,0,L|158:363,1,150.000005722046,2|0,0:0|3:0,0:0:0:0:
413,301,370165,1,2,0:0:0:0:
266,180,370315,2,0,P|183:238|204:322,1,170.000003242493,8|2,3:2|0:0,0:0:0:0:
413,301,370615,6,0,B|404:202|404:202|389:175|389:175|379:47,1,225.000008583069,0|0,3:0|0:0,0:0:0:0:
320,26,370915,2,0,L|190:35,1,75.0000028610231,8|0,3:2|0:0,0:0:0:0:
457,131,371065,2,0,B|463:163|463:163|317:145,1,150.000005722046,2|0,0:0|3:0,0:0:0:0:
455,39,371365,1,2,0:0:0:0:
162,168,371515,2,0,B|148:126|148:126|280:141,1,170.000003242493,8|2,3:2|0:0,0:0:0:0:
348,335,371815,6,0,B|217:324|260:400|121:377,1,225.000008583069,0|0,3:0|0:0,0:0:0:0:
20,300,372115,2,0,P|30:356|34:397,1,75.0000028610231,8|0,3:2|0:0,0:0:0:0:
133,378,372265,2,0,P|114:269|116:190,1,150.000005722046,2|0,0:0|3:0,0:0:0:0:
86,21,372565,1,2,0:0:0:0:
194,204,372715,2,0,L|-10:226,1,170.000003242493,8|2,3:2|0:0,0:0:0:0:
353,56,373015,5,4,3:2:0:0:
194,204,373165,1,8,0:1:0:0:
86,21,373315,1,8,0:1:0:0:
86,21,373390,1,0,0:0:0:0:
86,21,373465,2,0,L|180:32,1,85.0000016212464,8|0,0:1|0:0,0:0:0:0:
194,204,373615,6,0,B|159:177|159:177|154:119,1,85.0000016212464,8|0,0:1|0:0,0:0:0:0:
296,239,373765,2,0,B|291:282|291:282|243:315,1,85.0000016212464,2|0,0:0|0:0,0:0:0:0:
275,132,373915,2,0,B|316:115|316:115|369:140,1,85.0000016212464,8|0,0:1|0:0,0:0:0:0:
426,363,374065,6,0,L|332:352,1,85.0000016212464,2|0,0:0|0:0,0:0:0:0:
159,328,374215,5,4,3:2:0:0:
256,192,374290,12,0,383740,0:0:0:0:
458,54,383815,6,0,P|477:114|461:157,1,75.0000028610231,4|0,1:2|0:0,0:0:0:0:
423,176,384115,1,0,0:0:0:0:
398,104,384265,2,0,B|299:118|355:53|226:84,1,150.000005722046,2|0,0:0|0:0,0:0:0:0:
181,47,384715,2,0,B|145:54|145:54|78:36,1,75.0000028610231
34,192,385015,6,0,P|34:226|74:280,1,75.0000028610231
128,283,385315,1,0,0:0:0:0:
128,283,385465,2,0,P|188:243|280:262,1,150.000005722046,2|0,0:0|0:0,0:0:0:0:
337,271,385915,2,0,L|435:263,1,75.0000028610231,2|0,0:0|0:0,0:0:0:0:
466,137,386215,6,0,B|478:174|478:174|449:235,1,75.0000028610231
412,265,386515,1,0,0:0:0:0:
412,265,386665,2,0,B|404:196|404:196|395:181|395:181|386:96,1,150.000005722046,2|0,0:0|0:0,0:0:0:0:
312,137,387115,6,0,P|323:78|355:52,2,75.0000028610231,0|2|0,0:0|0:0|0:0,0:0:0:0:
388,118,387565,1,0,0:0:0:0:
272,205,387715,6,0,P|238:155|242:114,2,75.0000028610231,0|2|0,0:0|0:0|0:0,0:0:0:0:
312,137,388165,1,0,0:0:0:0:
287,277,388315,6,0,P|228:266|201:234,1,75.0000028610231,0|2,0:0|0:0,0:0:0:0:
54,330,388615,6,0,P|35:270|51:227,1,75.0000028610231
89,208,388915,1,0,0:0:0:0:
114,280,389065,2,0,B|213:266|157:331|286:300,1,150.000005722046,2|0,0:0|0:0,0:0:0:0:
331,337,389515,2,0,B|367:330|367:330|434:348,1,75.0000028610231
478,192,389815,6,0,P|478:158|438:104,1,75.0000028610231
384,101,390115,1,0,0:0:0:0:
384,101,390265,2,0,P|324:141|232:122,1,150.000005722046,2|0,0:0|0:0,0:0:0:0:
175,113,390715,2,0,L|77:121,1,75.0000028610231,2|0,0:0|0:0,0:0:0:0:
34,298,391015,6,0,B|46:261|46:261|17:200,1,75.0000028610231
116,341,391315,1,0,0:0:0:0:
116,341,391465,2,0,P|187:355|249:315,1,150.000005722046,2|0,0:0|0:0,0:0:0:0:
256,192,391915,1,0,0:0:0:0:
178,282,392065,6,0,L|339:291,1,150.000005722046,2|0,0:0|0:0,0:0:0:0:
327,290,392515,5,2,0:0:0:0:
224,111,392665,1,0,0:0:0:0:
135,204,392815,5,2,0:0:0:0:
342,204,392965,1,0,0:0:0:0:
305,81,393115,5,2,0:0:0:0:
201,260,393265,1,0,0:0:0:0:
411,259,393415,5,4,3:2:0:0:
256,192,393490,12,0,400165,0:0:0:0:
