osu file format v14

[General]
AudioFilename: audio.mp3
AudioLeadIn: 0
PreviewTime: 27284
Countdown: 0
SampleSet: None
StackLeniency: 0.7
Mode: 3
LetterboxInBreaks: 0
SpecialStyle: 0
WidescreenStoryboard: 1

[Editor]
DistanceSpacing: 0.8
BeatDivisor: 16
GridSize: 8
TimelineZoom: 3.599998

[Metadata]
Title:Recollection
TitleUnicode:Recollection
Artist:Kobaryo
ArtistUnicode:Kobaryo
Creator:LostCool
Version:7K Kaizou
Source:
Tags:
BeatmapID:1787881
BeatmapSetID:855698

[Difficulty]
HPDrainRate:7
CircleSize:7
OverallDifficulty:1
ApproachRate:5
SliderMultiplier:1.4
SliderTickRate:1

[Events]
//Background and Video events
0,0,"bg.jpg",0,0
//Break Periods
//Storyboard Layer 0 (Background)
//Storyboard Layer 1 (Fail)
//Storyboard Layer 2 (Pass)
//Storyboard Layer 3 (Foreground)
//Storyboard Sound Samples

[TimingPoints]
32465,225.563909774436,4,3,0,0,1,0

[HitObjects]
36,192,32465,128,0,35115:0:0:0:0:
475,192,32465,128,0,35134:0:0:0:0:
402,192,32465,128,0,35096:0:0:0:0:
109,192,32465,128,0,35096:0:0:0:0:
402,192,35171,1,0,0:0:0:0:
109,192,35171,1,0,0:0:0:0:
475,192,35209,1,0,0:0:0:0:
36,192,35209,1,0,0:0:0:0:
109,192,36074,128,0,36111:0:0:0:0:
402,192,36074,128,0,36111:0:0:0:0:
329,192,36111,128,0,37803:0:0:0:0:
182,192,36111,128,0,37803:0:0:0:0:
182,192,37878,1,0,0:0:0:0:
329,192,37878,1,0,0:0:0:0:
256,192,37916,1,0,0:0:0:0:
36,192,38780,128,0,38818:0:0:0:0:
475,192,38780,128,0,38818:0:0:0:0:
402,192,38818,128,0,39607:0:0:0:0:
109,192,38818,128,0,39607:0:0:0:0:
36,192,39683,128,0,40998:0:0:0:0:
475,192,39683,128,0,41449:0:0:0:0:
182,192,39683,128,0,40961:0:0:0:0:
329,192,39683,128,0,41412:0:0:0:0:
182,192,41036,1,0,0:0:0:0:
36,192,41074,1,0,0:0:0:0:
329,192,41487,1,0,0:0:0:0:
475,192,41525,1,0,0:0:0:0:
109,192,42164,128,0,42201:0:0:0:0:
402,192,42201,128,0,42765:0:0:0:0:
402,192,42840,128,0,42878:0:0:0:0:
109,192,42878,128,0,43292:0:0:0:0:
182,192,43292,128,0,44570:0:0:0:0:
402,192,43292,128,0,45961:0:0:0:0:
475,192,43292,128,0,45961:0:0:0:0:
329,192,43292,128,0,44607:0:0:0:0:
256,192,44645,1,0,0:0:0:0:
182,192,44683,1,0,0:0:0:0:
329,192,44683,1,0,0:0:0:0:
109,192,45096,128,0,45961:0:0:0:0:
36,192,45096,128,0,45961:0:0:0:0:
36,192,45998,1,0,0:0:0:0:
475,192,45998,1,0,0:0:0:0:
256,192,45998,128,0,46825:0:0:0:0:
329,192,46036,128,0,46825:0:0:0:0:
182,192,46036,128,0,46825:0:0:0:0:
329,192,46901,1,0,0:0:0:0:
182,192,46901,1,0,0:0:0:0:
256,192,46901,128,0,46938:0:0:0:0:
36,192,46901,128,0,46938:0:0:0:0:
475,192,46901,128,0,46938:0:0:0:0:
402,192,46901,128,0,46938:0:0:0:0:
109,192,46901,128,0,46938:0:0:0:0:
256,192,47126,128,0,47164:0:0:0:0:
256,192,47352,128,0,47389:0:0:0:0:
256,192,47577,128,0,47615:0:0:0:0:
329,192,47803,1,0,0:0:0:0:
182,192,47803,1,0,0:0:0:0:
256,192,47803,128,0,47840:0:0:0:0:
109,192,47803,128,0,47840:0:0:0:0:
402,192,47803,128,0,47840:0:0:0:0:
256,192,48028,128,0,48066:0:0:0:0:
256,192,48254,128,0,48292:0:0:0:0:
256,192,48480,128,0,48517:0:0:0:0:
329,192,48705,1,0,0:0:0:0:
182,192,48705,1,0,0:0:0:0:
256,192,48705,128,0,48743:0:0:0:0:
256,192,48931,128,0,48968:0:0:0:0:
256,192,49156,128,0,49194:0:0:0:0:
256,192,49382,128,0,49419:0:0:0:0:
256,192,49607,128,0,49645:0:0:0:0:
182,192,49607,1,0,0:0:0:0:
329,192,49607,1,0,0:0:0:0:
109,192,49607,128,0,49645:0:0:0:0:
402,192,49607,128,0,49645:0:0:0:0:
475,192,49645,1,0,0:0:0:0:
36,192,49645,1,0,0:0:0:0:
256,192,49833,128,0,49871:0:0:0:0:
256,192,50058,128,0,50096:0:0:0:0:
256,192,50284,128,0,50322:0:0:0:0:
256,192,50510,128,0,50547:0:0:0:0:
109,192,50510,128,0,50547:0:0:0:0:
36,192,50510,128,0,50547:0:0:0:0:
402,192,50510,128,0,50547:0:0:0:0:
475,192,50510,128,0,50547:0:0:0:0:
182,192,50547,1,0,0:0:0:0:
329,192,50547,1,0,0:0:0:0:
256,192,50735,128,0,50773:0:0:0:0:
256,192,50961,128,0,50998:0:0:0:0:
256,192,51186,128,0,51224:0:0:0:0:
256,192,51412,128,0,51449:0:0:0:0:
182,192,51412,1,0,0:0:0:0:
329,192,51412,1,0,0:0:0:0:
109,192,51412,128,0,51449:0:0:0:0:
402,192,51412,128,0,51449:0:0:0:0:
256,192,51637,128,0,51675:0:0:0:0:
256,192,51863,128,0,51901:0:0:0:0:
256,192,52089,128,0,52126:0:0:0:0:
329,192,52314,1,0,0:0:0:0:
182,192,52314,1,0,0:0:0:0:
256,192,52314,128,0,52352:0:0:0:0:
109,192,52352,1,0,0:0:0:0:
402,192,52352,1,0,0:0:0:0:
256,192,52540,128,0,52577:0:0:0:0:
256,192,52765,128,0,52803:0:0:0:0:
256,192,52991,128,0,53028:0:0:0:0:
256,192,53216,128,0,53254:0:0:0:0:
182,192,53216,1,0,0:0:0:0:
329,192,53216,1,0,0:0:0:0:
109,192,53216,128,0,53254:0:0:0:0:
402,192,53216,128,0,53254:0:0:0:0:
256,192,53442,128,0,53480:0:0:0:0:
256,192,53668,128,0,53705:0:0:0:0:
256,192,53893,128,0,53931:0:0:0:0:
329,192,54119,128,0,54156:0:0:0:0:
402,192,54119,1,0,0:0:0:0:
109,192,54119,1,0,0:0:0:0:
182,192,54119,128,0,54156:0:0:0:0:
36,192,54119,128,0,54156:0:0:0:0:
475,192,54119,128,0,54156:0:0:0:0:
256,192,54119,128,0,54156:0:0:0:0:
182,192,54344,128,0,54382:0:0:0:0:
329,192,54344,128,0,54382:0:0:0:0:
329,192,54570,128,0,54607:0:0:0:0:
182,192,54570,128,0,54607:0:0:0:0:
329,192,54795,128,0,54833:0:0:0:0:
182,192,54795,128,0,54833:0:0:0:0:
329,192,55021,128,0,55058:0:0:0:0:
402,192,55021,1,0,0:0:0:0:
109,192,55021,1,0,0:0:0:0:
182,192,55021,128,0,55058:0:0:0:0:
256,192,55021,128,0,55058:0:0:0:0:
182,192,55246,128,0,55284:0:0:0:0:
329,192,55246,128,0,55284:0:0:0:0:
329,192,55472,128,0,55510:0:0:0:0:
182,192,55472,128,0,55510:0:0:0:0:
36,192,55510,1,0,0:0:0:0:
475,192,55510,1,0,0:0:0:0:
182,192,55698,128,0,55735:0:0:0:0:
329,192,55698,128,0,55735:0:0:0:0:
109,192,55923,1,0,0:0:0:0:
182,192,55923,128,0,55961:0:0:0:0:
329,192,55923,128,0,55961:0:0:0:0:
402,192,55923,1,0,0:0:0:0:
256,192,55923,128,0,55961:0:0:0:0:
36,192,55961,1,0,0:0:0:0:
475,192,55961,1,0,0:0:0:0:
329,192,56149,128,0,56186:0:0:0:0:
182,192,56149,128,0,56186:0:0:0:0:
182,192,56374,128,0,56412:0:0:0:0:
329,192,56374,128,0,56412:0:0:0:0:
182,192,56600,128,0,56637:0:0:0:0:
329,192,56600,128,0,56637:0:0:0:0:
256,192,56637,1,0,0:0:0:0:
329,192,56825,128,0,56863:0:0:0:0:
402,192,56825,1,0,0:0:0:0:
109,192,56825,1,0,0:0:0:0:
182,192,56825,128,0,56863:0:0:0:0:
36,192,56825,128,0,56863:0:0:0:0:
475,192,56825,128,0,56863:0:0:0:0:
182,192,57051,128,0,57089:0:0:0:0:
329,192,57051,128,0,57089:0:0:0:0:
329,192,57277,128,0,57314:0:0:0:0:
182,192,57277,128,0,57314:0:0:0:0:
109,192,57314,1,0,0:0:0:0:
402,192,57314,1,0,0:0:0:0:
329,192,57502,128,0,57540:0:0:0:0:
182,192,57502,128,0,57540:0:0:0:0:
109,192,57728,128,0,57765:0:0:0:0:
182,192,57728,1,0,0:0:0:0:
329,192,57728,1,0,0:0:0:0:
402,192,57728,128,0,57765:0:0:0:0:
256,192,57728,128,0,57765:0:0:0:0:
36,192,57728,128,0,57765:0:0:0:0:
475,192,57728,128,0,57765:0:0:0:0:
402,192,57953,128,0,57991:0:0:0:0:
109,192,57953,128,0,57991:0:0:0:0:
109,192,58179,128,0,58216:0:0:0:0:
402,192,58179,128,0,58216:0:0:0:0:
402,192,58404,128,0,58442:0:0:0:0:
109,192,58404,128,0,58442:0:0:0:0:
109,192,58630,128,0,58668:0:0:0:0:
182,192,58630,1,0,0:0:0:0:
329,192,58630,1,0,0:0:0:0:
402,192,58630,128,0,58668:0:0:0:0:
256,192,58630,128,0,58668:0:0:0:0:
402,192,58855,128,0,58893:0:0:0:0:
109,192,58855,128,0,58893:0:0:0:0:
109,192,59081,128,0,59119:0:0:0:0:
402,192,59081,128,0,59119:0:0:0:0:
182,192,59119,1,0,0:0:0:0:
329,192,59119,1,0,0:0:0:0:
402,192,59307,128,0,59344:0:0:0:0:
109,192,59307,128,0,59344:0:0:0:0:
329,192,59532,1,0,0:0:0:0:
475,192,59532,128,0,59570:0:0:0:0:
36,192,59532,128,0,59570:0:0:0:0:
182,192,59532,1,0,0:0:0:0:
109,192,59532,128,0,59570:0:0:0:0:
256,192,59532,128,0,59570:0:0:0:0:
402,192,59532,128,0,59570:0:0:0:0:
36,192,59758,128,0,59795:0:0:0:0:
475,192,59758,128,0,59795:0:0:0:0:
475,192,59983,128,0,60021:0:0:0:0:
36,192,59983,128,0,60021:0:0:0:0:
36,192,60209,128,0,60246:0:0:0:0:
475,192,60209,128,0,60246:0:0:0:0:
109,192,60434,1,0,0:0:0:0:
402,192,60434,1,0,0:0:0:0:
475,192,60434,128,0,60472:0:0:0:0:
36,192,60434,128,0,60472:0:0:0:0:
256,192,60434,128,0,60472:0:0:0:0:
182,192,60472,1,0,0:0:0:0:
329,192,60472,1,0,0:0:0:0:
36,192,60660,128,0,60698:0:0:0:0:
475,192,60660,128,0,60698:0:0:0:0:
475,192,60886,128,0,60923:0:0:0:0:
36,192,60886,128,0,60923:0:0:0:0:
36,192,61111,128,0,61149:0:0:0:0:
475,192,61111,128,0,61149:0:0:0:0:
256,192,61337,128,0,61374:0:0:0:0:
329,192,61337,128,0,61374:0:0:0:0:
402,192,61337,128,0,61374:0:0:0:0:
475,192,61337,128,0,61374:0:0:0:0:
402,192,61449,1,0,0:0:0:0:
109,192,61562,128,0,61600:0:0:0:0:
182,192,61562,128,0,61600:0:0:0:0:
256,192,61562,128,0,61600:0:0:0:0:
36,192,61562,128,0,61600:0:0:0:0:
109,192,61675,1,0,0:0:0:0:
182,192,61788,128,0,61825:0:0:0:0:
256,192,61788,128,0,61825:0:0:0:0:
329,192,61788,128,0,61825:0:0:0:0:
402,192,61788,128,0,61825:0:0:0:0:
402,192,61901,128,0,62164:0:0:0:0:
109,192,62013,128,0,62051:0:0:0:0:
182,192,62013,128,0,62051:0:0:0:0:
256,192,62013,128,0,62051:0:0:0:0:
329,192,62013,128,0,62051:0:0:0:0:
182,192,62126,1,0,0:0:0:0:
256,192,62239,1,0,0:0:0:0:
329,192,62239,1,0,0:0:0:0:
402,192,62239,1,0,0:0:0:0:
475,192,62239,1,0,0:0:0:0:
182,192,62239,128,0,62295:0:0:0:0:
109,192,62239,128,0,62295:0:0:0:0:
36,192,62239,128,0,62295:0:0:0:0:
475,192,62352,128,0,62634:0:0:0:0:
402,192,62352,1,0,0:0:0:0:
256,192,62465,128,0,62615:0:0:0:0:
182,192,62465,128,0,62615:0:0:0:0:
109,192,62465,128,0,62615:0:0:0:0:
329,192,62465,128,0,62502:0:0:0:0:
329,192,62577,128,0,62615:0:0:0:0:
329,192,62690,128,0,62840:0:0:0:0:
256,192,62690,128,0,62840:0:0:0:0:
182,192,62690,128,0,62840:0:0:0:0:
109,192,62690,128,0,62728:0:0:0:0:
109,192,62803,128,0,62840:0:0:0:0:
475,192,62916,128,0,62972:0:0:0:0:
402,192,62916,128,0,63028:0:0:0:0:
329,192,62916,128,0,63028:0:0:0:0:
256,192,62916,128,0,63028:0:0:0:0:
475,192,63028,1,0,0:0:0:0:
256,192,63141,128,0,63179:0:0:0:0:
329,192,63141,128,0,63179:0:0:0:0:
402,192,63141,128,0,63179:0:0:0:0:
109,192,63141,128,0,63179:0:0:0:0:
36,192,63141,128,0,63179:0:0:0:0:
182,192,63141,128,0,63179:0:0:0:0:
402,192,63254,128,0,63517:0:0:0:0:
109,192,63367,128,0,63404:0:0:0:0:
182,192,63367,128,0,63404:0:0:0:0:
256,192,63367,128,0,63404:0:0:0:0:
36,192,63367,128,0,63404:0:0:0:0:
36,192,63480,128,0,63743:0:0:0:0:
182,192,63592,128,0,63630:0:0:0:0:
256,192,63592,128,0,63630:0:0:0:0:
329,192,63592,128,0,63630:0:0:0:0:
402,192,63592,128,0,63630:0:0:0:0:
402,192,63705,128,0,63968:0:0:0:0:
109,192,63818,128,0,63855:0:0:0:0:
182,192,63818,128,0,63855:0:0:0:0:
256,192,63818,128,0,63855:0:0:0:0:
329,192,63818,128,0,63855:0:0:0:0:
182,192,63931,128,0,63968:0:0:0:0:
256,192,64043,1,0,0:0:0:0:
329,192,64043,1,0,0:0:0:0:
402,192,64043,1,0,0:0:0:0:
182,192,64043,128,0,64194:0:0:0:0:
109,192,64043,128,0,64194:0:0:0:0:
36,192,64043,128,0,64194:0:0:0:0:
475,192,64072,128,0,64720:0:0:0:0:
109,192,64269,128,0,64419:0:0:0:0:
182,192,64269,128,0,64419:0:0:0:0:
256,192,64269,128,0,64419:0:0:0:0:
36,192,64269,128,0,64307:0:0:0:0:
36,192,64382,128,0,64419:0:0:0:0:
182,192,64495,128,0,64645:0:0:0:0:
256,192,64495,128,0,64645:0:0:0:0:
329,192,64495,128,0,64645:0:0:0:0:
402,192,64495,128,0,64532:0:0:0:0:
402,192,64607,128,0,64645:0:0:0:0:
109,192,64720,128,0,64758:0:0:0:0:
36,192,64720,128,0,64758:0:0:0:0:
256,192,64720,128,0,64871:0:0:0:0:
329,192,64720,128,0,64871:0:0:0:0:
402,192,64720,128,0,64871:0:0:0:0:
182,192,64833,128,0,64871:0:0:0:0:
256,192,64946,128,0,65096:0:0:0:0:
182,192,64946,128,0,65171:0:0:0:0:
109,192,64946,128,0,65171:0:0:0:0:
36,192,64946,128,0,64983:0:0:0:0:
475,192,64946,1,0,0:0:0:0:
402,192,64974,1,0,0:0:0:0:
329,192,64974,1,0,0:0:0:0:
402,192,65058,128,0,65096:0:0:0:0:
402,192,65171,128,0,65547:0:0:0:0:
329,192,65171,128,0,65322:0:0:0:0:
256,192,65171,128,0,65322:0:0:0:0:
475,192,65171,128,0,65209:0:0:0:0:
182,192,65284,128,0,65322:0:0:0:0:
329,192,65397,128,0,65547:0:0:0:0:
256,192,65397,128,0,65547:0:0:0:0:
182,192,65397,128,0,65547:0:0:0:0:
109,192,65397,128,0,65434:0:0:0:0:
109,192,65510,128,0,65773:0:0:0:0:
402,192,65622,128,0,65660:0:0:0:0:
329,192,65622,128,0,65773:0:0:0:0:
182,192,65622,128,0,65773:0:0:0:0:
256,192,65622,128,0,65773:0:0:0:0:
36,192,65735,128,0,65773:0:0:0:0:
256,192,65848,1,0,0:0:0:0:
182,192,65848,1,0,0:0:0:0:
329,192,65848,128,0,65998:0:0:0:0:
402,192,65848,128,0,65998:0:0:0:0:
475,192,65848,128,0,65998:0:0:0:0:
36,192,65848,128,0,66299:0:0:0:0:
182,192,65961,1,0,0:0:0:0:
402,192,66074,128,0,66224:0:0:0:0:
329,192,66074,128,0,66224:0:0:0:0:
256,192,66074,128,0,66224:0:0:0:0:
109,192,66074,128,0,66102:0:0:0:0:
109,192,66186,128,0,66215:0:0:0:0:
329,192,66299,128,0,66449:0:0:0:0:
256,192,66299,128,0,66449:0:0:0:0:
182,192,66299,128,0,66449:0:0:0:0:
475,192,66299,128,0,66327:0:0:0:0:
36,192,66412,128,0,66449:0:0:0:0:
475,192,66525,128,0,66553:0:0:0:0:
329,192,66525,128,0,66562:0:0:0:0:
256,192,66525,128,0,66675:0:0:0:0:
182,192,66525,128,0,66675:0:0:0:0:
109,192,66525,128,0,66675:0:0:0:0:
402,192,66637,128,0,66675:0:0:0:0:
256,192,66750,128,0,66788:0:0:0:0:
182,192,66750,128,0,66788:0:0:0:0:
402,192,66750,128,0,66778:0:0:0:0:
36,192,66750,128,0,66788:0:0:0:0:
475,192,66750,128,0,66788:0:0:0:0:
329,192,66750,128,0,66788:0:0:0:0:
109,192,66807,128,0,67117:0:0:0:0:
402,192,66976,128,0,67013:0:0:0:0:
329,192,66976,128,0,67013:0:0:0:0:
256,192,66976,128,0,67013:0:0:0:0:
475,192,66976,128,0,67013:0:0:0:0:
475,192,67089,128,0,67352:0:0:0:0:
402,192,67089,128,0,67126:0:0:0:0:
329,192,67201,128,0,67239:0:0:0:0:
256,192,67201,128,0,67239:0:0:0:0:
182,192,67201,128,0,67239:0:0:0:0:
109,192,67201,128,0,67239:0:0:0:0:
109,192,67314,128,0,67577:0:0:0:0:
36,192,67314,128,0,67352:0:0:0:0:
402,192,67427,128,0,67465:0:0:0:0:
329,192,67427,128,0,67465:0:0:0:0:
256,192,67427,128,0,67465:0:0:0:0:
182,192,67427,128,0,67465:0:0:0:0:
402,192,67540,128,0,67577:0:0:0:0:
329,192,67652,128,0,67803:0:0:0:0:
402,192,67652,128,0,67803:0:0:0:0:
475,192,67652,128,0,67803:0:0:0:0:
256,192,67652,128,0,67803:0:0:0:0:
182,192,67652,128,0,67878:0:0:0:0:
109,192,67652,128,0,67878:0:0:0:0:
36,192,67652,128,0,67690:0:0:0:0:
36,192,67765,1,0,0:0:0:0:
402,192,67878,128,0,68028:0:0:0:0:
329,192,67878,128,0,68028:0:0:0:0:
256,192,67878,128,0,68028:0:0:0:0:
475,192,67878,128,0,67916:0:0:0:0:
36,192,67878,128,0,68480:0:0:0:0:
182,192,67991,1,0,0:0:0:0:
109,192,67991,1,0,0:0:0:0:
329,192,68104,128,0,68254:0:0:0:0:
256,192,68104,128,0,68254:0:0:0:0:
109,192,68104,128,0,68141:0:0:0:0:
402,192,68104,128,0,68254:0:0:0:0:
182,192,68216,128,0,68254:0:0:0:0:
475,192,68216,1,0,0:0:0:0:
402,192,68329,128,0,68367:0:0:0:0:
256,192,68329,128,0,68480:0:0:0:0:
182,192,68329,128,0,68480:0:0:0:0:
109,192,68329,128,0,68480:0:0:0:0:
329,192,68329,1,0,0:0:0:0:
402,192,68442,1,0,0:0:0:0:
256,192,68555,128,0,68592:0:0:0:0:
109,192,68555,128,0,68592:0:0:0:0:
36,192,68555,128,0,68592:0:0:0:0:
182,192,68555,128,0,68931:0:0:0:0:
475,192,68555,128,0,68592:0:0:0:0:
329,192,68668,128,0,68705:0:0:0:0:
402,192,68780,128,0,68818:0:0:0:0:
475,192,68780,128,0,68818:0:0:0:0:
109,192,68780,128,0,68818:0:0:0:0:
36,192,68780,128,0,68818:0:0:0:0:
256,192,68780,128,0,69156:0:0:0:0:
475,192,68893,128,0,68931:0:0:0:0:
36,192,68893,128,0,69147:0:0:0:0:
402,192,69006,128,0,69043:0:0:0:0:
329,192,69006,128,0,69043:0:0:0:0:
182,192,69006,128,0,69043:0:0:0:0:
109,192,69006,128,0,69043:0:0:0:0:
109,192,69119,128,0,69156:0:0:0:0:
182,192,69119,128,0,69382:0:0:0:0:
475,192,69231,128,0,69382:0:0:0:0:
402,192,69231,128,0,69269:0:0:0:0:
329,192,69231,128,0,69269:0:0:0:0:
256,192,69231,128,0,69269:0:0:0:0:
36,192,69231,128,0,69269:0:0:0:0:
329,192,69344,128,0,69382:0:0:0:0:
109,192,69344,128,0,69382:0:0:0:0:
329,192,69457,128,0,69833:0:0:0:0:
402,192,69457,128,0,69495:0:0:0:0:
475,192,69457,128,0,69495:0:0:0:0:
182,192,69457,128,0,69495:0:0:0:0:
36,192,69457,128,0,69495:0:0:0:0:
109,192,69457,128,0,69495:0:0:0:0:
256,192,69570,128,0,69607:0:0:0:0:
109,192,69683,128,0,69720:0:0:0:0:
36,192,69683,128,0,69720:0:0:0:0:
402,192,69683,128,0,69720:0:0:0:0:
475,192,69683,128,0,69720:0:0:0:0:
256,192,69683,128,0,69965:0:0:0:0:
36,192,69795,128,0,69833:0:0:0:0:
475,192,69795,128,0,69936:0:0:0:0:
109,192,69908,128,0,69946:0:0:0:0:
329,192,69908,128,0,69946:0:0:0:0:
402,192,69927,128,0,69965:0:0:0:0:
182,192,69927,128,0,69965:0:0:0:0:
329,192,70021,128,0,70058:0:0:0:0:
475,192,70021,128,0,70058:0:0:0:0:
182,192,70134,128,0,70284:0:0:0:0:
36,192,70134,128,0,70171:0:0:0:0:
329,192,70134,128,0,70171:0:0:0:0:
256,192,70246,128,0,70284:0:0:0:0:
109,192,70359,128,0,70397:0:0:0:0:
36,192,70359,128,0,70397:0:0:0:0:
182,192,70359,128,0,70397:0:0:0:0:
402,192,70359,128,0,70397:0:0:0:0:
329,192,70359,128,0,70735:0:0:0:0:
475,192,70387,1,0,0:0:0:0:
182,192,70472,128,0,70510:0:0:0:0:
402,192,70585,128,0,70622:0:0:0:0:
475,192,70585,128,0,70622:0:0:0:0:
109,192,70585,128,0,70622:0:0:0:0:
36,192,70585,128,0,70622:0:0:0:0:
256,192,70585,128,0,70961:0:0:0:0:
475,192,70698,128,0,70735:0:0:0:0:
36,192,70698,128,0,70961:0:0:0:0:
475,192,70810,128,0,70848:0:0:0:0:
329,192,70810,128,0,70848:0:0:0:0:
182,192,70810,128,0,70848:0:0:0:0:
109,192,70810,128,0,70848:0:0:0:0:
182,192,70923,128,0,70961:0:0:0:0:
402,192,70923,128,0,70961:0:0:0:0:
329,192,71036,128,0,71186:0:0:0:0:
475,192,71036,128,0,71074:0:0:0:0:
36,192,71036,128,0,71074:0:0:0:0:
109,192,71055,128,0,71092:0:0:0:0:
402,192,71064,128,0,71092:0:0:0:0:
256,192,71149,128,0,71186:0:0:0:0:
182,192,71149,128,0,71186:0:0:0:0:
182,192,71261,128,0,71412:0:0:0:0:
109,192,71261,128,0,71412:0:0:0:0:
36,192,71261,128,0,71412:0:0:0:0:
329,192,71261,1,0,0:0:0:0:
402,192,71261,1,0,0:0:0:0:
475,192,71261,1,0,0:0:0:0:
256,192,71261,1,0,0:0:0:0:
475,192,71374,128,0,72089:0:0:0:0:
329,192,71374,128,0,71637:0:0:0:0:
402,192,71374,128,0,71637:0:0:0:0:
182,192,71487,128,0,71637:0:0:0:0:
256,192,71487,128,0,71637:0:0:0:0:
109,192,71487,1,0,0:0:0:0:
36,192,71487,1,0,0:0:0:0:
36,192,71600,128,0,71825:0:0:0:0:
109,192,71600,128,0,71825:0:0:0:0:
182,192,71713,128,0,71825:0:0:0:0:
256,192,71713,128,0,71825:0:0:0:0:
329,192,71713,128,0,71750:0:0:0:0:
402,192,71713,128,0,71750:0:0:0:0:
402,192,71825,128,0,72089:0:0:0:0:
329,192,71825,128,0,72089:0:0:0:0:
256,192,71938,128,0,72089:0:0:0:0:
182,192,71938,1,0,0:0:0:0:
109,192,71938,1,0,0:0:0:0:
36,192,71938,1,0,0:0:0:0:
36,192,72051,128,0,72314:0:0:0:0:
182,192,72051,128,0,72314:0:0:0:0:
109,192,72051,128,0,72314:0:0:0:0:
402,192,72164,128,0,72201:0:0:0:0:
475,192,72164,128,0,72201:0:0:0:0:
256,192,72164,128,0,72540:0:0:0:0:
329,192,72164,128,0,72201:0:0:0:0:
475,192,72277,128,0,72540:0:0:0:0:
402,192,72277,1,0,0:0:0:0:
36,192,72389,128,0,72427:0:0:0:0:
109,192,72389,128,0,72765:0:0:0:0:
182,192,72389,1,0,0:0:0:0:
36,192,72502,128,0,72765:0:0:0:0:
329,192,72502,1,0,0:0:0:0:
475,192,72615,128,0,72991:0:0:0:0:
329,192,72615,1,0,0:0:0:0:
256,192,72615,1,0,0:0:0:0:
182,192,72615,1,0,0:0:0:0:
402,192,72615,1,0,0:0:0:0:
402,192,72728,128,0,72991:0:0:0:0:
256,192,72728,1,0,0:0:0:0:
182,192,72840,128,0,72991:0:0:0:0:
256,192,72840,128,0,72991:0:0:0:0:
329,192,72840,128,0,72991:0:0:0:0:
109,192,72840,1,0,0:0:0:0:
36,192,72840,1,0,0:0:0:0:
36,192,72953,128,0,73104:0:0:0:0:
109,192,72953,128,0,73104:0:0:0:0:
329,192,73066,128,0,73216:0:0:0:0:
256,192,73066,128,0,73216:0:0:0:0:
182,192,73066,1,0,0:0:0:0:
402,192,73066,1,0,0:0:0:0:
475,192,73066,1,0,0:0:0:0:
36,192,73179,128,0,73743:0:0:0:0:
182,192,73179,128,0,73442:0:0:0:0:
109,192,73179,128,0,73442:0:0:0:0:
329,192,73292,128,0,73442:0:0:0:0:
256,192,73292,128,0,73442:0:0:0:0:
402,192,73292,1,0,0:0:0:0:
475,192,73292,1,0,0:0:0:0:
475,192,73404,128,0,73668:0:0:0:0:
402,192,73404,128,0,73668:0:0:0:0:
329,192,73517,128,0,73668:0:0:0:0:
256,192,73517,128,0,73668:0:0:0:0:
109,192,73517,128,0,73555:0:0:0:0:
182,192,73517,128,0,73555:0:0:0:0:
109,192,73630,128,0,73743:0:0:0:0:
182,192,73630,128,0,73743:0:0:0:0:
256,192,73743,128,0,73893:0:0:0:0:
475,192,73743,128,0,73893:0:0:0:0:
329,192,73743,1,0,0:0:0:0:
402,192,73743,1,0,0:0:0:0:
329,192,73855,128,0,73893:0:0:0:0:
402,192,73855,128,0,73893:0:0:0:0:
256,192,73968,128,0,74006:0:0:0:0:
109,192,73968,128,0,74006:0:0:0:0:
36,192,73968,128,0,74006:0:0:0:0:
475,192,73968,128,0,74006:0:0:0:0:
182,192,73968,128,0,74006:0:0:0:0:
402,192,74006,128,0,74795:0:0:0:0:
329,192,74006,128,0,74795:0:0:0:0:
36,192,74871,128,0,74908:0:0:0:0:
329,192,74871,128,0,74908:0:0:0:0:
475,192,74871,128,0,74908:0:0:0:0:
402,192,74871,128,0,74908:0:0:0:0:
256,192,74871,128,0,74908:0:0:0:0:
109,192,74908,128,0,75698:0:0:0:0:
182,192,74908,128,0,75698:0:0:0:0:
182,192,75773,1,0,0:0:0:0:
109,192,75773,128,0,75942:0:0:0:0:
36,192,75773,128,0,75942:0:0:0:0:
256,192,75829,1,0,0:0:0:0:
329,192,75886,1,0,0:0:0:0:
402,192,75942,1,0,0:0:0:0:
475,192,75998,1,0,0:0:0:0:
182,192,75998,1,0,0:0:0:0:
256,192,75998,128,0,76168:0:0:0:0:
329,192,75998,128,0,76168:0:0:0:0:
109,192,76055,1,0,0:0:0:0:
36,192,76111,1,0,0:0:0:0:
109,192,76168,1,0,0:0:0:0:
329,192,76224,1,0,0:0:0:0:
182,192,76224,128,0,76393:0:0:0:0:
36,192,76224,128,0,76393:0:0:0:0:
402,192,76280,1,0,0:0:0:0:
475,192,76337,1,0,0:0:0:0:
402,192,76393,1,0,0:0:0:0:
329,192,76449,1,0,0:0:0:0:
256,192,76449,128,0,76619:0:0:0:0:
475,192,76449,128,0,76619:0:0:0:0:
182,192,76506,1,0,0:0:0:0:
109,192,76562,1,0,0:0:0:0:
36,192,76619,1,0,0:0:0:0:
329,192,76675,1,0,0:0:0:0:
402,192,76675,128,0,76844:0:0:0:0:
475,192,76675,128,0,76844:0:0:0:0:
256,192,76731,1,0,0:0:0:0:
182,192,76788,1,0,0:0:0:0:
109,192,76844,1,0,0:0:0:0:
36,192,76901,1,0,0:0:0:0:
329,192,76901,1,0,0:0:0:0:
256,192,76901,128,0,77070:0:0:0:0:
182,192,76901,128,0,77070:0:0:0:0:
402,192,76957,1,0,0:0:0:0:
475,192,77013,1,0,0:0:0:0:
402,192,77070,1,0,0:0:0:0:
182,192,77126,1,0,0:0:0:0:
329,192,77126,128,0,77295:0:0:0:0:
475,192,77126,128,0,77295:0:0:0:0:
109,192,77183,1,0,0:0:0:0:
36,192,77239,1,0,0:0:0:0:
109,192,77295,1,0,0:0:0:0:
256,192,77352,1,0,0:0:0:0:
182,192,77352,128,0,77521:0:0:0:0:
36,192,77352,128,0,77521:0:0:0:0:
329,192,77408,1,0,0:0:0:0:
402,192,77465,1,0,0:0:0:0:
475,192,77521,1,0,0:0:0:0:
182,192,77577,1,0,0:0:0:0:
109,192,77577,128,0,77746:0:0:0:0:
36,192,77577,128,0,77746:0:0:0:0:
256,192,77634,1,0,0:0:0:0:
329,192,77690,1,0,0:0:0:0:
402,192,77746,1,0,0:0:0:0:
475,192,77803,1,0,0:0:0:0:
182,192,77803,1,0,0:0:0:0:
256,192,77803,128,0,77972:0:0:0:0:
329,192,77803,128,0,77972:0:0:0:0:
109,192,77859,1,0,0:0:0:0:
36,192,77916,1,0,0:0:0:0:
109,192,77972,1,0,0:0:0:0:
329,192,78028,1,0,0:0:0:0:
182,192,78028,128,0,78198:0:0:0:0:
36,192,78028,128,0,78198:0:0:0:0:
402,192,78085,1,0,0:0:0:0:
475,192,78141,1,0,0:0:0:0:
402,192,78198,1,0,0:0:0:0:
329,192,78254,1,0,0:0:0:0:
256,192,78254,128,0,78423:0:0:0:0:
475,192,78254,128,0,78423:0:0:0:0:
182,192,78310,1,0,0:0:0:0:
109,192,78367,1,0,0:0:0:0:
36,192,78423,1,0,0:0:0:0:
329,192,78480,1,0,0:0:0:0:
402,192,78480,128,0,78649:0:0:0:0:
475,192,78480,128,0,78649:0:0:0:0:
256,192,78536,1,0,0:0:0:0:
182,192,78592,1,0,0:0:0:0:
109,192,78649,1,0,0:0:0:0:
36,192,78705,1,0,0:0:0:0:
329,192,78705,1,0,0:0:0:0:
256,192,78705,128,0,78874:0:0:0:0:
182,192,78705,128,0,78874:0:0:0:0:
402,192,78761,1,0,0:0:0:0:
475,192,78818,1,0,0:0:0:0:
402,192,78874,1,0,0:0:0:0:
182,192,78931,1,0,0:0:0:0:
329,192,78931,128,0,79100:0:0:0:0:
475,192,78931,128,0,79100:0:0:0:0:
109,192,78987,1,0,0:0:0:0:
36,192,79043,1,0,0:0:0:0:
109,192,79100,1,0,0:0:0:0:
256,192,79156,1,0,0:0:0:0:
182,192,79156,128,0,79325:0:0:0:0:
36,192,79156,128,0,79325:0:0:0:0:
329,192,79213,1,0,0:0:0:0:
402,192,79269,1,0,0:0:0:0:
475,192,79325,1,0,0:0:0:0:
109,192,79382,128,0,79607:0:0:0:0:
182,192,79382,128,0,79438:0:0:0:0:
36,192,79382,128,0,79438:0:0:0:0:
256,192,79438,128,0,79495:0:0:0:0:
36,192,79495,128,0,79664:0:0:0:0:
329,192,79495,128,0,79551:0:0:0:0:
402,192,79551,128,0,79607:0:0:0:0:
256,192,79607,128,0,80002:0:0:0:0:
475,192,79607,128,0,79664:0:0:0:0:
182,192,79607,128,0,79664:0:0:0:0:
329,192,79607,128,0,79777:0:0:0:0:
109,192,79664,128,0,79720:0:0:0:0:
402,192,79720,128,0,79833:0:0:0:0:
36,192,79720,128,0,79777:0:0:0:0:
109,192,79777,128,0,79833:0:0:0:0:
182,192,79833,128,0,80002:0:0:0:0:
329,192,79833,128,0,79889:0:0:0:0:
36,192,79833,128,0,80171:0:0:0:0:
402,192,79889,128,0,79946:0:0:0:0:
109,192,79946,128,0,80115:0:0:0:0:
475,192,79946,128,0,80002:0:0:0:0:
402,192,80002,128,0,80058:0:0:0:0:
256,192,80058,128,0,80171:0:0:0:0:
329,192,80058,128,0,80115:0:0:0:0:
475,192,80058,128,0,80115:0:0:0:0:
182,192,80115,128,0,80171:0:0:0:0:
475,192,80171,128,0,80284:0:0:0:0:
109,192,80171,128,0,80228:0:0:0:0:
36,192,80228,128,0,80284:0:0:0:0:
402,192,80284,128,0,80510:0:0:0:0:
329,192,80284,128,0,80340:0:0:0:0:
256,192,80340,128,0,80397:0:0:0:0:
475,192,80397,128,0,80566:0:0:0:0:
182,192,80397,128,0,80453:0:0:0:0:
109,192,80453,128,0,80510:0:0:0:0:
256,192,80510,128,0,80679:0:0:0:0:
36,192,80510,128,0,80566:0:0:0:0:
329,192,80510,128,0,80566:0:0:0:0:
182,192,80510,128,0,80679:0:0:0:0:
402,192,80566,128,0,80622:0:0:0:0:
109,192,80622,128,0,80735:0:0:0:0:
475,192,80622,128,0,80679:0:0:0:0:
402,192,80679,128,0,80735:0:0:0:0:
329,192,80735,128,0,80961:0:0:0:0:
182,192,80735,128,0,80792:0:0:0:0:
475,192,80735,128,0,81074:0:0:0:0:
256,192,80735,128,0,80848:0:0:0:0:
109,192,80792,128,0,80848:0:0:0:0:
402,192,80848,128,0,81017:0:0:0:0:
36,192,80848,128,0,80904:0:0:0:0:
109,192,80904,128,0,80961:0:0:0:0:
36,192,80961,128,0,81017:0:0:0:0:
182,192,80961,128,0,81130:0:0:0:0:
256,192,80961,128,0,81017:0:0:0:0:
329,192,81017,128,0,81074:0:0:0:0:
36,192,81074,128,0,81186:0:0:0:0:
402,192,81074,128,0,81130:0:0:0:0:
475,192,81130,128,0,81186:0:0:0:0:
109,192,81186,128,0,81412:0:0:0:0:
182,192,81186,128,0,81243:0:0:0:0:
256,192,81243,128,0,81299:0:0:0:0:
36,192,81299,128,0,81468:0:0:0:0:
329,192,81299,128,0,81355:0:0:0:0:
402,192,81355,128,0,81412:0:0:0:0:
256,192,81412,128,0,81807:0:0:0:0:
475,192,81412,128,0,81468:0:0:0:0:
182,192,81412,128,0,81468:0:0:0:0:
329,192,81412,128,0,81581:0:0:0:0:
109,192,81468,128,0,81525:0:0:0:0:
402,192,81525,128,0,81637:0:0:0:0:
36,192,81525,128,0,81581:0:0:0:0:
109,192,81581,128,0,81637:0:0:0:0:
182,192,81637,128,0,81863:0:0:0:0:
329,192,81637,128,0,81694:0:0:0:0:
36,192,81637,128,0,81976:0:0:0:0:
402,192,81694,128,0,81750:0:0:0:0:
109,192,81750,128,0,81919:0:0:0:0:
475,192,81750,128,0,81807:0:0:0:0:
402,192,81807,128,0,81863:0:0:0:0:
256,192,81863,128,0,82032:0:0:0:0:
329,192,81863,128,0,81919:0:0:0:0:
475,192,81863,128,0,81919:0:0:0:0:
182,192,81919,128,0,81976:0:0:0:0:
475,192,81976,128,0,82089:0:0:0:0:
109,192,81976,128,0,82032:0:0:0:0:
36,192,82032,128,0,82089:0:0:0:0:
402,192,82089,128,0,82314:0:0:0:0:
329,192,82089,128,0,82258:0:0:0:0:
182,192,82089,1,0,0:0:0:0:
109,192,82089,1,0,0:0:0:0:
256,192,82145,128,0,82201:0:0:0:0:
475,192,82201,128,0,82371:0:0:0:0:
182,192,82201,128,0,82483:0:0:0:0:
109,192,82258,128,0,82314:0:0:0:0:
256,192,82314,128,0,82427:0:0:0:0:
36,192,82314,128,0,82596:0:0:0:0:
329,192,82314,128,0,82371:0:0:0:0:
402,192,82371,128,0,82427:0:0:0:0:
109,192,82427,128,0,82540:0:0:0:0:
475,192,82427,128,0,82483:0:0:0:0:
402,192,82483,128,0,82540:0:0:0:0:
182,192,82540,128,0,82596:0:0:0:0:
256,192,82540,1,0,0:0:0:0:
475,192,82540,128,0,82878:0:0:0:0:
329,192,82558,1,0,0:0:0:0:
109,192,82596,128,0,82652:0:0:0:0:
402,192,82652,128,0,82709:0:0:0:0:
36,192,82652,128,0,82709:0:0:0:0:
109,192,82709,128,0,82765:0:0:0:0:
182,192,82765,128,0,82934:0:0:0:0:
256,192,82765,128,0,82822:0:0:0:0:
36,192,82765,128,0,82822:0:0:0:0:
329,192,82822,128,0,82878:0:0:0:0:
36,192,82878,128,0,82934:0:0:0:0:
402,192,82878,128,0,82934:0:0:0:0:
475,192,82934,128,0,82991:0:0:0:0:
109,192,82991,128,0,83104:0:0:0:0:
182,192,82991,1,0,0:0:0:0:
256,192,83047,128,0,83104:0:0:0:0:
36,192,83104,128,0,83216:0:0:0:0:
329,192,83104,1,0,0:0:0:0:
402,192,83160,128,0,83216:0:0:0:0:
182,192,83216,1,0,0:0:0:0:
475,192,83216,128,0,83442:0:0:0:0:
256,192,83216,128,0,83442:0:0:0:0:
109,192,83273,128,0,83329:0:0:0:0:
36,192,83329,128,0,83780:0:0:0:0:
402,192,83329,128,0,83442:0:0:0:0:
109,192,83386,128,0,83442:0:0:0:0:
182,192,83442,128,0,83668:0:0:0:0:
329,192,83442,128,0,83555:0:0:0:0:
402,192,83498,128,0,83555:0:0:0:0:
109,192,83555,128,0,83724:0:0:0:0:
475,192,83555,1,0,0:0:0:0:
402,192,83611,128,0,83668:0:0:0:0:
256,192,83668,128,0,83893:0:0:0:0:
329,192,83668,1,0,0:0:0:0:
182,192,83724,128,0,83780:0:0:0:0:
475,192,83780,128,0,83893:0:0:0:0:
109,192,83780,1,0,0:0:0:0:
36,192,83837,128,0,83893:0:0:0:0:
402,192,83893,128,0,84006:0:0:0:0:
329,192,83893,1,0,0:0:0:0:
256,192,83949,128,0,84006:0:0:0:0:
475,192,84006,128,0,84119:0:0:0:0:
182,192,84006,1,0,0:0:0:0:
109,192,84062,128,0,84119:0:0:0:0:
36,192,84119,128,0,84344:0:0:0:0:
256,192,84119,128,0,84344:0:0:0:0:
329,192,84119,1,0,0:0:0:0:
402,192,84175,128,0,84231:0:0:0:0:
475,192,84231,128,0,84683:0:0:0:0:
109,192,84231,1,0,0:0:0:0:
402,192,84288,128,0,84344:0:0:0:0:
329,192,84344,128,0,84570:0:0:0:0:
182,192,84344,1,0,0:0:0:0:
109,192,84401,128,0,84457:0:0:0:0:
402,192,84457,128,0,84626:0:0:0:0:
36,192,84457,1,0,0:0:0:0:
109,192,84513,128,0,84570:0:0:0:0:
182,192,84570,128,0,84683:0:0:0:0:
256,192,84570,1,0,0:0:0:0:
329,192,84626,128,0,84683:0:0:0:0:
36,192,84683,128,0,84795:0:0:0:0:
402,192,84683,1,0,0:0:0:0:
475,192,84739,128,0,84795:0:0:0:0:
182,192,84795,1,0,0:0:0:0:
109,192,84795,128,0,85021:0:0:0:0:
256,192,84852,128,0,84908:0:0:0:0:
329,192,84908,1,0,0:0:0:0:
36,192,84908,128,0,85077:0:0:0:0:
402,192,84965,128,0,85021:0:0:0:0:
182,192,85021,1,0,0:0:0:0:
256,192,85021,128,0,85416:0:0:0:0:
475,192,85021,128,0,85303:0:0:0:0:
109,192,85077,128,0,85134:0:0:0:0:
402,192,85134,1,0,0:0:0:0:
36,192,85134,128,0,85585:0:0:0:0:
109,192,85190,128,0,85246:0:0:0:0:
329,192,85246,1,0,0:0:0:0:
182,192,85246,128,0,85472:0:0:0:0:
402,192,85303,128,0,85359:0:0:0:0:
475,192,85359,1,0,0:0:0:0:
109,192,85359,128,0,85528:0:0:0:0:
402,192,85416,128,0,85472:0:0:0:0:
329,192,85472,1,0,0:0:0:0:
256,192,85472,128,0,85698:0:0:0:0:
182,192,85528,128,0,85585:0:0:0:0:
109,192,85585,1,0,0:0:0:0:
475,192,85585,128,0,85754:0:0:0:0:
36,192,85641,128,0,85698:0:0:0:0:
329,192,85698,1,0,0:0:0:0:
402,192,85698,128,0,85923:0:0:0:0:
256,192,85754,128,0,85810:0:0:0:0:
182,192,85810,1,0,0:0:0:0:
475,192,85810,128,0,85980:0:0:0:0:
109,192,85867,128,0,85923:0:0:0:0:
329,192,85923,1,0,0:0:0:0:
256,192,85923,128,0,86318:0:0:0:0:
36,192,85923,128,0,86205:0:0:0:0:
402,192,85980,128,0,86036:0:0:0:0:
109,192,86036,1,0,0:0:0:0:
475,192,86036,128,0,86487:0:0:0:0:
402,192,86092,128,0,86149:0:0:0:0:
182,192,86149,1,0,0:0:0:0:
329,192,86149,128,0,86374:0:0:0:0:
109,192,86205,128,0,86261:0:0:0:0:
36,192,86261,1,0,0:0:0:0:
402,192,86261,128,0,86431:0:0:0:0:
109,192,86318,128,0,86374:0:0:0:0:
256,192,86374,1,0,0:0:0:0:
182,192,86374,128,0,86543:0:0:0:0:
329,192,86431,128,0,86487:0:0:0:0:
402,192,86487,1,0,0:0:0:0:
36,192,86487,128,0,86543:0:0:0:0:
475,192,86543,128,0,86600:0:0:0:0:
182,192,86600,1,0,0:0:0:0:
402,192,86600,1,0,0:0:0:0:
109,192,86656,1,0,0:0:0:0:
256,192,86656,1,0,0:0:0:0:
36,192,86713,1,0,0:0:0:0:
329,192,86713,1,0,0:0:0:0:
402,192,86769,1,0,0:0:0:0:
475,192,86825,1,0,0:0:0:0:
182,192,86825,1,0,0:0:0:0:
109,192,86882,1,0,0:0:0:0:
329,192,86882,1,0,0:0:0:0:
36,192,86938,1,0,0:0:0:0:
402,192,86938,1,0,0:0:0:0:
109,192,86995,1,0,0:0:0:0:
475,192,86995,1,0,0:0:0:0:
329,192,87051,1,0,0:0:0:0:
182,192,87051,1,0,0:0:0:0:
402,192,87107,1,0,0:0:0:0:
36,192,87107,1,0,0:0:0:0:
475,192,87164,1,0,0:0:0:0:
109,192,87164,1,0,0:0:0:0:
402,192,87220,1,0,0:0:0:0:
256,192,87277,1,0,0:0:0:0:
36,192,87277,1,0,0:0:0:0:
329,192,87333,1,0,0:0:0:0:
109,192,87333,1,0,0:0:0:0:
182,192,87389,1,0,0:0:0:0:
475,192,87389,1,0,0:0:0:0:
256,192,87446,1,0,0:0:0:0:
329,192,87502,1,0,0:0:0:0:
109,192,87502,1,0,0:0:0:0:
402,192,87558,1,0,0:0:0:0:
256,192,87558,1,0,0:0:0:0:
475,192,87615,1,0,0:0:0:0:
182,192,87615,1,0,0:0:0:0:
109,192,87671,1,0,0:0:0:0:
36,192,87728,1,0,0:0:0:0:
329,192,87728,1,0,0:0:0:0:
402,192,87784,1,0,0:0:0:0:
256,192,87784,1,0,0:0:0:0:
109,192,87840,1,0,0:0:0:0:
475,192,87840,1,0,0:0:0:0:
402,192,87897,1,0,0:0:0:0:
329,192,87953,1,0,0:0:0:0:
182,192,87953,1,0,0:0:0:0:
109,192,88010,1,0,0:0:0:0:
475,192,88010,1,0,0:0:0:0:
36,192,88066,1,0,0:0:0:0:
402,192,88066,1,0,0:0:0:0:
109,192,88122,1,0,0:0:0:0:
256,192,88179,1,0,0:0:0:0:
182,192,88235,1,0,0:0:0:0:
329,192,88235,1,0,0:0:0:0:
402,192,88292,1,0,0:0:0:0:
109,192,88292,1,0,0:0:0:0:
475,192,88348,1,0,0:0:0:0:
36,192,88348,1,0,0:0:0:0:
182,192,88404,128,0,88461:0:0:0:0:
109,192,88404,128,0,88461:0:0:0:0:
329,192,88404,1,0,0:0:0:0:
402,192,88404,1,0,0:0:0:0:
36,192,88461,128,0,88574:0:0:0:0:
256,192,88461,1,0,0:0:0:0:
182,192,88517,128,0,88574:0:0:0:0:
109,192,88517,128,0,88574:0:0:0:0:
329,192,88517,1,0,0:0:0:0:
402,192,88574,1,0,0:0:0:0:
256,192,88630,1,0,0:0:0:0:
182,192,88630,1,0,0:0:0:0:
36,192,88630,1,0,0:0:0:0:
475,192,88630,128,0,88743:0:0:0:0:
329,192,88686,1,0,0:0:0:0:
109,192,88686,1,0,0:0:0:0:
402,192,88743,1,0,0:0:0:0:
36,192,88743,1,0,0:0:0:0:
256,192,88743,128,0,88855:0:0:0:0:
109,192,88799,1,0,0:0:0:0:
182,192,88855,128,0,88912:0:0:0:0:
329,192,88855,128,0,88912:0:0:0:0:
402,192,88912,128,0,88968:0:0:0:0:
109,192,88912,128,0,88968:0:0:0:0:
36,192,88968,128,0,89025:0:0:0:0:
475,192,88968,128,0,89025:0:0:0:0:
402,192,89025,128,0,89081:0:0:0:0:
109,192,89025,128,0,89081:0:0:0:0:
182,192,89081,128,0,89137:0:0:0:0:
329,192,89081,128,0,89137:0:0:0:0:
36,192,89137,1,0,0:0:0:0:
256,192,89137,1,0,0:0:0:0:
109,192,89194,1,0,0:0:0:0:
402,192,89194,1,0,0:0:0:0:
256,192,89250,1,0,0:0:0:0:
475,192,89250,1,0,0:0:0:0:
182,192,89307,1,0,0:0:0:0:
36,192,89307,1,0,0:0:0:0:
329,192,89307,128,0,89363:0:0:0:0:
402,192,89307,128,0,89363:0:0:0:0:
256,192,89363,1,0,0:0:0:0:
475,192,89363,128,0,89476:0:0:0:0:
182,192,89419,1,0,0:0:0:0:
402,192,89419,128,0,89476:0:0:0:0:
329,192,89419,128,0,89476:0:0:0:0:
109,192,89476,1,0,0:0:0:0:
475,192,89532,1,0,0:0:0:0:
36,192,89532,128,0,89645:0:0:0:0:
256,192,89532,1,0,0:0:0:0:
329,192,89532,1,0,0:0:0:0:
402,192,89589,1,0,0:0:0:0:
182,192,89589,1,0,0:0:0:0:
256,192,89645,128,0,89758:0:0:0:0:
475,192,89645,1,0,0:0:0:0:
109,192,89645,1,0,0:0:0:0:
402,192,89701,1,0,0:0:0:0:
329,192,89758,128,0,89814:0:0:0:0:
182,192,89758,128,0,89814:0:0:0:0:
402,192,89814,128,0,89871:0:0:0:0:
109,192,89814,128,0,89871:0:0:0:0:
36,192,89871,128,0,89927:0:0:0:0:
475,192,89871,128,0,89927:0:0:0:0:
402,192,89927,128,0,89983:0:0:0:0:
109,192,89927,128,0,89983:0:0:0:0:
329,192,89983,128,0,90040:0:0:0:0:
182,192,89983,128,0,90040:0:0:0:0:
475,192,90040,1,0,0:0:0:0:
256,192,90040,1,0,0:0:0:0:
109,192,90096,1,0,0:0:0:0:
402,192,90096,1,0,0:0:0:0:
36,192,90152,1,0,0:0:0:0:
475,192,90209,1,0,0:0:0:0:
329,192,90209,1,0,0:0:0:0:
109,192,90209,128,0,90773:0:0:0:0:
256,192,90209,128,0,90265:0:0:0:0:
36,192,90246,128,0,90284:0:0:0:0:
182,192,90265,128,0,90660:0:0:0:0:
329,192,90322,128,0,90378:0:0:0:0:
256,192,90378,128,0,90547:0:0:0:0:
402,192,90434,128,0,90491:0:0:0:0:
329,192,90491,128,0,90547:0:0:0:0:
475,192,90547,128,0,90604:0:0:0:0:
402,192,90604,128,0,90660:0:0:0:0:
256,192,90660,128,0,90716:0:0:0:0:
329,192,90660,1,0,0:0:0:0:
475,192,90660,1,0,0:0:0:0:
36,192,90660,1,0,0:0:0:0:
402,192,90716,128,0,90773:0:0:0:0:
182,192,90773,128,0,90829:0:0:0:0:
329,192,90829,128,0,90886:0:0:0:0:
475,192,90886,1,0,0:0:0:0:
109,192,90886,128,0,91449:0:0:0:0:
256,192,90886,128,0,90942:0:0:0:0:
36,192,90923,128,0,90961:0:0:0:0:
182,192,90942,128,0,91337:0:0:0:0:
329,192,90998,128,0,91055:0:0:0:0:
256,192,91055,128,0,91224:0:0:0:0:
402,192,91111,128,0,91168:0:0:0:0:
329,192,91168,128,0,91224:0:0:0:0:
475,192,91224,128,0,91280:0:0:0:0:
402,192,91280,128,0,91337:0:0:0:0:
256,192,91337,128,0,91393:0:0:0:0:
329,192,91337,1,0,0:0:0:0:
475,192,91337,1,0,0:0:0:0:
36,192,91337,1,0,0:0:0:0:
402,192,91393,128,0,91449:0:0:0:0:
182,192,91449,128,0,91506:0:0:0:0:
329,192,91506,128,0,91562:0:0:0:0:
475,192,91562,1,0,0:0:0:0:
109,192,91562,128,0,92126:0:0:0:0:
256,192,91562,128,0,91619:0:0:0:0:
402,192,91562,1,0,0:0:0:0:
36,192,91600,128,0,91637:0:0:0:0:
182,192,91619,128,0,92013:0:0:0:0:
329,192,91675,128,0,91731:0:0:0:0:
256,192,91731,128,0,91901:0:0:0:0:
402,192,91788,128,0,91844:0:0:0:0:
329,192,91844,128,0,91901:0:0:0:0:
475,192,91901,128,0,91957:0:0:0:0:
402,192,91957,128,0,92013:0:0:0:0:
256,192,92013,128,0,92070:0:0:0:0:
36,192,92013,1,0,0:0:0:0:
329,192,92013,1,0,0:0:0:0:
475,192,92013,1,0,0:0:0:0:
402,192,92070,128,0,92126:0:0:0:0:
182,192,92126,128,0,92183:0:0:0:0:
329,192,92183,128,0,92239:0:0:0:0:
182,192,92239,128,0,92690:0:0:0:0:
475,192,92239,1,0,0:0:0:0:
109,192,92239,128,0,92803:0:0:0:0:
256,192,92239,128,0,92295:0:0:0:0:
36,192,92277,128,0,92314:0:0:0:0:
329,192,92352,128,0,92408:0:0:0:0:
256,192,92408,128,0,92577:0:0:0:0:
402,192,92465,128,0,92521:0:0:0:0:
329,192,92521,128,0,92577:0:0:0:0:
475,192,92577,128,0,92634:0:0:0:0:
256,192,92634,128,0,92690:0:0:0:0:
329,192,92690,128,0,92746:0:0:0:0:
402,192,92690,128,0,92746:0:0:0:0:
475,192,92690,1,0,0:0:0:0:
36,192,92690,1,0,0:0:0:0:
182,192,92746,128,0,92803:0:0:0:0:
256,192,92803,128,0,92859:0:0:0:0:
329,192,92803,128,0,92859:0:0:0:0:
182,192,92859,128,0,92916:0:0:0:0:
329,192,92916,1,0,0:0:0:0:
109,192,92916,128,0,92972:0:0:0:0:
256,192,92916,128,0,93028:0:0:0:0:
36,192,92953,128,0,92991:0:0:0:0:
182,192,92972,128,0,93085:0:0:0:0:
329,192,93028,128,0,93085:0:0:0:0:
475,192,93028,1,0,0:0:0:0:
109,192,93028,128,0,93141:0:0:0:0:
36,192,93085,128,0,93198:0:0:0:0:
402,192,93141,128,0,93198:0:0:0:0:
256,192,93141,128,0,93254:0:0:0:0:
182,192,93141,1,0,0:0:0:0:
329,192,93198,128,0,93310:0:0:0:0:
475,192,93198,128,0,93254:0:0:0:0:
402,192,93254,128,0,93367:0:0:0:0:
36,192,93254,1,0,0:0:0:0:
182,192,93254,128,0,93310:0:0:0:0:
475,192,93310,128,0,93423:0:0:0:0:
329,192,93367,1,0,0:0:0:0:
256,192,93367,128,0,93480:0:0:0:0:
109,192,93367,128,0,93423:0:0:0:0:
36,192,93404,128,0,93442:0:0:0:0:
182,192,93423,128,0,93536:0:0:0:0:
329,192,93480,128,0,93536:0:0:0:0:
475,192,93480,1,0,0:0:0:0:
109,192,93480,128,0,93592:0:0:0:0:
36,192,93536,128,0,93649:0:0:0:0:
182,192,93592,1,0,0:0:0:0:
402,192,93592,128,0,93649:0:0:0:0:
256,192,93592,1,0,0:0:0:0:
475,192,93649,128,0,93705:0:0:0:0:
329,192,93649,1,0,0:0:0:0:
36,192,93705,1,0,0:0:0:0:
182,192,93705,1,0,0:0:0:0:
402,192,93705,1,0,0:0:0:0:
475,192,93761,1,0,0:0:0:0:
182,192,93818,1,0,0:0:0:0:
402,192,93818,128,0,94382:0:0:0:0:
256,192,93818,128,0,93874:0:0:0:0:
475,192,93855,128,0,93893:0:0:0:0:
329,192,93874,128,0,94269:0:0:0:0:
109,192,93874,128,0,93931:0:0:0:0:
36,192,93931,128,0,93987:0:0:0:0:
256,192,93987,128,0,94156:0:0:0:0:
182,192,93987,128,0,94043:0:0:0:0:
109,192,94043,128,0,94100:0:0:0:0:
36,192,94100,128,0,94156:0:0:0:0:
109,192,94156,128,0,94213:0:0:0:0:
182,192,94213,128,0,94269:0:0:0:0:
256,192,94269,128,0,94325:0:0:0:0:
109,192,94269,1,0,0:0:0:0:
36,192,94269,1,0,0:0:0:0:
475,192,94269,1,0,0:0:0:0:
329,192,94325,128,0,94382:0:0:0:0:
256,192,94382,128,0,94438:0:0:0:0:
182,192,94438,128,0,94495:0:0:0:0:
109,192,94495,1,0,0:0:0:0:
36,192,94495,1,0,0:0:0:0:
402,192,94495,128,0,95058:0:0:0:0:
256,192,94495,128,0,94551:0:0:0:0:
475,192,94532,128,0,94570:0:0:0:0:
329,192,94551,128,0,94946:0:0:0:0:
109,192,94551,128,0,94607:0:0:0:0:
36,192,94607,128,0,94664:0:0:0:0:
256,192,94664,128,0,94833:0:0:0:0:
182,192,94664,128,0,94720:0:0:0:0:
109,192,94720,128,0,94777:0:0:0:0:
36,192,94777,128,0,94833:0:0:0:0:
109,192,94833,128,0,94889:0:0:0:0:
182,192,94889,128,0,94946:0:0:0:0:
256,192,94946,128,0,95002:0:0:0:0:
109,192,94946,1,0,0:0:0:0:
36,192,94946,1,0,0:0:0:0:
475,192,94946,1,0,0:0:0:0:
329,192,95002,128,0,95058:0:0:0:0:
256,192,95058,128,0,95115:0:0:0:0:
182,192,95115,128,0,95171:0:0:0:0:
256,192,95171,128,0,95228:0:0:0:0:
402,192,95171,128,0,95735:0:0:0:0:
36,192,95171,1,0,0:0:0:0:
475,192,95209,128,0,95246:0:0:0:0:
109,192,95228,128,0,95284:0:0:0:0:
329,192,95228,128,0,95622:0:0:0:0:
36,192,95284,128,0,95340:0:0:0:0:
182,192,95340,128,0,95397:0:0:0:0:
256,192,95340,128,0,95510:0:0:0:0:
109,192,95397,128,0,95453:0:0:0:0:
36,192,95453,128,0,95510:0:0:0:0:
109,192,95510,128,0,95566:0:0:0:0:
182,192,95566,128,0,95622:0:0:0:0:
36,192,95622,1,0,0:0:0:0:
475,192,95622,1,0,0:0:0:0:
256,192,95622,128,0,95679:0:0:0:0:
109,192,95622,1,0,0:0:0:0:
329,192,95679,128,0,95735:0:0:0:0:
256,192,95735,128,0,95792:0:0:0:0:
182,192,95792,128,0,95848:0:0:0:0:
402,192,95848,128,0,96412:0:0:0:0:
256,192,95848,128,0,95904:0:0:0:0:
36,192,95848,1,0,0:0:0:0:
475,192,95886,128,0,95923:0:0:0:0:
329,192,95904,128,0,96299:0:0:0:0:
109,192,95904,128,0,95961:0:0:0:0:
36,192,95961,128,0,96017:0:0:0:0:
256,192,96017,128,0,96186:0:0:0:0:
182,192,96017,128,0,96074:0:0:0:0:
109,192,96074,128,0,96130:0:0:0:0:
36,192,96130,128,0,96186:0:0:0:0:
109,192,96186,128,0,96243:0:0:0:0:
182,192,96243,128,0,96299:0:0:0:0:
256,192,96299,128,0,96355:0:0:0:0:
109,192,96299,1,0,0:0:0:0:
36,192,96299,1,0,0:0:0:0:
475,192,96299,1,0,0:0:0:0:
329,192,96355,128,0,96412:0:0:0:0:
256,192,96412,128,0,96468:0:0:0:0:
182,192,96468,128,0,96525:0:0:0:0:
329,192,96525,1,0,0:0:0:0:
109,192,96525,128,0,96919:0:0:0:0:
256,192,96525,128,0,96581:0:0:0:0:
402,192,96525,1,0,0:0:0:0:
475,192,96525,1,0,0:0:0:0:
36,192,96562,128,0,96600:0:0:0:0:
182,192,96581,128,0,96637:0:0:0:0:
329,192,96637,128,0,96694:0:0:0:0:
256,192,96694,128,0,96750:0:0:0:0:
402,192,96750,128,0,96807:0:0:0:0:
182,192,96750,128,0,96919:0:0:0:0:
36,192,96750,128,0,96919:0:0:0:0:
475,192,96750,1,0,0:0:0:0:
329,192,96807,128,0,96863:0:0:0:0:
475,192,96863,128,0,96919:0:0:0:0:
402,192,96976,128,0,97371:0:0:0:0:
36,192,96976,1,0,0:0:0:0:
109,192,96976,1,0,0:0:0:0:
256,192,96976,128,0,97032:0:0:0:0:
182,192,96976,1,0,0:0:0:0:
475,192,97013,128,0,97051:0:0:0:0:
329,192,97032,128,0,97089:0:0:0:0:
182,192,97089,128,0,97145:0:0:0:0:
256,192,97145,128,0,97201:0:0:0:0:
475,192,97201,128,0,97371:0:0:0:0:
329,192,97201,128,0,97371:0:0:0:0:
109,192,97201,128,0,97258:0:0:0:0:
36,192,97201,1,0,0:0:0:0:
182,192,97258,128,0,97314:0:0:0:0:
36,192,97314,128,0,97371:0:0:0:0:
402,192,97427,128,0,97991:0:0:0:0:
182,192,97427,1,0,0:0:0:0:
256,192,97427,1,0,0:0:0:0:
475,192,97465,128,0,97502:0:0:0:0:
329,192,97483,128,0,97878:0:0:0:0:
109,192,97540,1,0,0:0:0:0:
182,192,97540,1,0,0:0:0:0:
256,192,97596,128,0,97765:0:0:0:0:
36,192,97652,1,0,0:0:0:0:
109,192,97652,1,0,0:0:0:0:
475,192,97652,1,0,0:0:0:0:
182,192,97709,128,0,97765:0:0:0:0:
36,192,97765,1,0,0:0:0:0:
109,192,97822,128,0,97878:0:0:0:0:
182,192,97878,128,0,97934:0:0:0:0:
475,192,97878,1,0,0:0:0:0:
36,192,97916,1,0,0:0:0:0:
256,192,97934,128,0,97991:0:0:0:0:
109,192,97953,1,0,0:0:0:0:
329,192,97991,128,0,98047:0:0:0:0:
36,192,98028,1,0,0:0:0:0:
402,192,98033,128,0,98061:0:0:0:0:
109,192,98066,1,0,0:0:0:0:
402,192,98104,128,0,98329:0:0:0:0:
182,192,98104,1,0,0:0:0:0:
256,192,98104,1,0,0:0:0:0:
475,192,98141,128,0,98179:0:0:0:0:
329,192,98179,128,0,98442:0:0:0:0:
109,192,98216,1,0,0:0:0:0:
182,192,98216,1,0,0:0:0:0:
256,192,98273,128,0,98555:0:0:0:0:
36,192,98329,1,0,0:0:0:0:
109,192,98329,1,0,0:0:0:0:
475,192,98329,1,0,0:0:0:0:
182,192,98386,128,0,98442:0:0:0:0:
402,192,98442,128,0,98498:0:0:0:0:
109,192,98498,128,0,98555:0:0:0:0:
36,192,98555,1,0,0:0:0:0:
182,192,98555,128,0,98611:0:0:0:0:
475,192,98555,1,0,0:0:0:0:
329,192,98555,128,0,98611:0:0:0:0:
256,192,98611,128,0,98668:0:0:0:0:
329,192,98668,128,0,98724:0:0:0:0:
182,192,98668,128,0,98724:0:0:0:0:
402,192,98710,128,0,98738:0:0:0:0:
109,192,98724,128,0,98752:0:0:0:0:
402,192,98780,128,0,99006:0:0:0:0:
256,192,98780,1,0,0:0:0:0:
182,192,98818,1,0,0:0:0:0:
475,192,98818,128,0,98855:0:0:0:0:
329,192,98837,128,0,99119:0:0:0:0:
182,192,98893,1,0,0:0:0:0:
109,192,98931,1,0,0:0:0:0:
256,192,98949,128,0,99231:0:0:0:0:
475,192,99006,1,0,0:0:0:0:
109,192,99006,1,0,0:0:0:0:
36,192,99043,1,0,0:0:0:0:
182,192,99062,128,0,99119:0:0:0:0:
36,192,99119,1,0,0:0:0:0:
402,192,99119,128,0,99175:0:0:0:0:
109,192,99175,128,0,99231:0:0:0:0:
475,192,99231,1,0,0:0:0:0:
182,192,99231,128,0,99288:0:0:0:0:
36,192,99231,1,0,0:0:0:0:
329,192,99231,128,0,99288:0:0:0:0:
402,192,99231,128,0,99344:0:0:0:0:
256,192,99288,128,0,99344:0:0:0:0:
329,192,99344,128,0,99401:0:0:0:0:
182,192,99344,128,0,99401:0:0:0:0:
402,192,99386,128,0,99415:0:0:0:0:
109,192,99401,128,0,99429:0:0:0:0:
402,192,99457,128,0,100021:0:0:0:0:
182,192,99457,1,0,0:0:0:0:
256,192,99457,1,0,0:0:0:0:
475,192,99495,128,0,99532:0:0:0:0:
329,192,99513,128,0,99965:0:0:0:0:
109,192,99570,1,0,0:0:0:0:
182,192,99570,1,0,0:0:0:0:
256,192,99626,128,0,99908:0:0:0:0:
36,192,99683,1,0,0:0:0:0:
109,192,99683,1,0,0:0:0:0:
182,192,99739,128,0,99795:0:0:0:0:
36,192,99795,1,0,0:0:0:0:
109,192,99852,128,0,99908:0:0:0:0:
475,192,99908,128,0,100077:0:0:0:0:
182,192,99908,128,0,99965:0:0:0:0:
36,192,99908,128,0,100077:0:0:0:0:
256,192,99965,128,0,100077:0:0:0:0:
109,192,99965,128,0,100077:0:0:0:0:
329,192,100021,128,0,100077:0:0:0:0:
182,192,100021,128,0,100077:0:0:0:0:
402,192,100063,128,0,100091:0:0:0:0:
402,192,100134,128,0,100641:0:0:0:0:
182,192,100134,128,0,100190:0:0:0:0:
256,192,100134,1,0,0:0:0:0:
475,192,100171,128,0,100209:0:0:0:0:
329,192,100190,128,0,100528:0:0:0:0:
109,192,100246,128,0,100303:0:0:0:0:
182,192,100246,1,0,0:0:0:0:
256,192,100303,128,0,100528:0:0:0:0:
475,192,100359,1,0,0:0:0:0:
36,192,100359,128,0,100416:0:0:0:0:
109,192,100359,1,0,0:0:0:0:
182,192,100416,128,0,100472:0:0:0:0:
36,192,100472,1,0,0:0:0:0:
109,192,100514,128,0,100543:0:0:0:0:
109,192,100585,128,0,100980:0:0:0:0:
256,192,100585,1,0,0:0:0:0:
329,192,100585,128,0,100641:0:0:0:0:
36,192,100622,128,0,100660:0:0:0:0:
182,192,100641,128,0,101036:0:0:0:0:
329,192,100698,1,0,0:0:0:0:
402,192,100698,128,0,100754:0:0:0:0:
256,192,100754,128,0,100980:0:0:0:0:
36,192,100810,1,0,0:0:0:0:
402,192,100810,1,0,0:0:0:0:
475,192,100810,128,0,100867:0:0:0:0:
329,192,100867,128,0,100923:0:0:0:0:
475,192,100923,1,0,0:0:0:0:
402,192,100980,128,0,101036:0:0:0:0:
329,192,101036,1,0,0:0:0:0:
109,192,101036,128,0,101600:0:0:0:0:
256,192,101036,128,0,101149:0:0:0:0:
36,192,101074,128,0,101111:0:0:0:0:
182,192,101092,128,0,101543:0:0:0:0:
402,192,101149,1,0,0:0:0:0:
329,192,101149,128,0,101261:0:0:0:0:
256,192,101205,128,0,101487:0:0:0:0:
475,192,101261,1,0,0:0:0:0:
402,192,101261,128,0,101374:0:0:0:0:
329,192,101318,128,0,101374:0:0:0:0:
475,192,101374,128,0,101543:0:0:0:0:
402,192,101431,128,0,101487:0:0:0:0:
36,192,101487,128,0,101656:0:0:0:0:
329,192,101487,128,0,101656:0:0:0:0:
256,192,101543,128,0,101600:0:0:0:0:
182,192,101600,128,0,101713:0:0:0:0:
402,192,101600,1,0,0:0:0:0:
109,192,101642,128,0,101670:0:0:0:0:
109,192,101713,128,0,102277:0:0:0:0:
329,192,101713,1,0,0:0:0:0:
256,192,101713,128,0,101769:0:0:0:0:
36,192,101750,128,0,101788:0:0:0:0:
182,192,101769,128,0,102220:0:0:0:0:
402,192,101825,1,0,0:0:0:0:
329,192,101825,128,0,101882:0:0:0:0:
256,192,101882,128,0,102164:0:0:0:0:
475,192,101938,1,0,0:0:0:0:
402,192,101938,128,0,101995:0:0:0:0:
329,192,101995,1,0,0:0:0:0:
475,192,102051,128,0,102107:0:0:0:0:
402,192,102107,1,0,0:0:0:0:
36,192,102164,128,0,102333:0:0:0:0:
329,192,102164,128,0,102333:0:0:0:0:
256,192,102220,128,0,102277:0:0:0:0:
475,192,102220,128,0,102277:0:0:0:0:
182,192,102277,128,0,102389:0:0:0:0:
402,192,102277,1,0,0:0:0:0:
109,192,102319,128,0,102347:0:0:0:0:
329,192,102389,1,0,0:0:0:0:
109,192,102389,128,0,102897:0:0:0:0:
256,192,102389,128,0,102502:0:0:0:0:
36,192,102427,128,0,102465:0:0:0:0:
182,192,102446,128,0,102784:0:0:0:0:
402,192,102502,1,0,0:0:0:0:
329,192,102502,128,0,102615:0:0:0:0:
256,192,102558,128,0,102784:0:0:0:0:
475,192,102615,1,0,0:0:0:0:
402,192,102615,128,0,102728:0:0:0:0:
329,192,102671,128,0,102728:0:0:0:0:
475,192,102728,128,0,102840:0:0:0:0:
402,192,102784,128,0,102840:0:0:0:0:
182,192,102840,128,0,102878:0:0:0:0:
256,192,102840,128,0,102878:0:0:0:0:
329,192,102840,128,0,102878:0:0:0:0:
109,192,102953,128,0,102991:0:0:0:0:
182,192,102953,128,0,102991:0:0:0:0:
256,192,102953,128,0,102991:0:0:0:0:
402,192,102953,128,0,102991:0:0:0:0:
36,192,103066,128,0,103104:0:0:0:0:
475,192,103066,128,0,103292:0:0:0:0:
329,192,103066,128,0,103104:0:0:0:0:
182,192,103066,128,0,103104:0:0:0:0:
109,192,103066,128,0,103104:0:0:0:0:
256,192,103179,128,0,103216:0:0:0:0:
329,192,103179,128,0,103216:0:0:0:0:
402,192,103179,128,0,103216:0:0:0:0:
109,192,103179,128,0,103216:0:0:0:0:
256,192,103292,128,0,103329:0:0:0:0:
182,192,103292,128,0,103329:0:0:0:0:
36,192,103292,128,0,103329:0:0:0:0:
329,192,103292,128,0,103329:0:0:0:0:
109,192,103404,128,0,103442:0:0:0:0:
182,192,103404,128,0,103442:0:0:0:0:
256,192,103404,128,0,103442:0:0:0:0:
402,192,103404,128,0,103442:0:0:0:0:
329,192,103517,128,0,103555:0:0:0:0:
402,192,103517,128,0,103555:0:0:0:0:
182,192,103517,128,0,103686:0:0:0:0:
475,192,103517,128,0,103555:0:0:0:0:
109,192,103517,128,0,103555:0:0:0:0:
329,192,103630,128,0,103668:0:0:0:0:
256,192,103630,128,0,103668:0:0:0:0:
36,192,103630,128,0,103668:0:0:0:0:
402,192,103630,128,0,103668:0:0:0:0:
329,192,103743,128,0,103780:0:0:0:0:
256,192,103743,128,0,103780:0:0:0:0:
182,192,103743,128,0,103780:0:0:0:0:
36,192,103743,128,0,103968:0:0:0:0:
109,192,103743,128,0,103780:0:0:0:0:
329,192,103855,128,0,103893:0:0:0:0:
402,192,103855,128,0,103893:0:0:0:0:
109,192,103855,128,0,103893:0:0:0:0:
256,192,103855,128,0,103893:0:0:0:0:
475,192,103968,128,0,104006:0:0:0:0:
182,192,103968,128,0,104006:0:0:0:0:
329,192,103968,128,0,104006:0:0:0:0:
402,192,103968,128,0,104006:0:0:0:0:
182,192,104081,128,0,104119:0:0:0:0:
109,192,104081,128,0,104119:0:0:0:0:
256,192,104081,128,0,104119:0:0:0:0:
475,192,104081,128,0,104119:0:0:0:0:
402,192,104081,128,0,104119:0:0:0:0:
256,192,104194,128,0,104231:0:0:0:0:
329,192,104194,128,0,104231:0:0:0:0:
475,192,104194,128,0,104419:0:0:0:0:
182,192,104194,128,0,104231:0:0:0:0:
36,192,104194,128,0,104231:0:0:0:0:
402,192,104307,128,0,104344:0:0:0:0:
109,192,104307,128,0,104344:0:0:0:0:
256,192,104307,128,0,104344:0:0:0:0:
329,192,104307,128,0,104344:0:0:0:0:
36,192,104419,128,0,104457:0:0:0:0:
109,192,104419,128,0,104457:0:0:0:0:
182,192,104419,128,0,104457:0:0:0:0:
329,192,104419,128,0,104457:0:0:0:0:
109,192,104532,128,0,104570:0:0:0:0:
182,192,104532,128,0,104570:0:0:0:0:
256,192,104532,128,0,104570:0:0:0:0:
402,192,104532,128,0,104570:0:0:0:0:
182,192,104645,128,0,104683:0:0:0:0:
329,192,104645,128,0,104683:0:0:0:0:
256,192,104645,128,0,104683:0:0:0:0:
402,192,104683,1,0,0:0:0:0:
109,192,104683,1,0,0:0:0:0:
182,192,105322,128,0,105359:0:0:0:0:
109,192,105359,1,0,0:0:0:0:
329,192,105998,128,0,106036:0:0:0:0:
402,192,106036,1,0,0:0:0:0:
36,192,106675,128,0,106713:0:0:0:0:
109,192,106713,1,0,0:0:0:0:
475,192,107352,128,0,107389:0:0:0:0:
36,192,107352,128,0,107389:0:0:0:0:
256,192,107352,1,0,0:0:0:0:
402,192,107389,1,0,0:0:0:0:
109,192,107389,1,0,0:0:0:0:
182,192,107803,128,0,107840:0:0:0:0:
329,192,107803,128,0,107840:0:0:0:0:
109,192,107840,1,0,0:0:0:0:
402,192,107840,1,0,0:0:0:0:
475,192,108254,128,0,108292:0:0:0:0:
329,192,108254,128,0,108292:0:0:0:0:
182,192,108254,128,0,108292:0:0:0:0:
36,192,108254,128,0,108292:0:0:0:0:
109,192,108254,128,0,108292:0:0:0:0:
402,192,108254,128,0,108292:0:0:0:0:
329,192,108931,128,0,108968:0:0:0:0:
402,192,108968,1,0,0:0:0:0:
182,192,109607,128,0,109645:0:0:0:0:
109,192,109645,1,0,0:0:0:0:
475,192,110284,128,0,110322:0:0:0:0:
402,192,110322,1,0,0:0:0:0:
182,192,110961,128,0,110998:0:0:0:0:
329,192,110961,128,0,110998:0:0:0:0:
256,192,110961,1,0,0:0:0:0:
109,192,110998,1,0,0:0:0:0:
402,192,110998,1,0,0:0:0:0:
36,192,111412,128,0,111449:0:0:0:0:
475,192,111412,128,0,111449:0:0:0:0:
109,192,111449,1,0,0:0:0:0:
402,192,111449,1,0,0:0:0:0:
36,192,111863,128,0,111901:0:0:0:0:
109,192,111863,128,0,111901:0:0:0:0:
182,192,111863,128,0,111901:0:0:0:0:
329,192,111863,128,0,111901:0:0:0:0:
402,192,111863,128,0,111901:0:0:0:0:
475,192,111863,128,0,111901:0:0:0:0:
109,192,112540,128,0,112577:0:0:0:0:
402,192,112540,128,0,112577:0:0:0:0:
182,192,112577,1,0,0:0:0:0:
329,192,112577,1,0,0:0:0:0:
36,192,113216,128,0,113254:0:0:0:0:
475,192,113216,128,0,113254:0:0:0:0:
109,192,113254,1,0,0:0:0:0:
402,192,113254,1,0,0:0:0:0:
182,192,113893,128,0,113931:0:0:0:0:
329,192,113893,128,0,113931:0:0:0:0:
109,192,113931,1,0,0:0:0:0:
402,192,113931,1,0,0:0:0:0:
109,192,114570,128,0,114607:0:0:0:0:
402,192,114570,128,0,114607:0:0:0:0:
256,192,114570,128,0,114607:0:0:0:0:
36,192,114607,1,0,0:0:0:0:
475,192,114607,1,0,0:0:0:0:
182,192,115021,128,0,115058:0:0:0:0:
329,192,115021,128,0,115058:0:0:0:0:
109,192,115058,1,0,0:0:0:0:
402,192,115058,1,0,0:0:0:0:
182,192,115472,128,0,115510:0:0:0:0:
256,192,115472,128,0,115510:0:0:0:0:
109,192,115472,128,0,115510:0:0:0:0:
329,192,115472,128,0,115510:0:0:0:0:
402,192,115472,128,0,115510:0:0:0:0:
109,192,116149,128,0,116186:0:0:0:0:
402,192,116149,128,0,116186:0:0:0:0:
182,192,116186,1,0,0:0:0:0:
329,192,116186,1,0,0:0:0:0:
36,192,116797,1,0,0:0:0:0:
182,192,116825,1,0,0:0:0:0:
329,192,116854,1,0,0:0:0:0:
475,192,116882,1,0,0:0:0:0:
256,192,117277,128,0,118179:0:0:0:0:
402,192,117277,128,0,118179:0:0:0:0:
109,192,117277,128,0,118179:0:0:0:0:
36,192,118179,128,0,119081:0:0:0:0:
475,192,118179,128,0,119081:0:0:0:0:
182,192,118179,128,0,119081:0:0:0:0:
329,192,118179,128,0,119081:0:0:0:0:
256,192,119081,128,0,119119:0:0:0:0:
402,192,119081,128,0,119119:0:0:0:0:
109,192,119081,128,0,119119:0:0:0:0:
256,192,119307,128,0,119344:0:0:0:0:
256,192,119532,128,0,119570:0:0:0:0:
256,192,119758,128,0,119795:0:0:0:0:
109,192,119795,1,0,0:0:0:0:
402,192,119795,1,0,0:0:0:0:
329,192,119983,1,0,0:0:0:0:
182,192,119983,1,0,0:0:0:0:
256,192,119983,128,0,120021:0:0:0:0:
256,192,120209,128,0,120246:0:0:0:0:
256,192,120434,128,0,120472:0:0:0:0:
182,192,120472,1,0,0:0:0:0:
329,192,120472,1,0,0:0:0:0:
256,192,120660,128,0,120698:0:0:0:0:
329,192,120886,1,0,0:0:0:0:
182,192,120886,1,0,0:0:0:0:
256,192,120886,128,0,120923:0:0:0:0:
256,192,121111,128,0,121149:0:0:0:0:
109,192,121149,1,0,0:0:0:0:
402,192,121149,1,0,0:0:0:0:
256,192,121337,128,0,121374:0:0:0:0:
256,192,121562,128,0,121600:0:0:0:0:
256,192,121788,128,0,121825:0:0:0:0:
109,192,121788,128,0,121825:0:0:0:0:
402,192,121788,128,0,121825:0:0:0:0:
475,192,121825,1,0,0:0:0:0:
36,192,121825,1,0,0:0:0:0:
256,192,122013,128,0,122051:0:0:0:0:
256,192,122239,128,0,122277:0:0:0:0:
109,192,122277,1,0,0:0:0:0:
402,192,122277,1,0,0:0:0:0:
256,192,122465,128,0,122502:0:0:0:0:
329,192,122690,1,0,0:0:0:0:
182,192,122690,1,0,0:0:0:0:
256,192,122690,128,0,122728:0:0:0:0:
109,192,122690,128,0,122728:0:0:0:0:
36,192,122690,128,0,122728:0:0:0:0:
402,192,122690,128,0,122728:0:0:0:0:
475,192,122690,128,0,122728:0:0:0:0:
256,192,122916,128,0,122953:0:0:0:0:
256,192,123141,128,0,123179:0:0:0:0:
256,192,123367,128,0,123404:0:0:0:0:
109,192,123404,1,0,0:0:0:0:
402,192,123404,1,0,0:0:0:0:
256,192,123592,128,0,123630:0:0:0:0:
109,192,123592,128,0,123630:0:0:0:0:
402,192,123592,128,0,123630:0:0:0:0:
256,192,123818,128,0,123855:0:0:0:0:
182,192,124043,1,0,0:0:0:0:
329,192,124043,1,0,0:0:0:0:
256,192,124081,128,0,124119:0:0:0:0:
256,192,124269,128,0,124307:0:0:0:0:
256,192,124495,128,0,124532:0:0:0:0:
109,192,124495,1,0,0:0:0:0:
402,192,124495,1,0,0:0:0:0:
256,192,124720,128,0,124758:0:0:0:0:
182,192,124758,1,0,0:0:0:0:
329,192,124758,1,0,0:0:0:0:
256,192,124946,128,0,124983:0:0:0:0:
256,192,125171,128,0,125209:0:0:0:0:
256,192,125397,128,0,125434:0:0:0:0:
182,192,125397,1,0,0:0:0:0:
329,192,125397,1,0,0:0:0:0:
109,192,125397,128,0,125434:0:0:0:0:
402,192,125397,128,0,125434:0:0:0:0:
256,192,125622,128,0,125660:0:0:0:0:
182,192,125622,1,0,0:0:0:0:
329,192,125622,1,0,0:0:0:0:
256,192,125848,128,0,125886:0:0:0:0:
36,192,125848,128,0,125886:0:0:0:0:
475,192,125848,128,0,125886:0:0:0:0:
109,192,125961,1,0,0:0:0:0:
402,192,125961,1,0,0:0:0:0:
182,192,126074,128,0,126130:0:0:0:0:
329,192,126074,128,0,126130:0:0:0:0:
36,192,126285,128,0,126327:0:0:0:0:
475,192,126285,128,0,126327:0:0:0:0:
109,192,126299,1,0,0:0:0:0:
402,192,126299,1,0,0:0:0:0:
329,192,126313,128,0,126355:0:0:0:0:
182,192,126313,128,0,126355:0:0:0:0:
256,192,126327,128,0,126370:0:0:0:0:
182,192,126525,128,0,126562:0:0:0:0:
329,192,126525,128,0,126562:0:0:0:0:
329,192,126750,128,0,126788:0:0:0:0:
182,192,126750,128,0,126788:0:0:0:0:
329,192,126976,128,0,127013:0:0:0:0:
182,192,126976,128,0,127013:0:0:0:0:
109,192,127013,1,0,0:0:0:0:
402,192,127013,1,0,0:0:0:0:
402,192,127201,1,0,0:0:0:0:
109,192,127201,1,0,0:0:0:0:
256,192,127201,128,0,127239:0:0:0:0:
182,192,127201,1,0,0:0:0:0:
329,192,127201,1,0,0:0:0:0:
182,192,127427,128,0,127465:0:0:0:0:
329,192,127427,128,0,127465:0:0:0:0:
329,192,127652,128,0,127690:0:0:0:0:
182,192,127652,128,0,127690:0:0:0:0:
36,192,127690,1,0,0:0:0:0:
475,192,127690,1,0,0:0:0:0:
182,192,127878,128,0,127916:0:0:0:0:
329,192,127878,128,0,127916:0:0:0:0:
109,192,128104,1,0,0:0:0:0:
182,192,128104,128,0,128141:0:0:0:0:
329,192,128104,128,0,128141:0:0:0:0:
402,192,128104,1,0,0:0:0:0:
256,192,128104,1,0,0:0:0:0:
329,192,128329,128,0,128367:0:0:0:0:
182,192,128329,128,0,128367:0:0:0:0:
109,192,128367,1,0,0:0:0:0:
402,192,128367,1,0,0:0:0:0:
256,192,128367,1,0,0:0:0:0:
182,192,128555,128,0,128592:0:0:0:0:
329,192,128555,128,0,128592:0:0:0:0:
182,192,128780,128,0,128818:0:0:0:0:
329,192,128780,128,0,128818:0:0:0:0:
329,192,129006,128,0,129043:0:0:0:0:
182,192,129006,128,0,129043:0:0:0:0:
36,192,129006,128,0,129043:0:0:0:0:
475,192,129006,128,0,129043:0:0:0:0:
402,192,129043,1,0,0:0:0:0:
109,192,129043,1,0,0:0:0:0:
182,192,129231,128,0,129269:0:0:0:0:
329,192,129231,128,0,129269:0:0:0:0:
109,192,129457,128,0,129495:0:0:0:0:
256,192,129457,128,0,129495:0:0:0:0:
402,192,129457,128,0,129495:0:0:0:0:
182,192,129495,1,0,0:0:0:0:
329,192,129495,1,0,0:0:0:0:
329,192,129683,128,0,129720:0:0:0:0:
182,192,129683,128,0,129720:0:0:0:0:
109,192,129908,128,0,129946:0:0:0:0:
402,192,129908,128,0,129946:0:0:0:0:
256,192,129908,128,0,129946:0:0:0:0:
36,192,129908,128,0,129946:0:0:0:0:
475,192,129908,128,0,129946:0:0:0:0:
182,192,129908,128,0,129946:0:0:0:0:
329,192,129908,128,0,129946:0:0:0:0:
256,192,130134,128,0,130171:0:0:0:0:
256,192,130359,128,0,130397:0:0:0:0:
256,192,130585,128,0,130622:0:0:0:0:
36,192,130622,1,0,0:0:0:0:
475,192,130622,1,0,0:0:0:0:
109,192,130810,128,0,130848:0:0:0:0:
402,192,130810,128,0,130848:0:0:0:0:
256,192,130810,128,0,130848:0:0:0:0:
182,192,130810,128,0,130848:0:0:0:0:
329,192,130810,128,0,130848:0:0:0:0:
402,192,131036,128,0,131074:0:0:0:0:
109,192,131036,128,0,131074:0:0:0:0:
109,192,131261,128,0,131299:0:0:0:0:
402,192,131261,128,0,131299:0:0:0:0:
256,192,131299,1,0,0:0:0:0:
402,192,131487,128,0,131525:0:0:0:0:
109,192,131487,128,0,131525:0:0:0:0:
475,192,131713,128,0,131750:0:0:0:0:
36,192,131713,128,0,131750:0:0:0:0:
109,192,131713,128,0,131750:0:0:0:0:
402,192,131713,128,0,131750:0:0:0:0:
182,192,131713,128,0,131750:0:0:0:0:
329,192,131713,128,0,131750:0:0:0:0:
36,192,131938,128,0,131976:0:0:0:0:
475,192,131938,128,0,131976:0:0:0:0:
475,192,132164,128,0,132201:0:0:0:0:
36,192,132164,128,0,132201:0:0:0:0:
36,192,132389,128,0,132427:0:0:0:0:
475,192,132389,128,0,132427:0:0:0:0:
36,192,132615,1,0,0:0:0:0:
256,192,132615,1,0,0:0:0:0:
475,192,132615,1,0,0:0:0:0:
109,192,132615,1,0,0:0:0:0:
402,192,132615,1,0,0:0:0:0:
36,192,132840,1,0,0:0:0:0:
256,192,132840,1,0,0:0:0:0:
475,192,132840,1,0,0:0:0:0:
329,192,132840,1,0,0:0:0:0:
182,192,132840,1,0,0:0:0:0:
109,192,133066,1,0,0:0:0:0:
182,192,133066,1,0,0:0:0:0:
402,192,133066,1,0,0:0:0:0:
329,192,133066,1,0,0:0:0:0:
256,192,133179,1,0,0:0:0:0:
36,192,133179,1,0,0:0:0:0:
475,192,133179,1,0,0:0:0:0:
109,192,133292,1,0,0:0:0:0:
182,192,133292,1,0,0:0:0:0:
329,192,133292,1,0,0:0:0:0:
402,192,133292,1,0,0:0:0:0:
475,192,133517,1,0,0:0:0:0:
402,192,133517,1,0,0:0:0:0:
329,192,133517,1,0,0:0:0:0:
256,192,133517,1,0,0:0:0:0:
36,192,133517,128,0,133743:0:0:0:0:
182,192,133517,128,0,133555:0:0:0:0:
109,192,133517,128,0,133555:0:0:0:0:
256,192,133630,128,0,133855:0:0:0:0:
475,192,133743,128,0,133855:0:0:0:0:
182,192,133743,128,0,133780:0:0:0:0:
109,192,133743,128,0,133780:0:0:0:0:
402,192,133743,1,0,0:0:0:0:
36,192,133855,1,0,0:0:0:0:
402,192,133968,1,0,0:0:0:0:
256,192,133968,1,0,0:0:0:0:
182,192,133968,1,0,0:0:0:0:
36,192,133968,1,0,0:0:0:0:
109,192,133968,128,0,134194:0:0:0:0:
329,192,133968,128,0,134006:0:0:0:0:
475,192,133968,128,0,134006:0:0:0:0:
256,192,134081,128,0,134194:0:0:0:0:
475,192,134194,128,0,134231:0:0:0:0:
402,192,134194,128,0,134307:0:0:0:0:
329,192,134194,128,0,134231:0:0:0:0:
36,192,134194,1,0,0:0:0:0:
182,192,134194,1,0,0:0:0:0:
36,192,134307,1,0,0:0:0:0:
182,192,134307,1,0,0:0:0:0:
475,192,134419,1,0,0:0:0:0:
402,192,134419,1,0,0:0:0:0:
329,192,134419,1,0,0:0:0:0:
256,192,134419,1,0,0:0:0:0:
182,192,134419,128,0,134645:0:0:0:0:
109,192,134419,128,0,134457:0:0:0:0:
36,192,134419,128,0,134457:0:0:0:0:
329,192,134532,128,0,134758:0:0:0:0:
475,192,134645,128,0,134758:0:0:0:0:
36,192,134645,128,0,134683:0:0:0:0:
109,192,134645,128,0,134683:0:0:0:0:
402,192,134645,1,0,0:0:0:0:
182,192,134758,1,0,0:0:0:0:
475,192,134871,1,0,0:0:0:0:
402,192,134871,1,0,0:0:0:0:
256,192,134871,1,0,0:0:0:0:
36,192,134871,1,0,0:0:0:0:
109,192,134871,128,0,135209:0:0:0:0:
182,192,134871,128,0,134908:0:0:0:0:
329,192,134871,128,0,134908:0:0:0:0:
256,192,134983,128,0,135209:0:0:0:0:
402,192,135096,128,0,135209:0:0:0:0:
329,192,135096,128,0,135134:0:0:0:0:
182,192,135096,128,0,135134:0:0:0:0:
475,192,135096,1,0,0:0:0:0:
182,192,135322,1,0,0:0:0:0:
256,192,135322,1,0,0:0:0:0:
402,192,135322,1,0,0:0:0:0:
329,192,135322,1,0,0:0:0:0:
475,192,135322,128,0,135547:0:0:0:0:
109,192,135322,128,0,135359:0:0:0:0:
36,192,135322,128,0,135359:0:0:0:0:
329,192,135434,128,0,135660:0:0:0:0:
182,192,135547,128,0,135660:0:0:0:0:
36,192,135547,128,0,135585:0:0:0:0:
109,192,135547,128,0,135585:0:0:0:0:
256,192,135547,1,0,0:0:0:0:
475,192,135660,1,0,0:0:0:0:
182,192,135773,1,0,0:0:0:0:
109,192,135773,1,0,0:0:0:0:
36,192,135773,1,0,0:0:0:0:
256,192,135773,1,0,0:0:0:0:
402,192,135773,128,0,135998:0:0:0:0:
329,192,135773,128,0,135810:0:0:0:0:
475,192,135773,128,0,135810:0:0:0:0:
256,192,135886,128,0,135998:0:0:0:0:
109,192,135998,128,0,136111:0:0:0:0:
475,192,135998,128,0,136036:0:0:0:0:
329,192,135998,128,0,136036:0:0:0:0:
36,192,135998,1,0,0:0:0:0:
182,192,135998,1,0,0:0:0:0:
182,192,136111,1,0,0:0:0:0:
36,192,136111,1,0,0:0:0:0:
256,192,136224,1,0,0:0:0:0:
182,192,136224,1,0,0:0:0:0:
36,192,136224,1,0,0:0:0:0:
329,192,136224,128,0,136449:0:0:0:0:
402,192,136224,128,0,136261:0:0:0:0:
475,192,136224,128,0,136261:0:0:0:0:
109,192,136337,1,0,0:0:0:0:
182,192,136337,128,0,136562:0:0:0:0:
36,192,136449,128,0,136562:0:0:0:0:
402,192,136449,128,0,136487:0:0:0:0:
475,192,136449,128,0,136487:0:0:0:0:
256,192,136449,1,0,0:0:0:0:
329,192,136562,1,0,0:0:0:0:
475,192,136675,1,0,0:0:0:0:
256,192,136675,1,0,0:0:0:0:
109,192,136675,1,0,0:0:0:0:
36,192,136675,1,0,0:0:0:0:
402,192,136675,128,0,137013:0:0:0:0:
329,192,136675,128,0,136713:0:0:0:0:
182,192,136675,128,0,136713:0:0:0:0:
256,192,136788,128,0,137013:0:0:0:0:
109,192,136901,128,0,137013:0:0:0:0:
329,192,136901,128,0,136938:0:0:0:0:
182,192,136901,128,0,136938:0:0:0:0:
475,192,136901,1,0,0:0:0:0:
182,192,137126,1,0,0:0:0:0:
109,192,137126,1,0,0:0:0:0:
36,192,137126,1,0,0:0:0:0:
256,192,137126,1,0,0:0:0:0:
329,192,137126,128,0,137164:0:0:0:0:
402,192,137126,128,0,137164:0:0:0:0:
475,192,137126,128,0,137465:0:0:0:0:
256,192,137239,128,0,137352:0:0:0:0:
36,192,137352,128,0,137465:0:0:0:0:
329,192,137352,128,0,137389:0:0:0:0:
402,192,137352,128,0,137389:0:0:0:0:
109,192,137352,1,0,0:0:0:0:
256,192,137465,1,0,0:0:0:0:
475,192,137577,1,0,0:0:0:0:
402,192,137577,1,0,0:0:0:0:
329,192,137577,1,0,0:0:0:0:
109,192,137577,128,0,137803:0:0:0:0:
256,192,137577,1,0,0:0:0:0:
182,192,137577,128,0,137615:0:0:0:0:
36,192,137577,128,0,137615:0:0:0:0:
256,192,137690,128,0,137803:0:0:0:0:
402,192,137803,128,0,137916:0:0:0:0:
182,192,137803,128,0,137840:0:0:0:0:
36,192,137803,128,0,137840:0:0:0:0:
329,192,137803,1,0,0:0:0:0:
475,192,137803,1,0,0:0:0:0:
329,192,137916,1,0,0:0:0:0:
475,192,137916,1,0,0:0:0:0:
475,192,138028,1,0,0:0:0:0:
402,192,138028,1,0,0:0:0:0:
256,192,138028,1,0,0:0:0:0:
182,192,138028,1,0,0:0:0:0:
329,192,138028,128,0,138254:0:0:0:0:
109,192,138028,128,0,138066:0:0:0:0:
36,192,138028,128,0,138066:0:0:0:0:
182,192,138141,128,0,138367:0:0:0:0:
475,192,138254,128,0,138367:0:0:0:0:
109,192,138254,128,0,138292:0:0:0:0:
36,192,138254,128,0,138292:0:0:0:0:
256,192,138254,1,0,0:0:0:0:
329,192,138367,1,0,0:0:0:0:
475,192,138480,1,0,0:0:0:0:
256,192,138480,1,0,0:0:0:0:
109,192,138480,1,0,0:0:0:0:
36,192,138480,1,0,0:0:0:0:
402,192,138480,128,0,138818:0:0:0:0:
329,192,138480,128,0,138517:0:0:0:0:
182,192,138480,128,0,138517:0:0:0:0:
256,192,138592,128,0,138818:0:0:0:0:
109,192,138705,128,0,138818:0:0:0:0:
182,192,138705,128,0,138743:0:0:0:0:
329,192,138705,128,0,138743:0:0:0:0:
36,192,138705,1,0,0:0:0:0:
475,192,138705,1,0,0:0:0:0:
109,192,138931,1,0,0:0:0:0:
36,192,138931,1,0,0:0:0:0:
256,192,138931,1,0,0:0:0:0:
329,192,138931,1,0,0:0:0:0:
182,192,138931,128,0,139156:0:0:0:0:
402,192,138931,128,0,138968:0:0:0:0:
475,192,138931,128,0,138968:0:0:0:0:
329,192,139043,128,0,139269:0:0:0:0:
36,192,139156,128,0,139269:0:0:0:0:
402,192,139156,128,0,139194:0:0:0:0:
475,192,139156,128,0,139194:0:0:0:0:
256,192,139156,1,0,0:0:0:0:
182,192,139269,1,0,0:0:0:0:
36,192,139382,1,0,0:0:0:0:
256,192,139382,1,0,0:0:0:0:
402,192,139382,1,0,0:0:0:0:
329,192,139382,1,0,0:0:0:0:
475,192,139382,128,0,139607:0:0:0:0:
182,192,139382,128,0,139419:0:0:0:0:
109,192,139382,128,0,139419:0:0:0:0:
256,192,139495,128,0,139607:0:0:0:0:
36,192,139607,128,0,139720:0:0:0:0:
109,192,139607,128,0,139645:0:0:0:0:
182,192,139607,128,0,139645:0:0:0:0:
329,192,139607,1,0,0:0:0:0:
402,192,139607,1,0,0:0:0:0:
402,192,139720,1,0,0:0:0:0:
329,192,139720,1,0,0:0:0:0:
475,192,139833,1,0,0:0:0:0:
329,192,139833,1,0,0:0:0:0:
182,192,139833,1,0,0:0:0:0:
109,192,139833,1,0,0:0:0:0:
36,192,139833,128,0,140171:0:0:0:0:
402,192,139833,128,0,139871:0:0:0:0:
256,192,139833,128,0,139871:0:0:0:0:
182,192,139946,128,0,140171:0:0:0:0:
329,192,140058,128,0,140171:0:0:0:0:
475,192,140058,128,0,140171:0:0:0:0:
256,192,140058,128,0,140096:0:0:0:0:
402,192,140058,128,0,140096:0:0:0:0:
109,192,140058,1,0,0:0:0:0:
36,192,140284,1,0,0:0:0:0:
402,192,140284,1,0,0:0:0:0:
329,192,140284,1,0,0:0:0:0:
182,192,140284,1,0,0:0:0:0:
475,192,140284,128,0,140622:0:0:0:0:
256,192,140284,128,0,140322:0:0:0:0:
109,192,140284,128,0,140322:0:0:0:0:
329,192,140397,128,0,140622:0:0:0:0:
36,192,140510,128,0,140622:0:0:0:0:
182,192,140510,128,0,140622:0:0:0:0:
109,192,140510,128,0,140547:0:0:0:0:
256,192,140510,128,0,140547:0:0:0:0:
402,192,140510,1,0,0:0:0:0:
182,192,140735,1,0,0:0:0:0:
475,192,140735,1,0,0:0:0:0:
402,192,140735,1,0,0:0:0:0:
329,192,140735,1,0,0:0:0:0:
36,192,140735,128,0,140923:0:0:0:0:
109,192,140735,128,0,140923:0:0:0:0:
256,192,140735,128,0,140848:0:0:0:0:
329,192,140848,128,0,140961:0:0:0:0:
475,192,140961,1,0,0:0:0:0:
109,192,140961,128,0,140998:0:0:0:0:
36,192,140961,128,0,140998:0:0:0:0:
402,192,140961,128,0,141074:0:0:0:0:
182,192,140961,1,0,0:0:0:0:
475,192,141074,128,0,141130:0:0:0:0:
109,192,141186,1,0,0:0:0:0:
36,192,141186,1,0,0:0:0:0:
256,192,141186,1,0,0:0:0:0:
329,192,141186,1,0,0:0:0:0:
475,192,141186,128,0,141374:0:0:0:0:
402,192,141186,128,0,141374:0:0:0:0:
182,192,141186,128,0,141299:0:0:0:0:
256,192,141299,128,0,141412:0:0:0:0:
402,192,141412,1,0,0:0:0:0:
109,192,141412,1,0,0:0:0:0:
36,192,141412,1,0,0:0:0:0:
475,192,141412,128,0,141449:0:0:0:0:
329,192,141412,128,0,141525:0:0:0:0:
402,192,141525,128,0,141581:0:0:0:0:
109,192,141525,1,0,0:0:0:0:
182,192,141525,1,0,0:0:0:0:
475,192,141637,1,0,0:0:0:0:
256,192,141637,1,0,0:0:0:0:
182,192,141637,1,0,0:0:0:0:
36,192,141637,1,0,0:0:0:0:
329,192,141637,128,0,141825:0:0:0:0:
402,192,141637,128,0,141825:0:0:0:0:
109,192,141637,128,0,141750:0:0:0:0:
182,192,141750,128,0,141863:0:0:0:0:
329,192,141863,1,0,0:0:0:0:
402,192,141863,128,0,141901:0:0:0:0:
256,192,141863,128,0,141976:0:0:0:0:
475,192,141863,128,0,141901:0:0:0:0:
329,192,141976,128,0,142032:0:0:0:0:
329,192,142089,1,0,0:0:0:0:
256,192,142089,1,0,0:0:0:0:
182,192,142089,1,0,0:0:0:0:
109,192,142089,1,0,0:0:0:0:
402,192,142089,128,0,142277:0:0:0:0:
475,192,142089,128,0,142277:0:0:0:0:
36,192,142089,128,0,142201:0:0:0:0:
109,192,142201,128,0,142314:0:0:0:0:
329,192,142314,1,0,0:0:0:0:
402,192,142314,128,0,142352:0:0:0:0:
475,192,142314,128,0,142352:0:0:0:0:
182,192,142314,128,0,142427:0:0:0:0:
256,192,142427,128,0,142483:0:0:0:0:
182,192,142540,1,0,0:0:0:0:
475,192,142540,1,0,0:0:0:0:
402,192,142540,1,0,0:0:0:0:
329,192,142540,1,0,0:0:0:0:
36,192,142540,128,0,142728:0:0:0:0:
109,192,142540,128,0,142728:0:0:0:0:
256,192,142540,128,0,142652:0:0:0:0:
329,192,142652,128,0,142765:0:0:0:0:
475,192,142765,1,0,0:0:0:0:
109,192,142765,128,0,142803:0:0:0:0:
36,192,142765,128,0,142803:0:0:0:0:
402,192,142765,128,0,142878:0:0:0:0:
475,192,142878,128,0,142934:0:0:0:0:
109,192,142991,1,0,0:0:0:0:
36,192,142991,1,0,0:0:0:0:
256,192,142991,1,0,0:0:0:0:
329,192,142991,1,0,0:0:0:0:
475,192,142991,128,0,143179:0:0:0:0:
402,192,142991,128,0,143179:0:0:0:0:
182,192,142991,128,0,143104:0:0:0:0:
256,192,143104,128,0,143216:0:0:0:0:
402,192,143216,1,0,0:0:0:0:
109,192,143216,1,0,0:0:0:0:
36,192,143216,1,0,0:0:0:0:
475,192,143216,128,0,143254:0:0:0:0:
329,192,143216,128,0,143329:0:0:0:0:
402,192,143329,128,0,143386:0:0:0:0:
109,192,143329,1,0,0:0:0:0:
182,192,143329,1,0,0:0:0:0:
475,192,143442,1,0,0:0:0:0:
256,192,143442,1,0,0:0:0:0:
182,192,143442,1,0,0:0:0:0:
36,192,143442,1,0,0:0:0:0:
329,192,143442,128,0,143630:0:0:0:0:
402,192,143442,128,0,143630:0:0:0:0:
109,192,143442,128,0,143555:0:0:0:0:
182,192,143555,128,0,143668:0:0:0:0:
329,192,143668,1,0,0:0:0:0:
402,192,143668,128,0,143705:0:0:0:0:
256,192,143668,128,0,143780:0:0:0:0:
329,192,143780,128,0,143837:0:0:0:0:
329,192,143893,1,0,0:0:0:0:
256,192,143893,1,0,0:0:0:0:
182,192,143893,1,0,0:0:0:0:
109,192,143893,1,0,0:0:0:0:
402,192,143893,128,0,144081:0:0:0:0:
475,192,143893,128,0,144081:0:0:0:0:
36,192,143893,128,0,144006:0:0:0:0:
109,192,144006,128,0,144119:0:0:0:0:
329,192,144119,1,0,0:0:0:0:
402,192,144119,128,0,144156:0:0:0:0:
475,192,144119,128,0,144156:0:0:0:0:
182,192,144119,128,0,144231:0:0:0:0:
256,192,144231,128,0,144288:0:0:0:0:
475,192,144344,128,0,144532:0:0:0:0:
402,192,144344,128,0,144532:0:0:0:0:
182,192,144344,1,0,0:0:0:0:
329,192,144344,1,0,0:0:0:0:
36,192,144344,1,0,0:0:0:0:
109,192,144344,1,0,0:0:0:0:
256,192,144344,128,0,144457:0:0:0:0:
182,192,144457,128,0,144570:0:0:0:0:
402,192,144570,128,0,144607:0:0:0:0:
475,192,144570,128,0,144607:0:0:0:0:
36,192,144570,1,0,0:0:0:0:
109,192,144570,128,0,144683:0:0:0:0:
36,192,144683,128,0,144739:0:0:0:0:
36,192,144795,128,0,144983:0:0:0:0:
109,192,144795,128,0,144983:0:0:0:0:
182,192,144795,1,0,0:0:0:0:
402,192,144795,1,0,0:0:0:0:
475,192,144795,1,0,0:0:0:0:
256,192,144795,1,0,0:0:0:0:
329,192,144795,128,0,144908:0:0:0:0:
256,192,144908,128,0,145021:0:0:0:0:
475,192,145021,1,0,0:0:0:0:
36,192,145021,128,0,145058:0:0:0:0:
402,192,145021,1,0,0:0:0:0:
109,192,145021,1,0,0:0:0:0:
182,192,145021,128,0,145134:0:0:0:0:
329,192,145134,1,0,0:0:0:0:
402,192,145134,1,0,0:0:0:0:
109,192,145134,128,0,145190:0:0:0:0:
182,192,145246,128,0,145434:0:0:0:0:
109,192,145246,128,0,145434:0:0:0:0:
475,192,145246,1,0,0:0:0:0:
36,192,145246,1,0,0:0:0:0:
256,192,145246,1,0,0:0:0:0:
329,192,145246,1,0,0:0:0:0:
402,192,145246,128,0,145359:0:0:0:0:
329,192,145359,128,0,145472:0:0:0:0:
109,192,145472,128,0,145510:0:0:0:0:
182,192,145472,1,0,0:0:0:0:
256,192,145472,128,0,145585:0:0:0:0:
182,192,145585,128,0,145641:0:0:0:0:
109,192,145698,128,0,145886:0:0:0:0:
36,192,145698,128,0,145886:0:0:0:0:
402,192,145698,1,0,0:0:0:0:
182,192,145698,1,0,0:0:0:0:
256,192,145698,1,0,0:0:0:0:
329,192,145698,1,0,0:0:0:0:
475,192,145698,128,0,145810:0:0:0:0:
402,192,145810,128,0,145923:0:0:0:0:
109,192,145923,128,0,145961:0:0:0:0:
36,192,145923,128,0,145961:0:0:0:0:
182,192,145923,1,0,0:0:0:0:
329,192,145923,128,0,146036:0:0:0:0:
256,192,146036,128,0,146092:0:0:0:0:
256,192,146149,128,0,146374:0:0:0:0:
475,192,146149,128,0,146337:0:0:0:0:
402,192,146149,128,0,146337:0:0:0:0:
182,192,146149,1,0,0:0:0:0:
329,192,146149,1,0,0:0:0:0:
36,192,146149,1,0,0:0:0:0:
109,192,146149,1,0,0:0:0:0:
182,192,146261,128,0,146487:0:0:0:0:
402,192,146374,128,0,146412:0:0:0:0:
475,192,146374,128,0,146412:0:0:0:0:
109,192,146374,128,0,146543:0:0:0:0:
36,192,146374,1,0,0:0:0:0:
36,192,146487,128,0,146543:0:0:0:0:
329,192,146600,128,0,146825:0:0:0:0:
36,192,146600,128,0,146788:0:0:0:0:
109,192,146600,128,0,146788:0:0:0:0:
182,192,146600,1,0,0:0:0:0:
402,192,146600,1,0,0:0:0:0:
475,192,146600,1,0,0:0:0:0:
256,192,146600,1,0,0:0:0:0:
256,192,146713,128,0,146938:0:0:0:0:
475,192,146825,1,0,0:0:0:0:
36,192,146825,128,0,146863:0:0:0:0:
402,192,146825,1,0,0:0:0:0:
182,192,146825,128,0,146995:0:0:0:0:
109,192,146825,1,0,0:0:0:0:
329,192,146938,1,0,0:0:0:0:
402,192,146938,1,0,0:0:0:0:
109,192,146938,128,0,146995:0:0:0:0:
402,192,147051,128,0,147277:0:0:0:0:
182,192,147051,128,0,147239:0:0:0:0:
109,192,147051,128,0,147239:0:0:0:0:
475,192,147051,1,0,0:0:0:0:
36,192,147051,1,0,0:0:0:0:
256,192,147051,1,0,0:0:0:0:
329,192,147051,1,0,0:0:0:0:
329,192,147164,128,0,147389:0:0:0:0:
109,192,147277,128,0,147314:0:0:0:0:
182,192,147277,1,0,0:0:0:0:
256,192,147277,128,0,147446:0:0:0:0:
182,192,147389,128,0,147446:0:0:0:0:
475,192,147502,128,0,147728:0:0:0:0:
109,192,147502,128,0,147690:0:0:0:0:
36,192,147502,128,0,147690:0:0:0:0:
402,192,147502,1,0,0:0:0:0:
182,192,147502,1,0,0:0:0:0:
256,192,147502,1,0,0:0:0:0:
329,192,147502,1,0,0:0:0:0:
402,192,147615,128,0,147840:0:0:0:0:
109,192,147728,128,0,147765:0:0:0:0:
36,192,147728,128,0,147765:0:0:0:0:
329,192,147728,128,0,147897:0:0:0:0:
256,192,147728,1,0,0:0:0:0:
256,192,147840,128,0,147897:0:0:0:0:
402,192,147953,1,0,0:0:0:0:
475,192,147953,1,0,0:0:0:0:
256,192,147953,128,0,148292:0:0:0:0:
329,192,147953,1,0,0:0:0:0:
36,192,147953,1,0,0:0:0:0:
182,192,147953,1,0,0:0:0:0:
109,192,147953,128,0,148066:0:0:0:0:
182,192,148066,1,0,0:0:0:0:
109,192,148179,128,0,148292:0:0:0:0:
402,192,148179,128,0,148292:0:0:0:0:
329,192,148179,1,0,0:0:0:0:
36,192,148179,1,0,0:0:0:0:
475,192,148179,1,0,0:0:0:0:
36,192,148292,1,0,0:0:0:0:
36,192,148404,1,0,0:0:0:0:
109,192,148404,1,0,0:0:0:0:
182,192,148404,128,0,148517:0:0:0:0:
329,192,148404,1,0,0:0:0:0:
402,192,148404,1,0,0:0:0:0:
475,192,148404,1,0,0:0:0:0:
256,192,148404,1,0,0:0:0:0:
329,192,148517,128,0,148743:0:0:0:0:
256,192,148517,1,0,0:0:0:0:
182,192,148630,128,0,148743:0:0:0:0:
36,192,148630,128,0,148743:0:0:0:0:
475,192,148630,1,0,0:0:0:0:
109,192,148630,1,0,0:0:0:0:
402,192,148630,1,0,0:0:0:0:
109,192,148743,1,0,0:0:0:0:
402,192,148743,1,0,0:0:0:0:
475,192,148743,1,0,0:0:0:0:
256,192,148855,128,0,148968:0:0:0:0:
109,192,148855,128,0,148968:0:0:0:0:
402,192,148855,128,0,149194:0:0:0:0:
182,192,148855,1,0,0:0:0:0:
36,192,148855,1,0,0:0:0:0:
329,192,148855,1,0,0:0:0:0:
475,192,148855,1,0,0:0:0:0:
329,192,148968,1,0,0:0:0:0:
256,192,149081,128,0,149194:0:0:0:0:
109,192,149081,1,0,0:0:0:0:
182,192,149081,1,0,0:0:0:0:
182,192,149194,1,0,0:0:0:0:
36,192,149307,128,0,149419:0:0:0:0:
182,192,149307,128,0,149645:0:0:0:0:
329,192,149307,128,0,149419:0:0:0:0:
109,192,149307,1,0,0:0:0:0:
256,192,149307,1,0,0:0:0:0:
402,192,149307,1,0,0:0:0:0:
475,192,149307,1,0,0:0:0:0:
475,192,149419,1,0,0:0:0:0:
402,192,149419,1,0,0:0:0:0:
109,192,149532,1,0,0:0:0:0:
36,192,149532,128,0,149645:0:0:0:0:
256,192,149532,1,0,0:0:0:0:
329,192,149532,1,0,0:0:0:0:
329,192,149645,1,0,0:0:0:0:
256,192,149645,1,0,0:0:0:0:
475,192,149758,1,0,0:0:0:0:
329,192,149758,1,0,0:0:0:0:
402,192,149758,128,0,149871:0:0:0:0:
182,192,149758,1,0,0:0:0:0:
109,192,149758,1,0,0:0:0:0:
36,192,149758,1,0,0:0:0:0:
256,192,149758,128,0,150096:0:0:0:0:
329,192,149871,1,0,0:0:0:0:
475,192,149983,1,0,0:0:0:0:
36,192,149983,1,0,0:0:0:0:
182,192,149983,1,0,0:0:0:0:
402,192,149983,128,0,150096:0:0:0:0:
109,192,149983,128,0,150096:0:0:0:0:
475,192,150096,1,0,0:0:0:0:
109,192,150209,1,0,0:0:0:0:
36,192,150209,1,0,0:0:0:0:
256,192,150209,1,0,0:0:0:0:
182,192,150209,1,0,0:0:0:0:
475,192,150209,1,0,0:0:0:0:
402,192,150209,1,0,0:0:0:0:
329,192,150209,128,0,150322:0:0:0:0:
256,192,150322,1,0,0:0:0:0:
182,192,150322,128,0,150547:0:0:0:0:
402,192,150434,1,0,0:0:0:0:
109,192,150434,1,0,0:0:0:0:
36,192,150434,1,0,0:0:0:0:
329,192,150434,128,0,150547:0:0:0:0:
475,192,150434,128,0,150547:0:0:0:0:
36,192,150547,1,0,0:0:0:0:
109,192,150547,1,0,0:0:0:0:
402,192,150547,1,0,0:0:0:0:
475,192,150660,1,0,0:0:0:0:
182,192,150660,1,0,0:0:0:0:
36,192,150660,1,0,0:0:0:0:
329,192,150660,1,0,0:0:0:0:
256,192,150660,128,0,150773:0:0:0:0:
402,192,150660,128,0,150773:0:0:0:0:
109,192,150660,128,0,150998:0:0:0:0:
182,192,150773,1,0,0:0:0:0:
329,192,150886,1,0,0:0:0:0:
402,192,150886,1,0,0:0:0:0:
256,192,150886,128,0,150998:0:0:0:0:
329,192,150998,1,0,0:0:0:0:
256,192,151111,1,0,0:0:0:0:
109,192,151111,1,0,0:0:0:0:
36,192,151111,1,0,0:0:0:0:
402,192,151111,1,0,0:0:0:0:
475,192,151111,128,0,151224:0:0:0:0:
329,192,151111,128,0,151449:0:0:0:0:
182,192,151111,128,0,151224:0:0:0:0:
109,192,151224,1,0,0:0:0:0:
36,192,151224,1,0,0:0:0:0:
256,192,151337,1,0,0:0:0:0:
182,192,151337,1,0,0:0:0:0:
402,192,151337,1,0,0:0:0:0:
475,192,151337,128,0,151449:0:0:0:0:
256,192,151449,1,0,0:0:0:0:
182,192,151449,1,0,0:0:0:0:
256,192,151562,128,0,151901:0:0:0:0:
36,192,151562,1,0,0:0:0:0:
182,192,151562,1,0,0:0:0:0:
109,192,151562,128,0,151675:0:0:0:0:
329,192,151562,128,0,151675:0:0:0:0:
402,192,151562,128,0,151675:0:0:0:0:
475,192,151562,128,0,151675:0:0:0:0:
182,192,151675,1,0,0:0:0:0:
109,192,151788,128,0,151901:0:0:0:0:
402,192,151788,128,0,151901:0:0:0:0:
329,192,151788,1,0,0:0:0:0:
36,192,151788,1,0,0:0:0:0:
475,192,151788,1,0,0:0:0:0:
36,192,151901,1,0,0:0:0:0:
182,192,152013,128,0,152126:0:0:0:0:
329,192,152013,1,0,0:0:0:0:
402,192,152013,1,0,0:0:0:0:
475,192,152013,1,0,0:0:0:0:
256,192,152013,1,0,0:0:0:0:
109,192,152013,128,0,152126:0:0:0:0:
36,192,152013,128,0,152126:0:0:0:0:
329,192,152126,128,0,152352:0:0:0:0:
256,192,152126,1,0,0:0:0:0:
182,192,152239,128,0,152352:0:0:0:0:
36,192,152239,128,0,152352:0:0:0:0:
475,192,152239,1,0,0:0:0:0:
109,192,152239,1,0,0:0:0:0:
402,192,152239,1,0,0:0:0:0:
109,192,152352,1,0,0:0:0:0:
402,192,152352,1,0,0:0:0:0:
475,192,152352,1,0,0:0:0:0:
256,192,152465,128,0,152577:0:0:0:0:
109,192,152465,128,0,152577:0:0:0:0:
402,192,152465,128,0,152803:0:0:0:0:
36,192,152465,1,0,0:0:0:0:
329,192,152465,1,0,0:0:0:0:
475,192,152465,1,0,0:0:0:0:
182,192,152465,128,0,152577:0:0:0:0:
329,192,152577,1,0,0:0:0:0:
256,192,152690,128,0,152803:0:0:0:0:
109,192,152690,1,0,0:0:0:0:
182,192,152690,1,0,0:0:0:0:
182,192,152803,1,0,0:0:0:0:
36,192,152916,128,0,153028:0:0:0:0:
182,192,152916,128,0,153254:0:0:0:0:
329,192,152916,128,0,153028:0:0:0:0:
109,192,152916,1,0,0:0:0:0:
256,192,152916,1,0,0:0:0:0:
402,192,152916,1,0,0:0:0:0:
475,192,152916,1,0,0:0:0:0:
475,192,153028,1,0,0:0:0:0:
402,192,153028,1,0,0:0:0:0:
109,192,153141,1,0,0:0:0:0:
36,192,153141,128,0,153254:0:0:0:0:
256,192,153141,1,0,0:0:0:0:
329,192,153141,1,0,0:0:0:0:
475,192,153141,128,0,153254:0:0:0:0:
329,192,153254,1,0,0:0:0:0:
256,192,153254,1,0,0:0:0:0:
256,192,153367,128,0,153705:0:0:0:0:
475,192,153367,1,0,0:0:0:0:
329,192,153367,1,0,0:0:0:0:
402,192,153367,128,0,153480:0:0:0:0:
182,192,153367,128,0,153480:0:0:0:0:
109,192,153367,128,0,153480:0:0:0:0:
36,192,153367,128,0,153480:0:0:0:0:
329,192,153480,1,0,0:0:0:0:
402,192,153592,128,0,153705:0:0:0:0:
109,192,153592,128,0,153705:0:0:0:0:
182,192,153592,1,0,0:0:0:0:
475,192,153592,1,0,0:0:0:0:
36,192,153592,1,0,0:0:0:0:
475,192,153705,1,0,0:0:0:0:
329,192,153818,128,0,153931:0:0:0:0:
182,192,153818,1,0,0:0:0:0:
109,192,153818,1,0,0:0:0:0:
36,192,153818,1,0,0:0:0:0:
256,192,153818,1,0,0:0:0:0:
402,192,153818,128,0,153931:0:0:0:0:
475,192,153818,128,0,153931:0:0:0:0:
182,192,153931,128,0,154156:0:0:0:0:
256,192,153931,1,0,0:0:0:0:
329,192,154043,128,0,154156:0:0:0:0:
475,192,154043,128,0,154156:0:0:0:0:
36,192,154043,1,0,0:0:0:0:
402,192,154043,1,0,0:0:0:0:
109,192,154043,1,0,0:0:0:0:
402,192,154156,1,0,0:0:0:0:
109,192,154156,1,0,0:0:0:0:
36,192,154156,1,0,0:0:0:0:
256,192,154269,128,0,154382:0:0:0:0:
402,192,154269,128,0,154382:0:0:0:0:
109,192,154269,128,0,154607:0:0:0:0:
475,192,154269,1,0,0:0:0:0:
182,192,154269,1,0,0:0:0:0:
36,192,154269,1,0,0:0:0:0:
329,192,154269,128,0,154382:0:0:0:0:
182,192,154382,1,0,0:0:0:0:
256,192,154495,128,0,154607:0:0:0:0:
402,192,154495,1,0,0:0:0:0:
329,192,154495,1,0,0:0:0:0:
329,192,154607,1,0,0:0:0:0:
475,192,154720,128,0,154833:0:0:0:0:
329,192,154720,128,0,155058:0:0:0:0:
182,192,154720,128,0,154833:0:0:0:0:
402,192,154720,1,0,0:0:0:0:
256,192,154720,1,0,0:0:0:0:
109,192,154720,1,0,0:0:0:0:
36,192,154720,1,0,0:0:0:0:
36,192,154833,1,0,0:0:0:0:
109,192,154833,1,0,0:0:0:0:
402,192,154946,1,0,0:0:0:0:
475,192,154946,128,0,155058:0:0:0:0:
256,192,154946,1,0,0:0:0:0:
182,192,154946,1,0,0:0:0:0:
36,192,154946,128,0,155058:0:0:0:0:
182,192,155058,1,0,0:0:0:0:
256,192,155058,1,0,0:0:0:0:
329,192,155171,128,0,155369:0:0:0:0:
402,192,155171,128,0,155369:0:0:0:0:
475,192,155171,128,0,155369:0:0:0:0:
109,192,155171,128,0,155359:0:0:0:0:
256,192,155209,1,0,0:0:0:0:
182,192,155284,128,0,155434:0:0:0:0:
36,192,155284,128,0,155322:0:0:0:0:
329,192,155397,128,0,155594:0:0:0:0:
402,192,155397,128,0,155594:0:0:0:0:
475,192,155397,128,0,155594:0:0:0:0:
256,192,155397,128,0,155547:0:0:0:0:
109,192,155434,1,0,0:0:0:0:
182,192,155510,128,0,155547:0:0:0:0:
36,192,155510,128,0,155660:0:0:0:0:
329,192,155622,128,0,155820:0:0:0:0:
475,192,155622,128,0,155820:0:0:0:0:
402,192,155622,128,0,155820:0:0:0:0:
109,192,155622,128,0,155773:0:0:0:0:
256,192,155660,1,0,0:0:0:0:
182,192,155735,128,0,155886:0:0:0:0:
36,192,155735,128,0,155773:0:0:0:0:
402,192,155848,128,0,156045:0:0:0:0:
475,192,155848,128,0,156045:0:0:0:0:
329,192,155848,128,0,156045:0:0:0:0:
256,192,155848,128,0,155998:0:0:0:0:
109,192,155886,1,0,0:0:0:0:
182,192,155961,128,0,155998:0:0:0:0:
36,192,155961,128,0,156111:0:0:0:0:
402,192,156074,128,0,156271:0:0:0:0:
475,192,156074,128,0,156271:0:0:0:0:
329,192,156074,128,0,156271:0:0:0:0:
109,192,156074,128,0,156224:0:0:0:0:
256,192,156111,1,0,0:0:0:0:
36,192,156186,128,0,156224:0:0:0:0:
182,192,156186,128,0,156337:0:0:0:0:
329,192,156299,128,0,156496:0:0:0:0:
475,192,156299,128,0,156496:0:0:0:0:
402,192,156299,128,0,156496:0:0:0:0:
256,192,156299,128,0,156449:0:0:0:0:
109,192,156337,1,0,0:0:0:0:
36,192,156412,128,0,156449:0:0:0:0:
182,192,156412,128,0,156562:0:0:0:0:
329,192,156525,128,0,156722:0:0:0:0:
475,192,156525,128,0,156722:0:0:0:0:
402,192,156525,128,0,156722:0:0:0:0:
109,192,156525,128,0,156675:0:0:0:0:
256,192,156562,1,0,0:0:0:0:
182,192,156637,128,0,156675:0:0:0:0:
36,192,156637,128,0,156788:0:0:0:0:
402,192,156750,128,0,156948:0:0:0:0:
475,192,156750,128,0,156948:0:0:0:0:
329,192,156750,128,0,156948:0:0:0:0:
256,192,156750,128,0,156788:0:0:0:0:
109,192,156788,1,0,0:0:0:0:
182,192,156863,128,0,156901:0:0:0:0:
36,192,156863,128,0,156901:0:0:0:0:
182,192,156976,128,0,157173:0:0:0:0:
109,192,156976,128,0,157173:0:0:0:0:
36,192,156976,128,0,157173:0:0:0:0:
402,192,156976,128,0,157164:0:0:0:0:
256,192,157013,1,0,0:0:0:0:
329,192,157089,128,0,157239:0:0:0:0:
475,192,157089,128,0,157126:0:0:0:0:
182,192,157201,128,0,157399:0:0:0:0:
109,192,157201,128,0,157399:0:0:0:0:
36,192,157201,128,0,157399:0:0:0:0:
256,192,157201,128,0,157352:0:0:0:0:
402,192,157239,1,0,0:0:0:0:
329,192,157314,128,0,157352:0:0:0:0:
475,192,157314,128,0,157465:0:0:0:0:
182,192,157427,128,0,157624:0:0:0:0:
36,192,157427,128,0,157624:0:0:0:0:
109,192,157427,128,0,157624:0:0:0:0:
402,192,157427,128,0,157577:0:0:0:0:
256,192,157465,1,0,0:0:0:0:
329,192,157540,128,0,157690:0:0:0:0:
475,192,157540,128,0,157577:0:0:0:0:
109,192,157652,128,0,157850:0:0:0:0:
36,192,157652,128,0,157850:0:0:0:0:
182,192,157652,128,0,157850:0:0:0:0:
256,192,157652,128,0,157803:0:0:0:0:
402,192,157690,1,0,0:0:0:0:
329,192,157765,128,0,157803:0:0:0:0:
475,192,157765,128,0,157916:0:0:0:0:
109,192,157878,128,0,158075:0:0:0:0:
36,192,157878,128,0,158075:0:0:0:0:
182,192,157878,128,0,158075:0:0:0:0:
402,192,157878,128,0,158028:0:0:0:0:
256,192,157916,1,0,0:0:0:0:
475,192,157991,128,0,158028:0:0:0:0:
329,192,157991,128,0,158141:0:0:0:0:
182,192,158104,128,0,158301:0:0:0:0:
36,192,158104,128,0,158301:0:0:0:0:
109,192,158104,128,0,158301:0:0:0:0:
256,192,158104,128,0,158254:0:0:0:0:
402,192,158141,1,0,0:0:0:0:
475,192,158216,128,0,158254:0:0:0:0:
329,192,158216,128,0,158367:0:0:0:0:
182,192,158329,128,0,158527:0:0:0:0:
36,192,158329,128,0,158527:0:0:0:0:
109,192,158329,128,0,158527:0:0:0:0:
402,192,158329,128,0,158480:0:0:0:0:
256,192,158367,1,0,0:0:0:0:
329,192,158442,128,0,158480:0:0:0:0:
475,192,158442,128,0,158592:0:0:0:0:
109,192,158555,128,0,158752:0:0:0:0:
36,192,158555,128,0,158752:0:0:0:0:
182,192,158555,128,0,158752:0:0:0:0:
256,192,158555,128,0,158592:0:0:0:0:
402,192,158592,1,0,0:0:0:0:
329,192,158668,128,0,158705:0:0:0:0:
475,192,158668,128,0,158705:0:0:0:0:
36,192,158780,128,0,158818:0:0:0:0:
109,192,158780,128,0,158818:0:0:0:0:
182,192,158780,128,0,158818:0:0:0:0:
402,192,158780,128,0,158808:0:0:0:0:
329,192,158780,1,0,0:0:0:0:
475,192,158780,1,0,0:0:0:0:
256,192,158808,1,0,0:0:0:0:
329,192,158893,128,0,158931:0:0:0:0:
402,192,158893,128,0,158931:0:0:0:0:
475,192,158893,128,0,158931:0:0:0:0:
109,192,158893,128,0,158921:0:0:0:0:
182,192,158893,1,0,0:0:0:0:
36,192,158893,1,0,0:0:0:0:
256,192,158921,1,0,0:0:0:0:
36,192,159006,128,0,159043:0:0:0:0:
182,192,159006,128,0,159043:0:0:0:0:
109,192,159006,128,0,159043:0:0:0:0:
402,192,159006,128,0,159034:0:0:0:0:
329,192,159006,1,0,0:0:0:0:
475,192,159006,1,0,0:0:0:0:
256,192,159034,1,0,0:0:0:0:
475,192,159119,128,0,159156:0:0:0:0:
402,192,159119,128,0,159156:0:0:0:0:
329,192,159119,128,0,159156:0:0:0:0:
109,192,159119,128,0,159147:0:0:0:0:
182,192,159119,1,0,0:0:0:0:
36,192,159119,1,0,0:0:0:0:
256,192,159147,1,0,0:0:0:0:
109,192,159231,128,0,159269:0:0:0:0:
182,192,159231,128,0,159269:0:0:0:0:
36,192,159231,128,0,159269:0:0:0:0:
402,192,159231,128,0,159260:0:0:0:0:
329,192,159231,1,0,0:0:0:0:
475,192,159260,1,0,0:0:0:0:
256,192,159260,128,0,159288:0:0:0:0:
329,192,159344,128,0,159382:0:0:0:0:
402,192,159344,128,0,159382:0:0:0:0:
475,192,159344,128,0,159382:0:0:0:0:
109,192,159344,128,0,159372:0:0:0:0:
182,192,159344,1,0,0:0:0:0:
36,192,159372,1,0,0:0:0:0:
256,192,159372,1,0,0:0:0:0:
36,192,159457,128,0,159495:0:0:0:0:
182,192,159457,128,0,159495:0:0:0:0:
109,192,159457,128,0,159495:0:0:0:0:
402,192,159457,128,0,159485:0:0:0:0:
329,192,159457,1,0,0:0:0:0:
475,192,159485,1,0,0:0:0:0:
256,192,159485,128,0,159513:0:0:0:0:
475,192,159570,128,0,159607:0:0:0:0:
402,192,159570,128,0,159607:0:0:0:0:
329,192,159570,128,0,159607:0:0:0:0:
109,192,159570,128,0,159598:0:0:0:0:
182,192,159570,1,0,0:0:0:0:
36,192,159598,1,0,0:0:0:0:
256,192,159598,1,0,0:0:0:0:
182,192,159683,128,0,159720:0:0:0:0:
109,192,159683,128,0,159720:0:0:0:0:
36,192,159683,128,0,159720:0:0:0:0:
402,192,159683,128,0,159711:0:0:0:0:
475,192,159683,1,0,0:0:0:0:
256,192,159683,128,0,159739:0:0:0:0:
329,192,159711,1,0,0:0:0:0:
36,192,159795,128,0,159833:0:0:0:0:
109,192,159795,128,0,159833:0:0:0:0:
182,192,159795,128,0,159833:0:0:0:0:
475,192,159795,128,0,159824:0:0:0:0:
329,192,159795,128,0,159852:0:0:0:0:
256,192,159795,1,0,0:0:0:0:
402,192,159824,1,0,0:0:0:0:
329,192,159908,128,0,159946:0:0:0:0:
402,192,159908,128,0,159946:0:0:0:0:
475,192,159908,128,0,159946:0:0:0:0:
109,192,159908,128,0,159936:0:0:0:0:
256,192,159908,128,0,159965:0:0:0:0:
36,192,159908,1,0,0:0:0:0:
182,192,159936,1,0,0:0:0:0:
402,192,160021,128,0,160058:0:0:0:0:
475,192,160021,128,0,160058:0:0:0:0:
329,192,160021,128,0,160058:0:0:0:0:
36,192,160021,128,0,160049:0:0:0:0:
182,192,160021,128,0,160077:0:0:0:0:
256,192,160021,1,0,0:0:0:0:
109,192,160049,1,0,0:0:0:0:
182,192,160134,128,0,160171:0:0:0:0:
109,192,160134,128,0,160171:0:0:0:0:
36,192,160134,128,0,160171:0:0:0:0:
475,192,160134,128,0,160162:0:0:0:0:
256,192,160134,128,0,160190:0:0:0:0:
329,192,160134,1,0,0:0:0:0:
402,192,160162,1,0,0:0:0:0:
36,192,160246,128,0,160284:0:0:0:0:
109,192,160246,128,0,160284:0:0:0:0:
182,192,160246,128,0,160284:0:0:0:0:
402,192,160246,128,0,160275:0:0:0:0:
475,192,160246,128,0,160303:0:0:0:0:
256,192,160246,1,0,0:0:0:0:
329,192,160275,1,0,0:0:0:0:
329,192,160359,128,0,160397:0:0:0:0:
402,192,160359,128,0,160397:0:0:0:0:
475,192,160359,128,0,160397:0:0:0:0:
182,192,160359,128,0,160387:0:0:0:0:
36,192,160359,128,0,160416:0:0:0:0:
256,192,160359,1,0,0:0:0:0:
109,192,160387,1,0,0:0:0:0:
329,192,160472,128,0,160510:0:0:0:0:
402,192,160472,128,0,160510:0:0:0:0:
475,192,160472,128,0,160510:0:0:0:0:
109,192,160472,128,0,160500:0:0:0:0:
256,192,160472,128,0,160528:0:0:0:0:
182,192,160472,1,0,0:0:0:0:
36,192,160500,1,0,0:0:0:0:
256,192,160585,128,0,160613:0:0:0:0:
182,192,160585,128,0,161092:0:0:0:0:
109,192,160585,128,0,160754:0:0:0:0:
36,192,160585,128,0,161431:0:0:0:0:
329,192,160585,128,0,161431:0:0:0:0:
402,192,160585,128,0,160867:0:0:0:0:
475,192,160585,128,0,161318:0:0:0:0:
109,192,160810,128,0,160839:0:0:0:0:
402,192,160923,128,0,160951:0:0:0:0:
182,192,161149,128,0,161177:0:0:0:0:
475,192,161374,128,0,161402:0:0:0:0:
36,192,161487,128,0,161515:0:0:0:0:
256,192,161487,1,0,0:0:0:0:
329,192,161487,1,0,0:0:0:0:
109,192,161487,1,0,0:0:0:0:
402,192,161525,1,0,0:0:0:0:
182,192,161525,1,0,0:0:0:0:
256,192,161713,1,0,0:0:0:0:
182,192,161825,1,0,0:0:0:0:
329,192,161825,1,0,0:0:0:0:
256,192,161938,1,0,0:0:0:0:
256,192,162164,1,0,0:0:0:0:
182,192,162277,1,0,0:0:0:0:
329,192,162277,1,0,0:0:0:0:
256,192,162389,1,0,0:0:0:0:
36,192,162389,1,0,0:0:0:0:
402,192,162389,128,0,162540:0:0:0:0:
475,192,162389,128,0,162540:0:0:0:0:
109,192,162446,1,0,0:0:0:0:
329,192,162502,1,0,0:0:0:0:
182,192,162502,1,0,0:0:0:0:
109,192,162558,1,0,0:0:0:0:
475,192,162615,1,0,0:0:0:0:
36,192,162615,1,0,0:0:0:0:
256,192,162615,1,0,0:0:0:0:
402,192,162615,1,0,0:0:0:0:
329,192,162615,128,0,162765:0:0:0:0:
182,192,162671,1,0,0:0:0:0:
109,192,162728,1,0,0:0:0:0:
182,192,162784,1,0,0:0:0:0:
36,192,162840,1,0,0:0:0:0:
329,192,162840,1,0,0:0:0:0:
256,192,162840,1,0,0:0:0:0:
475,192,162840,1,0,0:0:0:0:
402,192,162840,128,0,162991:0:0:0:0:
109,192,162897,1,0,0:0:0:0:
182,192,162953,1,0,0:0:0:0:
475,192,162953,1,0,0:0:0:0:
256,192,163010,1,0,0:0:0:0:
329,192,163066,1,0,0:0:0:0:
182,192,163066,1,0,0:0:0:0:
475,192,163066,1,0,0:0:0:0:
402,192,163066,1,0,0:0:0:0:
36,192,163066,128,0,163216:0:0:0:0:
109,192,163066,128,0,163216:0:0:0:0:
329,192,163179,1,0,0:0:0:0:
402,192,163179,1,0,0:0:0:0:
182,192,163179,1,0,0:0:0:0:
256,192,163292,1,0,0:0:0:0:
475,192,163292,1,0,0:0:0:0:
36,192,163292,1,0,0:0:0:0:
329,192,163292,128,0,163442:0:0:0:0:
109,192,163348,1,0,0:0:0:0:
182,192,163404,1,0,0:0:0:0:
402,192,163404,128,0,163442:0:0:0:0:
475,192,163404,128,0,163442:0:0:0:0:
256,192,163461,1,0,0:0:0:0:
109,192,163517,1,0,0:0:0:0:
402,192,163517,1,0,0:0:0:0:
475,192,163517,128,0,163668:0:0:0:0:
36,192,163517,128,0,163668:0:0:0:0:
329,192,163574,1,0,0:0:0:0:
256,192,163630,1,0,0:0:0:0:
109,192,163630,1,0,0:0:0:0:
329,192,163686,1,0,0:0:0:0:
182,192,163743,1,0,0:0:0:0:
475,192,163743,1,0,0:0:0:0:
402,192,163743,128,0,163893:0:0:0:0:
109,192,163799,1,0,0:0:0:0:
36,192,163855,1,0,0:0:0:0:
256,192,163855,1,0,0:0:0:0:
109,192,163912,128,0,164062:0:0:0:0:
475,192,163968,1,0,0:0:0:0:
402,192,163968,1,0,0:0:0:0:
182,192,163968,1,0,0:0:0:0:
256,192,164025,1,0,0:0:0:0:
329,192,164081,1,0,0:0:0:0:
36,192,164081,1,0,0:0:0:0:
402,192,164137,1,0,0:0:0:0:
109,192,164137,1,0,0:0:0:0:
182,192,164194,1,0,0:0:0:0:
475,192,164194,1,0,0:0:0:0:
256,192,164194,128,0,164250:0:0:0:0:
329,192,164250,128,0,164307:0:0:0:0:
109,192,164307,1,0,0:0:0:0:
402,192,164307,128,0,164363:0:0:0:0:
182,192,164363,128,0,164419:0:0:0:0:
36,192,164419,1,0,0:0:0:0:
475,192,164419,1,0,0:0:0:0:
329,192,164419,1,0,0:0:0:0:
256,192,164419,128,0,164476:0:0:0:0:
109,192,164476,128,0,164532:0:0:0:0:
182,192,164532,128,0,164589:0:0:0:0:
402,192,164532,1,0,0:0:0:0:
36,192,164589,128,0,164645:0:0:0:0:
256,192,164645,1,0,0:0:0:0:
109,192,164645,1,0,0:0:0:0:
329,192,164645,128,0,164701:0:0:0:0:
402,192,164701,128,0,164758:0:0:0:0:
475,192,164758,128,0,164814:0:0:0:0:
182,192,164758,128,0,164814:0:0:0:0:
256,192,164758,1,0,0:0:0:0:
109,192,164814,128,0,164871:0:0:0:0:
256,192,164871,1,0,0:0:0:0:
36,192,164871,128,0,164927:0:0:0:0:
475,192,164871,128,0,164927:0:0:0:0:
182,192,164927,1,0,0:0:0:0:
402,192,164927,128,0,164983:0:0:0:0:
109,192,164983,1,0,0:0:0:0:
329,192,164983,128,0,165040:0:0:0:0:
256,192,165040,128,0,165096:0:0:0:0:
36,192,165040,1,0,0:0:0:0:
182,192,165096,128,0,165152:0:0:0:0:
109,192,165096,128,0,165152:0:0:0:0:
475,192,165096,128,0,165265:0:0:0:0:
402,192,165096,128,0,165265:0:0:0:0:
329,192,165152,128,0,165378:0:0:0:0:
109,192,165209,128,0,165434:0:0:0:0:
36,192,165209,128,0,165491:0:0:0:0:
182,192,165209,128,0,165322:0:0:0:0:
256,192,165265,128,0,165491:0:0:0:0:
402,192,165322,128,0,165378:0:0:0:0:
475,192,165322,128,0,165491:0:0:0:0:
182,192,165378,128,0,165547:0:0:0:0:
402,192,165434,128,0,165604:0:0:0:0:
329,192,165434,128,0,165604:0:0:0:0:
109,192,165491,128,0,165829:0:0:0:0:
256,192,165547,128,0,165660:0:0:0:0:
475,192,165547,128,0,165942:0:0:0:0:
36,192,165547,128,0,165716:0:0:0:0:
182,192,165604,128,0,165716:0:0:0:0:
329,192,165660,128,0,165773:0:0:0:0:
402,192,165660,128,0,165886:0:0:0:0:
256,192,165716,128,0,165829:0:0:0:0:
182,192,165773,128,0,165942:0:0:0:0:
36,192,165773,128,0,165998:0:0:0:0:
329,192,165829,128,0,165998:0:0:0:0:
109,192,165886,128,0,165998:0:0:0:0:
256,192,165886,128,0,165942:0:0:0:0:
402,192,165942,128,0,165998:0:0:0:0:
256,192,165998,1,0,0:0:0:0:
475,192,165998,1,0,0:0:0:0:
182,192,165998,128,0,166074:0:0:0:0:
329,192,166055,1,0,0:0:0:0:
475,192,166111,1,0,0:0:0:0:
256,192,166111,1,0,0:0:0:0:
109,192,166111,128,0,166186:0:0:0:0:
402,192,166168,1,0,0:0:0:0:
256,192,166224,1,0,0:0:0:0:
182,192,166224,1,0,0:0:0:0:
36,192,166224,128,0,166299:0:0:0:0:
329,192,166224,128,0,166299:0:0:0:0:
109,192,166280,1,0,0:0:0:0:
182,192,166337,128,0,166412:0:0:0:0:
475,192,166337,128,0,166412:0:0:0:0:
402,192,166393,1,0,0:0:0:0:
329,192,166449,1,0,0:0:0:0:
36,192,166449,1,0,0:0:0:0:
109,192,166449,128,0,166543:0:0:0:0:
256,192,166449,128,0,166543:0:0:0:0:
475,192,166506,1,0,0:0:0:0:
182,192,166562,1,0,0:0:0:0:
36,192,166562,1,0,0:0:0:0:
329,192,166562,1,0,0:0:0:0:
256,192,166619,1,0,0:0:0:0:
109,192,166675,1,0,0:0:0:0:
475,192,166675,1,0,0:0:0:0:
182,192,166675,128,0,166769:0:0:0:0:
329,192,166675,128,0,166769:0:0:0:0:
36,192,166731,1,0,0:0:0:0:
402,192,166788,1,0,0:0:0:0:
256,192,166788,1,0,0:0:0:0:
475,192,166844,1,0,0:0:0:0:
182,192,166844,1,0,0:0:0:0:
109,192,166901,1,0,0:0:0:0:
36,192,166901,1,0,0:0:0:0:
329,192,166901,128,0,167051:0:0:0:0:
402,192,166901,128,0,167051:0:0:0:0:
256,192,166957,1,0,0:0:0:0:
36,192,167013,1,0,0:0:0:0:
182,192,167013,1,0,0:0:0:0:
109,192,167070,1,0,0:0:0:0:
402,192,167126,1,0,0:0:0:0:
329,192,167126,1,0,0:0:0:0:
475,192,167126,128,0,167295:0:0:0:0:
256,192,167183,1,0,0:0:0:0:
182,192,167239,1,0,0:0:0:0:
36,192,167239,1,0,0:0:0:0:
256,192,167295,1,0,0:0:0:0:
402,192,167352,1,0,0:0:0:0:
329,192,167352,1,0,0:0:0:0:
475,192,167352,1,0,0:0:0:0:
109,192,167352,1,0,0:0:0:0:
36,192,167352,128,0,167521:0:0:0:0:
182,192,167408,1,0,0:0:0:0:
329,192,167465,1,0,0:0:0:0:
402,192,167465,1,0,0:0:0:0:
109,192,167465,1,0,0:0:0:0:
256,192,167521,1,0,0:0:0:0:
36,192,167577,1,0,0:0:0:0:
182,192,167577,1,0,0:0:0:0:
402,192,167577,1,0,0:0:0:0:
475,192,167577,128,0,167746:0:0:0:0:
329,192,167634,1,0,0:0:0:0:
256,192,167690,1,0,0:0:0:0:
109,192,167690,1,0,0:0:0:0:
402,192,167746,1,0,0:0:0:0:
36,192,167803,1,0,0:0:0:0:
329,192,167803,1,0,0:0:0:0:
256,192,167803,128,0,167859:0:0:0:0:
182,192,167859,128,0,167916:0:0:0:0:
475,192,167916,1,0,0:0:0:0:
402,192,167916,1,0,0:0:0:0:
109,192,167916,128,0,167972:0:0:0:0:
329,192,167972,128,0,168028:0:0:0:0:
475,192,168028,1,0,0:0:0:0:
36,192,168028,1,0,0:0:0:0:
109,192,168028,1,0,0:0:0:0:
256,192,168028,128,0,168085:0:0:0:0:
182,192,168085,128,0,168141:0:0:0:0:
402,192,168141,1,0,0:0:0:0:
475,192,168141,1,0,0:0:0:0:
109,192,168141,128,0,168198:0:0:0:0:
256,192,168141,1,0,0:0:0:0:
329,192,168198,1,0,0:0:0:0:
36,192,168198,128,0,168254:0:0:0:0:
256,192,168254,1,0,0:0:0:0:
182,192,168254,128,0,168310:0:0:0:0:
402,192,168310,1,0,0:0:0:0:
109,192,168310,128,0,168367:0:0:0:0:
329,192,168367,1,0,0:0:0:0:
36,192,168367,128,0,168423:0:0:0:0:
182,192,168423,1,0,0:0:0:0:
475,192,168423,128,0,168480:0:0:0:0:
256,192,168480,1,0,0:0:0:0:
36,192,168480,128,0,168536:0:0:0:0:
329,192,168536,1,0,0:0:0:0:
109,192,168536,128,0,168592:0:0:0:0:
402,192,168592,1,0,0:0:0:0:
182,192,168592,128,0,168649:0:0:0:0:
256,192,168649,128,0,168705:0:0:0:0:
475,192,168649,1,0,0:0:0:0:
329,192,168705,128,0,168931:0:0:0:0:
402,192,168705,128,0,168761:0:0:0:0:
109,192,168705,128,0,168874:0:0:0:0:
36,192,168705,128,0,168874:0:0:0:0:
182,192,168761,128,0,168987:0:0:0:0:
402,192,168818,128,0,169043:0:0:0:0:
475,192,168818,128,0,169269:0:0:0:0:
256,192,168874,128,0,169100:0:0:0:0:
109,192,168931,128,0,168987:0:0:0:0:
36,192,168931,128,0,169100:0:0:0:0:
329,192,168987,128,0,169156:0:0:0:0:
182,192,169043,128,0,169213:0:0:0:0:
109,192,169043,128,0,169213:0:0:0:0:
402,192,169100,128,0,169156:0:0:0:0:
256,192,169156,128,0,169269:0:0:0:0:
36,192,169156,128,0,169269:0:0:0:0:
329,192,169213,128,0,169382:0:0:0:0:
402,192,169213,128,0,169269:0:0:0:0:
182,192,169269,128,0,169382:0:0:0:0:
109,192,169269,128,0,169325:0:0:0:0:
256,192,169325,128,0,169438:0:0:0:0:
402,192,169325,128,0,169382:0:0:0:0:
475,192,169325,128,0,169495:0:0:0:0:
36,192,169325,128,0,169551:0:0:0:0:
109,192,169382,128,0,169438:0:0:0:0:
182,192,169438,128,0,169607:0:0:0:0:
329,192,169438,128,0,169495:0:0:0:0:
402,192,169438,128,0,169551:0:0:0:0:
256,192,169495,128,0,169551:0:0:0:0:
109,192,169495,128,0,169607:0:0:0:0:
329,192,169551,128,0,169607:0:0:0:0:
475,192,169551,128,0,169607:0:0:0:0:
36,192,169607,1,0,0:0:0:0:
256,192,169607,1,0,0:0:0:0:
402,192,169607,1,0,0:0:0:0:
182,192,169664,1,0,0:0:0:0:
109,192,169720,1,0,0:0:0:0:
475,192,169720,1,0,0:0:0:0:
329,192,169720,1,0,0:0:0:0:
256,192,169777,1,0,0:0:0:0:
182,192,169833,1,0,0:0:0:0:
36,192,169833,1,0,0:0:0:0:
475,192,169833,1,0,0:0:0:0:
402,192,169889,1,0,0:0:0:0:
36,192,169946,1,0,0:0:0:0:
109,192,169946,1,0,0:0:0:0:
329,192,169946,1,0,0:0:0:0:
182,192,170002,1,0,0:0:0:0:
402,192,170058,1,0,0:0:0:0:
475,192,170058,1,0,0:0:0:0:
256,192,170058,1,0,0:0:0:0:
329,192,170058,128,0,170228:0:0:0:0:
182,192,170115,1,0,0:0:0:0:
109,192,170171,1,0,0:0:0:0:
475,192,170171,1,0,0:0:0:0:
36,192,170171,1,0,0:0:0:0:
402,192,170228,1,0,0:0:0:0:
36,192,170284,1,0,0:0:0:0:
109,192,170284,1,0,0:0:0:0:
329,192,170284,1,0,0:0:0:0:
182,192,170284,128,0,170453:0:0:0:0:
256,192,170340,1,0,0:0:0:0:
475,192,170397,1,0,0:0:0:0:
402,192,170397,1,0,0:0:0:0:
109,192,170397,1,0,0:0:0:0:
329,192,170397,1,0,0:0:0:0:
36,192,170510,1,0,0:0:0:0:
475,192,170510,1,0,0:0:0:0:
402,192,170510,1,0,0:0:0:0:
329,192,170510,1,0,0:0:0:0:
256,192,170566,1,0,0:0:0:0:
36,192,170622,1,0,0:0:0:0:
475,192,170622,1,0,0:0:0:0:
402,192,170622,1,0,0:0:0:0:
182,192,170622,1,0,0:0:0:0:
329,192,170679,1,0,0:0:0:0:
475,192,170735,1,0,0:0:0:0:
36,192,170735,1,0,0:0:0:0:
109,192,170735,1,0,0:0:0:0:
256,192,170735,1,0,0:0:0:0:
402,192,170792,1,0,0:0:0:0:
329,192,170848,1,0,0:0:0:0:
36,192,170848,1,0,0:0:0:0:
182,192,170848,1,0,0:0:0:0:
402,192,170904,1,0,0:0:0:0:
475,192,170961,1,0,0:0:0:0:
256,192,170961,1,0,0:0:0:0:
109,192,170961,128,0,171130:0:0:0:0:
329,192,171017,1,0,0:0:0:0:
402,192,171074,1,0,0:0:0:0:
36,192,171074,1,0,0:0:0:0:
182,192,171074,1,0,0:0:0:0:
256,192,171130,1,0,0:0:0:0:
109,192,171186,1,0,0:0:0:0:
329,192,171186,1,0,0:0:0:0:
475,192,171186,1,0,0:0:0:0:
36,192,171186,1,0,0:0:0:0:
402,192,171186,128,0,171355:0:0:0:0:
256,192,171299,1,0,0:0:0:0:
109,192,171299,1,0,0:0:0:0:
475,192,171412,1,0,0:0:0:0:
256,192,171412,1,0,0:0:0:0:
182,192,171412,1,0,0:0:0:0:
36,192,171412,1,0,0:0:0:0:
329,192,171468,1,0,0:0:0:0:
402,192,171525,1,0,0:0:0:0:
109,192,171525,1,0,0:0:0:0:
182,192,171525,1,0,0:0:0:0:
256,192,171581,1,0,0:0:0:0:
109,192,171637,1,0,0:0:0:0:
475,192,171637,1,0,0:0:0:0:
402,192,171637,1,0,0:0:0:0:
36,192,171637,1,0,0:0:0:0:
182,192,171694,1,0,0:0:0:0:
36,192,171750,1,0,0:0:0:0:
402,192,171750,1,0,0:0:0:0:
329,192,171750,1,0,0:0:0:0:
109,192,171807,1,0,0:0:0:0:
36,192,171863,1,0,0:0:0:0:
475,192,171863,1,0,0:0:0:0:
256,192,171863,1,0,0:0:0:0:
402,192,171863,1,0,0:0:0:0:
182,192,171919,1,0,0:0:0:0:
109,192,171976,1,0,0:0:0:0:
475,192,171976,1,0,0:0:0:0:
329,192,171976,128,0,172089:0:0:0:0:
256,192,172032,1,0,0:0:0:0:
402,192,172089,1,0,0:0:0:0:
182,192,172089,1,0,0:0:0:0:
36,192,172089,1,0,0:0:0:0:
475,192,172089,1,0,0:0:0:0:
475,192,172201,1,0,0:0:0:0:
109,192,172201,1,0,0:0:0:0:
256,192,172201,1,0,0:0:0:0:
182,192,172201,128,0,172314:0:0:0:0:
402,192,172314,1,0,0:0:0:0:
329,192,172314,1,0,0:0:0:0:
36,192,172314,1,0,0:0:0:0:
182,192,172371,1,0,0:0:0:0:
475,192,172427,1,0,0:0:0:0:
402,192,172427,1,0,0:0:0:0:
109,192,172427,1,0,0:0:0:0:
256,192,172483,1,0,0:0:0:0:
475,192,172540,1,0,0:0:0:0:
36,192,172540,128,0,172615:0:0:0:0:
182,192,172540,128,0,172615:0:0:0:0:
329,192,172596,1,0,0:0:0:0:
402,192,172652,1,0,0:0:0:0:
109,192,172652,128,0,172728:0:0:0:0:
256,192,172652,128,0,172728:0:0:0:0:
36,192,172709,1,0,0:0:0:0:
475,192,172765,1,0,0:0:0:0:
182,192,172765,128,0,172840:0:0:0:0:
329,192,172765,128,0,172840:0:0:0:0:
402,192,172822,1,0,0:0:0:0:
182,192,172878,1,0,0:0:0:0:
36,192,172878,1,0,0:0:0:0:
329,192,172878,128,0,172953:0:0:0:0:
475,192,172878,128,0,172953:0:0:0:0:
109,192,172934,1,0,0:0:0:0:
402,192,172991,128,0,173066:0:0:0:0:
256,192,172991,128,0,173066:0:0:0:0:
36,192,173047,1,0,0:0:0:0:
182,192,173104,128,0,173179:0:0:0:0:
329,192,173104,128,0,173179:0:0:0:0:
109,192,173160,1,0,0:0:0:0:
329,192,173216,1,0,0:0:0:0:
402,192,173216,128,0,173442:0:0:0:0:
475,192,173216,1,0,0:0:0:0:
182,192,173216,1,0,0:0:0:0:
36,192,173216,1,0,0:0:0:0:
109,192,173273,128,0,173329:0:0:0:0:
256,192,173329,128,0,173386:0:0:0:0:
109,192,173386,128,0,173668:0:0:0:0:
329,192,173442,1,0,0:0:0:0:
256,192,173442,128,0,173837:0:0:0:0:
182,192,173442,1,0,0:0:0:0:
36,192,173442,1,0,0:0:0:0:
475,192,173442,1,0,0:0:0:0:
402,192,173498,128,0,173555:0:0:0:0:
329,192,173555,128,0,173611:0:0:0:0:
402,192,173611,128,0,173724:0:0:0:0:
36,192,173668,1,0,0:0:0:0:
182,192,173668,1,0,0:0:0:0:
329,192,173668,128,0,173893:0:0:0:0:
475,192,173668,1,0,0:0:0:0:
109,192,173724,128,0,173780:0:0:0:0:
402,192,173780,128,0,173893:0:0:0:0:
182,192,173780,128,0,173837:0:0:0:0:
475,192,173837,128,0,173893:0:0:0:0:
109,192,173893,1,0,0:0:0:0:
256,192,173893,128,0,174288:0:0:0:0:
36,192,173893,1,0,0:0:0:0:
182,192,173893,128,0,174062:0:0:0:0:
329,192,173949,128,0,174062:0:0:0:0:
402,192,174006,128,0,174062:0:0:0:0:
475,192,174062,128,0,174119:0:0:0:0:
36,192,174119,1,0,0:0:0:0:
182,192,174119,1,0,0:0:0:0:
329,192,174119,1,0,0:0:0:0:
109,192,174119,128,0,174231:0:0:0:0:
402,192,174175,128,0,174231:0:0:0:0:
36,192,174231,128,0,174401:0:0:0:0:
329,192,174231,128,0,174288:0:0:0:0:
475,192,174288,128,0,174513:0:0:0:0:
109,192,174288,128,0,174344:0:0:0:0:
402,192,174344,128,0,174401:0:0:0:0:
182,192,174344,1,0,0:0:0:0:
329,192,174344,1,0,0:0:0:0:
256,192,174344,1,0,0:0:0:0:
109,192,174401,128,0,174457:0:0:0:0:
36,192,174457,128,0,174739:0:0:0:0:
402,192,174457,1,0,0:0:0:0:
256,192,174457,128,0,174570:0:0:0:0:
109,192,174513,128,0,174739:0:0:0:0:
329,192,174570,1,0,0:0:0:0:
182,192,174570,128,0,174739:0:0:0:0:
475,192,174570,1,0,0:0:0:0:
402,192,174570,128,0,174739:0:0:0:0:
256,192,174626,128,0,174739:0:0:0:0:
329,192,174683,128,0,174739:0:0:0:0:
475,192,174739,128,0,174795:0:0:0:0:
402,192,174795,128,0,174965:0:0:0:0:
182,192,174795,1,0,0:0:0:0:
256,192,174795,128,0,175021:0:0:0:0:
329,192,174795,1,0,0:0:0:0:
36,192,174795,1,0,0:0:0:0:
109,192,174852,128,0,174965:0:0:0:0:
182,192,174908,128,0,174965:0:0:0:0:
329,192,174908,128,0,174965:0:0:0:0:
475,192,174965,128,0,175303:0:0:0:0:
36,192,174965,128,0,175190:0:0:0:0:
402,192,175021,128,0,175134:0:0:0:0:
329,192,175021,1,0,0:0:0:0:
182,192,175021,1,0,0:0:0:0:
109,192,175021,1,0,0:0:0:0:
256,192,175077,128,0,175134:0:0:0:0:
182,192,175134,128,0,175190:0:0:0:0:
109,192,175190,128,0,175303:0:0:0:0:
36,192,175246,128,0,175416:0:0:0:0:
256,192,175246,128,0,175416:0:0:0:0:
329,192,175246,1,0,0:0:0:0:
182,192,175246,1,0,0:0:0:0:
402,192,175303,128,0,175416:0:0:0:0:
475,192,175359,128,0,175641:0:0:0:0:
109,192,175359,1,0,0:0:0:0:
182,192,175416,128,0,175528:0:0:0:0:
329,192,175472,128,0,175698:0:0:0:0:
402,192,175472,1,0,0:0:0:0:
36,192,175472,128,0,175641:0:0:0:0:
256,192,175472,1,0,0:0:0:0:
109,192,175528,128,0,175641:0:0:0:0:
256,192,175585,128,0,175641:0:0:0:0:
402,192,175641,128,0,175698:0:0:0:0:
182,192,175641,128,0,175698:0:0:0:0:
256,192,175698,128,0,175923:0:0:0:0:
109,192,175698,1,0,0:0:0:0:
475,192,175698,1,0,0:0:0:0:
36,192,175698,128,0,175923:0:0:0:0:
329,192,175754,128,0,175810:0:0:0:0:
109,192,175810,128,0,175923:0:0:0:0:
402,192,175810,128,0,175867:0:0:0:0:
475,192,175867,128,0,175923:0:0:0:0:
329,192,175923,1,0,0:0:0:0:
182,192,175923,128,0,176092:0:0:0:0:
402,192,175923,128,0,176036:0:0:0:0:
109,192,175980,128,0,176149:0:0:0:0:
256,192,175980,128,0,176036:0:0:0:0:
36,192,176036,128,0,176205:0:0:0:0:
329,192,176036,128,0,176092:0:0:0:0:
475,192,176036,128,0,176318:0:0:0:0:
402,192,176092,128,0,176374:0:0:0:0:
256,192,176149,128,0,176374:0:0:0:0:
182,192,176149,1,0,0:0:0:0:
329,192,176149,1,0,0:0:0:0:
109,192,176205,128,0,176261:0:0:0:0:
36,192,176261,128,0,176487:0:0:0:0:
329,192,176261,128,0,176318:0:0:0:0:
109,192,176318,128,0,176374:0:0:0:0:
182,192,176374,128,0,176487:0:0:0:0:
329,192,176374,1,0,0:0:0:0:
475,192,176374,128,0,176543:0:0:0:0:
402,192,176431,128,0,176487:0:0:0:0:
109,192,176487,128,0,176600:0:0:0:0:
256,192,176487,1,0,0:0:0:0:
329,192,176543,128,0,176600:0:0:0:0:
402,192,176600,128,0,176713:0:0:0:0:
182,192,176600,1,0,0:0:0:0:
475,192,176600,1,0,0:0:0:0:
36,192,176600,128,0,176713:0:0:0:0:
256,192,176656,128,0,176713:0:0:0:0:
475,192,176713,128,0,176769:0:0:0:0:
109,192,176713,1,0,0:0:0:0:
329,192,176713,1,0,0:0:0:0:
182,192,176713,1,0,0:0:0:0:
36,192,176769,128,0,176825:0:0:0:0:
182,192,176825,128,0,176863:0:0:0:0:
256,192,176825,128,0,176863:0:0:0:0:
329,192,176825,128,0,176863:0:0:0:0:
475,192,176882,1,0,0:0:0:0:
109,192,176938,128,0,176976:0:0:0:0:
182,192,176938,128,0,176976:0:0:0:0:
256,192,176938,128,0,176976:0:0:0:0:
402,192,176995,1,0,0:0:0:0:
329,192,177051,128,0,177107:0:0:0:0:
109,192,177051,128,0,177107:0:0:0:0:
36,192,177051,128,0,177107:0:0:0:0:
182,192,177051,128,0,177107:0:0:0:0:
475,192,177107,1,0,0:0:0:0:
182,192,177164,128,0,177201:0:0:0:0:
329,192,177164,128,0,177201:0:0:0:0:
402,192,177164,128,0,177201:0:0:0:0:
109,192,177220,1,0,0:0:0:0:
402,192,177277,128,0,177314:0:0:0:0:
256,192,177277,128,0,177314:0:0:0:0:
36,192,177277,128,0,177314:0:0:0:0:
182,192,177333,1,0,0:0:0:0:
329,192,177389,128,0,177427:0:0:0:0:
109,192,177389,128,0,177427:0:0:0:0:
475,192,177389,128,0,177427:0:0:0:0:
256,192,177446,1,0,0:0:0:0:
109,192,177502,128,0,177558:0:0:0:0:
36,192,177502,128,0,177558:0:0:0:0:
329,192,177502,128,0,177558:0:0:0:0:
402,192,177502,128,0,177558:0:0:0:0:
475,192,177558,1,0,0:0:0:0:
329,192,177615,128,0,177671:0:0:0:0:
256,192,177615,128,0,177671:0:0:0:0:
36,192,177615,128,0,177671:0:0:0:0:
182,192,177615,128,0,177671:0:0:0:0:
402,192,177671,1,0,0:0:0:0:
109,192,177671,1,0,0:0:0:0:
329,192,177728,128,0,177765:0:0:0:0:
256,192,177728,128,0,177765:0:0:0:0:
182,192,177728,128,0,177765:0:0:0:0:
36,192,177784,1,0,0:0:0:0:
402,192,177840,128,0,177878:0:0:0:0:
329,192,177840,128,0,177878:0:0:0:0:
256,192,177840,128,0,177878:0:0:0:0:
109,192,177897,1,0,0:0:0:0:
402,192,177953,128,0,178010:0:0:0:0:
475,192,177953,128,0,178010:0:0:0:0:
329,192,177953,128,0,178010:0:0:0:0:
182,192,178010,1,0,0:0:0:0:
256,192,178066,128,0,178104:0:0:0:0:
329,192,178066,128,0,178104:0:0:0:0:
475,192,178066,128,0,178104:0:0:0:0:
109,192,178122,1,0,0:0:0:0:
402,192,178179,128,0,178235:0:0:0:0:
256,192,178179,128,0,178235:0:0:0:0:
182,192,178179,128,0,178235:0:0:0:0:
36,192,178235,1,0,0:0:0:0:
329,192,178292,128,0,178348:0:0:0:0:
109,192,178292,128,0,178348:0:0:0:0:
475,192,178292,128,0,178348:0:0:0:0:
256,192,178348,1,0,0:0:0:0:
402,192,178404,128,0,178461:0:0:0:0:
475,192,178404,128,0,178461:0:0:0:0:
36,192,178404,128,0,178461:0:0:0:0:
109,192,178404,128,0,178461:0:0:0:0:
182,192,178461,1,0,0:0:0:0:
402,192,178517,128,0,178574:0:0:0:0:
475,192,178536,128,0,178592:0:0:0:0:
36,192,178555,128,0,178611:0:0:0:0:
109,192,178574,128,0,178630:0:0:0:0:
329,192,178574,1,0,0:0:0:0:
402,192,178630,128,0,178668:0:0:0:0:
182,192,178630,128,0,178668:0:0:0:0:
256,192,178630,128,0,178668:0:0:0:0:
475,192,178630,1,0,0:0:0:0:
329,192,178743,128,0,178780:0:0:0:0:
109,192,178743,128,0,178780:0:0:0:0:
182,192,178743,128,0,178780:0:0:0:0:
402,192,178743,1,0,0:0:0:0:
36,192,178855,128,0,178912:0:0:0:0:
109,192,178855,128,0,178912:0:0:0:0:
182,192,178855,128,0,178912:0:0:0:0:
329,192,178855,128,0,179006:0:0:0:0:
475,192,178855,1,0,0:0:0:0:
109,192,178968,128,0,179006:0:0:0:0:
182,192,178968,128,0,179006:0:0:0:0:
256,192,178968,128,0,179006:0:0:0:0:
402,192,178968,1,0,0:0:0:0:
329,192,179081,128,0,179137:0:0:0:0:
182,192,179081,128,0,179137:0:0:0:0:
36,192,179081,128,0,179137:0:0:0:0:
475,192,179081,128,0,179231:0:0:0:0:
402,192,179194,128,0,179231:0:0:0:0:
109,192,179194,128,0,179231:0:0:0:0:
256,192,179194,128,0,179231:0:0:0:0:
36,192,179307,128,0,179570:0:0:0:0:
256,192,179307,128,0,179344:0:0:0:0:
109,192,179307,128,0,179344:0:0:0:0:
402,192,179307,128,0,179344:0:0:0:0:
475,192,179307,128,0,179344:0:0:0:0:
329,192,179419,128,0,179476:0:0:0:0:
475,192,179419,128,0,179476:0:0:0:0:
109,192,179419,128,0,179570:0:0:0:0:
182,192,179419,128,0,179476:0:0:0:0:
329,192,179532,128,0,179570:0:0:0:0:
182,192,179532,128,0,179570:0:0:0:0:
256,192,179532,128,0,179570:0:0:0:0:
475,192,179532,1,0,0:0:0:0:
109,192,179645,128,0,179683:0:0:0:0:
182,192,179645,128,0,179683:0:0:0:0:
402,192,179645,1,0,0:0:0:0:
256,192,179645,128,0,179683:0:0:0:0:
182,192,179758,128,0,179814:0:0:0:0:
109,192,179758,128,0,179814:0:0:0:0:
329,192,179758,1,0,0:0:0:0:
36,192,179758,128,0,179814:0:0:0:0:
402,192,179814,128,0,179871:0:0:0:0:
475,192,179814,128,0,179871:0:0:0:0:
182,192,179871,1,0,0:0:0:0:
36,192,179871,1,0,0:0:0:0:
109,192,179871,1,0,0:0:0:0:
402,192,179927,1,0,0:0:0:0:
256,192,179927,128,0,179983:0:0:0:0:
329,192,179927,128,0,179983:0:0:0:0:
182,192,179983,128,0,180021:0:0:0:0:
109,192,179983,128,0,180021:0:0:0:0:
36,192,179983,128,0,180021:0:0:0:0:
475,192,179983,128,0,180021:0:0:0:0:
402,192,180096,128,0,180134:0:0:0:0:
329,192,180096,128,0,180134:0:0:0:0:
256,192,180096,128,0,180134:0:0:0:0:
109,192,180096,128,0,180134:0:0:0:0:
182,192,180096,128,0,180134:0:0:0:0:
182,192,180209,128,0,180246:0:0:0:0:
109,192,180209,128,0,180246:0:0:0:0:
402,192,180209,128,0,180246:0:0:0:0:
475,192,180209,128,0,180246:0:0:0:0:
36,192,180265,128,0,180303:0:0:0:0:
329,192,180322,128,0,180359:0:0:0:0:
109,192,180322,128,0,180359:0:0:0:0:
182,192,180322,128,0,180359:0:0:0:0:
402,192,180322,128,0,180359:0:0:0:0:
475,192,180378,128,0,180416:0:0:0:0:
109,192,180434,128,0,180472:0:0:0:0:
36,192,180434,128,0,180472:0:0:0:0:
329,192,180434,128,0,180472:0:0:0:0:
402,192,180434,128,0,180472:0:0:0:0:
256,192,180434,1,0,0:0:0:0:
109,192,180547,128,0,180585:0:0:0:0:
182,192,180547,128,0,180585:0:0:0:0:
402,192,180547,128,0,180585:0:0:0:0:
475,192,180547,128,0,180585:0:0:0:0:
36,192,180660,128,0,180698:0:0:0:0:
402,192,180660,128,0,180698:0:0:0:0:
256,192,180660,128,0,180698:0:0:0:0:
182,192,180660,128,0,180698:0:0:0:0:
256,192,180773,128,0,180810:0:0:0:0:
329,192,180773,128,0,180810:0:0:0:0:
475,192,180773,128,0,180810:0:0:0:0:
109,192,180773,128,0,180810:0:0:0:0:
256,192,180886,128,0,180923:0:0:0:0:
182,192,180886,128,0,180923:0:0:0:0:
36,192,180886,1,0,0:0:0:0:
329,192,180886,128,0,180998:0:0:0:0:
475,192,180886,128,0,180998:0:0:0:0:
109,192,180998,128,0,181036:0:0:0:0:
402,192,180998,128,0,181055:0:0:0:0:
256,192,180998,128,0,181111:0:0:0:0:
182,192,180998,128,0,181111:0:0:0:0:
329,192,181111,128,0,181149:0:0:0:0:
402,192,181111,128,0,181149:0:0:0:0:
36,192,181111,1,0,0:0:0:0:
109,192,181111,128,0,181224:0:0:0:0:
475,192,181111,128,0,181261:0:0:0:0:
402,192,181224,128,0,181261:0:0:0:0:
329,192,181224,128,0,181261:0:0:0:0:
256,192,181224,128,0,181261:0:0:0:0:
36,192,181224,128,0,181261:0:0:0:0:
329,192,181337,128,0,181374:0:0:0:0:
256,192,181337,128,0,181374:0:0:0:0:
182,192,181337,128,0,181374:0:0:0:0:
36,192,181337,128,0,181374:0:0:0:0:
475,192,181337,1,0,0:0:0:0:
329,192,181449,128,0,181487:0:0:0:0:
402,192,181449,128,0,181487:0:0:0:0:
109,192,181449,128,0,181487:0:0:0:0:
256,192,181449,128,0,181487:0:0:0:0:
329,192,181562,128,0,181731:0:0:0:0:
402,192,181562,128,0,181844:0:0:0:0:
475,192,181562,128,0,181600:0:0:0:0:
182,192,181562,128,0,181600:0:0:0:0:
36,192,181562,128,0,181600:0:0:0:0:
182,192,181675,128,0,181713:0:0:0:0:
109,192,181675,128,0,181713:0:0:0:0:
256,192,181675,128,0,181713:0:0:0:0:
109,192,181788,128,0,181957:0:0:0:0:
256,192,181788,128,0,181825:0:0:0:0:
329,192,181788,128,0,181825:0:0:0:0:
475,192,181788,1,0,0:0:0:0:
36,192,181788,128,0,181844:0:0:0:0:
256,192,181901,128,0,182070:0:0:0:0:
402,192,181901,128,0,181938:0:0:0:0:
182,192,181901,128,0,181957:0:0:0:0:
36,192,182013,128,0,182051:0:0:0:0:
109,192,182013,128,0,182051:0:0:0:0:
182,192,182013,128,0,182051:0:0:0:0:
402,192,182013,128,0,182183:0:0:0:0:
475,192,182013,1,0,0:0:0:0:
109,192,182126,128,0,182164:0:0:0:0:
182,192,182126,128,0,182164:0:0:0:0:
256,192,182126,128,0,182164:0:0:0:0:
475,192,182126,128,0,182183:0:0:0:0:
475,192,182239,128,0,182634:0:0:0:0:
182,192,182239,128,0,182277:0:0:0:0:
256,192,182239,128,0,182277:0:0:0:0:
36,192,182239,128,0,182295:0:0:0:0:
329,192,182295,128,0,182333:0:0:0:0:
402,192,182352,128,0,182521:0:0:0:0:
109,192,182352,128,0,182389:0:0:0:0:
182,192,182352,128,0,182389:0:0:0:0:
256,192,182408,128,0,182446:0:0:0:0:
109,192,182465,128,0,182746:0:0:0:0:
329,192,182465,128,0,182521:0:0:0:0:
36,192,182465,128,0,182502:0:0:0:0:
182,192,182521,128,0,182615:0:0:0:0:
402,192,182577,128,0,182615:0:0:0:0:
329,192,182577,128,0,182615:0:0:0:0:
256,192,182577,128,0,182615:0:0:0:0:
36,192,182634,1,0,0:0:0:0:
475,192,182690,128,0,182859:0:0:0:0:
182,192,182690,128,0,182728:0:0:0:0:
256,192,182690,128,0,182728:0:0:0:0:
329,192,182746,128,0,182840:0:0:0:0:
109,192,182803,128,0,182840:0:0:0:0:
402,192,182803,128,0,182859:0:0:0:0:
256,192,182803,128,0,182972:0:0:0:0:
182,192,182859,128,0,182953:0:0:0:0:
109,192,182916,128,0,183198:0:0:0:0:
36,192,182916,1,0,0:0:0:0:
329,192,182916,128,0,182953:0:0:0:0:
402,192,182916,128,0,182953:0:0:0:0:
475,192,182972,128,0,183310:0:0:0:0:
256,192,183028,128,0,183066:0:0:0:0:
36,192,183028,128,0,183085:0:0:0:0:
329,192,183028,128,0,183066:0:0:0:0:
402,192,183085,128,0,183179:0:0:0:0:
182,192,183141,128,0,183179:0:0:0:0:
329,192,183141,128,0,183179:0:0:0:0:
256,192,183141,128,0,183179:0:0:0:0:
36,192,183198,128,0,183536:0:0:0:0:
402,192,183254,128,0,183292:0:0:0:0:
329,192,183254,128,0,183292:0:0:0:0:
256,192,183254,128,0,183292:0:0:0:0:
182,192,183310,128,0,183423:0:0:0:0:
256,192,183367,128,0,183404:0:0:0:0:
329,192,183367,128,0,183536:0:0:0:0:
109,192,183367,128,0,183404:0:0:0:0:
402,192,183367,128,0,183404:0:0:0:0:
475,192,183423,128,0,183536:0:0:0:0:
256,192,183480,128,0,183517:0:0:0:0:
109,192,183480,128,0,183517:0:0:0:0:
182,192,183480,128,0,183517:0:0:0:0:
402,192,183536,128,0,183649:0:0:0:0:
182,192,183574,128,0,183649:0:0:0:0:
36,192,183592,128,0,183761:0:0:0:0:
475,192,183592,1,0,0:0:0:0:
329,192,183592,128,0,183630:0:0:0:0:
256,192,183592,128,0,183630:0:0:0:0:
109,192,183592,128,0,183761:0:0:0:0:
182,192,183686,128,0,183743:0:0:0:0:
475,192,183686,128,0,183761:0:0:0:0:
402,192,183705,128,0,183743:0:0:0:0:
256,192,183705,128,0,183874:0:0:0:0:
329,192,183705,128,0,183987:0:0:0:0:
109,192,183799,128,0,183874:0:0:0:0:
402,192,183818,128,0,183987:0:0:0:0:
475,192,183818,1,0,0:0:0:0:
182,192,183818,128,0,183855:0:0:0:0:
36,192,183818,128,0,183855:0:0:0:0:
182,192,183912,128,0,183987:0:0:0:0:
256,192,183931,128,0,183968:0:0:0:0:
475,192,183931,128,0,183987:0:0:0:0:
109,192,183931,128,0,183968:0:0:0:0:
256,192,184043,128,0,184156:0:0:0:0:
402,192,184043,128,0,184607:0:0:0:0:
182,192,184043,1,0,0:0:0:0:
109,192,184043,1,0,0:0:0:0:
36,192,184043,1,0,0:0:0:0:
475,192,184081,128,0,184119:0:0:0:0:
329,192,184100,128,0,184551:0:0:0:0:
182,192,184156,128,0,184269:0:0:0:0:
109,192,184156,1,0,0:0:0:0:
36,192,184156,1,0,0:0:0:0:
256,192,184213,128,0,184495:0:0:0:0:
36,192,184269,1,0,0:0:0:0:
109,192,184269,128,0,184382:0:0:0:0:
475,192,184269,128,0,184344:0:0:0:0:
182,192,184325,128,0,184438:0:0:0:0:
36,192,184382,128,0,184664:0:0:0:0:
475,192,184382,1,0,0:0:0:0:
109,192,184438,128,0,184664:0:0:0:0:
182,192,184495,128,0,184664:0:0:0:0:
475,192,184495,128,0,184664:0:0:0:0:
256,192,184551,128,0,184664:0:0:0:0:
329,192,184607,128,0,184720:0:0:0:0:
402,192,184650,128,0,184678:0:0:0:0:
256,192,184720,128,0,184833:0:0:0:0:
402,192,184720,128,0,185284:0:0:0:0:
182,192,184720,1,0,0:0:0:0:
109,192,184720,1,0,0:0:0:0:
36,192,184720,1,0,0:0:0:0:
475,192,184758,128,0,184795:0:0:0:0:
329,192,184777,128,0,185228:0:0:0:0:
182,192,184833,128,0,184946:0:0:0:0:
109,192,184833,1,0,0:0:0:0:
36,192,184833,1,0,0:0:0:0:
256,192,184889,128,0,185171:0:0:0:0:
36,192,184946,1,0,0:0:0:0:
109,192,184946,128,0,185058:0:0:0:0:
475,192,184946,128,0,185021:0:0:0:0:
182,192,185002,128,0,185058:0:0:0:0:
36,192,185058,128,0,185340:0:0:0:0:
475,192,185058,1,0,0:0:0:0:
109,192,185115,128,0,185340:0:0:0:0:
182,192,185171,128,0,185340:0:0:0:0:
475,192,185171,128,0,185340:0:0:0:0:
256,192,185228,128,0,185340:0:0:0:0:
329,192,185284,128,0,185397:0:0:0:0:
402,192,185326,128,0,185355:0:0:0:0:
182,192,185397,1,0,0:0:0:0:
402,192,185397,128,0,185622:0:0:0:0:
256,192,185397,128,0,185510:0:0:0:0:
109,192,185397,1,0,0:0:0:0:
36,192,185397,1,0,0:0:0:0:
475,192,185434,128,0,185472:0:0:0:0:
329,192,185453,128,0,185679:0:0:0:0:
109,192,185510,1,0,0:0:0:0:
182,192,185510,128,0,185622:0:0:0:0:
36,192,185510,1,0,0:0:0:0:
256,192,185566,128,0,185792:0:0:0:0:
109,192,185622,128,0,185735:0:0:0:0:
36,192,185622,1,0,0:0:0:0:
475,192,185622,128,0,185698:0:0:0:0:
182,192,185679,128,0,185735:0:0:0:0:
402,192,185679,128,0,185735:0:0:0:0:
36,192,185735,128,0,185848:0:0:0:0:
475,192,185735,128,0,185763:0:0:0:0:
329,192,185735,128,0,185792:0:0:0:0:
109,192,185777,128,0,185806:0:0:0:0:
182,192,185792,1,0,0:0:0:0:
256,192,185848,128,0,185961:0:0:0:0:
109,192,185848,128,0,186412:0:0:0:0:
329,192,185848,1,0,0:0:0:0:
402,192,185848,1,0,0:0:0:0:
475,192,185848,1,0,0:0:0:0:
36,192,185886,128,0,185923:0:0:0:0:
182,192,185904,128,0,186355:0:0:0:0:
329,192,185961,128,0,186074:0:0:0:0:
402,192,185961,1,0,0:0:0:0:
475,192,185961,1,0,0:0:0:0:
256,192,186017,128,0,186299:0:0:0:0:
475,192,186074,1,0,0:0:0:0:
402,192,186074,128,0,186186:0:0:0:0:
36,192,186074,128,0,186149:0:0:0:0:
329,192,186130,128,0,186243:0:0:0:0:
475,192,186186,128,0,186299:0:0:0:0:
36,192,186186,1,0,0:0:0:0:
402,192,186243,128,0,186355:0:0:0:0:
329,192,186299,128,0,186412:0:0:0:0:
36,192,186299,128,0,186468:0:0:0:0:
256,192,186355,128,0,186468:0:0:0:0:
182,192,186412,128,0,186525:0:0:0:0:
109,192,186454,128,0,186482:0:0:0:0:
256,192,186525,128,0,186637:0:0:0:0:
109,192,186525,128,0,187089:0:0:0:0:
329,192,186525,1,0,0:0:0:0:
402,192,186525,1,0,0:0:0:0:
475,192,186525,1,0,0:0:0:0:
36,192,186562,128,0,186600:0:0:0:0:
182,192,186581,128,0,187032:0:0:0:0:
329,192,186637,128,0,186750:0:0:0:0:
402,192,186637,1,0,0:0:0:0:
475,192,186637,1,0,0:0:0:0:
256,192,186694,128,0,186976:0:0:0:0:
475,192,186750,1,0,0:0:0:0:
402,192,186750,128,0,186863:0:0:0:0:
36,192,186750,128,0,186825:0:0:0:0:
329,192,186807,128,0,186863:0:0:0:0:
475,192,186863,128,0,186976:0:0:0:0:
36,192,186863,1,0,0:0:0:0:
402,192,186919,128,0,187032:0:0:0:0:
329,192,186976,128,0,187089:0:0:0:0:
36,192,186976,128,0,187145:0:0:0:0:
256,192,187032,128,0,187145:0:0:0:0:
182,192,187089,128,0,187201:0:0:0:0:
109,192,187131,128,0,187159:0:0:0:0:
36,192,187201,1,0,0:0:0:0:
475,192,187201,1,0,0:0:0:0:
256,192,187201,1,0,0:0:0:0:
402,192,187230,1,0,0:0:0:0:
329,192,187258,1,0,0:0:0:0:
109,192,187286,1,0,0:0:0:0:
182,192,187314,1,0,0:0:0:0:
475,192,187314,1,0,0:0:0:0:
36,192,187314,1,0,0:0:0:0:
402,192,187342,1,0,0:0:0:0:
329,192,187371,1,0,0:0:0:0:
256,192,187399,1,0,0:0:0:0:
36,192,187427,1,0,0:0:0:0:
475,192,187427,1,0,0:0:0:0:
109,192,187455,1,0,0:0:0:0:
182,192,187483,1,0,0:0:0:0:
402,192,187511,1,0,0:0:0:0:
36,192,187540,1,0,0:0:0:0:
329,192,187540,1,0,0:0:0:0:
475,192,187540,1,0,0:0:0:0:
109,192,187568,1,0,0:0:0:0:
182,192,187596,1,0,0:0:0:0:
256,192,187624,1,0,0:0:0:0:
402,192,187652,128,0,187690:0:0:0:0:
329,192,187671,128,0,187709:0:0:0:0:
475,192,187671,128,0,187709:0:0:0:0:
36,192,187709,1,0,0:0:0:0:
182,192,187709,1,0,0:0:0:0:
109,192,187728,1,0,0:0:0:0:
329,192,187765,1,0,0:0:0:0:
475,192,187765,1,0,0:0:0:0:
402,192,187784,1,0,0:0:0:0:
182,192,187822,1,0,0:0:0:0:
36,192,187822,1,0,0:0:0:0:
109,192,187840,1,0,0:0:0:0:
402,192,187878,128,0,187916:0:0:0:0:
329,192,187897,128,0,187934:0:0:0:0:
475,192,187897,128,0,187934:0:0:0:0:
182,192,187934,128,0,187972:0:0:0:0:
36,192,187934,128,0,187972:0:0:0:0:
109,192,187953,128,0,187991:0:0:0:0:
329,192,187991,1,0,0:0:0:0:
475,192,187991,1,0,0:0:0:0:
402,192,188010,1,0,0:0:0:0:
182,192,188047,1,0,0:0:0:0:
36,192,188047,1,0,0:0:0:0:
109,192,188066,1,0,0:0:0:0:
402,192,188104,1,0,0:0:0:0:
329,192,188122,1,0,0:0:0:0:
475,192,188122,1,0,0:0:0:0:
182,192,188160,1,0,0:0:0:0:
36,192,188160,1,0,0:0:0:0:
109,192,188179,1,0,0:0:0:0:
329,192,188216,128,0,188254:0:0:0:0:
475,192,188216,128,0,188254:0:0:0:0:
402,192,188235,128,0,188273:0:0:0:0:
182,192,188273,128,0,188310:0:0:0:0:
36,192,188273,128,0,188310:0:0:0:0:
109,192,188292,128,0,188329:0:0:0:0:
475,192,188329,1,0,0:0:0:0:
329,192,188329,1,0,0:0:0:0:
402,192,188348,1,0,0:0:0:0:
36,192,188386,1,0,0:0:0:0:
182,192,188386,1,0,0:0:0:0:
109,192,188404,1,0,0:0:0:0:
402,192,188442,1,0,0:0:0:0:
475,192,188461,1,0,0:0:0:0:
329,192,188461,1,0,0:0:0:0:
109,192,188498,1,0,0:0:0:0:
182,192,188517,1,0,0:0:0:0:
36,192,188517,1,0,0:0:0:0:
475,192,188555,128,0,188592:0:0:0:0:
329,192,188555,128,0,188592:0:0:0:0:
402,192,188574,128,0,188611:0:0:0:0:
36,192,188611,128,0,188649:0:0:0:0:
182,192,188611,128,0,188649:0:0:0:0:
109,192,188630,128,0,188668:0:0:0:0:
475,192,188668,1,0,0:0:0:0:
329,192,188668,1,0,0:0:0:0:
402,192,188686,1,0,0:0:0:0:
36,192,188724,1,0,0:0:0:0:
182,192,188724,1,0,0:0:0:0:
109,192,188743,1,0,0:0:0:0:
402,192,188780,1,0,0:0:0:0:
475,192,188799,1,0,0:0:0:0:
329,192,188799,1,0,0:0:0:0:
36,192,188837,1,0,0:0:0:0:
182,192,188837,1,0,0:0:0:0:
109,192,188855,1,0,0:0:0:0:
329,192,188893,128,0,188931:0:0:0:0:
475,192,188893,128,0,188931:0:0:0:0:
402,192,188912,128,0,188949:0:0:0:0:
182,192,188949,128,0,188987:0:0:0:0:
36,192,188949,128,0,188987:0:0:0:0:
109,192,188968,128,0,189006:0:0:0:0:
475,192,189006,1,0,0:0:0:0:
402,192,189025,1,0,0:0:0:0:
329,192,189043,1,0,0:0:0:0:
182,192,189062,1,0,0:0:0:0:
109,192,189081,1,0,0:0:0:0:
36,192,189100,1,0,0:0:0:0:
475,192,189119,1,0,0:0:0:0:
402,192,189137,1,0,0:0:0:0:
329,192,189156,1,0,0:0:0:0:
182,192,189175,1,0,0:0:0:0:
109,192,189194,1,0,0:0:0:0:
36,192,189213,1,0,0:0:0:0:
475,192,189231,1,0,0:0:0:0:
402,192,189250,1,0,0:0:0:0:
329,192,189269,1,0,0:0:0:0:
256,192,189274,1,0,0:0:0:0:
182,192,189288,1,0,0:0:0:0:
109,192,189307,1,0,0:0:0:0:
36,192,189325,1,0,0:0:0:0:
475,192,189344,1,0,0:0:0:0:
402,192,189363,1,0,0:0:0:0:
329,192,189382,1,0,0:0:0:0:
256,192,189401,1,0,0:0:0:0:
182,192,189419,1,0,0:0:0:0:
109,192,189438,1,0,0:0:0:0:
36,192,189457,1,0,0:0:0:0:
329,192,189457,128,0,189720:0:0:0:0:
402,192,189457,128,0,189739:0:0:0:0:
475,192,189457,128,0,189758:0:0:0:0:
256,192,189495,1,0,0:0:0:0:
182,192,189532,1,0,0:0:0:0:
109,192,189570,1,0,0:0:0:0:
36,192,189607,128,0,189645:0:0:0:0:
109,192,189645,128,0,189683:0:0:0:0:
182,192,189683,128,0,189720:0:0:0:0:
256,192,189720,128,0,189758:0:0:0:0:
329,192,189758,128,0,189795:0:0:0:0:
36,192,189777,128,0,189795:0:0:0:0:
402,192,189795,128,0,189833:0:0:0:0:
109,192,189795,128,0,189814:0:0:0:0:
182,192,189814,128,0,189833:0:0:0:0:
475,192,189833,128,0,189871:0:0:0:0:
402,192,189871,1,0,0:0:0:0:
256,192,189908,1,0,0:0:0:0:
182,192,189908,128,0,190115:0:0:0:0:
109,192,189908,128,0,190152:0:0:0:0:
36,192,189908,128,0,190190:0:0:0:0:
329,192,189946,1,0,0:0:0:0:
402,192,189983,1,0,0:0:0:0:
475,192,190021,128,0,190058:0:0:0:0:
402,192,190058,128,0,190096:0:0:0:0:
329,192,190096,128,0,190134:0:0:0:0:
256,192,190134,128,0,190171:0:0:0:0:
182,192,190171,128,0,190209:0:0:0:0:
475,192,190190,128,0,190209:0:0:0:0:
109,192,190209,128,0,190246:0:0:0:0:
402,192,190209,128,0,190228:0:0:0:0:
329,192,190228,128,0,190246:0:0:0:0:
36,192,190246,128,0,190284:0:0:0:0:
109,192,190284,1,0,0:0:0:0:
182,192,190322,1,0,0:0:0:0:
256,192,190359,1,0,0:0:0:0:
329,192,190359,128,0,190472:0:0:0:0:
402,192,190359,128,0,190472:0:0:0:0:
475,192,190359,128,0,190472:0:0:0:0:
182,192,190397,1,0,0:0:0:0:
109,192,190434,1,0,0:0:0:0:
36,192,190472,1,0,0:0:0:0:
109,192,190510,1,0,0:0:0:0:
182,192,190547,1,0,0:0:0:0:
402,192,190585,128,0,190698:0:0:0:0:
329,192,190585,128,0,190669:0:0:0:0:
256,192,190585,128,0,190641:0:0:0:0:
475,192,190622,1,0,0:0:0:0:
36,192,190622,1,0,0:0:0:0:
109,192,190660,1,0,0:0:0:0:
182,192,190698,1,0,0:0:0:0:
256,192,190726,1,0,0:0:0:0:
329,192,190754,1,0,0:0:0:0:
402,192,190782,1,0,0:0:0:0:
182,192,190810,128,0,190867:0:0:0:0:
109,192,190810,128,0,190867:0:0:0:0:
36,192,190810,128,0,190867:0:0:0:0:
475,192,190810,1,0,0:0:0:0:
329,192,190867,128,0,190923:0:0:0:0:
402,192,190867,128,0,190923:0:0:0:0:
475,192,190867,128,0,190923:0:0:0:0:
182,192,190923,1,0,0:0:0:0:
109,192,190923,1,0,0:0:0:0:
36,192,190923,1,0,0:0:0:0:
329,192,190980,1,0,0:0:0:0:
402,192,190980,1,0,0:0:0:0:
475,192,190980,1,0,0:0:0:0:
36,192,191036,128,0,191106:0:0:0:0:
109,192,191050,128,0,191121:0:0:0:0:
182,192,191064,128,0,191135:0:0:0:0:
329,192,191092,128,0,191163:0:0:0:0:
402,192,191106,128,0,191177:0:0:0:0:
475,192,191121,128,0,191191:0:0:0:0:
36,192,191149,1,0,0:0:0:0:
109,192,191163,1,0,0:0:0:0:
182,192,191177,1,0,0:0:0:0:
329,192,191205,1,0,0:0:0:0:
402,192,191219,1,0,0:0:0:0:
475,192,191233,1,0,0:0:0:0:
182,192,191261,1,0,0:0:0:0:
109,192,191261,1,0,0:0:0:0:
36,192,191261,1,0,0:0:0:0:
256,192,191261,128,0,191938:0:0:0:0:
182,192,191938,128,0,192615:0:0:0:0:
36,192,191938,1,0,0:0:0:0:
402,192,191938,1,0,0:0:0:0:
329,192,191976,1,0,0:0:0:0:
109,192,191976,1,0,0:0:0:0:
109,192,192615,128,0,193292:0:0:0:0:
329,192,192615,1,0,0:0:0:0:
475,192,192615,1,0,0:0:0:0:
256,192,192652,1,0,0:0:0:0:
402,192,192652,1,0,0:0:0:0:
182,192,193292,128,0,193968:0:0:0:0:
475,192,193292,1,0,0:0:0:0:
256,192,193292,1,0,0:0:0:0:
329,192,193329,1,0,0:0:0:0:
36,192,193329,1,0,0:0:0:0:
402,192,193968,128,0,194419:0:0:0:0:
109,192,193968,1,0,0:0:0:0:
475,192,193968,1,0,0:0:0:0:
256,192,194006,1,0,0:0:0:0:
36,192,194006,1,0,0:0:0:0:
329,192,194419,128,0,194871:0:0:0:0:
109,192,194419,1,0,0:0:0:0:
256,192,194419,1,0,0:0:0:0:
182,192,194457,1,0,0:0:0:0:
36,192,194457,1,0,0:0:0:0:
402,192,194871,128,0,195547:0:0:0:0:
109,192,194871,128,0,195547:0:0:0:0:
256,192,194871,128,0,195547:0:0:0:0:
182,192,194871,1,0,0:0:0:0:
36,192,194871,1,0,0:0:0:0:
475,192,194871,1,0,0:0:0:0:
182,192,195547,1,0,0:0:0:0:
475,192,195547,1,0,0:0:0:0:
36,192,195585,128,0,196224:0:0:0:0:
329,192,195585,1,0,0:0:0:0:
329,192,196224,1,0,0:0:0:0:
475,192,196224,1,0,0:0:0:0:
182,192,196261,128,0,196901:0:0:0:0:
36,192,196261,1,0,0:0:0:0:
475,192,196901,1,0,0:0:0:0:
36,192,196901,1,0,0:0:0:0:
329,192,196938,128,0,197577:0:0:0:0:
182,192,196938,1,0,0:0:0:0:
256,192,197577,1,0,0:0:0:0:
475,192,197577,1,0,0:0:0:0:
109,192,197615,128,0,198028:0:0:0:0:
402,192,197615,1,0,0:0:0:0:
256,192,198028,1,0,0:0:0:0:
36,192,198028,1,0,0:0:0:0:
402,192,198066,128,0,198480:0:0:0:0:
109,192,198066,1,0,0:0:0:0:
329,192,198480,128,0,199156:0:0:0:0:
182,192,198480,128,0,199156:0:0:0:0:
36,192,198480,1,0,0:0:0:0:
475,192,198480,1,0,0:0:0:0:
109,192,199156,1,0,0:0:0:0:
402,192,199194,1,0,0:0:0:0:
36,192,199833,1,0,0:0:0:0:
475,192,199871,1,0,0:0:0:0:
402,192,200510,1,0,0:0:0:0:
109,192,200547,1,0,0:0:0:0:
182,192,201186,1,0,0:0:0:0:
256,192,201186,128,0,201637:0:0:0:0:
329,192,201224,1,0,0:0:0:0:
329,192,201637,1,0,0:0:0:0:
182,192,201675,1,0,0:0:0:0:
402,192,202089,128,0,202765:0:0:0:0:
256,192,202089,1,0,0:0:0:0:
109,192,202089,128,0,203442:0:0:0:0:
329,192,202765,1,0,0:0:0:0:
475,192,202803,1,0,0:0:0:0:
402,192,203414,1,0,0:0:0:0:
256,192,203442,1,0,0:0:0:0:
109,192,203470,1,0,0:0:0:0:
36,192,203893,128,0,204795:0:0:0:0:
182,192,203893,128,0,204795:0:0:0:0:
475,192,204795,128,0,205698:0:0:0:0:
329,192,204795,128,0,205698:0:0:0:0:
109,192,205698,1,0,0:0:0:0:
256,192,205698,1,0,0:0:0:0:
402,192,205698,1,0,0:0:0:0:
36,192,206374,1,0,0:0:0:0:
329,192,206374,1,0,0:0:0:0:
182,192,206412,1,0,0:0:0:0:
109,192,207051,1,0,0:0:0:0:
402,192,207051,1,0,0:0:0:0:
256,192,207089,1,0,0:0:0:0:
182,192,207728,1,0,0:0:0:0:
475,192,207728,1,0,0:0:0:0:
329,192,207765,1,0,0:0:0:0:
109,192,207765,1,0,0:0:0:0:
36,192,207803,1,0,0:0:0:0:
256,192,207840,1,0,0:0:0:0:
182,192,207878,1,0,0:0:0:0:
109,192,207916,1,0,0:0:0:0:
329,192,207953,1,0,0:0:0:0:
256,192,207991,1,0,0:0:0:0:
182,192,208028,1,0,0:0:0:0:
329,192,208404,1,0,0:0:0:0:
475,192,208404,1,0,0:0:0:0:
256,192,208442,1,0,0:0:0:0:
402,192,208442,1,0,0:0:0:0:
256,192,208855,1,0,0:0:0:0:
402,192,208855,1,0,0:0:0:0:
182,192,208893,1,0,0:0:0:0:
329,192,208893,1,0,0:0:0:0:
36,192,209307,1,0,0:0:0:0:
109,192,209307,1,0,0:0:0:0:
402,192,209307,1,0,0:0:0:0:
475,192,209307,1,0,0:0:0:0:
256,192,209307,1,0,0:0:0:0:
329,192,209307,1,0,0:0:0:0:
182,192,209307,1,0,0:0:0:0:
329,192,209382,1,0,0:0:0:0:
182,192,209419,1,0,0:0:0:0:
329,192,209495,1,0,0:0:0:0:
256,192,209532,1,0,0:0:0:0:
402,192,209983,1,0,0:0:0:0:
329,192,210021,1,0,0:0:0:0:
475,192,210021,1,0,0:0:0:0:
256,192,210058,1,0,0:0:0:0:
182,192,210096,1,0,0:0:0:0:
256,192,210134,1,0,0:0:0:0:
329,192,210171,1,0,0:0:0:0:
402,192,210209,1,0,0:0:0:0:
182,192,210660,1,0,0:0:0:0:
109,192,210698,1,0,0:0:0:0:
256,192,210698,1,0,0:0:0:0:
36,192,210735,1,0,0:0:0:0:
109,192,210773,1,0,0:0:0:0:
182,192,210810,1,0,0:0:0:0:
256,192,210848,1,0,0:0:0:0:
329,192,211337,1,0,0:0:0:0:
256,192,211374,1,0,0:0:0:0:
402,192,211374,1,0,0:0:0:0:
402,192,211562,1,0,0:0:0:0:
329,192,211600,1,0,0:0:0:0:
256,192,211637,1,0,0:0:0:0:
475,192,211675,1,0,0:0:0:0:
402,192,211713,1,0,0:0:0:0:
109,192,212013,1,0,0:0:0:0:
402,192,212013,1,0,0:0:0:0:
256,192,212051,1,0,0:0:0:0:
109,192,212239,1,0,0:0:0:0:
182,192,212267,1,0,0:0:0:0:
329,192,212295,1,0,0:0:0:0:
109,192,212465,1,0,0:0:0:0:
402,192,212465,1,0,0:0:0:0:
36,192,212502,1,0,0:0:0:0:
475,192,212502,1,0,0:0:0:0:
36,192,212887,1,0,0:0:0:0:
475,192,212887,1,0,0:0:0:0:
109,192,212916,1,0,0:0:0:0:
402,192,212916,1,0,0:0:0:0:
182,192,212944,1,0,0:0:0:0:
329,192,212944,1,0,0:0:0:0:
182,192,213592,1,0,0:0:0:0:
329,192,213592,1,0,0:0:0:0:
36,192,213630,1,0,0:0:0:0:
475,192,213630,1,0,0:0:0:0:
256,192,214269,1,0,0:0:0:0:
109,192,214307,1,0,0:0:0:0:
402,192,214307,1,0,0:0:0:0:
329,192,214382,1,0,0:0:0:0:
182,192,214382,1,0,0:0:0:0:
182,192,214457,1,0,0:0:0:0:
329,192,214457,1,0,0:0:0:0:
256,192,214607,1,0,0:0:0:0:
182,192,214664,1,0,0:0:0:0:
109,192,214720,1,0,0:0:0:0:
402,192,214720,1,0,0:0:0:0:
329,192,214777,1,0,0:0:0:0:
256,192,214833,1,0,0:0:0:0:
182,192,214946,1,0,0:0:0:0:
329,192,214946,1,0,0:0:0:0:
109,192,214983,1,0,0:0:0:0:
402,192,214983,1,0,0:0:0:0:
256,192,215058,1,0,0:0:0:0:
182,192,215171,1,0,0:0:0:0:
329,192,215171,1,0,0:0:0:0:
109,192,215284,1,0,0:0:0:0:
402,192,215284,1,0,0:0:0:0:
109,192,215622,1,0,0:0:0:0:
36,192,215622,1,0,0:0:0:0:
402,192,215622,1,0,0:0:0:0:
475,192,215622,1,0,0:0:0:0:
182,192,215660,1,0,0:0:0:0:
329,192,215660,1,0,0:0:0:0:
256,192,216074,1,0,0:0:0:0:
402,192,216074,1,0,0:0:0:0:
109,192,216074,1,0,0:0:0:0:
182,192,216111,1,0,0:0:0:0:
329,192,216111,1,0,0:0:0:0:
475,192,216299,1,0,0:0:0:0:
329,192,216327,1,0,0:0:0:0:
182,192,216355,1,0,0:0:0:0:
182,192,216525,1,0,0:0:0:0:
109,192,216525,1,0,0:0:0:0:
36,192,216525,1,0,0:0:0:0:
256,192,216525,1,0,0:0:0:0:
329,192,216525,1,0,0:0:0:0:
402,192,216525,1,0,0:0:0:0:
475,192,216525,1,0,0:0:0:0:
36,192,217201,1,0,0:0:0:0:
182,192,217201,1,0,0:0:0:0:
329,192,217201,1,0,0:0:0:0:
475,192,217201,1,0,0:0:0:0:
109,192,217230,1,0,0:0:0:0:
256,192,217230,1,0,0:0:0:0:
402,192,217230,1,0,0:0:0:0:
109,192,217878,1,0,0:0:0:0:
256,192,217878,1,0,0:0:0:0:
402,192,217878,1,0,0:0:0:0:
475,192,217906,1,0,0:0:0:0:
329,192,217906,1,0,0:0:0:0:
36,192,217906,1,0,0:0:0:0:
182,192,217906,1,0,0:0:0:0:
475,192,218329,128,0,220134:0:0:0:0:
402,192,218329,128,0,220134:0:0:0:0:
329,192,218329,128,0,220134:0:0:0:0:
36,192,218329,128,0,220134:0:0:0:0:
109,192,218329,128,0,220134:0:0:0:0:
182,192,218329,128,0,220134:0:0:0:0:
256,192,220134,1,0,0:0:0:0:
