osu file format v14

[General]
AudioFilename: audio.mp3
AudioLeadIn: 0
PreviewTime: 27284
Countdown: 0
SampleSet: None
StackLeniency: 0.7
Mode: 3
LetterboxInBreaks: 0
SpecialStyle: 0
WidescreenStoryboard: 1

[Editor]
DistanceSpacing: 0.8
BeatDivisor: 4
GridSize: 8
TimelineZoom: 3.199999

[Metadata]
Title:Recollection
TitleUnicode:Recollection
Artist:Kobaryo
ArtistUnicode:Kobaryo
Creator:LostCool
Version:4K REpelled
Source:
Tags:
BeatmapID:1787880
BeatmapSetID:855698

[Difficulty]
HPDrainRate:7
CircleSize:4
OverallDifficulty:8
ApproachRate:5
SliderMultiplier:1.4
SliderTickRate:1

[Events]
//Background and Video events
0,0,"bg.jpg",0,0
//Break Periods
//Storyboard Layer 0 (Background)
//Storyboard Layer 1 (Fail)
//Storyboard Layer 2 (Pass)
//Storyboard Layer 3 (Foreground)
//Storyboard Sound Samples

[TimingPoints]
32465,225.563909774436,4,3,0,0,1,0

[HitObjects]
64,192,32465,5,0,0:0:0:0:
448,192,32465,1,0,0:0:0:0:
320,192,32465,1,0,0:0:0:0:
192,192,35171,1,0,0:0:0:0:
448,192,35209,1,0,0:0:0:0:
64,192,36074,1,0,0:0:0:0:
448,192,36074,1,0,0:0:0:0:
192,192,36111,1,0,0:0:0:0:
320,192,37878,1,0,0:0:0:0:
448,192,37878,1,0,0:0:0:0:
64,192,37916,1,0,0:0:0:0:
192,192,38780,1,0,0:0:0:0:
448,192,38780,1,0,0:0:0:0:
320,192,38818,1,0,0:0:0:0:
192,192,39683,1,0,0:0:0:0:
64,192,39683,1,0,0:0:0:0:
320,192,39683,1,0,0:0:0:0:
448,192,39683,1,0,0:0:0:0:
64,192,41036,1,0,0:0:0:0:
320,192,41036,1,0,0:0:0:0:
448,192,41074,1,0,0:0:0:0:
320,192,41487,1,0,0:0:0:0:
192,192,41525,1,0,0:0:0:0:
192,192,42164,1,0,0:0:0:0:
448,192,42164,1,0,0:0:0:0:
64,192,42201,1,0,0:0:0:0:
192,192,42840,1,0,0:0:0:0:
320,192,42840,1,0,0:0:0:0:
448,192,42878,1,0,0:0:0:0:
192,192,43292,1,0,0:0:0:0:
64,192,43292,1,0,0:0:0:0:
448,192,44645,1,0,0:0:0:0:
64,192,44645,1,0,0:0:0:0:
320,192,44683,1,0,0:0:0:0:
64,192,45096,1,0,0:0:0:0:
320,192,45096,1,0,0:0:0:0:
448,192,45096,1,0,0:0:0:0:
192,192,45998,1,0,0:0:0:0:
320,192,45998,1,0,0:0:0:0:
448,192,46036,1,0,0:0:0:0:
192,192,46901,1,0,0:0:0:0:
64,192,46901,1,0,0:0:0:0:
448,192,46901,1,0,0:0:0:0:
64,192,47126,1,0,0:0:0:0:
64,192,47352,1,0,0:0:0:0:
64,192,47577,1,0,0:0:0:0:
64,192,47803,1,0,0:0:0:0:
192,192,47803,1,0,0:0:0:0:
64,192,48028,1,0,0:0:0:0:
64,192,48254,1,0,0:0:0:0:
64,192,48480,1,0,0:0:0:0:
192,192,48705,1,0,0:0:0:0:
64,192,48705,1,0,0:0:0:0:
64,192,48931,1,0,0:0:0:0:
64,192,49156,1,0,0:0:0:0:
64,192,49382,1,0,0:0:0:0:
64,192,49607,1,0,0:0:0:0:
320,192,49607,1,0,0:0:0:0:
448,192,49645,1,0,0:0:0:0:
64,192,49833,1,0,0:0:0:0:
64,192,50058,1,0,0:0:0:0:
64,192,50284,1,0,0:0:0:0:
64,192,50510,1,0,0:0:0:0:
192,192,50510,1,0,0:0:0:0:
320,192,50510,1,0,0:0:0:0:
448,192,50547,1,0,0:0:0:0:
64,192,50735,1,0,0:0:0:0:
64,192,50961,1,0,0:0:0:0:
64,192,51186,1,0,0:0:0:0:
64,192,51412,1,0,0:0:0:0:
192,192,51412,1,0,0:0:0:0:
64,192,51637,1,0,0:0:0:0:
64,192,51863,1,0,0:0:0:0:
64,192,52089,1,0,0:0:0:0:
64,192,52314,1,0,0:0:0:0:
320,192,52314,1,0,0:0:0:0:
448,192,52352,1,0,0:0:0:0:
64,192,52540,1,0,0:0:0:0:
64,192,52765,1,0,0:0:0:0:
64,192,52991,1,0,0:0:0:0:
64,192,53216,1,0,0:0:0:0:
448,192,53216,1,0,0:0:0:0:
192,192,53216,1,0,0:0:0:0:
320,192,53254,1,0,0:0:0:0:
320,192,53442,1,0,0:0:0:0:
448,192,53442,1,0,0:0:0:0:
64,192,53442,1,0,0:0:0:0:
64,192,53668,1,0,0:0:0:0:
320,192,53780,1,0,0:0:0:0:
448,192,53780,1,0,0:0:0:0:
64,192,53893,1,0,0:0:0:0:
192,192,54119,1,0,0:0:0:0:
64,192,54119,1,0,0:0:0:0:
448,192,54119,1,0,0:0:0:0:
64,192,54344,1,0,0:0:0:0:
64,192,54570,1,0,0:0:0:0:
64,192,54795,1,0,0:0:0:0:
64,192,55021,1,0,0:0:0:0:
192,192,55021,1,0,0:0:0:0:
448,192,55021,1,0,0:0:0:0:
64,192,55246,1,0,0:0:0:0:
64,192,55472,1,0,0:0:0:0:
448,192,55472,1,0,0:0:0:0:
320,192,55510,1,0,0:0:0:0:
64,192,55698,1,0,0:0:0:0:
64,192,55923,1,0,0:0:0:0:
320,192,55923,1,0,0:0:0:0:
192,192,55961,1,0,0:0:0:0:
64,192,56149,1,0,0:0:0:0:
64,192,56374,1,0,0:0:0:0:
64,192,56600,1,0,0:0:0:0:
192,192,56600,1,0,0:0:0:0:
320,192,56637,1,0,0:0:0:0:
64,192,56825,1,0,0:0:0:0:
64,192,57051,1,0,0:0:0:0:
320,192,57277,1,0,0:0:0:0:
64,192,57277,1,0,0:0:0:0:
448,192,57314,1,0,0:0:0:0:
64,192,57502,1,0,0:0:0:0:
64,192,57728,1,0,0:0:0:0:
320,192,57728,1,0,0:0:0:0:
448,192,57728,1,0,0:0:0:0:
192,192,57765,1,0,0:0:0:0:
64,192,57953,1,0,0:0:0:0:
64,192,58066,1,0,0:0:0:0:
64,192,58179,1,0,0:0:0:0:
64,192,58404,1,0,0:0:0:0:
64,192,58517,1,0,0:0:0:0:
64,192,58630,1,0,0:0:0:0:
320,192,58630,1,0,0:0:0:0:
448,192,58630,1,0,0:0:0:0:
192,192,58855,1,0,0:0:0:0:
192,192,58968,1,0,0:0:0:0:
192,192,59081,1,0,0:0:0:0:
448,192,59081,1,0,0:0:0:0:
320,192,59119,1,0,0:0:0:0:
320,192,59307,1,0,0:0:0:0:
320,192,59419,1,0,0:0:0:0:
320,192,59532,1,0,0:0:0:0:
64,192,59532,1,0,0:0:0:0:
192,192,59532,1,0,0:0:0:0:
448,192,59570,1,0,0:0:0:0:
448,192,59758,1,0,0:0:0:0:
448,192,59871,1,0,0:0:0:0:
448,192,59983,1,0,0:0:0:0:
192,192,59983,1,0,0:0:0:0:
320,192,60209,1,0,0:0:0:0:
320,192,60322,1,0,0:0:0:0:
320,192,60434,1,0,0:0:0:0:
64,192,60434,1,0,0:0:0:0:
448,192,60434,1,0,0:0:0:0:
192,192,60472,1,0,0:0:0:0:
192,192,60660,1,0,0:0:0:0:
448,192,60660,1,0,0:0:0:0:
192,192,60773,1,0,0:0:0:0:
192,192,60886,1,0,0:0:0:0:
320,192,60998,1,0,0:0:0:0:
448,192,60998,1,0,0:0:0:0:
64,192,61111,1,0,0:0:0:0:
64,192,61224,1,0,0:0:0:0:
64,192,61337,1,0,0:0:0:0:
192,192,61337,1,0,0:0:0:0:
320,192,61337,1,0,0:0:0:0:
448,192,61337,1,0,0:0:0:0:
320,192,61562,1,0,0:0:0:0:
448,192,61562,1,0,0:0:0:0:
192,192,61675,1,0,0:0:0:0:
320,192,61675,1,0,0:0:0:0:
64,192,61788,1,0,0:0:0:0:
448,192,61788,1,0,0:0:0:0:
448,192,62013,1,0,0:0:0:0:
192,192,62013,1,0,0:0:0:0:
320,192,62126,1,0,0:0:0:0:
64,192,62126,1,0,0:0:0:0:
64,192,62239,1,0,0:0:0:0:
192,192,62239,1,0,0:0:0:0:
448,192,62239,1,0,0:0:0:0:
320,192,62465,1,0,0:0:0:0:
192,192,62577,1,0,0:0:0:0:
448,192,62577,1,0,0:0:0:0:
64,192,62690,1,0,0:0:0:0:
448,192,62690,1,0,0:0:0:0:
192,192,62916,1,0,0:0:0:0:
320,192,63028,1,0,0:0:0:0:
64,192,63141,1,0,0:0:0:0:
192,192,63141,1,0,0:0:0:0:
448,192,63141,1,0,0:0:0:0:
320,192,63367,1,0,0:0:0:0:
448,192,63367,1,0,0:0:0:0:
192,192,63480,1,0,0:0:0:0:
320,192,63480,1,0,0:0:0:0:
64,192,63592,1,0,0:0:0:0:
448,192,63592,1,0,0:0:0:0:
448,192,63818,1,0,0:0:0:0:
192,192,63818,1,0,0:0:0:0:
320,192,63931,1,0,0:0:0:0:
64,192,63931,1,0,0:0:0:0:
64,192,64043,1,0,0:0:0:0:
192,192,64043,1,0,0:0:0:0:
448,192,64043,1,0,0:0:0:0:
320,192,64081,1,0,0:0:0:0:
320,192,64269,1,0,0:0:0:0:
192,192,64382,1,0,0:0:0:0:
448,192,64382,1,0,0:0:0:0:
64,192,64495,1,0,0:0:0:0:
448,192,64495,1,0,0:0:0:0:
192,192,64720,1,0,0:0:0:0:
320,192,64833,1,0,0:0:0:0:
64,192,64946,1,0,0:0:0:0:
192,192,64946,1,0,0:0:0:0:
448,192,64946,1,0,0:0:0:0:
320,192,64983,1,0,0:0:0:0:
64,192,65171,1,0,0:0:0:0:
192,192,65171,1,0,0:0:0:0:
192,192,65284,1,0,0:0:0:0:
320,192,65284,1,0,0:0:0:0:
64,192,65397,1,0,0:0:0:0:
448,192,65397,1,0,0:0:0:0:
320,192,65622,1,0,0:0:0:0:
64,192,65622,1,0,0:0:0:0:
448,192,65735,1,0,0:0:0:0:
192,192,65735,1,0,0:0:0:0:
64,192,65848,1,0,0:0:0:0:
320,192,65848,1,0,0:0:0:0:
448,192,65848,1,0,0:0:0:0:
192,192,66074,1,0,0:0:0:0:
64,192,66186,1,0,0:0:0:0:
320,192,66186,1,0,0:0:0:0:
64,192,66299,1,0,0:0:0:0:
448,192,66299,1,0,0:0:0:0:
320,192,66525,1,0,0:0:0:0:
192,192,66637,1,0,0:0:0:0:
64,192,66750,1,0,0:0:0:0:
320,192,66750,1,0,0:0:0:0:
448,192,66750,1,0,0:0:0:0:
192,192,66788,1,0,0:0:0:0:
64,192,66976,1,0,0:0:0:0:
192,192,66976,1,0,0:0:0:0:
192,192,67089,1,0,0:0:0:0:
320,192,67089,1,0,0:0:0:0:
64,192,67201,1,0,0:0:0:0:
448,192,67201,1,0,0:0:0:0:
320,192,67427,1,0,0:0:0:0:
64,192,67427,1,0,0:0:0:0:
448,192,67540,1,0,0:0:0:0:
192,192,67540,1,0,0:0:0:0:
64,192,67652,1,0,0:0:0:0:
320,192,67652,1,0,0:0:0:0:
448,192,67652,1,0,0:0:0:0:
192,192,67690,1,0,0:0:0:0:
192,192,67878,1,0,0:0:0:0:
64,192,67991,1,0,0:0:0:0:
320,192,67991,1,0,0:0:0:0:
64,192,68104,1,0,0:0:0:0:
448,192,68104,1,0,0:0:0:0:
192,192,68216,1,0,0:0:0:0:
320,192,68216,1,0,0:0:0:0:
320,192,68329,1,0,0:0:0:0:
192,192,68442,1,0,0:0:0:0:
64,192,68555,1,0,0:0:0:0:
320,192,68555,1,0,0:0:0:0:
448,192,68555,1,0,0:0:0:0:
192,192,68592,1,0,0:0:0:0:
448,192,68668,1,0,0:0:0:0:
448,192,68780,1,0,0:0:0:0:
64,192,68780,1,0,0:0:0:0:
320,192,68893,1,0,0:0:0:0:
192,192,68893,1,0,0:0:0:0:
192,192,69006,1,0,0:0:0:0:
448,192,69006,1,0,0:0:0:0:
192,192,69119,1,0,0:0:0:0:
192,192,69231,1,0,0:0:0:0:
448,192,69231,1,0,0:0:0:0:
320,192,69344,1,0,0:0:0:0:
64,192,69344,1,0,0:0:0:0:
192,192,69457,1,0,0:0:0:0:
448,192,69457,1,0,0:0:0:0:
320,192,69457,1,0,0:0:0:0:
192,192,69570,1,0,0:0:0:0:
192,192,69683,1,0,0:0:0:0:
448,192,69683,1,0,0:0:0:0:
64,192,69795,1,0,0:0:0:0:
320,192,69795,1,0,0:0:0:0:
64,192,69908,1,0,0:0:0:0:
320,192,69908,1,0,0:0:0:0:
192,192,69908,1,0,0:0:0:0:
320,192,70021,1,0,0:0:0:0:
320,192,70134,1,0,0:0:0:0:
64,192,70134,1,0,0:0:0:0:
192,192,70246,1,0,0:0:0:0:
448,192,70246,1,0,0:0:0:0:
192,192,70359,1,0,0:0:0:0:
320,192,70359,1,0,0:0:0:0:
448,192,70359,1,0,0:0:0:0:
64,192,70472,1,0,0:0:0:0:
64,192,70585,1,0,0:0:0:0:
320,192,70585,1,0,0:0:0:0:
320,192,70698,1,0,0:0:0:0:
320,192,70810,1,0,0:0:0:0:
64,192,70810,1,0,0:0:0:0:
192,192,70923,1,0,0:0:0:0:
320,192,71036,1,0,0:0:0:0:
64,192,71036,1,0,0:0:0:0:
448,192,71149,1,0,0:0:0:0:
64,192,71149,1,0,0:0:0:0:
64,192,71261,1,0,0:0:0:0:
320,192,71261,1,0,0:0:0:0:
448,192,71261,1,0,0:0:0:0:
192,192,71374,1,0,0:0:0:0:
448,192,71487,1,0,0:0:0:0:
64,192,71487,1,0,0:0:0:0:
320,192,71600,1,0,0:0:0:0:
64,192,71600,1,0,0:0:0:0:
192,192,71713,1,0,0:0:0:0:
64,192,71713,1,0,0:0:0:0:
320,192,71825,1,0,0:0:0:0:
192,192,71938,1,0,0:0:0:0:
448,192,71938,1,0,0:0:0:0:
64,192,72051,1,0,0:0:0:0:
320,192,72051,1,0,0:0:0:0:
320,192,72164,1,0,0:0:0:0:
448,192,72164,1,0,0:0:0:0:
192,192,72164,1,0,0:0:0:0:
64,192,72277,1,0,0:0:0:0:
192,192,72389,1,0,0:0:0:0:
192,192,72502,1,0,0:0:0:0:
192,192,72615,1,0,0:0:0:0:
448,192,72615,1,0,0:0:0:0:
320,192,72728,1,0,0:0:0:0:
320,192,72840,1,0,0:0:0:0:
64,192,72840,1,0,0:0:0:0:
320,192,72953,1,0,0:0:0:0:
192,192,72953,1,0,0:0:0:0:
320,192,73066,1,0,0:0:0:0:
448,192,73066,1,0,0:0:0:0:
64,192,73066,1,0,0:0:0:0:
192,192,73179,1,0,0:0:0:0:
64,192,73292,1,0,0:0:0:0:
448,192,73404,1,0,0:0:0:0:
320,192,73404,1,0,0:0:0:0:
320,192,73517,1,0,0:0:0:0:
192,192,73517,1,0,0:0:0:0:
64,192,73630,1,0,0:0:0:0:
320,192,73743,1,0,0:0:0:0:
192,192,73743,1,0,0:0:0:0:
192,192,73855,1,0,0:0:0:0:
64,192,73855,1,0,0:0:0:0:
448,192,73968,1,0,0:0:0:0:
320,192,73968,1,0,0:0:0:0:
64,192,74871,1,0,0:0:0:0:
448,192,74871,1,0,0:0:0:0:
192,192,74908,1,0,0:0:0:0:
320,192,74908,1,0,0:0:0:0:
192,192,75773,1,0,0:0:0:0:
64,192,75773,1,0,0:0:0:0:
448,192,75773,1,0,0:0:0:0:
320,192,75829,1,0,0:0:0:0:
192,192,75886,1,0,0:0:0:0:
64,192,75942,1,0,0:0:0:0:
320,192,75998,1,0,0:0:0:0:
448,192,76055,1,0,0:0:0:0:
64,192,76111,1,0,0:0:0:0:
192,192,76168,1,0,0:0:0:0:
320,192,76224,1,0,0:0:0:0:
448,192,76280,1,0,0:0:0:0:
64,192,76337,1,0,0:0:0:0:
192,192,76393,1,0,0:0:0:0:
320,192,76449,1,0,0:0:0:0:
448,192,76487,1,0,0:0:0:0:
64,192,76506,1,0,0:0:0:0:
192,192,76562,1,0,0:0:0:0:
320,192,76619,1,0,0:0:0:0:
448,192,76675,1,0,0:0:0:0:
192,192,76731,1,0,0:0:0:0:
64,192,76788,1,0,0:0:0:0:
448,192,76844,1,0,0:0:0:0:
320,192,76901,1,0,0:0:0:0:
192,192,76957,1,0,0:0:0:0:
64,192,77013,1,0,0:0:0:0:
320,192,77070,1,0,0:0:0:0:
192,192,77126,1,0,0:0:0:0:
64,192,77164,1,0,0:0:0:0:
448,192,77183,1,0,0:0:0:0:
320,192,77239,1,0,0:0:0:0:
192,192,77295,1,0,0:0:0:0:
64,192,77352,1,0,0:0:0:0:
448,192,77408,1,0,0:0:0:0:
320,192,77465,1,0,0:0:0:0:
192,192,77521,1,0,0:0:0:0:
64,192,77577,1,0,0:0:0:0:
448,192,77634,1,0,0:0:0:0:
192,192,77690,1,0,0:0:0:0:
320,192,77746,1,0,0:0:0:0:
64,192,77803,1,0,0:0:0:0:
192,192,77840,1,0,0:0:0:0:
448,192,77859,1,0,0:0:0:0:
320,192,77916,1,0,0:0:0:0:
64,192,77972,1,0,0:0:0:0:
192,192,78028,1,0,0:0:0:0:
320,192,78085,1,0,0:0:0:0:
64,192,78141,1,0,0:0:0:0:
448,192,78198,1,0,0:0:0:0:
192,192,78254,1,0,0:0:0:0:
320,192,78310,1,0,0:0:0:0:
448,192,78367,1,0,0:0:0:0:
64,192,78423,1,0,0:0:0:0:
192,192,78480,1,0,0:0:0:0:
320,192,78517,1,0,0:0:0:0:
448,192,78536,1,0,0:0:0:0:
64,192,78592,1,0,0:0:0:0:
192,192,78649,1,0,0:0:0:0:
448,192,78705,1,0,0:0:0:0:
320,192,78761,1,0,0:0:0:0:
64,192,78818,1,0,0:0:0:0:
448,192,78874,1,0,0:0:0:0:
192,192,78931,1,0,0:0:0:0:
64,192,78968,1,0,0:0:0:0:
320,192,78987,1,0,0:0:0:0:
448,192,79043,1,0,0:0:0:0:
64,192,79100,1,0,0:0:0:0:
192,192,79156,1,0,0:0:0:0:
320,192,79213,1,0,0:0:0:0:
64,192,79269,1,0,0:0:0:0:
192,192,79325,1,0,0:0:0:0:
448,192,79382,1,0,0:0:0:0:
320,192,79382,1,0,0:0:0:0:
64,192,79382,1,0,0:0:0:0:
192,192,79438,1,0,0:0:0:0:
320,192,79495,1,0,0:0:0:0:
448,192,79551,1,0,0:0:0:0:
192,192,79607,1,0,0:0:0:0:
320,192,79664,1,0,0:0:0:0:
448,192,79720,1,0,0:0:0:0:
64,192,79777,1,0,0:0:0:0:
192,192,79833,1,0,0:0:0:0:
320,192,79889,1,0,0:0:0:0:
64,192,79946,1,0,0:0:0:0:
192,192,80002,1,0,0:0:0:0:
448,192,80058,1,0,0:0:0:0:
320,192,80096,1,0,0:0:0:0:
64,192,80115,1,0,0:0:0:0:
192,192,80171,1,0,0:0:0:0:
448,192,80228,1,0,0:0:0:0:
320,192,80284,1,0,0:0:0:0:
64,192,80284,1,0,0:0:0:0:
192,192,80340,1,0,0:0:0:0:
448,192,80397,1,0,0:0:0:0:
320,192,80453,1,0,0:0:0:0:
64,192,80510,1,0,0:0:0:0:
192,192,80566,1,0,0:0:0:0:
320,192,80622,1,0,0:0:0:0:
64,192,80679,1,0,0:0:0:0:
192,192,80735,1,0,0:0:0:0:
320,192,80773,1,0,0:0:0:0:
448,192,80792,1,0,0:0:0:0:
64,192,80848,1,0,0:0:0:0:
192,192,80904,1,0,0:0:0:0:
448,192,80961,1,0,0:0:0:0:
320,192,81017,1,0,0:0:0:0:
64,192,81074,1,0,0:0:0:0:
448,192,81130,1,0,0:0:0:0:
192,192,81186,1,0,0:0:0:0:
320,192,81186,1,0,0:0:0:0:
64,192,81243,1,0,0:0:0:0:
320,192,81299,1,0,0:0:0:0:
192,192,81355,1,0,0:0:0:0:
448,192,81412,1,0,0:0:0:0:
64,192,81449,1,0,0:0:0:0:
320,192,81468,1,0,0:0:0:0:
192,192,81525,1,0,0:0:0:0:
448,192,81581,1,0,0:0:0:0:
64,192,81637,1,0,0:0:0:0:
192,192,81694,1,0,0:0:0:0:
320,192,81750,1,0,0:0:0:0:
64,192,81807,1,0,0:0:0:0:
448,192,81863,1,0,0:0:0:0:
320,192,81919,1,0,0:0:0:0:
192,192,81976,1,0,0:0:0:0:
64,192,82032,1,0,0:0:0:0:
448,192,82089,1,0,0:0:0:0:
320,192,82089,1,0,0:0:0:0:
192,192,82089,1,0,0:0:0:0:
64,192,82145,1,0,0:0:0:0:
192,192,82201,1,0,0:0:0:0:
320,192,82258,1,0,0:0:0:0:
448,192,82314,1,0,0:0:0:0:
64,192,82371,1,0,0:0:0:0:
192,192,82427,1,0,0:0:0:0:
320,192,82483,1,0,0:0:0:0:
64,192,82540,1,0,0:0:0:0:
448,192,82577,1,0,0:0:0:0:
192,192,82596,1,0,0:0:0:0:
448,192,82652,1,0,0:0:0:0:
64,192,82709,1,0,0:0:0:0:
320,192,82765,1,0,0:0:0:0:
448,192,82822,1,0,0:0:0:0:
192,192,82878,1,0,0:0:0:0:
320,192,82934,1,0,0:0:0:0:
448,192,82991,1,0,0:0:0:0:
192,192,82991,1,0,0:0:0:0:
64,192,82991,1,0,0:0:0:0:
320,192,83047,1,0,0:0:0:0:
192,192,83104,1,0,0:0:0:0:
64,192,83160,1,0,0:0:0:0:
448,192,83216,1,0,0:0:0:0:
320,192,83273,1,0,0:0:0:0:
192,192,83329,1,0,0:0:0:0:
448,192,83386,1,0,0:0:0:0:
64,192,83442,1,0,0:0:0:0:
320,192,83498,1,0,0:0:0:0:
192,192,83555,1,0,0:0:0:0:
64,192,83611,1,0,0:0:0:0:
448,192,83668,1,0,0:0:0:0:
192,192,83705,1,0,0:0:0:0:
64,192,83724,1,0,0:0:0:0:
320,192,83780,1,0,0:0:0:0:
192,192,83837,1,0,0:0:0:0:
448,192,83893,1,0,0:0:0:0:
320,192,83949,1,0,0:0:0:0:
192,192,84006,1,0,0:0:0:0:
64,192,84062,1,0,0:0:0:0:
448,192,84119,1,0,0:0:0:0:
320,192,84119,1,0,0:0:0:0:
192,192,84175,1,0,0:0:0:0:
64,192,84231,1,0,0:0:0:0:
320,192,84288,1,0,0:0:0:0:
192,192,84344,1,0,0:0:0:0:
448,192,84382,1,0,0:0:0:0:
64,192,84401,1,0,0:0:0:0:
192,192,84457,1,0,0:0:0:0:
320,192,84513,1,0,0:0:0:0:
448,192,84570,1,0,0:0:0:0:
64,192,84626,1,0,0:0:0:0:
320,192,84683,1,0,0:0:0:0:
192,192,84739,1,0,0:0:0:0:
448,192,84795,1,0,0:0:0:0:
64,192,84795,1,0,0:0:0:0:
320,192,84852,1,0,0:0:0:0:
192,192,84908,1,0,0:0:0:0:
448,192,84965,1,0,0:0:0:0:
64,192,85021,1,0,0:0:0:0:
192,192,85058,1,0,0:0:0:0:
320,192,85077,1,0,0:0:0:0:
448,192,85134,1,0,0:0:0:0:
64,192,85190,1,0,0:0:0:0:
192,192,85246,1,0,0:0:0:0:
320,192,85303,1,0,0:0:0:0:
64,192,85359,1,0,0:0:0:0:
448,192,85416,1,0,0:0:0:0:
320,192,85472,1,0,0:0:0:0:
192,192,85528,1,0,0:0:0:0:
64,192,85585,1,0,0:0:0:0:
320,192,85641,1,0,0:0:0:0:
448,192,85698,1,0,0:0:0:0:
64,192,85698,1,0,0:0:0:0:
192,192,85735,1,0,0:0:0:0:
320,192,85754,1,0,0:0:0:0:
64,192,85810,1,0,0:0:0:0:
192,192,85867,1,0,0:0:0:0:
448,192,85923,1,0,0:0:0:0:
320,192,85980,1,0,0:0:0:0:
64,192,86036,1,0,0:0:0:0:
448,192,86092,1,0,0:0:0:0:
192,192,86149,1,0,0:0:0:0:
448,192,86186,1,0,0:0:0:0:
320,192,86186,1,0,0:0:0:0:
64,192,86205,1,0,0:0:0:0:
320,192,86261,1,0,0:0:0:0:
448,192,86318,1,0,0:0:0:0:
192,192,86374,1,0,0:0:0:0:
320,192,86431,1,0,0:0:0:0:
64,192,86487,1,0,0:0:0:0:
448,192,86543,1,0,0:0:0:0:
320,192,86600,1,0,0:0:0:0:
192,192,86600,1,0,0:0:0:0:
64,192,86600,1,0,0:0:0:0:
448,192,86656,1,0,0:0:0:0:
64,192,86713,1,0,0:0:0:0:
320,192,86769,1,0,0:0:0:0:
64,192,86825,1,0,0:0:0:0:
192,192,86882,1,0,0:0:0:0:
448,192,86938,1,0,0:0:0:0:
192,192,86995,1,0,0:0:0:0:
320,192,87051,1,0,0:0:0:0:
64,192,87107,1,0,0:0:0:0:
320,192,87164,1,0,0:0:0:0:
192,192,87220,1,0,0:0:0:0:
448,192,87277,1,0,0:0:0:0:
64,192,87314,1,0,0:0:0:0:
320,192,87333,1,0,0:0:0:0:
448,192,87389,1,0,0:0:0:0:
64,192,87446,1,0,0:0:0:0:
192,192,87502,1,0,0:0:0:0:
320,192,87502,1,0,0:0:0:0:
448,192,87558,1,0,0:0:0:0:
64,192,87615,1,0,0:0:0:0:
320,192,87671,1,0,0:0:0:0:
192,192,87728,1,0,0:0:0:0:
448,192,87784,1,0,0:0:0:0:
64,192,87840,1,0,0:0:0:0:
320,192,87897,1,0,0:0:0:0:
448,192,87953,1,0,0:0:0:0:
64,192,87991,1,0,0:0:0:0:
192,192,88010,1,0,0:0:0:0:
320,192,88066,1,0,0:0:0:0:
448,192,88122,1,0,0:0:0:0:
192,192,88179,1,0,0:0:0:0:
64,192,88235,1,0,0:0:0:0:
448,192,88292,1,0,0:0:0:0:
320,192,88348,1,0,0:0:0:0:
192,192,88404,1,0,0:0:0:0:
64,192,88404,1,0,0:0:0:0:
448,192,88461,1,0,0:0:0:0:
320,192,88517,1,0,0:0:0:0:
64,192,88574,1,0,0:0:0:0:
192,192,88630,1,0,0:0:0:0:
320,192,88686,1,0,0:0:0:0:
448,192,88743,1,0,0:0:0:0:
64,192,88799,1,0,0:0:0:0:
320,192,88855,1,0,0:0:0:0:
192,192,88912,1,0,0:0:0:0:
448,192,88968,1,0,0:0:0:0:
320,192,89025,1,0,0:0:0:0:
64,192,89081,1,0,0:0:0:0:
448,192,89137,1,0,0:0:0:0:
320,192,89194,1,0,0:0:0:0:
192,192,89250,1,0,0:0:0:0:
64,192,89307,1,0,0:0:0:0:
448,192,89307,1,0,0:0:0:0:
320,192,89363,1,0,0:0:0:0:
192,192,89419,1,0,0:0:0:0:
320,192,89476,1,0,0:0:0:0:
448,192,89532,1,0,0:0:0:0:
64,192,89589,1,0,0:0:0:0:
320,192,89645,1,0,0:0:0:0:
192,192,89701,1,0,0:0:0:0:
64,192,89758,1,0,0:0:0:0:
448,192,89814,1,0,0:0:0:0:
320,192,89871,1,0,0:0:0:0:
192,192,89927,1,0,0:0:0:0:
64,192,89983,1,0,0:0:0:0:
320,192,90040,1,0,0:0:0:0:
448,192,90096,1,0,0:0:0:0:
64,192,90152,1,0,0:0:0:0:
192,192,90209,1,0,0:0:0:0:
320,192,90209,1,0,0:0:0:0:
448,192,90265,1,0,0:0:0:0:
192,192,90322,1,0,0:0:0:0:
320,192,90378,1,0,0:0:0:0:
448,192,90434,1,0,0:0:0:0:
64,192,90434,1,0,0:0:0:0:
192,192,90491,1,0,0:0:0:0:
320,192,90547,1,0,0:0:0:0:
448,192,90604,1,0,0:0:0:0:
192,192,90660,1,0,0:0:0:0:
320,192,90660,1,0,0:0:0:0:
64,192,90716,1,0,0:0:0:0:
448,192,90773,1,0,0:0:0:0:
320,192,90829,1,0,0:0:0:0:
192,192,90886,1,0,0:0:0:0:
64,192,90914,1,0,0:0:0:0:
448,192,90942,1,0,0:0:0:0:
320,192,90998,1,0,0:0:0:0:
192,192,91055,1,0,0:0:0:0:
448,192,91111,1,0,0:0:0:0:
64,192,91111,1,0,0:0:0:0:
192,192,91168,1,0,0:0:0:0:
320,192,91224,1,0,0:0:0:0:
448,192,91280,1,0,0:0:0:0:
192,192,91337,1,0,0:0:0:0:
320,192,91337,1,0,0:0:0:0:
64,192,91393,1,0,0:0:0:0:
448,192,91449,1,0,0:0:0:0:
320,192,91506,1,0,0:0:0:0:
192,192,91562,1,0,0:0:0:0:
64,192,91590,1,0,0:0:0:0:
448,192,91619,1,0,0:0:0:0:
320,192,91675,1,0,0:0:0:0:
192,192,91731,1,0,0:0:0:0:
64,192,91788,1,0,0:0:0:0:
448,192,91788,1,0,0:0:0:0:
192,192,91844,1,0,0:0:0:0:
320,192,91901,1,0,0:0:0:0:
448,192,91957,1,0,0:0:0:0:
320,192,92013,1,0,0:0:0:0:
192,192,92013,1,0,0:0:0:0:
64,192,92070,1,0,0:0:0:0:
448,192,92126,1,0,0:0:0:0:
320,192,92183,1,0,0:0:0:0:
192,192,92239,1,0,0:0:0:0:
64,192,92267,1,0,0:0:0:0:
448,192,92295,1,0,0:0:0:0:
320,192,92352,1,0,0:0:0:0:
192,192,92408,1,0,0:0:0:0:
448,192,92465,1,0,0:0:0:0:
64,192,92465,1,0,0:0:0:0:
192,192,92521,1,0,0:0:0:0:
320,192,92577,1,0,0:0:0:0:
448,192,92634,1,0,0:0:0:0:
192,192,92690,1,0,0:0:0:0:
320,192,92690,1,0,0:0:0:0:
64,192,92746,1,0,0:0:0:0:
448,192,92803,1,0,0:0:0:0:
320,192,92859,1,0,0:0:0:0:
192,192,92916,1,0,0:0:0:0:
64,192,92944,1,0,0:0:0:0:
448,192,92972,1,0,0:0:0:0:
320,192,93028,1,0,0:0:0:0:
192,192,93085,1,0,0:0:0:0:
64,192,93141,1,0,0:0:0:0:
448,192,93141,1,0,0:0:0:0:
192,192,93198,1,0,0:0:0:0:
320,192,93254,1,0,0:0:0:0:
448,192,93310,1,0,0:0:0:0:
320,192,93367,1,0,0:0:0:0:
192,192,93395,1,0,0:0:0:0:
64,192,93423,1,0,0:0:0:0:
448,192,93480,1,0,0:0:0:0:
320,192,93536,1,0,0:0:0:0:
192,192,93592,1,0,0:0:0:0:
64,192,93592,1,0,0:0:0:0:
448,192,93649,1,0,0:0:0:0:
320,192,93705,1,0,0:0:0:0:
192,192,93761,1,0,0:0:0:0:
448,192,93818,1,0,0:0:0:0:
64,192,93818,1,0,0:0:0:0:
320,192,93846,1,0,0:0:0:0:
192,192,93874,1,0,0:0:0:0:
448,192,93931,1,0,0:0:0:0:
320,192,93987,1,0,0:0:0:0:
64,192,94043,1,0,0:0:0:0:
192,192,94043,1,0,0:0:0:0:
448,192,94100,1,0,0:0:0:0:
64,192,94156,1,0,0:0:0:0:
320,192,94213,1,0,0:0:0:0:
448,192,94269,1,0,0:0:0:0:
192,192,94269,1,0,0:0:0:0:
64,192,94325,1,0,0:0:0:0:
320,192,94382,1,0,0:0:0:0:
448,192,94438,1,0,0:0:0:0:
64,192,94495,1,0,0:0:0:0:
192,192,94523,1,0,0:0:0:0:
448,192,94551,1,0,0:0:0:0:
320,192,94607,1,0,0:0:0:0:
192,192,94664,1,0,0:0:0:0:
64,192,94720,1,0,0:0:0:0:
448,192,94720,1,0,0:0:0:0:
320,192,94777,1,0,0:0:0:0:
192,192,94833,1,0,0:0:0:0:
448,192,94889,1,0,0:0:0:0:
320,192,94946,1,0,0:0:0:0:
64,192,94946,1,0,0:0:0:0:
192,192,95002,1,0,0:0:0:0:
448,192,95058,1,0,0:0:0:0:
64,192,95115,1,0,0:0:0:0:
192,192,95171,1,0,0:0:0:0:
320,192,95199,1,0,0:0:0:0:
448,192,95228,1,0,0:0:0:0:
64,192,95284,1,0,0:0:0:0:
320,192,95340,1,0,0:0:0:0:
192,192,95397,1,0,0:0:0:0:
64,192,95397,1,0,0:0:0:0:
448,192,95453,1,0,0:0:0:0:
192,192,95510,1,0,0:0:0:0:
320,192,95566,1,0,0:0:0:0:
448,192,95622,1,0,0:0:0:0:
64,192,95622,1,0,0:0:0:0:
192,192,95679,1,0,0:0:0:0:
320,192,95735,1,0,0:0:0:0:
64,192,95792,1,0,0:0:0:0:
192,192,95848,1,0,0:0:0:0:
448,192,95876,1,0,0:0:0:0:
320,192,95904,1,0,0:0:0:0:
64,192,95961,1,0,0:0:0:0:
448,192,96017,1,0,0:0:0:0:
320,192,96074,1,0,0:0:0:0:
192,192,96074,1,0,0:0:0:0:
64,192,96130,1,0,0:0:0:0:
448,192,96186,1,0,0:0:0:0:
192,192,96243,1,0,0:0:0:0:
320,192,96299,1,0,0:0:0:0:
448,192,96299,1,0,0:0:0:0:
64,192,96355,1,0,0:0:0:0:
320,192,96412,1,0,0:0:0:0:
192,192,96468,1,0,0:0:0:0:
448,192,96525,1,0,0:0:0:0:
64,192,96553,1,0,0:0:0:0:
320,192,96581,1,0,0:0:0:0:
192,192,96637,1,0,0:0:0:0:
448,192,96694,1,0,0:0:0:0:
320,192,96750,1,0,0:0:0:0:
64,192,96750,1,0,0:0:0:0:
192,192,96807,1,0,0:0:0:0:
448,192,96863,1,0,0:0:0:0:
64,192,96919,1,0,0:0:0:0:
320,192,96976,1,0,0:0:0:0:
192,192,97004,1,0,0:0:0:0:
448,192,97032,1,0,0:0:0:0:
64,192,97089,1,0,0:0:0:0:
320,192,97145,1,0,0:0:0:0:
192,192,97201,1,0,0:0:0:0:
64,192,97201,1,0,0:0:0:0:
448,192,97258,1,0,0:0:0:0:
192,192,97314,1,0,0:0:0:0:
320,192,97371,1,0,0:0:0:0:
448,192,97427,1,0,0:0:0:0:
192,192,97455,1,0,0:0:0:0:
64,192,97483,1,0,0:0:0:0:
320,192,97540,1,0,0:0:0:0:
192,192,97596,1,0,0:0:0:0:
64,192,97652,1,0,0:0:0:0:
448,192,97652,1,0,0:0:0:0:
320,192,97709,1,0,0:0:0:0:
192,192,97765,1,0,0:0:0:0:
64,192,97822,1,0,0:0:0:0:
320,192,97878,1,0,0:0:0:0:
192,192,97878,1,0,0:0:0:0:
448,192,97934,1,0,0:0:0:0:
64,192,97991,1,0,0:0:0:0:
192,192,98047,1,0,0:0:0:0:
320,192,98104,1,0,0:0:0:0:
448,192,98132,1,0,0:0:0:0:
64,192,98160,1,0,0:0:0:0:
192,192,98216,1,0,0:0:0:0:
320,192,98273,1,0,0:0:0:0:
64,192,98329,1,0,0:0:0:0:
448,192,98329,1,0,0:0:0:0:
320,192,98386,1,0,0:0:0:0:
192,192,98442,1,0,0:0:0:0:
64,192,98498,1,0,0:0:0:0:
320,192,98555,1,0,0:0:0:0:
192,192,98555,1,0,0:0:0:0:
448,192,98611,1,0,0:0:0:0:
64,192,98668,1,0,0:0:0:0:
192,192,98724,1,0,0:0:0:0:
320,192,98780,1,0,0:0:0:0:
448,192,98808,1,0,0:0:0:0:
64,192,98837,1,0,0:0:0:0:
192,192,98893,1,0,0:0:0:0:
320,192,98949,1,0,0:0:0:0:
448,192,99006,1,0,0:0:0:0:
64,192,99006,1,0,0:0:0:0:
320,192,99062,1,0,0:0:0:0:
192,192,99119,1,0,0:0:0:0:
64,192,99175,1,0,0:0:0:0:
192,192,99231,1,0,0:0:0:0:
320,192,99231,1,0,0:0:0:0:
448,192,99288,1,0,0:0:0:0:
64,192,99344,1,0,0:0:0:0:
192,192,99401,1,0,0:0:0:0:
320,192,99457,1,0,0:0:0:0:
448,192,99485,1,0,0:0:0:0:
64,192,99513,1,0,0:0:0:0:
192,192,99570,1,0,0:0:0:0:
320,192,99626,1,0,0:0:0:0:
64,192,99683,1,0,0:0:0:0:
448,192,99683,1,0,0:0:0:0:
320,192,99739,1,0,0:0:0:0:
192,192,99795,1,0,0:0:0:0:
64,192,99852,1,0,0:0:0:0:
320,192,99908,1,0,0:0:0:0:
192,192,99908,1,0,0:0:0:0:
448,192,99965,1,0,0:0:0:0:
64,192,100021,1,0,0:0:0:0:
192,192,100077,1,0,0:0:0:0:
320,192,100134,1,0,0:0:0:0:
448,192,100162,1,0,0:0:0:0:
64,192,100190,1,0,0:0:0:0:
192,192,100246,1,0,0:0:0:0:
320,192,100303,1,0,0:0:0:0:
448,192,100359,1,0,0:0:0:0:
64,192,100359,1,0,0:0:0:0:
320,192,100416,1,0,0:0:0:0:
192,192,100472,1,0,0:0:0:0:
64,192,100528,1,0,0:0:0:0:
192,192,100585,1,0,0:0:0:0:
320,192,100613,1,0,0:0:0:0:
448,192,100641,1,0,0:0:0:0:
64,192,100698,1,0,0:0:0:0:
192,192,100754,1,0,0:0:0:0:
320,192,100810,1,0,0:0:0:0:
448,192,100810,1,0,0:0:0:0:
64,192,100867,1,0,0:0:0:0:
192,192,100923,1,0,0:0:0:0:
320,192,100980,1,0,0:0:0:0:
448,192,101036,1,0,0:0:0:0:
64,192,101036,1,0,0:0:0:0:
192,192,101036,1,0,0:0:0:0:
320,192,101092,1,0,0:0:0:0:
64,192,101149,1,0,0:0:0:0:
192,192,101205,1,0,0:0:0:0:
320,192,101261,1,0,0:0:0:0:
448,192,101261,1,0,0:0:0:0:
64,192,101318,1,0,0:0:0:0:
320,192,101374,1,0,0:0:0:0:
448,192,101431,1,0,0:0:0:0:
320,192,101487,1,0,0:0:0:0:
192,192,101487,1,0,0:0:0:0:
64,192,101543,1,0,0:0:0:0:
448,192,101600,1,0,0:0:0:0:
320,192,101656,1,0,0:0:0:0:
192,192,101713,1,0,0:0:0:0:
64,192,101741,1,0,0:0:0:0:
448,192,101769,1,0,0:0:0:0:
320,192,101825,1,0,0:0:0:0:
192,192,101882,1,0,0:0:0:0:
64,192,101938,1,0,0:0:0:0:
448,192,101938,1,0,0:0:0:0:
192,192,101995,1,0,0:0:0:0:
320,192,102051,1,0,0:0:0:0:
448,192,102107,1,0,0:0:0:0:
320,192,102164,1,0,0:0:0:0:
192,192,102164,1,0,0:0:0:0:
64,192,102220,1,0,0:0:0:0:
448,192,102277,1,0,0:0:0:0:
320,192,102333,1,0,0:0:0:0:
192,192,102389,1,0,0:0:0:0:
64,192,102418,1,0,0:0:0:0:
448,192,102446,1,0,0:0:0:0:
320,192,102502,1,0,0:0:0:0:
192,192,102558,1,0,0:0:0:0:
448,192,102615,1,0,0:0:0:0:
64,192,102615,1,0,0:0:0:0:
192,192,102671,1,0,0:0:0:0:
320,192,102728,1,0,0:0:0:0:
448,192,102784,1,0,0:0:0:0:
320,192,102840,1,0,0:0:0:0:
192,192,102869,1,0,0:0:0:0:
64,192,102897,1,0,0:0:0:0:
448,192,102953,1,0,0:0:0:0:
320,192,102981,1,0,0:0:0:0:
192,192,103010,1,0,0:0:0:0:
64,192,103066,1,0,0:0:0:0:
448,192,103094,1,0,0:0:0:0:
320,192,103122,1,0,0:0:0:0:
192,192,103179,1,0,0:0:0:0:
64,192,103207,1,0,0:0:0:0:
448,192,103235,1,0,0:0:0:0:
320,192,103292,1,0,0:0:0:0:
64,192,103320,1,0,0:0:0:0:
192,192,103348,1,0,0:0:0:0:
320,192,103404,1,0,0:0:0:0:
448,192,103461,1,0,0:0:0:0:
64,192,103517,1,0,0:0:0:0:
192,192,103545,1,0,0:0:0:0:
320,192,103574,1,0,0:0:0:0:
448,192,103630,1,0,0:0:0:0:
320,192,103686,1,0,0:0:0:0:
192,192,103743,1,0,0:0:0:0:
64,192,103771,1,0,0:0:0:0:
448,192,103799,1,0,0:0:0:0:
320,192,103855,1,0,0:0:0:0:
192,192,103884,1,0,0:0:0:0:
64,192,103912,1,0,0:0:0:0:
448,192,103968,1,0,0:0:0:0:
320,192,103996,1,0,0:0:0:0:
192,192,104025,1,0,0:0:0:0:
64,192,104081,1,0,0:0:0:0:
320,192,104109,1,0,0:0:0:0:
448,192,104137,1,0,0:0:0:0:
64,192,104194,1,0,0:0:0:0:
192,192,104222,1,0,0:0:0:0:
448,192,104250,1,0,0:0:0:0:
320,192,104278,1,0,0:0:0:0:
64,192,104307,1,0,0:0:0:0:
192,192,104363,1,0,0:0:0:0:
320,192,104419,1,0,0:0:0:0:
448,192,104419,1,0,0:0:0:0:
64,192,104448,1,0,0:0:0:0:
192,192,104476,1,0,0:0:0:0:
320,192,104532,1,0,0:0:0:0:
448,192,104560,1,0,0:0:0:0:
64,192,104589,1,0,0:0:0:0:
192,192,104589,1,0,0:0:0:0:
320,192,104645,1,0,0:0:0:0:
448,192,104645,1,0,0:0:0:0:
192,192,105322,1,0,0:0:0:0:
320,192,105350,1,0,0:0:0:0:
192,192,105998,1,0,0:0:0:0:
64,192,106027,1,0,0:0:0:0:
192,192,106675,1,0,0:0:0:0:
320,192,106703,1,0,0:0:0:0:
448,192,107352,1,0,0:0:0:0:
320,192,107380,1,0,0:0:0:0:
448,192,107803,1,0,0:0:0:0:
192,192,107831,1,0,0:0:0:0:
320,192,108254,1,0,0:0:0:0:
448,192,108254,1,0,0:0:0:0:
64,192,108282,1,0,0:0:0:0:
192,192,108931,1,0,0:0:0:0:
320,192,108959,1,0,0:0:0:0:
320,192,109607,1,0,0:0:0:0:
448,192,109636,1,0,0:0:0:0:
192,192,110284,1,0,0:0:0:0:
320,192,110312,1,0,0:0:0:0:
64,192,110961,1,0,0:0:0:0:
192,192,110989,1,0,0:0:0:0:
64,192,111412,1,0,0:0:0:0:
320,192,111440,1,0,0:0:0:0:
192,192,111863,1,0,0:0:0:0:
64,192,111863,1,0,0:0:0:0:
448,192,111863,1,0,0:0:0:0:
320,192,111863,1,0,0:0:0:0:
448,192,112540,1,0,0:0:0:0:
64,192,112568,1,0,0:0:0:0:
448,192,113216,1,0,0:0:0:0:
192,192,113245,1,0,0:0:0:0:
448,192,113893,1,0,0:0:0:0:
320,192,113921,1,0,0:0:0:0:
448,192,114570,1,0,0:0:0:0:
192,192,114598,1,0,0:0:0:0:
64,192,115021,1,0,0:0:0:0:
320,192,115049,1,0,0:0:0:0:
192,192,115472,1,0,0:0:0:0:
64,192,115472,1,0,0:0:0:0:
320,192,115472,1,0,0:0:0:0:
448,192,115472,1,0,0:0:0:0:
64,192,116149,1,0,0:0:0:0:
192,192,116177,1,0,0:0:0:0:
64,192,116797,1,0,0:0:0:0:
192,192,116825,1,0,0:0:0:0:
320,192,116854,1,0,0:0:0:0:
448,192,116882,1,0,0:0:0:0:
64,192,117277,128,0,118179:0:0:0:0:
448,192,118179,128,0,119081:0:0:0:0:
192,192,119081,1,0,0:0:0:0:
64,192,119081,1,0,0:0:0:0:
64,192,119983,1,0,0:0:0:0:
192,192,120886,1,0,0:0:0:0:
64,192,120886,1,0,0:0:0:0:
64,192,121788,1,0,0:0:0:0:
192,192,122690,1,0,0:0:0:0:
64,192,122690,1,0,0:0:0:0:
64,192,123592,1,0,0:0:0:0:
192,192,124495,1,0,0:0:0:0:
64,192,124495,1,0,0:0:0:0:
64,192,125397,1,0,0:0:0:0:
192,192,125622,1,0,0:0:0:0:
64,192,125622,1,0,0:0:0:0:
192,192,125961,1,0,0:0:0:0:
64,192,125961,1,0,0:0:0:0:
448,192,126271,1,0,0:0:0:0:
64,192,126299,1,0,0:0:0:0:
192,192,126318,1,0,0:0:0:0:
320,192,126327,1,0,0:0:0:0:
448,192,126948,1,0,0:0:0:0:
192,192,126957,1,0,0:0:0:0:
320,192,126976,1,0,0:0:0:0:
448,192,127201,1,0,0:0:0:0:
64,192,127201,1,0,0:0:0:0:
64,192,127624,1,0,0:0:0:0:
320,192,127634,1,0,0:0:0:0:
192,192,127652,1,0,0:0:0:0:
192,192,128104,1,0,0:0:0:0:
64,192,128104,1,0,0:0:0:0:
320,192,128301,1,0,0:0:0:0:
192,192,128310,1,0,0:0:0:0:
448,192,128329,1,0,0:0:0:0:
64,192,129006,1,0,0:0:0:0:
448,192,129034,1,0,0:0:0:0:
320,192,129457,1,0,0:0:0:0:
448,192,129485,1,0,0:0:0:0:
192,192,129908,1,0,0:0:0:0:
64,192,129908,1,0,0:0:0:0:
320,192,129908,1,0,0:0:0:0:
448,192,129936,1,0,0:0:0:0:
192,192,130585,1,0,0:0:0:0:
448,192,130613,1,0,0:0:0:0:
64,192,130810,1,0,0:0:0:0:
64,192,131261,1,0,0:0:0:0:
448,192,131290,1,0,0:0:0:0:
192,192,131713,1,0,0:0:0:0:
64,192,131713,1,0,0:0:0:0:
320,192,131741,1,0,0:0:0:0:
448,192,131741,1,0,0:0:0:0:
64,192,132615,1,0,0:0:0:0:
448,192,132615,128,0,132840:0:0:0:0:
192,192,132840,1,0,0:0:0:0:
64,192,132840,1,0,0:0:0:0:
320,192,133066,128,0,133179:0:0:0:0:
448,192,133066,1,0,0:0:0:0:
64,192,133179,1,0,0:0:0:0:
192,192,133179,128,0,133292:0:0:0:0:
320,192,133292,1,0,0:0:0:0:
448,192,133292,128,0,133517:0:0:0:0:
192,192,133517,1,0,0:0:0:0:
64,192,133517,1,0,0:0:0:0:
320,192,133517,1,0,0:0:0:0:
320,192,133630,1,0,0:0:0:0:
192,192,133743,1,0,0:0:0:0:
448,192,133743,1,0,0:0:0:0:
448,192,133855,1,0,0:0:0:0:
64,192,133855,1,0,0:0:0:0:
320,192,133968,1,0,0:0:0:0:
64,192,133968,1,0,0:0:0:0:
448,192,133968,1,0,0:0:0:0:
320,192,134081,1,0,0:0:0:0:
192,192,134194,1,0,0:0:0:0:
448,192,134194,1,0,0:0:0:0:
448,192,134307,1,0,0:0:0:0:
64,192,134307,1,0,0:0:0:0:
64,192,134419,1,0,0:0:0:0:
192,192,134419,1,0,0:0:0:0:
320,192,134419,1,0,0:0:0:0:
192,192,134532,1,0,0:0:0:0:
320,192,134645,1,0,0:0:0:0:
64,192,134645,1,0,0:0:0:0:
192,192,134758,1,0,0:0:0:0:
448,192,134758,1,0,0:0:0:0:
64,192,134871,1,0,0:0:0:0:
448,192,134871,1,0,0:0:0:0:
192,192,134871,1,0,0:0:0:0:
320,192,134983,1,0,0:0:0:0:
320,192,135096,1,0,0:0:0:0:
192,192,135096,1,0,0:0:0:0:
64,192,135209,1,0,0:0:0:0:
192,192,135209,1,0,0:0:0:0:
448,192,135322,1,0,0:0:0:0:
64,192,135322,1,0,0:0:0:0:
320,192,135322,1,0,0:0:0:0:
192,192,135434,1,0,0:0:0:0:
64,192,135547,1,0,0:0:0:0:
320,192,135547,1,0,0:0:0:0:
192,192,135660,1,0,0:0:0:0:
448,192,135660,1,0,0:0:0:0:
320,192,135773,1,0,0:0:0:0:
448,192,135773,1,0,0:0:0:0:
64,192,135773,1,0,0:0:0:0:
320,192,135886,1,0,0:0:0:0:
192,192,135998,1,0,0:0:0:0:
448,192,135998,1,0,0:0:0:0:
64,192,136111,1,0,0:0:0:0:
320,192,136111,1,0,0:0:0:0:
64,192,136224,1,0,0:0:0:0:
448,192,136224,1,0,0:0:0:0:
320,192,136224,1,0,0:0:0:0:
192,192,136337,1,0,0:0:0:0:
192,192,136449,1,0,0:0:0:0:
320,192,136449,1,0,0:0:0:0:
64,192,136562,1,0,0:0:0:0:
448,192,136562,1,0,0:0:0:0:
448,192,136675,1,0,0:0:0:0:
192,192,136675,1,0,0:0:0:0:
320,192,136675,1,0,0:0:0:0:
192,192,136788,1,0,0:0:0:0:
320,192,136788,1,0,0:0:0:0:
64,192,136901,1,0,0:0:0:0:
448,192,136901,1,0,0:0:0:0:
448,192,137013,1,0,0:0:0:0:
64,192,137013,1,0,0:0:0:0:
320,192,137126,1,0,0:0:0:0:
448,192,137126,1,0,0:0:0:0:
192,192,137126,1,0,0:0:0:0:
192,192,137239,1,0,0:0:0:0:
320,192,137352,1,0,0:0:0:0:
64,192,137352,1,0,0:0:0:0:
64,192,137465,1,0,0:0:0:0:
320,192,137465,1,0,0:0:0:0:
448,192,137577,1,0,0:0:0:0:
320,192,137577,1,0,0:0:0:0:
64,192,137577,1,0,0:0:0:0:
192,192,137690,1,0,0:0:0:0:
192,192,137803,1,0,0:0:0:0:
320,192,137803,1,0,0:0:0:0:
64,192,137916,1,0,0:0:0:0:
448,192,137916,1,0,0:0:0:0:
192,192,138028,1,0,0:0:0:0:
64,192,138028,1,0,0:0:0:0:
448,192,138028,1,0,0:0:0:0:
320,192,138141,1,0,0:0:0:0:
320,192,138254,1,0,0:0:0:0:
448,192,138254,1,0,0:0:0:0:
64,192,138254,1,0,0:0:0:0:
192,192,138367,1,0,0:0:0:0:
192,192,138480,1,0,0:0:0:0:
448,192,138480,1,0,0:0:0:0:
64,192,138480,1,0,0:0:0:0:
320,192,138592,1,0,0:0:0:0:
192,192,138705,1,0,0:0:0:0:
320,192,138705,1,0,0:0:0:0:
192,192,138818,1,0,0:0:0:0:
64,192,138931,1,0,0:0:0:0:
320,192,138931,1,0,0:0:0:0:
448,192,138931,1,0,0:0:0:0:
192,192,139043,1,0,0:0:0:0:
320,192,139156,1,0,0:0:0:0:
64,192,139156,1,0,0:0:0:0:
192,192,139269,1,0,0:0:0:0:
448,192,139269,1,0,0:0:0:0:
320,192,139382,1,0,0:0:0:0:
64,192,139382,1,0,0:0:0:0:
192,192,139495,1,0,0:0:0:0:
320,192,139607,1,0,0:0:0:0:
448,192,139607,1,0,0:0:0:0:
448,192,139720,1,0,0:0:0:0:
64,192,139720,1,0,0:0:0:0:
64,192,139833,1,0,0:0:0:0:
192,192,139833,1,0,0:0:0:0:
320,192,139946,1,0,0:0:0:0:
192,192,140058,1,0,0:0:0:0:
448,192,140058,1,0,0:0:0:0:
320,192,140171,1,0,0:0:0:0:
64,192,140171,1,0,0:0:0:0:
192,192,140284,1,0,0:0:0:0:
64,192,140284,1,0,0:0:0:0:
192,192,140397,1,0,0:0:0:0:
320,192,140510,1,0,0:0:0:0:
448,192,140510,1,0,0:0:0:0:
448,192,140622,1,0,0:0:0:0:
64,192,140622,1,0,0:0:0:0:
192,192,140735,1,0,0:0:0:0:
448,192,140735,1,0,0:0:0:0:
64,192,140735,1,0,0:0:0:0:
320,192,140848,1,0,0:0:0:0:
192,192,140961,1,0,0:0:0:0:
64,192,140961,1,0,0:0:0:0:
64,192,141074,1,0,0:0:0:0:
192,192,141186,1,0,0:0:0:0:
448,192,141186,1,0,0:0:0:0:
320,192,141186,1,0,0:0:0:0:
320,192,141299,1,0,0:0:0:0:
192,192,141412,1,0,0:0:0:0:
64,192,141412,1,0,0:0:0:0:
64,192,141525,1,0,0:0:0:0:
448,192,141525,1,0,0:0:0:0:
448,192,141637,1,0,0:0:0:0:
320,192,141637,1,0,0:0:0:0:
192,192,141637,1,0,0:0:0:0:
64,192,141750,1,0,0:0:0:0:
192,192,141863,1,0,0:0:0:0:
320,192,141863,1,0,0:0:0:0:
448,192,141976,1,0,0:0:0:0:
192,192,141976,1,0,0:0:0:0:
448,192,142089,1,0,0:0:0:0:
64,192,142089,1,0,0:0:0:0:
320,192,142089,1,0,0:0:0:0:
192,192,142201,1,0,0:0:0:0:
192,192,142314,1,0,0:0:0:0:
64,192,142314,1,0,0:0:0:0:
448,192,142427,1,0,0:0:0:0:
320,192,142427,1,0,0:0:0:0:
64,192,142540,1,0,0:0:0:0:
448,192,142540,1,0,0:0:0:0:
64,192,142652,1,0,0:0:0:0:
448,192,142765,1,0,0:0:0:0:
192,192,142765,1,0,0:0:0:0:
320,192,142878,1,0,0:0:0:0:
64,192,142878,1,0,0:0:0:0:
192,192,142991,1,0,0:0:0:0:
64,192,142991,1,0,0:0:0:0:
448,192,142991,1,0,0:0:0:0:
320,192,143104,1,0,0:0:0:0:
448,192,143216,1,0,0:0:0:0:
192,192,143216,1,0,0:0:0:0:
320,192,143329,1,0,0:0:0:0:
64,192,143329,1,0,0:0:0:0:
448,192,143442,1,0,0:0:0:0:
64,192,143442,1,0,0:0:0:0:
192,192,143442,1,0,0:0:0:0:
448,192,143555,1,0,0:0:0:0:
320,192,143668,1,0,0:0:0:0:
192,192,143668,1,0,0:0:0:0:
192,192,143780,1,0,0:0:0:0:
64,192,143780,1,0,0:0:0:0:
64,192,143893,1,0,0:0:0:0:
320,192,143893,1,0,0:0:0:0:
448,192,143893,1,0,0:0:0:0:
320,192,144006,1,0,0:0:0:0:
448,192,144119,1,0,0:0:0:0:
192,192,144119,1,0,0:0:0:0:
64,192,144231,1,0,0:0:0:0:
448,192,144231,1,0,0:0:0:0:
192,192,144344,1,0,0:0:0:0:
64,192,144344,1,0,0:0:0:0:
320,192,144344,1,0,0:0:0:0:
448,192,144457,1,0,0:0:0:0:
448,192,144570,1,0,0:0:0:0:
320,192,144570,1,0,0:0:0:0:
192,192,144683,1,0,0:0:0:0:
64,192,144683,1,0,0:0:0:0:
64,192,144795,1,0,0:0:0:0:
320,192,144795,1,0,0:0:0:0:
448,192,144795,1,0,0:0:0:0:
320,192,144908,1,0,0:0:0:0:
448,192,145021,1,0,0:0:0:0:
192,192,145021,1,0,0:0:0:0:
320,192,145134,1,0,0:0:0:0:
64,192,145134,1,0,0:0:0:0:
320,192,145246,1,0,0:0:0:0:
448,192,145246,1,0,0:0:0:0:
64,192,145246,1,0,0:0:0:0:
192,192,145359,1,0,0:0:0:0:
192,192,145472,1,0,0:0:0:0:
64,192,145472,1,0,0:0:0:0:
448,192,145585,1,0,0:0:0:0:
64,192,145585,1,0,0:0:0:0:
320,192,145698,1,0,0:0:0:0:
64,192,145698,1,0,0:0:0:0:
448,192,145698,1,0,0:0:0:0:
192,192,145810,1,0,0:0:0:0:
320,192,145923,1,0,0:0:0:0:
192,192,145923,1,0,0:0:0:0:
320,192,146036,1,0,0:0:0:0:
448,192,146036,1,0,0:0:0:0:
448,192,146149,1,0,0:0:0:0:
192,192,146149,1,0,0:0:0:0:
64,192,146149,1,0,0:0:0:0:
64,192,146261,1,0,0:0:0:0:
192,192,146374,1,0,0:0:0:0:
448,192,146374,1,0,0:0:0:0:
320,192,146487,1,0,0:0:0:0:
64,192,146487,1,0,0:0:0:0:
192,192,146600,1,0,0:0:0:0:
448,192,146600,1,0,0:0:0:0:
64,192,146600,1,0,0:0:0:0:
192,192,146713,1,0,0:0:0:0:
192,192,146825,1,0,0:0:0:0:
64,192,146825,1,0,0:0:0:0:
64,192,146938,1,0,0:0:0:0:
448,192,146938,1,0,0:0:0:0:
448,192,147051,1,0,0:0:0:0:
320,192,147051,1,0,0:0:0:0:
192,192,147051,1,0,0:0:0:0:
64,192,147164,1,0,0:0:0:0:
320,192,147277,1,0,0:0:0:0:
64,192,147277,1,0,0:0:0:0:
192,192,147389,1,0,0:0:0:0:
448,192,147389,1,0,0:0:0:0:
320,192,147502,1,0,0:0:0:0:
448,192,147502,1,0,0:0:0:0:
64,192,147502,1,0,0:0:0:0:
192,192,147615,1,0,0:0:0:0:
192,192,147728,1,0,0:0:0:0:
64,192,147728,1,0,0:0:0:0:
64,192,147840,1,0,0:0:0:0:
448,192,147840,1,0,0:0:0:0:
320,192,147953,1,0,0:0:0:0:
192,192,147953,1,0,0:0:0:0:
64,192,147953,1,0,0:0:0:0:
320,192,148066,1,0,0:0:0:0:
192,192,148179,1,0,0:0:0:0:
320,192,148179,1,0,0:0:0:0:
320,192,148292,1,0,0:0:0:0:
448,192,148292,1,0,0:0:0:0:
192,192,148404,1,0,0:0:0:0:
64,192,148404,1,0,0:0:0:0:
448,192,148404,1,0,0:0:0:0:
192,192,148517,1,0,0:0:0:0:
192,192,148630,1,0,0:0:0:0:
64,192,148630,1,0,0:0:0:0:
192,192,148743,1,0,0:0:0:0:
320,192,148743,1,0,0:0:0:0:
448,192,148855,1,0,0:0:0:0:
64,192,148855,1,0,0:0:0:0:
320,192,148855,1,0,0:0:0:0:
64,192,148968,1,0,0:0:0:0:
448,192,149081,1,0,0:0:0:0:
64,192,149081,1,0,0:0:0:0:
320,192,149194,1,0,0:0:0:0:
448,192,149194,1,0,0:0:0:0:
64,192,149307,1,0,0:0:0:0:
448,192,149307,1,0,0:0:0:0:
320,192,149307,1,0,0:0:0:0:
192,192,149419,1,0,0:0:0:0:
448,192,149532,1,0,0:0:0:0:
64,192,149532,1,0,0:0:0:0:
192,192,149645,1,0,0:0:0:0:
320,192,149645,1,0,0:0:0:0:
64,192,149758,1,0,0:0:0:0:
192,192,149758,1,0,0:0:0:0:
448,192,149758,1,0,0:0:0:0:
192,192,149871,1,0,0:0:0:0:
320,192,149983,1,0,0:0:0:0:
448,192,149983,1,0,0:0:0:0:
192,192,150096,1,0,0:0:0:0:
320,192,150096,1,0,0:0:0:0:
320,192,150209,1,0,0:0:0:0:
448,192,150209,1,0,0:0:0:0:
64,192,150209,1,0,0:0:0:0:
64,192,150322,1,0,0:0:0:0:
64,192,150434,1,0,0:0:0:0:
192,192,150434,1,0,0:0:0:0:
64,192,150547,1,0,0:0:0:0:
448,192,150547,1,0,0:0:0:0:
320,192,150660,1,0,0:0:0:0:
448,192,150660,1,0,0:0:0:0:
192,192,150660,1,0,0:0:0:0:
192,192,150773,1,0,0:0:0:0:
320,192,150886,1,0,0:0:0:0:
448,192,150886,1,0,0:0:0:0:
320,192,150998,1,0,0:0:0:0:
192,192,150998,1,0,0:0:0:0:
64,192,151111,1,0,0:0:0:0:
192,192,151111,1,0,0:0:0:0:
448,192,151111,1,0,0:0:0:0:
192,192,151224,1,0,0:0:0:0:
192,192,151337,1,0,0:0:0:0:
64,192,151337,1,0,0:0:0:0:
320,192,151449,1,0,0:0:0:0:
448,192,151449,1,0,0:0:0:0:
448,192,151562,1,0,0:0:0:0:
64,192,151562,1,0,0:0:0:0:
192,192,151562,1,0,0:0:0:0:
64,192,151675,1,0,0:0:0:0:
448,192,151788,1,0,0:0:0:0:
64,192,151788,1,0,0:0:0:0:
320,192,151901,1,0,0:0:0:0:
448,192,151901,1,0,0:0:0:0:
448,192,152013,1,0,0:0:0:0:
64,192,152013,1,0,0:0:0:0:
192,192,152013,1,0,0:0:0:0:
64,192,152126,1,0,0:0:0:0:
64,192,152239,1,0,0:0:0:0:
448,192,152239,1,0,0:0:0:0:
320,192,152352,1,0,0:0:0:0:
192,192,152352,1,0,0:0:0:0:
448,192,152465,1,0,0:0:0:0:
64,192,152465,1,0,0:0:0:0:
320,192,152465,1,0,0:0:0:0:
448,192,152577,1,0,0:0:0:0:
320,192,152690,1,0,0:0:0:0:
192,192,152690,1,0,0:0:0:0:
192,192,152803,1,0,0:0:0:0:
64,192,152803,1,0,0:0:0:0:
448,192,152916,1,0,0:0:0:0:
64,192,152916,1,0,0:0:0:0:
320,192,152916,1,0,0:0:0:0:
448,192,153028,1,0,0:0:0:0:
192,192,153141,1,0,0:0:0:0:
448,192,153141,1,0,0:0:0:0:
320,192,153254,1,0,0:0:0:0:
64,192,153254,1,0,0:0:0:0:
64,192,153367,1,0,0:0:0:0:
192,192,153367,1,0,0:0:0:0:
448,192,153367,1,0,0:0:0:0:
320,192,153480,1,0,0:0:0:0:
320,192,153592,1,0,0:0:0:0:
448,192,153592,1,0,0:0:0:0:
448,192,153705,1,0,0:0:0:0:
64,192,153705,1,0,0:0:0:0:
64,192,153818,1,0,0:0:0:0:
192,192,153818,1,0,0:0:0:0:
448,192,153818,1,0,0:0:0:0:
320,192,153931,1,0,0:0:0:0:
320,192,154043,1,0,0:0:0:0:
448,192,154043,1,0,0:0:0:0:
192,192,154156,1,0,0:0:0:0:
64,192,154156,1,0,0:0:0:0:
320,192,154269,1,0,0:0:0:0:
448,192,154269,1,0,0:0:0:0:
64,192,154269,1,0,0:0:0:0:
64,192,154382,1,0,0:0:0:0:
320,192,154495,1,0,0:0:0:0:
192,192,154495,1,0,0:0:0:0:
64,192,154607,1,0,0:0:0:0:
448,192,154607,1,0,0:0:0:0:
192,192,154720,1,0,0:0:0:0:
64,192,154720,1,0,0:0:0:0:
320,192,154720,1,0,0:0:0:0:
448,192,154833,1,0,0:0:0:0:
192,192,154946,1,0,0:0:0:0:
320,192,154946,1,0,0:0:0:0:
448,192,155058,1,0,0:0:0:0:
64,192,155058,1,0,0:0:0:0:
320,192,155171,1,0,0:0:0:0:
448,192,155171,1,0,0:0:0:0:
192,192,155171,1,0,0:0:0:0:
320,192,155284,1,0,0:0:0:0:
320,192,155397,1,0,0:0:0:0:
448,192,155397,1,0,0:0:0:0:
192,192,155510,1,0,0:0:0:0:
320,192,155510,1,0,0:0:0:0:
320,192,155622,1,0,0:0:0:0:
448,192,155622,1,0,0:0:0:0:
320,192,155735,1,0,0:0:0:0:
64,192,155848,1,0,0:0:0:0:
448,192,155848,1,0,0:0:0:0:
320,192,155848,1,0,0:0:0:0:
320,192,155961,1,0,0:0:0:0:
192,192,155961,1,0,0:0:0:0:
320,192,156074,1,0,0:0:0:0:
448,192,156074,1,0,0:0:0:0:
192,192,156186,1,0,0:0:0:0:
64,192,156186,1,0,0:0:0:0:
320,192,156299,1,0,0:0:0:0:
448,192,156299,1,0,0:0:0:0:
192,192,156412,1,0,0:0:0:0:
64,192,156412,1,0,0:0:0:0:
448,192,156525,1,0,0:0:0:0:
192,192,156525,1,0,0:0:0:0:
320,192,156637,1,0,0:0:0:0:
64,192,156637,1,0,0:0:0:0:
192,192,156750,1,0,0:0:0:0:
448,192,156750,1,0,0:0:0:0:
320,192,156863,1,0,0:0:0:0:
64,192,156863,1,0,0:0:0:0:
64,192,156976,1,0,0:0:0:0:
192,192,156976,1,0,0:0:0:0:
448,192,156976,1,0,0:0:0:0:
64,192,157089,1,0,0:0:0:0:
64,192,157201,1,0,0:0:0:0:
192,192,157201,1,0,0:0:0:0:
192,192,157314,1,0,0:0:0:0:
320,192,157314,1,0,0:0:0:0:
192,192,157427,1,0,0:0:0:0:
64,192,157427,1,0,0:0:0:0:
448,192,157427,1,0,0:0:0:0:
64,192,157540,1,0,0:0:0:0:
64,192,157652,1,0,0:0:0:0:
192,192,157652,1,0,0:0:0:0:
448,192,157652,1,0,0:0:0:0:
192,192,157765,1,0,0:0:0:0:
192,192,157878,1,0,0:0:0:0:
64,192,157878,1,0,0:0:0:0:
448,192,157878,1,0,0:0:0:0:
64,192,157991,1,0,0:0:0:0:
64,192,158104,1,0,0:0:0:0:
192,192,158104,1,0,0:0:0:0:
320,192,158104,1,0,0:0:0:0:
64,192,158216,1,0,0:0:0:0:
64,192,158329,1,0,0:0:0:0:
192,192,158329,1,0,0:0:0:0:
448,192,158329,1,0,0:0:0:0:
64,192,158442,1,0,0:0:0:0:
64,192,158555,1,0,0:0:0:0:
192,192,158555,1,0,0:0:0:0:
64,192,158668,1,0,0:0:0:0:
320,192,158668,1,0,0:0:0:0:
64,192,158780,1,0,0:0:0:0:
448,192,158780,1,0,0:0:0:0:
448,192,158893,1,0,0:0:0:0:
64,192,158893,1,0,0:0:0:0:
320,192,159006,1,0,0:0:0:0:
192,192,159006,1,0,0:0:0:0:
192,192,159119,1,0,0:0:0:0:
320,192,159119,1,0,0:0:0:0:
320,192,159231,1,0,0:0:0:0:
448,192,159231,1,0,0:0:0:0:
448,192,159344,1,0,0:0:0:0:
320,192,159344,1,0,0:0:0:0:
64,192,159457,1,0,0:0:0:0:
192,192,159457,1,0,0:0:0:0:
192,192,159570,1,0,0:0:0:0:
64,192,159570,1,0,0:0:0:0:
320,192,159683,1,0,0:0:0:0:
448,192,159683,1,0,0:0:0:0:
64,192,159683,1,0,0:0:0:0:
64,192,159795,1,0,0:0:0:0:
320,192,159795,1,0,0:0:0:0:
448,192,159795,1,0,0:0:0:0:
192,192,159908,1,0,0:0:0:0:
64,192,159908,1,0,0:0:0:0:
448,192,159908,1,0,0:0:0:0:
448,192,160021,1,0,0:0:0:0:
192,192,160021,1,0,0:0:0:0:
64,192,160021,1,0,0:0:0:0:
320,192,160134,1,0,0:0:0:0:
448,192,160134,1,0,0:0:0:0:
192,192,160134,1,0,0:0:0:0:
192,192,160246,1,0,0:0:0:0:
320,192,160246,1,0,0:0:0:0:
448,192,160246,1,0,0:0:0:0:
320,192,160359,1,0,0:0:0:0:
64,192,160359,1,0,0:0:0:0:
192,192,160359,1,0,0:0:0:0:
64,192,160472,1,0,0:0:0:0:
192,192,160472,1,0,0:0:0:0:
320,192,160472,1,0,0:0:0:0:
448,192,160585,1,0,0:0:0:0:
192,192,160810,1,0,0:0:0:0:
448,192,160923,1,0,0:0:0:0:
64,192,161149,1,0,0:0:0:0:
448,192,161374,1,0,0:0:0:0:
448,192,161487,1,0,0:0:0:0:
320,192,161487,1,0,0:0:0:0:
448,192,161713,1,0,0:0:0:0:
448,192,161825,1,0,0:0:0:0:
320,192,161825,1,0,0:0:0:0:
320,192,161938,1,0,0:0:0:0:
448,192,161938,1,0,0:0:0:0:
192,192,161938,1,0,0:0:0:0:
320,192,162164,1,0,0:0:0:0:
448,192,162164,1,0,0:0:0:0:
320,192,162277,1,0,0:0:0:0:
448,192,162277,1,0,0:0:0:0:
192,192,162277,1,0,0:0:0:0:
64,192,162389,1,0,0:0:0:0:
320,192,162389,1,0,0:0:0:0:
448,192,162446,1,0,0:0:0:0:
192,192,162465,1,0,0:0:0:0:
320,192,162502,1,0,0:0:0:0:
192,192,162558,1,0,0:0:0:0:
64,192,162615,1,0,0:0:0:0:
448,192,162615,1,0,0:0:0:0:
192,192,162652,1,0,0:0:0:0:
320,192,162671,1,0,0:0:0:0:
448,192,162728,1,0,0:0:0:0:
192,192,162765,1,0,0:0:0:0:
64,192,162803,1,0,0:0:0:0:
320,192,162840,1,0,0:0:0:0:
192,192,162878,1,0,0:0:0:0:
448,192,162897,1,0,0:0:0:0:
320,192,162953,1,0,0:0:0:0:
192,192,163010,1,0,0:0:0:0:
64,192,163066,1,0,0:0:0:0:
448,192,163066,1,0,0:0:0:0:
192,192,163104,1,0,0:0:0:0:
320,192,163122,1,0,0:0:0:0:
448,192,163179,1,0,0:0:0:0:
320,192,163235,1,0,0:0:0:0:
192,192,163292,1,0,0:0:0:0:
64,192,163292,1,0,0:0:0:0:
320,192,163329,1,0,0:0:0:0:
448,192,163367,1,0,0:0:0:0:
64,192,163404,1,0,0:0:0:0:
320,192,163461,1,0,0:0:0:0:
192,192,163517,1,0,0:0:0:0:
448,192,163517,1,0,0:0:0:0:
320,192,163555,1,0,0:0:0:0:
64,192,163574,1,0,0:0:0:0:
448,192,163630,1,0,0:0:0:0:
320,192,163686,1,0,0:0:0:0:
192,192,163705,1,0,0:0:0:0:
64,192,163743,1,0,0:0:0:0:
320,192,163780,1,0,0:0:0:0:
448,192,163799,1,0,0:0:0:0:
64,192,163855,1,0,0:0:0:0:
320,192,163893,1,0,0:0:0:0:
448,192,163931,1,0,0:0:0:0:
192,192,163968,1,0,0:0:0:0:
320,192,164006,1,0,0:0:0:0:
64,192,164025,1,0,0:0:0:0:
448,192,164081,1,0,0:0:0:0:
320,192,164137,1,0,0:0:0:0:
64,192,164156,1,0,0:0:0:0:
448,192,164194,1,0,0:0:0:0:
320,192,164231,1,0,0:0:0:0:
192,192,164250,1,0,0:0:0:0:
64,192,164307,1,0,0:0:0:0:
320,192,164363,1,0,0:0:0:0:
448,192,164419,1,0,0:0:0:0:
192,192,164419,1,0,0:0:0:0:
320,192,164457,1,0,0:0:0:0:
64,192,164476,1,0,0:0:0:0:
448,192,164532,1,0,0:0:0:0:
192,192,164589,1,0,0:0:0:0:
448,192,164645,1,0,0:0:0:0:
64,192,164645,1,0,0:0:0:0:
320,192,164683,1,0,0:0:0:0:
192,192,164701,1,0,0:0:0:0:
64,192,164758,1,0,0:0:0:0:
320,192,164814,1,0,0:0:0:0:
448,192,164871,1,0,0:0:0:0:
192,192,164871,1,0,0:0:0:0:
320,192,164908,1,0,0:0:0:0:
64,192,164927,1,0,0:0:0:0:
448,192,164983,1,0,0:0:0:0:
192,192,165040,1,0,0:0:0:0:
320,192,165096,1,0,0:0:0:0:
448,192,165096,1,0,0:0:0:0:
192,192,165134,1,0,0:0:0:0:
64,192,165152,1,0,0:0:0:0:
448,192,165209,1,0,0:0:0:0:
192,192,165265,1,0,0:0:0:0:
320,192,165284,1,0,0:0:0:0:
64,192,165322,1,0,0:0:0:0:
192,192,165359,1,0,0:0:0:0:
448,192,165378,1,0,0:0:0:0:
64,192,165434,1,0,0:0:0:0:
192,192,165491,1,0,0:0:0:0:
320,192,165547,1,0,0:0:0:0:
448,192,165547,1,0,0:0:0:0:
192,192,165585,1,0,0:0:0:0:
64,192,165604,1,0,0:0:0:0:
448,192,165660,1,0,0:0:0:0:
192,192,165698,1,0,0:0:0:0:
320,192,165773,1,0,0:0:0:0:
64,192,165773,1,0,0:0:0:0:
192,192,165810,1,0,0:0:0:0:
448,192,165848,1,0,0:0:0:0:
64,192,165886,1,0,0:0:0:0:
192,192,165942,1,0,0:0:0:0:
448,192,165998,1,0,0:0:0:0:
64,192,165998,1,0,0:0:0:0:
320,192,166036,1,0,0:0:0:0:
192,192,166055,1,0,0:0:0:0:
448,192,166111,1,0,0:0:0:0:
192,192,166168,1,0,0:0:0:0:
320,192,166224,1,0,0:0:0:0:
64,192,166224,1,0,0:0:0:0:
448,192,166261,1,0,0:0:0:0:
192,192,166280,1,0,0:0:0:0:
320,192,166337,1,0,0:0:0:0:
64,192,166393,1,0,0:0:0:0:
448,192,166449,1,0,0:0:0:0:
192,192,166449,1,0,0:0:0:0:
320,192,166487,1,0,0:0:0:0:
64,192,166506,1,0,0:0:0:0:
448,192,166562,1,0,0:0:0:0:
192,192,166619,1,0,0:0:0:0:
320,192,166675,1,0,0:0:0:0:
64,192,166675,1,0,0:0:0:0:
448,192,166713,1,0,0:0:0:0:
192,192,166731,1,0,0:0:0:0:
320,192,166788,1,0,0:0:0:0:
192,192,166844,1,0,0:0:0:0:
448,192,166901,1,0,0:0:0:0:
64,192,166901,1,0,0:0:0:0:
320,192,166938,1,0,0:0:0:0:
192,192,166957,1,0,0:0:0:0:
448,192,167013,1,0,0:0:0:0:
64,192,167070,1,0,0:0:0:0:
320,192,167126,1,0,0:0:0:0:
192,192,167126,1,0,0:0:0:0:
448,192,167164,1,0,0:0:0:0:
64,192,167183,1,0,0:0:0:0:
320,192,167239,1,0,0:0:0:0:
192,192,167295,1,0,0:0:0:0:
448,192,167352,1,0,0:0:0:0:
64,192,167352,1,0,0:0:0:0:
320,192,167389,1,0,0:0:0:0:
192,192,167408,1,0,0:0:0:0:
448,192,167465,1,0,0:0:0:0:
192,192,167521,1,0,0:0:0:0:
320,192,167577,1,0,0:0:0:0:
64,192,167577,1,0,0:0:0:0:
448,192,167615,1,0,0:0:0:0:
192,192,167634,1,0,0:0:0:0:
320,192,167690,1,0,0:0:0:0:
192,192,167746,1,0,0:0:0:0:
448,192,167803,1,0,0:0:0:0:
320,192,167803,1,0,0:0:0:0:
64,192,167859,1,0,0:0:0:0:
192,192,167916,1,0,0:0:0:0:
320,192,167972,1,0,0:0:0:0:
192,192,168028,1,0,0:0:0:0:
64,192,168028,1,0,0:0:0:0:
448,192,168085,1,0,0:0:0:0:
320,192,168141,1,0,0:0:0:0:
192,192,168198,1,0,0:0:0:0:
320,192,168254,1,0,0:0:0:0:
448,192,168254,1,0,0:0:0:0:
64,192,168310,1,0,0:0:0:0:
192,192,168367,1,0,0:0:0:0:
320,192,168423,1,0,0:0:0:0:
192,192,168480,1,0,0:0:0:0:
64,192,168480,1,0,0:0:0:0:
448,192,168536,1,0,0:0:0:0:
320,192,168592,1,0,0:0:0:0:
192,192,168649,1,0,0:0:0:0:
320,192,168705,1,0,0:0:0:0:
448,192,168705,1,0,0:0:0:0:
64,192,168761,1,0,0:0:0:0:
192,192,168818,1,0,0:0:0:0:
448,192,168874,1,0,0:0:0:0:
64,192,168931,1,0,0:0:0:0:
320,192,168931,1,0,0:0:0:0:
192,192,168987,1,0,0:0:0:0:
448,192,168987,1,0,0:0:0:0:
64,192,169043,1,0,0:0:0:0:
192,192,169100,1,0,0:0:0:0:
448,192,169156,1,0,0:0:0:0:
64,192,169156,1,0,0:0:0:0:
320,192,169194,1,0,0:0:0:0:
192,192,169213,1,0,0:0:0:0:
448,192,169269,1,0,0:0:0:0:
320,192,169325,1,0,0:0:0:0:
64,192,169382,1,0,0:0:0:0:
448,192,169382,1,0,0:0:0:0:
192,192,169419,1,0,0:0:0:0:
320,192,169438,1,0,0:0:0:0:
448,192,169495,1,0,0:0:0:0:
64,192,169551,1,0,0:0:0:0:
448,192,169607,1,0,0:0:0:0:
192,192,169607,1,0,0:0:0:0:
320,192,169645,1,0,0:0:0:0:
64,192,169664,1,0,0:0:0:0:
192,192,169720,1,0,0:0:0:0:
320,192,169777,1,0,0:0:0:0:
448,192,169833,1,0,0:0:0:0:
64,192,169833,1,0,0:0:0:0:
320,192,169871,1,0,0:0:0:0:
192,192,169889,1,0,0:0:0:0:
64,192,169946,1,0,0:0:0:0:
320,192,170002,1,0,0:0:0:0:
448,192,170058,1,0,0:0:0:0:
192,192,170058,1,0,0:0:0:0:
320,192,170096,1,0,0:0:0:0:
64,192,170115,1,0,0:0:0:0:
192,192,170171,1,0,0:0:0:0:
320,192,170228,1,0,0:0:0:0:
448,192,170284,1,0,0:0:0:0:
64,192,170284,1,0,0:0:0:0:
320,192,170322,1,0,0:0:0:0:
192,192,170340,1,0,0:0:0:0:
64,192,170397,1,0,0:0:0:0:
192,192,170453,1,0,0:0:0:0:
320,192,170510,1,0,0:0:0:0:
448,192,170510,1,0,0:0:0:0:
192,192,170547,1,0,0:0:0:0:
64,192,170566,1,0,0:0:0:0:
448,192,170622,1,0,0:0:0:0:
192,192,170679,1,0,0:0:0:0:
320,192,170735,1,0,0:0:0:0:
64,192,170735,1,0,0:0:0:0:
192,192,170773,1,0,0:0:0:0:
448,192,170792,1,0,0:0:0:0:
64,192,170848,1,0,0:0:0:0:
192,192,170904,1,0,0:0:0:0:
320,192,170961,1,0,0:0:0:0:
448,192,170961,1,0,0:0:0:0:
192,192,170998,1,0,0:0:0:0:
64,192,171017,1,0,0:0:0:0:
448,192,171074,1,0,0:0:0:0:
192,192,171130,1,0,0:0:0:0:
320,192,171186,1,0,0:0:0:0:
64,192,171186,1,0,0:0:0:0:
192,192,171224,1,0,0:0:0:0:
448,192,171243,1,0,0:0:0:0:
64,192,171299,1,0,0:0:0:0:
192,192,171355,1,0,0:0:0:0:
64,192,171412,1,0,0:0:0:0:
448,192,171412,1,0,0:0:0:0:
192,192,171449,1,0,0:0:0:0:
320,192,171468,1,0,0:0:0:0:
448,192,171525,1,0,0:0:0:0:
192,192,171581,1,0,0:0:0:0:
64,192,171637,1,0,0:0:0:0:
320,192,171637,1,0,0:0:0:0:
192,192,171675,1,0,0:0:0:0:
448,192,171694,1,0,0:0:0:0:
64,192,171750,1,0,0:0:0:0:
320,192,171807,1,0,0:0:0:0:
64,192,171863,1,0,0:0:0:0:
448,192,171863,1,0,0:0:0:0:
192,192,171901,1,0,0:0:0:0:
320,192,171919,1,0,0:0:0:0:
448,192,171976,1,0,0:0:0:0:
192,192,172032,1,0,0:0:0:0:
64,192,172089,1,0,0:0:0:0:
320,192,172089,1,0,0:0:0:0:
192,192,172126,1,0,0:0:0:0:
448,192,172145,1,0,0:0:0:0:
64,192,172201,1,0,0:0:0:0:
320,192,172258,1,0,0:0:0:0:
192,192,172314,1,0,0:0:0:0:
64,192,172314,1,0,0:0:0:0:
320,192,172352,1,0,0:0:0:0:
448,192,172371,1,0,0:0:0:0:
64,192,172427,1,0,0:0:0:0:
320,192,172483,1,0,0:0:0:0:
192,192,172540,1,0,0:0:0:0:
448,192,172540,1,0,0:0:0:0:
320,192,172577,1,0,0:0:0:0:
64,192,172596,1,0,0:0:0:0:
448,192,172652,1,0,0:0:0:0:
320,192,172709,1,0,0:0:0:0:
192,192,172765,1,0,0:0:0:0:
64,192,172765,1,0,0:0:0:0:
320,192,172803,1,0,0:0:0:0:
448,192,172822,1,0,0:0:0:0:
64,192,172878,1,0,0:0:0:0:
320,192,172934,1,0,0:0:0:0:
192,192,172991,1,0,0:0:0:0:
448,192,172991,1,0,0:0:0:0:
320,192,173028,1,0,0:0:0:0:
64,192,173047,1,0,0:0:0:0:
448,192,173104,1,0,0:0:0:0:
320,192,173160,1,0,0:0:0:0:
64,192,173216,1,0,0:0:0:0:
448,192,173216,1,0,0:0:0:0:
192,192,173254,1,0,0:0:0:0:
320,192,173273,1,0,0:0:0:0:
64,192,173329,1,0,0:0:0:0:
320,192,173386,1,0,0:0:0:0:
192,192,173442,1,0,0:0:0:0:
448,192,173442,1,0,0:0:0:0:
64,192,173480,1,0,0:0:0:0:
320,192,173498,1,0,0:0:0:0:
192,192,173555,1,0,0:0:0:0:
448,192,173611,1,0,0:0:0:0:
64,192,173668,1,0,0:0:0:0:
320,192,173668,1,0,0:0:0:0:
192,192,173705,1,0,0:0:0:0:
448,192,173724,1,0,0:0:0:0:
64,192,173780,1,0,0:0:0:0:
320,192,173837,1,0,0:0:0:0:
192,192,173893,1,0,0:0:0:0:
448,192,173893,1,0,0:0:0:0:
64,192,173931,1,0,0:0:0:0:
320,192,173949,1,0,0:0:0:0:
192,192,174006,1,0,0:0:0:0:
320,192,174062,1,0,0:0:0:0:
64,192,174119,1,0,0:0:0:0:
448,192,174119,1,0,0:0:0:0:
192,192,174156,1,0,0:0:0:0:
320,192,174175,1,0,0:0:0:0:
64,192,174231,1,0,0:0:0:0:
448,192,174288,1,0,0:0:0:0:
192,192,174344,1,0,0:0:0:0:
320,192,174344,1,0,0:0:0:0:
64,192,174382,1,0,0:0:0:0:
448,192,174401,1,0,0:0:0:0:
192,192,174457,1,0,0:0:0:0:
320,192,174513,1,0,0:0:0:0:
64,192,174570,1,0,0:0:0:0:
448,192,174570,1,0,0:0:0:0:
192,192,174607,1,0,0:0:0:0:
320,192,174626,1,0,0:0:0:0:
64,192,174683,1,0,0:0:0:0:
320,192,174739,1,0,0:0:0:0:
192,192,174795,1,0,0:0:0:0:
448,192,174795,1,0,0:0:0:0:
64,192,174833,1,0,0:0:0:0:
320,192,174852,1,0,0:0:0:0:
192,192,174908,1,0,0:0:0:0:
320,192,174965,1,0,0:0:0:0:
64,192,175021,1,0,0:0:0:0:
192,192,175021,1,0,0:0:0:0:
448,192,175077,1,0,0:0:0:0:
320,192,175134,1,0,0:0:0:0:
192,192,175190,1,0,0:0:0:0:
320,192,175246,1,0,0:0:0:0:
448,192,175246,1,0,0:0:0:0:
64,192,175303,1,0,0:0:0:0:
192,192,175359,1,0,0:0:0:0:
320,192,175416,1,0,0:0:0:0:
192,192,175472,1,0,0:0:0:0:
64,192,175472,1,0,0:0:0:0:
448,192,175528,1,0,0:0:0:0:
320,192,175585,1,0,0:0:0:0:
192,192,175641,1,0,0:0:0:0:
320,192,175698,1,0,0:0:0:0:
448,192,175698,1,0,0:0:0:0:
64,192,175754,1,0,0:0:0:0:
192,192,175810,1,0,0:0:0:0:
320,192,175867,1,0,0:0:0:0:
192,192,175923,1,0,0:0:0:0:
64,192,175923,1,0,0:0:0:0:
448,192,176036,1,0,0:0:0:0:
320,192,176036,1,0,0:0:0:0:
64,192,176092,1,0,0:0:0:0:
192,192,176092,1,0,0:0:0:0:
320,192,176149,1,0,0:0:0:0:
448,192,176149,1,0,0:0:0:0:
192,192,176261,1,0,0:0:0:0:
64,192,176261,1,0,0:0:0:0:
448,192,176318,1,0,0:0:0:0:
320,192,176318,1,0,0:0:0:0:
64,192,176374,1,0,0:0:0:0:
192,192,176374,1,0,0:0:0:0:
320,192,176487,1,0,0:0:0:0:
448,192,176487,1,0,0:0:0:0:
64,192,176600,1,0,0:0:0:0:
192,192,176619,1,0,0:0:0:0:
320,192,176656,1,0,0:0:0:0:
448,192,176675,1,0,0:0:0:0:
64,192,176713,1,0,0:0:0:0:
192,192,176731,1,0,0:0:0:0:
320,192,176769,1,0,0:0:0:0:
448,192,176788,1,0,0:0:0:0:
64,192,176825,1,0,0:0:0:0:
192,192,176854,1,0,0:0:0:0:
320,192,176882,1,0,0:0:0:0:
448,192,176910,1,0,0:0:0:0:
64,192,176938,1,0,0:0:0:0:
320,192,176976,1,0,0:0:0:0:
192,192,177051,1,0,0:0:0:0:
64,192,177051,1,0,0:0:0:0:
320,192,177089,1,0,0:0:0:0:
448,192,177107,1,0,0:0:0:0:
64,192,177164,1,0,0:0:0:0:
320,192,177201,1,0,0:0:0:0:
192,192,177277,1,0,0:0:0:0:
64,192,177277,1,0,0:0:0:0:
320,192,177314,1,0,0:0:0:0:
448,192,177333,1,0,0:0:0:0:
64,192,177389,1,0,0:0:0:0:
320,192,177427,1,0,0:0:0:0:
192,192,177446,1,0,0:0:0:0:
448,192,177502,1,0,0:0:0:0:
64,192,177502,1,0,0:0:0:0:
320,192,177530,1,0,0:0:0:0:
192,192,177558,1,0,0:0:0:0:
64,192,177587,1,0,0:0:0:0:
448,192,177615,1,0,0:0:0:0:
320,192,177671,1,0,0:0:0:0:
64,192,177728,1,0,0:0:0:0:
192,192,177756,1,0,0:0:0:0:
320,192,177784,1,0,0:0:0:0:
448,192,177812,1,0,0:0:0:0:
64,192,177840,1,0,0:0:0:0:
192,192,177878,1,0,0:0:0:0:
320,192,177897,1,0,0:0:0:0:
64,192,177953,1,0,0:0:0:0:
448,192,177953,1,0,0:0:0:0:
192,192,177991,1,0,0:0:0:0:
320,192,178010,1,0,0:0:0:0:
64,192,178066,1,0,0:0:0:0:
192,192,178104,1,0,0:0:0:0:
448,192,178122,1,0,0:0:0:0:
64,192,178179,1,0,0:0:0:0:
320,192,178179,1,0,0:0:0:0:
192,192,178216,1,0,0:0:0:0:
448,192,178292,1,0,0:0:0:0:
64,192,178292,1,0,0:0:0:0:
192,192,178329,1,0,0:0:0:0:
320,192,178348,1,0,0:0:0:0:
448,192,178404,1,0,0:0:0:0:
320,192,178433,1,0,0:0:0:0:
192,192,178461,1,0,0:0:0:0:
64,192,178489,1,0,0:0:0:0:
448,192,178517,1,0,0:0:0:0:
320,192,178574,1,0,0:0:0:0:
64,192,178630,1,0,0:0:0:0:
192,192,178658,1,0,0:0:0:0:
320,192,178686,1,0,0:0:0:0:
448,192,178715,1,0,0:0:0:0:
64,192,178743,1,0,0:0:0:0:
192,192,178780,1,0,0:0:0:0:
320,192,178855,1,0,0:0:0:0:
64,192,178855,1,0,0:0:0:0:
448,192,178893,1,0,0:0:0:0:
192,192,178912,1,0,0:0:0:0:
64,192,178968,1,0,0:0:0:0:
192,192,179006,1,0,0:0:0:0:
448,192,179025,1,0,0:0:0:0:
320,192,179081,1,0,0:0:0:0:
448,192,179119,1,0,0:0:0:0:
192,192,179137,1,0,0:0:0:0:
64,192,179194,1,0,0:0:0:0:
192,192,179231,1,0,0:0:0:0:
320,192,179250,1,0,0:0:0:0:
64,192,179307,1,0,0:0:0:0:
192,192,179335,1,0,0:0:0:0:
320,192,179363,1,0,0:0:0:0:
448,192,179391,1,0,0:0:0:0:
64,192,179419,1,0,0:0:0:0:
192,192,179419,1,0,0:0:0:0:
320,192,179476,1,0,0:0:0:0:
64,192,179532,1,0,0:0:0:0:
192,192,179560,1,0,0:0:0:0:
320,192,179589,1,0,0:0:0:0:
448,192,179617,1,0,0:0:0:0:
64,192,179645,1,0,0:0:0:0:
192,192,179645,1,0,0:0:0:0:
320,192,179683,1,0,0:0:0:0:
64,192,179758,1,0,0:0:0:0:
448,192,179758,1,0,0:0:0:0:
320,192,179795,1,0,0:0:0:0:
192,192,179814,1,0,0:0:0:0:
64,192,179871,1,0,0:0:0:0:
448,192,179871,1,0,0:0:0:0:
320,192,179908,1,0,0:0:0:0:
192,192,179927,1,0,0:0:0:0:
64,192,179983,1,0,0:0:0:0:
320,192,180021,1,0,0:0:0:0:
192,192,180040,1,0,0:0:0:0:
64,192,180096,1,0,0:0:0:0:
448,192,180096,1,0,0:0:0:0:
320,192,180134,1,0,0:0:0:0:
64,192,180209,1,0,0:0:0:0:
192,192,180237,1,0,0:0:0:0:
320,192,180265,1,0,0:0:0:0:
448,192,180293,1,0,0:0:0:0:
192,192,180322,1,0,0:0:0:0:
64,192,180322,1,0,0:0:0:0:
320,192,180378,1,0,0:0:0:0:
448,192,180434,1,0,0:0:0:0:
320,192,180463,1,0,0:0:0:0:
192,192,180491,1,0,0:0:0:0:
64,192,180519,1,0,0:0:0:0:
448,192,180547,1,0,0:0:0:0:
320,192,180547,1,0,0:0:0:0:
192,192,180604,1,0,0:0:0:0:
64,192,180660,1,0,0:0:0:0:
320,192,180660,1,0,0:0:0:0:
448,192,180698,1,0,0:0:0:0:
192,192,180716,1,0,0:0:0:0:
64,192,180773,1,0,0:0:0:0:
448,192,180810,1,0,0:0:0:0:
320,192,180829,1,0,0:0:0:0:
64,192,180886,1,0,0:0:0:0:
192,192,180886,1,0,0:0:0:0:
448,192,180923,1,0,0:0:0:0:
64,192,180998,1,0,0:0:0:0:
320,192,180998,1,0,0:0:0:0:
448,192,181036,1,0,0:0:0:0:
192,192,181055,1,0,0:0:0:0:
64,192,181111,1,0,0:0:0:0:
192,192,181139,1,0,0:0:0:0:
320,192,181168,1,0,0:0:0:0:
448,192,181196,1,0,0:0:0:0:
64,192,181224,1,0,0:0:0:0:
192,192,181280,1,0,0:0:0:0:
448,192,181337,1,0,0:0:0:0:
320,192,181365,1,0,0:0:0:0:
192,192,181393,1,0,0:0:0:0:
64,192,181421,1,0,0:0:0:0:
448,192,181449,1,0,0:0:0:0:
320,192,181487,1,0,0:0:0:0:
192,192,181506,1,0,0:0:0:0:
448,192,181562,1,0,0:0:0:0:
64,192,181562,1,0,0:0:0:0:
320,192,181600,1,0,0:0:0:0:
192,192,181619,1,0,0:0:0:0:
448,192,181675,1,0,0:0:0:0:
320,192,181713,1,0,0:0:0:0:
64,192,181731,1,0,0:0:0:0:
192,192,181788,1,0,0:0:0:0:
448,192,181788,1,0,0:0:0:0:
320,192,181825,1,0,0:0:0:0:
448,192,181901,1,0,0:0:0:0:
64,192,181901,1,0,0:0:0:0:
320,192,181938,1,0,0:0:0:0:
192,192,181957,1,0,0:0:0:0:
448,192,182013,1,0,0:0:0:0:
320,192,182042,1,0,0:0:0:0:
192,192,182070,1,0,0:0:0:0:
64,192,182098,1,0,0:0:0:0:
448,192,182126,1,0,0:0:0:0:
192,192,182164,1,0,0:0:0:0:
320,192,182201,1,0,0:0:0:0:
64,192,182239,1,0,0:0:0:0:
192,192,182267,1,0,0:0:0:0:
320,192,182295,1,0,0:0:0:0:
448,192,182324,1,0,0:0:0:0:
64,192,182352,1,0,0:0:0:0:
192,192,182352,1,0,0:0:0:0:
320,192,182408,1,0,0:0:0:0:
64,192,182465,1,0,0:0:0:0:
448,192,182465,1,0,0:0:0:0:
192,192,182502,1,0,0:0:0:0:
320,192,182521,1,0,0:0:0:0:
64,192,182577,1,0,0:0:0:0:
192,192,182615,1,0,0:0:0:0:
448,192,182634,1,0,0:0:0:0:
64,192,182690,1,0,0:0:0:0:
320,192,182690,1,0,0:0:0:0:
192,192,182728,1,0,0:0:0:0:
448,192,182803,1,0,0:0:0:0:
64,192,182803,1,0,0:0:0:0:
192,192,182840,1,0,0:0:0:0:
320,192,182859,1,0,0:0:0:0:
448,192,182916,1,0,0:0:0:0:
320,192,182944,1,0,0:0:0:0:
192,192,182972,1,0,0:0:0:0:
64,192,183000,1,0,0:0:0:0:
448,192,183028,1,0,0:0:0:0:
192,192,183085,1,0,0:0:0:0:
448,192,183141,1,0,0:0:0:0:
320,192,183169,1,0,0:0:0:0:
192,192,183198,1,0,0:0:0:0:
64,192,183226,1,0,0:0:0:0:
320,192,183254,1,0,0:0:0:0:
448,192,183254,1,0,0:0:0:0:
192,192,183310,1,0,0:0:0:0:
64,192,183367,1,0,0:0:0:0:
320,192,183404,1,0,0:0:0:0:
192,192,183442,1,0,0:0:0:0:
448,192,183480,1,0,0:0:0:0:
64,192,183517,1,0,0:0:0:0:
192,192,183555,1,0,0:0:0:0:
320,192,183592,1,0,0:0:0:0:
448,192,183592,1,0,0:0:0:0:
64,192,183705,1,0,0:0:0:0:
192,192,183724,1,0,0:0:0:0:
320,192,183761,1,0,0:0:0:0:
448,192,183780,1,0,0:0:0:0:
64,192,183818,1,0,0:0:0:0:
192,192,183818,1,0,0:0:0:0:
448,192,183931,1,0,0:0:0:0:
320,192,183949,1,0,0:0:0:0:
192,192,183987,1,0,0:0:0:0:
64,192,184006,1,0,0:0:0:0:
320,192,184043,1,0,0:0:0:0:
448,192,184043,1,0,0:0:0:0:
192,192,184100,1,0,0:0:0:0:
320,192,184156,1,0,0:0:0:0:
64,192,184156,1,0,0:0:0:0:
448,192,184213,1,0,0:0:0:0:
192,192,184269,1,0,0:0:0:0:
320,192,184269,1,0,0:0:0:0:
64,192,184325,1,0,0:0:0:0:
320,192,184382,1,0,0:0:0:0:
448,192,184382,1,0,0:0:0:0:
192,192,184438,1,0,0:0:0:0:
448,192,184495,1,0,0:0:0:0:
64,192,184495,1,0,0:0:0:0:
320,192,184551,1,0,0:0:0:0:
64,192,184607,1,0,0:0:0:0:
192,192,184607,1,0,0:0:0:0:
320,192,184664,1,0,0:0:0:0:
448,192,184720,1,0,0:0:0:0:
192,192,184720,1,0,0:0:0:0:
64,192,184777,1,0,0:0:0:0:
320,192,184833,1,0,0:0:0:0:
448,192,184852,1,0,0:0:0:0:
64,192,184889,1,0,0:0:0:0:
192,192,184908,1,0,0:0:0:0:
448,192,184946,1,0,0:0:0:0:
320,192,184946,1,0,0:0:0:0:
64,192,185002,1,0,0:0:0:0:
192,192,185058,1,0,0:0:0:0:
320,192,185058,1,0,0:0:0:0:
448,192,185115,1,0,0:0:0:0:
192,192,185171,1,0,0:0:0:0:
64,192,185171,1,0,0:0:0:0:
320,192,185228,1,0,0:0:0:0:
64,192,185284,1,0,0:0:0:0:
448,192,185284,1,0,0:0:0:0:
320,192,185340,1,0,0:0:0:0:
448,192,185397,1,0,0:0:0:0:
192,192,185397,1,0,0:0:0:0:
64,192,185453,1,0,0:0:0:0:
448,192,185510,1,0,0:0:0:0:
320,192,185510,1,0,0:0:0:0:
192,192,185566,1,0,0:0:0:0:
64,192,185622,1,0,0:0:0:0:
320,192,185622,1,0,0:0:0:0:
448,192,185641,1,0,0:0:0:0:
192,192,185679,1,0,0:0:0:0:
64,192,185698,1,0,0:0:0:0:
320,192,185735,1,0,0:0:0:0:
448,192,185754,1,0,0:0:0:0:
192,192,185792,1,0,0:0:0:0:
64,192,185810,1,0,0:0:0:0:
320,192,185848,1,0,0:0:0:0:
448,192,185848,1,0,0:0:0:0:
192,192,185904,1,0,0:0:0:0:
448,192,185961,1,0,0:0:0:0:
320,192,185961,1,0,0:0:0:0:
64,192,186017,1,0,0:0:0:0:
192,192,186074,1,0,0:0:0:0:
320,192,186074,1,0,0:0:0:0:
64,192,186130,1,0,0:0:0:0:
192,192,186186,1,0,0:0:0:0:
320,192,186186,1,0,0:0:0:0:
448,192,186243,1,0,0:0:0:0:
320,192,186299,1,0,0:0:0:0:
64,192,186299,1,0,0:0:0:0:
448,192,186355,1,0,0:0:0:0:
320,192,186412,1,0,0:0:0:0:
64,192,186412,1,0,0:0:0:0:
192,192,186468,1,0,0:0:0:0:
320,192,186525,1,0,0:0:0:0:
448,192,186525,1,0,0:0:0:0:
192,192,186581,1,0,0:0:0:0:
448,192,186637,1,0,0:0:0:0:
320,192,186637,1,0,0:0:0:0:
64,192,186666,1,0,0:0:0:0:
192,192,186694,1,0,0:0:0:0:
448,192,186722,1,0,0:0:0:0:
320,192,186750,1,0,0:0:0:0:
64,192,186750,1,0,0:0:0:0:
192,192,186807,1,0,0:0:0:0:
320,192,186863,1,0,0:0:0:0:
448,192,186863,1,0,0:0:0:0:
64,192,186919,1,0,0:0:0:0:
192,192,186976,1,0,0:0:0:0:
320,192,186976,1,0,0:0:0:0:
448,192,187032,1,0,0:0:0:0:
192,192,187089,1,0,0:0:0:0:
64,192,187089,1,0,0:0:0:0:
320,192,187145,1,0,0:0:0:0:
448,192,187201,1,0,0:0:0:0:
64,192,187201,1,0,0:0:0:0:
64,192,187314,1,0,0:0:0:0:
320,192,187314,1,0,0:0:0:0:
192,192,187342,1,0,0:0:0:0:
448,192,187371,1,0,0:0:0:0:
320,192,187399,1,0,0:0:0:0:
192,192,187540,1,0,0:0:0:0:
320,192,187540,1,0,0:0:0:0:
64,192,187568,1,0,0:0:0:0:
448,192,187596,1,0,0:0:0:0:
320,192,187624,1,0,0:0:0:0:
192,192,187652,1,0,0:0:0:0:
64,192,187709,1,0,0:0:0:0:
192,192,187765,1,0,0:0:0:0:
64,192,187822,1,0,0:0:0:0:
192,192,187878,1,0,0:0:0:0:
64,192,187934,1,0,0:0:0:0:
192,192,187991,1,0,0:0:0:0:
64,192,188047,1,0,0:0:0:0:
192,192,188104,1,0,0:0:0:0:
320,192,188160,1,0,0:0:0:0:
192,192,188216,1,0,0:0:0:0:
320,192,188273,1,0,0:0:0:0:
192,192,188329,1,0,0:0:0:0:
320,192,188386,1,0,0:0:0:0:
192,192,188442,1,0,0:0:0:0:
320,192,188498,1,0,0:0:0:0:
448,192,188555,1,0,0:0:0:0:
320,192,188611,1,0,0:0:0:0:
448,192,188668,1,0,0:0:0:0:
320,192,188724,1,0,0:0:0:0:
448,192,188780,1,0,0:0:0:0:
320,192,188837,1,0,0:0:0:0:
448,192,188893,1,0,0:0:0:0:
320,192,188949,1,0,0:0:0:0:
192,192,189006,1,0,0:0:0:0:
64,192,189034,1,0,0:0:0:0:
192,192,189062,1,0,0:0:0:0:
64,192,189090,1,0,0:0:0:0:
448,192,189119,1,0,0:0:0:0:
320,192,189147,1,0,0:0:0:0:
448,192,189175,1,0,0:0:0:0:
320,192,189203,1,0,0:0:0:0:
64,192,189231,1,0,0:0:0:0:
192,192,189231,1,0,0:0:0:0:
448,192,189344,1,0,0:0:0:0:
320,192,189344,1,0,0:0:0:0:
192,192,189457,1,0,0:0:0:0:
64,192,189457,1,0,0:0:0:0:
448,192,189570,1,0,0:0:0:0:
448,192,189683,1,0,0:0:0:0:
448,192,189795,1,0,0:0:0:0:
192,192,189908,1,0,0:0:0:0:
64,192,189908,1,0,0:0:0:0:
448,192,190021,1,0,0:0:0:0:
448,192,190134,1,0,0:0:0:0:
448,192,190246,1,0,0:0:0:0:
192,192,190359,1,0,0:0:0:0:
64,192,190359,1,0,0:0:0:0:
448,192,190472,1,0,0:0:0:0:
192,192,190585,1,0,0:0:0:0:
64,192,190585,1,0,0:0:0:0:
448,192,190698,1,0,0:0:0:0:
320,192,190810,1,0,0:0:0:0:
192,192,190810,1,0,0:0:0:0:
64,192,190810,1,0,0:0:0:0:
448,192,190867,1,0,0:0:0:0:
192,192,190923,1,0,0:0:0:0:
64,192,190923,1,0,0:0:0:0:
320,192,190980,1,0,0:0:0:0:
64,192,191036,1,0,0:0:0:0:
448,192,191036,1,0,0:0:0:0:
192,192,191092,1,0,0:0:0:0:
320,192,191149,1,0,0:0:0:0:
448,192,191149,1,0,0:0:0:0:
64,192,191205,1,0,0:0:0:0:
192,192,191261,1,0,0:0:0:0:
320,192,191261,1,0,0:0:0:0:
448,192,191261,1,0,0:0:0:0:
