osu file format v14

[General]
AudioFilename: audio.mp3
AudioLeadIn: 0
PreviewTime: 80150
Countdown: 1
SampleSet: None
StackLeniency: 0.7
Mode: 3
LetterboxInBreaks: 0
SpecialStyle: 0
WidescreenStoryboard: 1

[Editor]
DistanceSpacing: 1
BeatDivisor: 4
GridSize: 32
TimelineZoom: 2.099998

[Metadata]
Title:Pure Evil (Kobaryo FTN-Remix)
TitleUnicode:Pure Evil (Kobaryo FTN-Remix)
Artist:Kobaryo
ArtistUnicode:Kobaryo
Creator:Ortlinde
Version:Pure Shit
Source:SOUND VOLTEX III GRAVITY WARS
Tags:kors k楽曲REMIXコンテスト Song Contest Kosuke Saito Rei Furuba 斎藤広祐 HARDCORE TANO*C BEMANI KONAMI Digital Entertainment
BeatmapID:1232599
BeatmapSetID:582464

[Difficulty]
HPDrainRate:8
CircleSize:4
OverallDifficulty:8.5
ApproachRate:5
SliderMultiplier:1.4
SliderTickRate:1

[Events]
//Background and Video events
0,0,"Pure+Evil.png",0,0
//Break Periods
//Storyboard Layer 0 (Background)
//Storyboard Layer 1 (Fail)
//Storyboard Layer 2 (Pass)
//Storyboard Layer 3 (Foreground)
//Storyboard Sound Samples

[TimingPoints]
572,157.894736842105,4,2,0,20,1,0
18256,-66.6666666666667,4,2,0,20,0,0
18335,-133.333333333333,4,2,0,20,0,0
18414,-66.6666666666667,4,2,0,20,0,0
18493,-133.333333333333,4,2,0,20,0,0
18571,-66.6666666666667,4,2,0,20,0,0
18650,-133.333333333333,4,2,0,20,0,0
18729,-66.6666666666667,4,2,0,20,0,0
18808,-133.333333333333,4,2,0,20,0,0
18887,-66.6666666666667,4,2,0,20,0,0
18966,-133.333333333333,4,2,0,20,0,0
19045,-66.6666666666667,4,2,0,20,0,0
19124,-133.333333333333,4,2,0,20,0,0
19203,-66.6666666666667,4,2,0,20,0,0
19282,-133.333333333333,4,2,0,20,0,0
19361,-66.6666666666667,4,2,0,20,0,0
19440,-133.333333333333,4,2,0,20,0,0
19519,-100,4,2,0,20,0,0

[HitObjects]
64,192,572,5,0,0:0:0:0:
448,192,572,1,0,0:0:0:0:
192,192,572,1,0,0:0:0:0:
320,192,650,1,0,0:0:0:0:
448,192,729,1,0,0:0:0:0:
192,192,808,1,0,0:0:0:0:
320,192,887,1,0,0:0:0:0:
448,192,966,1,0,0:0:0:0:
192,192,1045,1,0,0:0:0:0:
320,192,1124,1,0,0:0:0:0:
448,192,1203,1,0,0:0:0:0:
192,192,1282,1,0,0:0:0:0:
320,192,1361,1,0,0:0:0:0:
448,192,1440,1,0,0:0:0:0:
192,192,1519,1,0,0:0:0:0:
320,192,1598,1,0,0:0:0:0:
448,192,1677,1,0,0:0:0:0:
192,192,1756,1,0,0:0:0:0:
320,192,1835,1,0,0:0:0:0:
448,192,1914,1,0,0:0:0:0:
192,192,1993,1,0,0:0:0:0:
320,192,2071,1,0,0:0:0:0:
448,192,2150,1,0,0:0:0:0:
192,192,2229,1,0,0:0:0:0:
320,192,2308,1,0,0:0:0:0:
448,192,2387,1,0,0:0:0:0:
192,192,2466,1,0,0:0:0:0:
320,192,2545,1,0,0:0:0:0:
448,192,2624,1,0,0:0:0:0:
192,192,2703,1,0,0:0:0:0:
320,192,2782,1,0,0:0:0:0:
448,192,2861,1,0,0:0:0:0:
64,192,2940,1,0,0:0:0:0:
192,192,3019,1,0,0:0:0:0:
320,192,3098,1,0,0:0:0:0:
64,192,3177,1,0,0:0:0:0:
192,192,3256,1,0,0:0:0:0:
320,192,3335,1,0,0:0:0:0:
64,192,3414,1,0,0:0:0:0:
192,192,3493,1,0,0:0:0:0:
320,192,3571,1,0,0:0:0:0:
64,192,3650,1,0,0:0:0:0:
192,192,3729,1,0,0:0:0:0:
320,192,3808,1,0,0:0:0:0:
64,192,3887,1,0,0:0:0:0:
192,192,3966,1,0,0:0:0:0:
320,192,4045,1,0,0:0:0:0:
64,192,4124,1,0,0:0:0:0:
192,192,4203,1,0,0:0:0:0:
448,192,4282,1,0,0:0:0:0:
64,192,4361,1,0,0:0:0:0:
192,192,4440,1,0,0:0:0:0:
448,192,4519,1,0,0:0:0:0:
64,192,4598,1,0,0:0:0:0:
192,192,4677,1,0,0:0:0:0:
448,192,4756,1,0,0:0:0:0:
64,192,4835,1,0,0:0:0:0:
192,192,4914,1,0,0:0:0:0:
448,192,4993,1,0,0:0:0:0:
64,192,5071,1,0,0:0:0:0:
192,192,5150,1,0,0:0:0:0:
448,192,5229,1,0,0:0:0:0:
64,192,5308,1,0,0:0:0:0:
320,192,5387,1,0,0:0:0:0:
448,192,5466,1,0,0:0:0:0:
192,192,5545,1,0,0:0:0:0:
320,192,5624,1,0,0:0:0:0:
192,192,5703,1,0,0:0:0:0:
64,192,5782,1,0,0:0:0:0:
320,192,5861,1,0,0:0:0:0:
192,192,5940,1,0,0:0:0:0:
64,192,6019,1,0,0:0:0:0:
320,192,6098,1,0,0:0:0:0:
192,192,6177,1,0,0:0:0:0:
64,192,6256,1,0,0:0:0:0:
320,192,6335,1,0,0:0:0:0:
192,192,6414,1,0,0:0:0:0:
64,192,6493,1,0,0:0:0:0:
320,192,6571,1,0,0:0:0:0:
192,192,6650,1,0,0:0:0:0:
64,192,6729,1,0,0:0:0:0:
320,192,6808,1,0,0:0:0:0:
192,192,6887,1,0,0:0:0:0:
64,192,6966,1,0,0:0:0:0:
320,192,7045,1,0,0:0:0:0:
192,192,7124,1,0,0:0:0:0:
64,192,7203,1,0,0:0:0:0:
320,192,7282,1,0,0:0:0:0:
192,192,7361,1,0,0:0:0:0:
64,192,7440,1,0,0:0:0:0:
320,192,7519,1,0,0:0:0:0:
192,192,7598,1,0,0:0:0:0:
64,192,7677,1,0,0:0:0:0:
320,192,7756,1,0,0:0:0:0:
192,192,7835,1,0,0:0:0:0:
64,192,7914,1,0,0:0:0:0:
448,192,7993,1,0,0:0:0:0:
320,192,8071,1,0,0:0:0:0:
192,192,8150,1,0,0:0:0:0:
448,192,8229,1,0,0:0:0:0:
320,192,8308,1,0,0:0:0:0:
192,192,8387,1,0,0:0:0:0:
448,192,8466,1,0,0:0:0:0:
320,192,8545,1,0,0:0:0:0:
192,192,8624,1,0,0:0:0:0:
448,192,8703,1,0,0:0:0:0:
320,192,8782,1,0,0:0:0:0:
192,192,8861,1,0,0:0:0:0:
448,192,8940,1,0,0:0:0:0:
320,192,9019,1,0,0:0:0:0:
192,192,9098,1,0,0:0:0:0:
448,192,9177,1,0,0:0:0:0:
320,192,9256,1,0,0:0:0:0:
64,192,9335,1,0,0:0:0:0:
448,192,9414,1,0,0:0:0:0:
320,192,9493,1,0,0:0:0:0:
64,192,9571,1,0,0:0:0:0:
448,192,9650,1,0,0:0:0:0:
320,192,9729,1,0,0:0:0:0:
64,192,9808,1,0,0:0:0:0:
448,192,9887,1,0,0:0:0:0:
320,192,9966,1,0,0:0:0:0:
64,192,10045,1,0,0:0:0:0:
448,192,10124,1,0,0:0:0:0:
320,192,10203,1,0,0:0:0:0:
64,192,10282,1,0,0:0:0:0:
448,192,10361,1,0,0:0:0:0:
192,192,10440,1,0,0:0:0:0:
64,192,10519,1,0,0:0:0:0:
320,192,10598,1,0,0:0:0:0:
64,192,10677,1,0,0:0:0:0:
192,192,10677,1,0,0:0:0:0:
448,192,10677,1,0,0:0:0:0:
320,192,10756,1,0,0:0:0:0:
192,192,10835,1,0,0:0:0:0:
448,192,10914,1,0,0:0:0:0:
320,192,10993,1,0,0:0:0:0:
64,192,10993,1,0,0:0:0:0:
192,192,11071,1,0,0:0:0:0:
320,192,11150,1,0,0:0:0:0:
448,192,11229,1,0,0:0:0:0:
192,192,11308,1,0,0:0:0:0:
64,192,11387,1,0,0:0:0:0:
320,192,11466,1,0,0:0:0:0:
448,192,11466,1,0,0:0:0:0:
64,192,11545,1,0,0:0:0:0:
320,192,11624,1,0,0:0:0:0:
192,192,11624,1,0,0:0:0:0:
448,192,11703,1,0,0:0:0:0:
320,192,11782,1,0,0:0:0:0:
192,192,11861,1,0,0:0:0:0:
64,192,11940,1,0,0:0:0:0:
448,192,11940,1,0,0:0:0:0:
320,192,12019,1,0,0:0:0:0:
192,192,12098,1,0,0:0:0:0:
448,192,12177,1,0,0:0:0:0:
320,192,12256,1,0,0:0:0:0:
64,192,12256,1,0,0:0:0:0:
192,192,12335,1,0,0:0:0:0:
320,192,12414,1,0,0:0:0:0:
448,192,12493,1,0,0:0:0:0:
192,192,12571,1,0,0:0:0:0:
320,192,12650,1,0,0:0:0:0:
192,192,12729,1,0,0:0:0:0:
64,192,12729,1,0,0:0:0:0:
448,192,12808,1,0,0:0:0:0:
192,192,12887,1,0,0:0:0:0:
320,192,12887,1,0,0:0:0:0:
64,192,12966,1,0,0:0:0:0:
448,192,13045,1,0,0:0:0:0:
192,192,13124,1,0,0:0:0:0:
448,192,13203,1,0,0:0:0:0:
320,192,13203,1,0,0:0:0:0:
64,192,13203,1,0,0:0:0:0:
192,192,13282,1,0,0:0:0:0:
320,192,13361,1,0,0:0:0:0:
64,192,13440,1,0,0:0:0:0:
448,192,13519,1,0,0:0:0:0:
192,192,13519,1,0,0:0:0:0:
320,192,13598,1,0,0:0:0:0:
192,192,13677,1,0,0:0:0:0:
64,192,13756,1,0,0:0:0:0:
320,192,13835,1,0,0:0:0:0:
448,192,13914,1,0,0:0:0:0:
192,192,13993,1,0,0:0:0:0:
64,192,13993,1,0,0:0:0:0:
448,192,14071,1,0,0:0:0:0:
320,192,14150,1,0,0:0:0:0:
192,192,14150,1,0,0:0:0:0:
64,192,14229,1,0,0:0:0:0:
192,192,14308,1,0,0:0:0:0:
320,192,14387,1,0,0:0:0:0:
64,192,14466,1,0,0:0:0:0:
448,192,14466,1,0,0:0:0:0:
192,192,14545,1,0,0:0:0:0:
320,192,14624,1,0,0:0:0:0:
64,192,14703,1,0,0:0:0:0:
448,192,14782,1,0,0:0:0:0:
192,192,14782,1,0,0:0:0:0:
320,192,14861,1,0,0:0:0:0:
192,192,14940,1,0,0:0:0:0:
64,192,15019,1,0,0:0:0:0:
448,192,15098,1,0,0:0:0:0:
320,192,15098,128,0,15256:0:0:0:0:
192,192,15177,1,0,0:0:0:0:
448,192,15256,1,0,0:0:0:0:
64,192,15256,128,0,15414:0:0:0:0:
192,192,15335,1,0,0:0:0:0:
320,192,15414,1,0,0:0:0:0:
448,192,15414,1,0,0:0:0:0:
192,192,15493,1,0,0:0:0:0:
64,192,15493,1,0,0:0:0:0:
320,192,15571,1,0,0:0:0:0:
448,192,15571,1,0,0:0:0:0:
192,192,15650,1,0,0:0:0:0:
64,192,15650,1,0,0:0:0:0:
320,192,15729,1,0,0:0:0:0:
448,192,15729,1,0,0:0:0:0:
192,192,15808,1,0,0:0:0:0:
64,192,15887,1,0,0:0:0:0:
448,192,15887,1,0,0:0:0:0:
320,192,15966,1,0,0:0:0:0:
192,192,16045,1,0,0:0:0:0:
64,192,16045,1,0,0:0:0:0:
448,192,16124,1,0,0:0:0:0:
320,192,16203,1,0,0:0:0:0:
192,192,16203,1,0,0:0:0:0:
64,192,16282,1,0,0:0:0:0:
320,192,16361,1,0,0:0:0:0:
448,192,16361,1,0,0:0:0:0:
64,192,16440,1,0,0:0:0:0:
192,192,16519,1,0,0:0:0:0:
320,192,16519,1,0,0:0:0:0:
448,192,16598,1,0,0:0:0:0:
64,192,16677,1,0,0:0:0:0:
192,192,16677,1,0,0:0:0:0:
320,192,16756,1,0,0:0:0:0:
448,192,16835,1,0,0:0:0:0:
64,192,16835,1,0,0:0:0:0:
192,192,16914,1,0,0:0:0:0:
320,192,16993,1,0,0:0:0:0:
448,192,16993,1,0,0:0:0:0:
64,192,17071,1,0,0:0:0:0:
448,192,17150,1,0,0:0:0:0:
320,192,17150,1,0,0:0:0:0:
64,192,17229,1,0,0:0:0:0:
192,192,17308,1,0,0:0:0:0:
320,192,17308,1,0,0:0:0:0:
448,192,17387,1,0,0:0:0:0:
192,192,17466,1,0,0:0:0:0:
320,192,17466,1,0,0:0:0:0:
448,192,17545,1,0,0:0:0:0:
64,192,17624,1,0,0:0:0:0:
192,192,17624,1,0,0:0:0:0:
320,192,17703,1,0,0:0:0:0:
64,192,17782,1,0,0:0:0:0:
192,192,17782,1,0,0:0:0:0:
320,192,17861,1,0,0:0:0:0:
64,192,17940,1,0,0:0:0:0:
448,192,17940,1,0,0:0:0:0:
192,192,18019,1,0,0:0:0:0:
64,192,18098,1,0,0:0:0:0:
448,192,18098,1,0,0:0:0:0:
320,192,18177,1,0,0:0:0:0:
64,192,18256,1,0,0:0:0:0:
192,192,18256,1,0,0:0:0:0:
448,192,18256,1,0,0:0:0:0:
64,192,18414,1,0,0:0:0:0:
192,192,18414,1,0,0:0:0:0:
448,192,18414,1,0,0:0:0:0:
64,192,18571,1,0,0:0:0:0:
320,192,18571,1,0,0:0:0:0:
448,192,18571,1,0,0:0:0:0:
64,192,18729,1,0,0:0:0:0:
320,192,18729,1,0,0:0:0:0:
448,192,18729,1,0,0:0:0:0:
320,192,18887,1,0,0:0:0:0:
192,192,18887,1,0,0:0:0:0:
448,192,18887,1,0,0:0:0:0:
192,192,19045,1,0,0:0:0:0:
320,192,19045,1,0,0:0:0:0:
448,192,19045,1,0,0:0:0:0:
320,192,19203,1,0,0:0:0:0:
192,192,19203,1,0,0:0:0:0:
64,192,19203,1,0,0:0:0:0:
192,192,19361,1,0,0:0:0:0:
320,192,19361,1,0,0:0:0:0:
64,192,19361,1,0,0:0:0:0:
448,192,19519,128,0,20703:0:0:0:0:
320,192,20150,128,0,20703:0:0:0:0:
192,192,20466,128,0,20703:0:0:0:0:
64,192,20782,1,0,0:0:0:0:
192,192,20782,1,0,0:0:0:0:
448,192,20782,1,0,0:0:0:0:
64,192,20940,1,0,0:0:0:0:
448,192,20940,1,0,0:0:0:0:
192,192,20940,1,0,0:0:0:0:
192,192,21098,1,0,0:0:0:0:
320,192,21098,1,0,0:0:0:0:
448,192,21098,1,0,0:0:0:0:
448,192,21256,1,0,0:0:0:0:
320,192,21256,1,0,0:0:0:0:
192,192,21256,1,0,0:0:0:0:
64,192,21414,1,0,0:0:0:0:
192,192,21414,1,0,0:0:0:0:
320,192,21414,1,0,0:0:0:0:
320,192,21571,1,0,0:0:0:0:
192,192,21571,1,0,0:0:0:0:
64,192,21571,1,0,0:0:0:0:
64,192,21729,1,0,0:0:0:0:
320,192,21729,1,0,0:0:0:0:
448,192,21729,1,0,0:0:0:0:
448,192,21887,1,0,0:0:0:0:
320,192,21887,1,0,0:0:0:0:
64,192,21887,1,0,0:0:0:0:
64,192,22045,1,0,0:0:0:0:
192,192,22045,1,0,0:0:0:0:
320,192,22045,1,0,0:0:0:0:
320,192,22203,1,0,0:0:0:0:
192,192,22203,1,0,0:0:0:0:
64,192,22203,1,0,0:0:0:0:
192,192,22361,1,0,0:0:0:0:
320,192,22361,1,0,0:0:0:0:
448,192,22361,1,0,0:0:0:0:
192,192,22519,1,0,0:0:0:0:
320,192,22519,1,0,0:0:0:0:
448,192,22519,1,0,0:0:0:0:
448,192,22677,1,0,0:0:0:0:
192,192,22677,1,0,0:0:0:0:
64,192,22677,1,0,0:0:0:0:
64,192,22835,1,0,0:0:0:0:
192,192,22835,1,0,0:0:0:0:
448,192,22835,1,0,0:0:0:0:
64,192,22993,128,0,23229:0:0:0:0:
320,192,22993,128,0,23229:0:0:0:0:
448,192,22993,128,0,23229:0:0:0:0:
448,192,23308,1,0,0:0:0:0:
192,192,23308,1,0,0:0:0:0:
320,192,23308,1,0,0:0:0:0:
192,192,23466,1,0,0:0:0:0:
320,192,23466,1,0,0:0:0:0:
448,192,23466,1,0,0:0:0:0:
448,192,23624,1,0,0:0:0:0:
192,192,23624,1,0,0:0:0:0:
64,192,23624,1,0,0:0:0:0:
64,192,23782,1,0,0:0:0:0:
192,192,23782,1,0,0:0:0:0:
448,192,23782,1,0,0:0:0:0:
320,192,23940,1,0,0:0:0:0:
448,192,23940,1,0,0:0:0:0:
64,192,23940,1,0,0:0:0:0:
448,192,24098,1,0,0:0:0:0:
320,192,24098,1,0,0:0:0:0:
64,192,24098,1,0,0:0:0:0:
64,192,24256,1,0,0:0:0:0:
192,192,24256,1,0,0:0:0:0:
320,192,24256,1,0,0:0:0:0:
320,192,24414,1,0,0:0:0:0:
192,192,24414,1,0,0:0:0:0:
64,192,24414,1,0,0:0:0:0:
64,192,24571,1,0,0:0:0:0:
320,192,24571,1,0,0:0:0:0:
448,192,24571,1,0,0:0:0:0:
64,192,24729,128,0,24887:0:0:0:0:
192,192,24729,1,0,0:0:0:0:
320,192,24729,1,0,0:0:0:0:
448,192,24887,1,0,0:0:0:0:
320,192,24887,1,0,0:0:0:0:
192,192,24887,128,0,25045:0:0:0:0:
448,192,25045,128,0,25203:0:0:0:0:
320,192,25045,1,0,0:0:0:0:
64,192,25045,1,0,0:0:0:0:
64,192,25203,1,0,0:0:0:0:
192,192,25243,1,0,0:0:0:0:
320,192,25282,1,0,0:0:0:0:
448,192,25321,1,0,0:0:0:0:
192,192,25361,1,0,0:0:0:0:
64,192,25361,1,0,0:0:0:0:
320,192,25440,1,0,0:0:0:0:
448,192,25440,1,0,0:0:0:0:
64,192,25519,1,0,0:0:0:0:
192,192,25558,1,0,0:0:0:0:
320,192,25598,1,0,0:0:0:0:
448,192,25637,1,0,0:0:0:0:
64,192,25677,1,0,0:0:0:0:
192,192,25716,1,0,0:0:0:0:
320,192,25756,1,0,0:0:0:0:
448,192,25795,1,0,0:0:0:0:
64,192,25835,1,0,0:0:0:0:
320,192,25835,1,0,0:0:0:0:
192,192,25835,1,0,0:0:0:0:
64,192,25993,1,0,0:0:0:0:
320,192,25993,1,0,0:0:0:0:
192,192,25993,1,0,0:0:0:0:
448,192,26150,1,0,0:0:0:0:
64,192,26150,1,0,0:0:0:0:
192,192,26150,1,0,0:0:0:0:
64,192,26308,1,0,0:0:0:0:
448,192,26308,1,0,0:0:0:0:
192,192,26308,1,0,0:0:0:0:
320,192,26466,1,0,0:0:0:0:
64,192,26466,1,0,0:0:0:0:
448,192,26466,1,0,0:0:0:0:
320,192,26624,1,0,0:0:0:0:
448,192,26624,1,0,0:0:0:0:
64,192,26624,1,0,0:0:0:0:
192,192,26782,1,0,0:0:0:0:
320,192,26782,1,0,0:0:0:0:
448,192,26782,1,0,0:0:0:0:
448,192,26940,1,0,0:0:0:0:
320,192,26940,1,0,0:0:0:0:
192,192,26940,1,0,0:0:0:0:
448,192,27098,1,0,0:0:0:0:
64,192,27098,1,0,0:0:0:0:
320,192,27098,1,0,0:0:0:0:
64,192,27256,1,0,0:0:0:0:
320,192,27256,1,0,0:0:0:0:
448,192,27256,1,0,0:0:0:0:
64,192,27414,1,0,0:0:0:0:
448,192,27414,1,0,0:0:0:0:
192,192,27414,1,0,0:0:0:0:
192,192,27571,1,0,0:0:0:0:
64,192,27571,1,0,0:0:0:0:
448,192,27571,1,0,0:0:0:0:
64,192,27729,1,0,0:0:0:0:
320,192,27729,1,0,0:0:0:0:
192,192,27729,1,0,0:0:0:0:
64,192,27887,1,0,0:0:0:0:
192,192,27887,1,0,0:0:0:0:
320,192,27887,1,0,0:0:0:0:
192,192,28045,1,0,0:0:0:0:
64,192,28045,1,0,0:0:0:0:
448,192,28045,128,0,28203:0:0:0:0:
64,192,28203,1,0,0:0:0:0:
192,192,28203,1,0,0:0:0:0:
320,192,28203,1,0,0:0:0:0:
64,192,28361,1,0,0:0:0:0:
192,192,28361,1,0,0:0:0:0:
448,192,28361,1,0,0:0:0:0:
192,192,28519,1,0,0:0:0:0:
448,192,28519,1,0,0:0:0:0:
64,192,28519,1,0,0:0:0:0:
64,192,28677,1,0,0:0:0:0:
320,192,28677,1,0,0:0:0:0:
448,192,28677,1,0,0:0:0:0:
448,192,28835,1,0,0:0:0:0:
320,192,28835,1,0,0:0:0:0:
64,192,28835,1,0,0:0:0:0:
64,192,28993,1,0,0:0:0:0:
320,192,28993,1,0,0:0:0:0:
192,192,28993,1,0,0:0:0:0:
64,192,29150,1,0,0:0:0:0:
192,192,29150,1,0,0:0:0:0:
320,192,29150,1,0,0:0:0:0:
192,192,29308,1,0,0:0:0:0:
320,192,29308,1,0,0:0:0:0:
448,192,29308,1,0,0:0:0:0:
448,192,29466,1,0,0:0:0:0:
192,192,29466,1,0,0:0:0:0:
320,192,29466,1,0,0:0:0:0:
448,192,29624,1,0,0:0:0:0:
320,192,29624,1,0,0:0:0:0:
192,192,29703,1,0,0:0:0:0:
64,192,29703,1,0,0:0:0:0:
448,192,29782,1,0,0:0:0:0:
320,192,29782,1,0,0:0:0:0:
192,192,29861,1,0,0:0:0:0:
448,192,29940,1,0,0:0:0:0:
320,192,29940,1,0,0:0:0:0:
64,192,29940,1,0,0:0:0:0:
448,192,30098,1,0,0:0:0:0:
192,192,30098,1,0,0:0:0:0:
64,192,30098,1,0,0:0:0:0:
448,192,30256,1,0,0:0:0:0:
320,192,30256,1,0,0:0:0:0:
192,192,30335,1,0,0:0:0:0:
64,192,30335,1,0,0:0:0:0:
448,192,30414,1,0,0:0:0:0:
320,192,30453,1,0,0:0:0:0:
192,192,30493,1,0,0:0:0:0:
64,192,30532,1,0,0:0:0:0:
448,192,30571,1,0,0:0:0:0:
320,192,30571,1,0,0:0:0:0:
192,192,30650,1,0,0:0:0:0:
64,192,30650,1,0,0:0:0:0:
448,192,30729,128,0,30887:0:0:0:0:
320,192,30729,128,0,30887:0:0:0:0:
64,192,31045,1,0,0:0:0:0:
192,192,31045,1,0,0:0:0:0:
320,192,31124,1,0,0:0:0:0:
448,192,31124,1,0,0:0:0:0:
192,192,31203,1,0,0:0:0:0:
320,192,31282,1,0,0:0:0:0:
64,192,31282,1,0,0:0:0:0:
192,192,31361,1,0,0:0:0:0:
448,192,31361,1,0,0:0:0:0:
320,192,31440,1,0,0:0:0:0:
192,192,31519,1,0,0:0:0:0:
64,192,31519,1,0,0:0:0:0:
448,192,31598,1,0,0:0:0:0:
192,192,31677,1,0,0:0:0:0:
320,192,31677,1,0,0:0:0:0:
64,192,31756,1,0,0:0:0:0:
448,192,31756,1,0,0:0:0:0:
320,192,31835,1,0,0:0:0:0:
192,192,31914,1,0,0:0:0:0:
448,192,31914,1,0,0:0:0:0:
64,192,31993,1,0,0:0:0:0:
320,192,31993,1,0,0:0:0:0:
448,192,32071,1,0,0:0:0:0:
320,192,32150,1,0,0:0:0:0:
192,192,32150,1,0,0:0:0:0:
64,192,32229,1,0,0:0:0:0:
320,192,32308,1,0,0:0:0:0:
448,192,32308,1,0,0:0:0:0:
192,192,32387,1,0,0:0:0:0:
64,192,32387,1,0,0:0:0:0:
448,192,32466,1,0,0:0:0:0:
320,192,32545,1,0,0:0:0:0:
64,192,32545,1,0,0:0:0:0:
192,192,32624,1,0,0:0:0:0:
448,192,32624,1,0,0:0:0:0:
320,192,32703,1,0,0:0:0:0:
448,192,32782,1,0,0:0:0:0:
64,192,32782,1,0,0:0:0:0:
192,192,32861,1,0,0:0:0:0:
448,192,32940,1,0,0:0:0:0:
320,192,32940,1,0,0:0:0:0:
64,192,33019,1,0,0:0:0:0:
192,192,33019,1,0,0:0:0:0:
448,192,33098,128,0,33335:0:0:0:0:
320,192,33098,1,0,0:0:0:0:
192,192,33177,1,0,0:0:0:0:
64,192,33256,1,0,0:0:0:0:
192,192,33335,1,0,0:0:0:0:
448,192,33414,1,0,0:0:0:0:
320,192,33414,1,0,0:0:0:0:
64,192,33493,1,0,0:0:0:0:
320,192,33571,1,0,0:0:0:0:
448,192,33571,1,0,0:0:0:0:
192,192,33650,1,0,0:0:0:0:
64,192,33650,1,0,0:0:0:0:
320,192,33729,1,0,0:0:0:0:
448,192,33808,1,0,0:0:0:0:
192,192,33808,1,0,0:0:0:0:
64,192,33887,1,0,0:0:0:0:
320,192,33887,1,0,0:0:0:0:
192,192,33966,1,0,0:0:0:0:
448,192,34045,1,0,0:0:0:0:
320,192,34045,1,0,0:0:0:0:
64,192,34124,1,0,0:0:0:0:
448,192,34203,1,0,0:0:0:0:
320,192,34243,1,0,0:0:0:0:
192,192,34282,1,0,0:0:0:0:
64,192,34321,1,0,0:0:0:0:
320,192,34361,1,0,0:0:0:0:
448,192,34361,1,0,0:0:0:0:
192,192,34440,1,0,0:0:0:0:
64,192,34519,1,0,0:0:0:0:
448,192,34519,128,0,34835:0:0:0:0:
320,192,34598,1,0,0:0:0:0:
192,192,34677,1,0,0:0:0:0:
64,192,34756,1,0,0:0:0:0:
192,192,34835,1,0,0:0:0:0:
320,192,34835,128,0,34993:0:0:0:0:
448,192,34993,1,0,0:0:0:0:
64,192,34993,1,0,0:0:0:0:
192,192,35071,1,0,0:0:0:0:
320,192,35150,1,0,0:0:0:0:
64,192,35150,128,0,35308:0:0:0:0:
192,192,35229,1,0,0:0:0:0:
448,192,35308,1,0,0:0:0:0:
320,192,35348,1,0,0:0:0:0:
192,192,35387,1,0,0:0:0:0:
64,192,35427,1,0,0:0:0:0:
320,192,35466,1,0,0:0:0:0:
448,192,35466,1,0,0:0:0:0:
192,192,35545,1,0,0:0:0:0:
64,192,35545,1,0,0:0:0:0:
448,192,35624,1,0,0:0:0:0:
320,192,35664,1,0,0:0:0:0:
192,192,35703,1,0,0:0:0:0:
64,192,35743,1,0,0:0:0:0:
448,192,35782,1,0,0:0:0:0:
320,192,35821,1,0,0:0:0:0:
192,192,35861,1,0,0:0:0:0:
64,192,35900,1,0,0:0:0:0:
192,192,35940,1,0,0:0:0:0:
320,192,35940,1,0,0:0:0:0:
448,192,35940,1,0,0:0:0:0:
64,192,36019,1,0,0:0:0:0:
192,192,36098,1,0,0:0:0:0:
320,192,36098,1,0,0:0:0:0:
64,192,36177,1,0,0:0:0:0:
448,192,36256,1,0,0:0:0:0:
320,192,36256,1,0,0:0:0:0:
64,192,36335,1,0,0:0:0:0:
192,192,36414,1,0,0:0:0:0:
320,192,36414,1,0,0:0:0:0:
64,192,36493,1,0,0:0:0:0:
448,192,36571,1,0,0:0:0:0:
320,192,36571,1,0,0:0:0:0:
64,192,36650,1,0,0:0:0:0:
192,192,36729,1,0,0:0:0:0:
448,192,36729,1,0,0:0:0:0:
64,192,36808,1,0,0:0:0:0:
448,192,36887,1,0,0:0:0:0:
320,192,36887,1,0,0:0:0:0:
64,192,36966,1,0,0:0:0:0:
192,192,37045,1,0,0:0:0:0:
448,192,37045,1,0,0:0:0:0:
320,192,37124,1,0,0:0:0:0:
448,192,37203,1,0,0:0:0:0:
64,192,37203,1,0,0:0:0:0:
192,192,37282,1,0,0:0:0:0:
320,192,37361,1,0,0:0:0:0:
64,192,37361,1,0,0:0:0:0:
448,192,37440,1,0,0:0:0:0:
64,192,37519,1,0,0:0:0:0:
192,192,37519,1,0,0:0:0:0:
448,192,37598,1,0,0:0:0:0:
320,192,37677,1,0,0:0:0:0:
64,192,37677,1,0,0:0:0:0:
448,192,37756,1,0,0:0:0:0:
64,192,37835,1,0,0:0:0:0:
192,192,37835,1,0,0:0:0:0:
448,192,37914,1,0,0:0:0:0:
320,192,37993,1,0,0:0:0:0:
192,192,37993,1,0,0:0:0:0:
448,192,38071,1,0,0:0:0:0:
64,192,38150,128,0,38466:0:0:0:0:
192,192,38150,1,0,0:0:0:0:
448,192,38229,1,0,0:0:0:0:
320,192,38308,1,0,0:0:0:0:
192,192,38308,1,0,0:0:0:0:
448,192,38387,1,0,0:0:0:0:
320,192,38466,1,0,0:0:0:0:
192,192,38466,1,0,0:0:0:0:
64,192,38545,1,0,0:0:0:0:
320,192,38624,1,0,0:0:0:0:
448,192,38624,1,0,0:0:0:0:
64,192,38703,1,0,0:0:0:0:
320,192,38782,1,0,0:0:0:0:
448,192,38782,1,0,0:0:0:0:
64,192,38861,1,0,0:0:0:0:
320,192,38940,1,0,0:0:0:0:
448,192,38940,1,0,0:0:0:0:
192,192,39019,1,0,0:0:0:0:
64,192,39098,1,0,0:0:0:0:
448,192,39098,1,0,0:0:0:0:
320,192,39177,1,0,0:0:0:0:
192,192,39256,1,0,0:0:0:0:
64,192,39256,1,0,0:0:0:0:
448,192,39335,1,0,0:0:0:0:
192,192,39414,1,0,0:0:0:0:
64,192,39414,1,0,0:0:0:0:
320,192,39493,1,0,0:0:0:0:
192,192,39571,1,0,0:0:0:0:
64,192,39571,1,0,0:0:0:0:
448,192,39650,1,0,0:0:0:0:
64,192,39729,1,0,0:0:0:0:
192,192,39729,1,0,0:0:0:0:
320,192,39808,5,0,0:0:0:0:
448,192,39808,1,0,0:0:0:0:
192,192,39887,1,0,0:0:0:0:
64,192,39887,1,0,0:0:0:0:
320,192,39966,1,0,0:0:0:0:
448,192,39966,1,0,0:0:0:0:
192,192,40045,1,0,0:0:0:0:
64,192,40045,128,0,40203:0:0:0:0:
320,192,40124,1,0,0:0:0:0:
192,192,40203,1,0,0:0:0:0:
448,192,40203,128,0,40914:0:0:0:0:
64,192,40282,1,0,0:0:0:0:
192,192,40361,1,0,0:0:0:0:
320,192,40440,1,0,0:0:0:0:
64,192,40519,1,0,0:0:0:0:
192,192,40598,1,0,0:0:0:0:
320,192,40677,1,0,0:0:0:0:
64,192,40756,1,0,0:0:0:0:
192,192,40835,1,0,0:0:0:0:
320,192,40914,1,0,0:0:0:0:
64,192,40993,128,0,41229:0:0:0:0:
448,192,40993,1,0,0:0:0:0:
192,192,40993,1,0,0:0:0:0:
448,192,41229,1,0,0:0:0:0:
320,192,41229,1,0,0:0:0:0:
192,192,41229,128,0,41466:0:0:0:0:
64,192,41466,128,0,41624:0:0:0:0:
448,192,41466,1,0,0:0:0:0:
320,192,41466,1,0,0:0:0:0:
448,192,41624,1,0,0:0:0:0:
320,192,41624,1,0,0:0:0:0:
192,192,41624,1,0,0:0:0:0:
64,192,41703,1,0,0:0:0:0:
448,192,41782,1,0,0:0:0:0:
320,192,41821,1,0,0:0:0:0:
192,192,41861,1,0,0:0:0:0:
64,192,41900,1,0,0:0:0:0:
320,192,41940,1,0,0:0:0:0:
448,192,41940,1,0,0:0:0:0:
192,192,42019,1,0,0:0:0:0:
64,192,42019,1,0,0:0:0:0:
448,192,42098,1,0,0:0:0:0:
320,192,42137,1,0,0:0:0:0:
192,192,42177,1,0,0:0:0:0:
64,192,42216,1,0,0:0:0:0:
320,192,42256,5,0,0:0:0:0:
192,192,42256,128,0,42493:0:0:0:0:
448,192,42256,1,0,0:0:0:0:
64,192,42493,128,0,42729:0:0:0:0:
320,192,42493,1,0,0:0:0:0:
448,192,42493,1,0,0:0:0:0:
192,192,42729,128,0,42887:0:0:0:0:
320,192,42729,1,0,0:0:0:0:
448,192,42729,1,0,0:0:0:0:
320,192,42887,1,0,0:0:0:0:
448,192,42887,1,0,0:0:0:0:
64,192,42966,1,0,0:0:0:0:
448,192,43045,1,0,0:0:0:0:
192,192,43045,1,0,0:0:0:0:
64,192,43124,1,0,0:0:0:0:
320,192,43203,1,0,0:0:0:0:
192,192,43203,1,0,0:0:0:0:
64,192,43282,1,0,0:0:0:0:
448,192,43361,1,0,0:0:0:0:
320,192,43400,1,0,0:0:0:0:
192,192,43440,1,0,0:0:0:0:
64,192,43479,1,0,0:0:0:0:
192,192,43519,1,0,0:0:0:0:
320,192,43519,1,0,0:0:0:0:
448,192,43519,128,0,43756:0:0:0:0:
64,192,43756,1,0,0:0:0:0:
192,192,43756,1,0,0:0:0:0:
320,192,43756,128,0,43993:0:0:0:0:
64,192,43993,1,0,0:0:0:0:
192,192,43993,1,0,0:0:0:0:
448,192,43993,128,0,44150:0:0:0:0:
320,192,44150,1,0,0:0:0:0:
64,192,44150,1,0,0:0:0:0:
192,192,44150,1,0,0:0:0:0:
448,192,44229,1,0,0:0:0:0:
64,192,44308,1,0,0:0:0:0:
192,192,44348,1,0,0:0:0:0:
320,192,44387,1,0,0:0:0:0:
448,192,44427,1,0,0:0:0:0:
64,192,44466,1,0,0:0:0:0:
192,192,44466,1,0,0:0:0:0:
320,192,44545,1,0,0:0:0:0:
448,192,44545,1,0,0:0:0:0:
64,192,44624,1,0,0:0:0:0:
192,192,44664,1,0,0:0:0:0:
320,192,44703,1,0,0:0:0:0:
448,192,44743,1,0,0:0:0:0:
192,192,44782,5,0,0:0:0:0:
64,192,44782,1,0,0:0:0:0:
320,192,44782,128,0,45019:0:0:0:0:
192,192,45019,1,0,0:0:0:0:
448,192,45019,128,0,45256:0:0:0:0:
64,192,45019,1,0,0:0:0:0:
64,192,45256,1,0,0:0:0:0:
192,192,45256,1,0,0:0:0:0:
320,192,45256,128,0,45414:0:0:0:0:
64,192,45414,1,0,0:0:0:0:
192,192,45414,1,0,0:0:0:0:
448,192,45493,1,0,0:0:0:0:
320,192,45493,1,0,0:0:0:0:
64,192,45571,1,0,0:0:0:0:
192,192,45571,1,0,0:0:0:0:
448,192,45650,1,0,0:0:0:0:
320,192,45650,1,0,0:0:0:0:
64,192,45729,1,0,0:0:0:0:
192,192,45769,1,0,0:0:0:0:
320,192,45808,1,0,0:0:0:0:
448,192,45848,1,0,0:0:0:0:
64,192,45887,1,0,0:0:0:0:
192,192,45927,1,0,0:0:0:0:
320,192,45966,1,0,0:0:0:0:
448,192,46006,1,0,0:0:0:0:
64,192,46045,1,0,0:0:0:0:
192,192,46045,1,0,0:0:0:0:
320,192,46085,1,0,0:0:0:0:
448,192,46124,1,0,0:0:0:0:
64,192,46203,1,0,0:0:0:0:
192,192,46203,1,0,0:0:0:0:
320,192,46282,1,0,0:0:0:0:
448,192,46282,1,0,0:0:0:0:
192,192,46321,1,0,0:0:0:0:
64,192,46361,1,0,0:0:0:0:
320,192,46440,1,0,0:0:0:0:
448,192,46440,1,0,0:0:0:0:
64,192,46519,1,0,0:0:0:0:
192,192,46519,1,0,0:0:0:0:
320,192,46558,1,0,0:0:0:0:
448,192,46598,1,0,0:0:0:0:
64,192,46677,1,0,0:0:0:0:
320,192,46677,1,0,0:0:0:0:
448,192,46756,1,0,0:0:0:0:
192,192,46756,1,0,0:0:0:0:
64,192,46835,1,0,0:0:0:0:
320,192,46835,1,0,0:0:0:0:
448,192,46914,1,0,0:0:0:0:
192,192,46914,1,0,0:0:0:0:
64,192,46993,1,0,0:0:0:0:
192,192,47032,1,0,0:0:0:0:
320,192,47071,1,0,0:0:0:0:
448,192,47150,1,0,0:0:0:0:
320,192,47190,1,0,0:0:0:0:
192,192,47229,1,0,0:0:0:0:
448,192,47308,1,0,0:0:0:0:
320,192,47308,1,0,0:0:0:0:
192,192,47348,1,0,0:0:0:0:
64,192,47387,1,0,0:0:0:0:
448,192,47466,1,0,0:0:0:0:
320,192,47466,1,0,0:0:0:0:
192,192,47545,1,0,0:0:0:0:
64,192,47545,1,0,0:0:0:0:
320,192,47585,1,0,0:0:0:0:
448,192,47624,1,0,0:0:0:0:
64,192,47703,1,0,0:0:0:0:
192,192,47703,1,0,0:0:0:0:
320,192,47782,1,0,0:0:0:0:
448,192,47782,1,0,0:0:0:0:
192,192,47821,1,0,0:0:0:0:
64,192,47861,1,0,0:0:0:0:
448,192,47940,1,0,0:0:0:0:
192,192,47940,1,0,0:0:0:0:
64,192,48019,1,0,0:0:0:0:
320,192,48019,1,0,0:0:0:0:
448,192,48098,1,0,0:0:0:0:
192,192,48098,1,0,0:0:0:0:
320,192,48177,1,0,0:0:0:0:
64,192,48177,1,0,0:0:0:0:
448,192,48256,1,0,0:0:0:0:
320,192,48295,1,0,0:0:0:0:
192,192,48335,1,0,0:0:0:0:
64,192,48374,1,0,0:0:0:0:
448,192,48414,1,0,0:0:0:0:
320,192,48453,1,0,0:0:0:0:
192,192,48493,1,0,0:0:0:0:
64,192,48532,1,0,0:0:0:0:
320,192,48571,1,0,0:0:0:0:
448,192,48571,1,0,0:0:0:0:
192,192,48611,1,0,0:0:0:0:
64,192,48650,1,0,0:0:0:0:
320,192,48729,1,0,0:0:0:0:
448,192,48729,1,0,0:0:0:0:
64,192,48808,1,0,0:0:0:0:
192,192,48808,1,0,0:0:0:0:
320,192,48848,1,0,0:0:0:0:
448,192,48887,1,0,0:0:0:0:
192,192,48966,1,0,0:0:0:0:
64,192,48966,1,0,0:0:0:0:
448,192,49045,1,0,0:0:0:0:
320,192,49045,1,0,0:0:0:0:
192,192,49085,1,0,0:0:0:0:
64,192,49124,1,0,0:0:0:0:
448,192,49203,1,0,0:0:0:0:
320,192,49203,1,0,0:0:0:0:
64,192,49282,1,0,0:0:0:0:
192,192,49282,1,0,0:0:0:0:
448,192,49361,1,0,0:0:0:0:
320,192,49361,1,0,0:0:0:0:
64,192,49440,1,0,0:0:0:0:
192,192,49440,1,0,0:0:0:0:
448,192,49519,1,0,0:0:0:0:
320,192,49558,1,0,0:0:0:0:
192,192,49598,1,0,0:0:0:0:
64,192,49677,1,0,0:0:0:0:
192,192,49716,1,0,0:0:0:0:
320,192,49756,1,0,0:0:0:0:
448,192,49835,1,0,0:0:0:0:
64,192,49835,1,0,0:0:0:0:
192,192,49874,1,0,0:0:0:0:
320,192,49914,1,0,0:0:0:0:
64,192,49993,1,0,0:0:0:0:
192,192,49993,1,0,0:0:0:0:
448,192,50071,128,0,50229:0:0:0:0:
320,192,50071,1,0,0:0:0:0:
192,192,50111,1,0,0:0:0:0:
64,192,50150,1,0,0:0:0:0:
320,192,50229,1,0,0:0:0:0:
192,192,50229,1,0,0:0:0:0:
64,192,50308,128,0,50466:0:0:0:0:
448,192,50308,1,0,0:0:0:0:
320,192,50348,1,0,0:0:0:0:
192,192,50387,1,0,0:0:0:0:
448,192,50466,1,0,0:0:0:0:
320,192,50506,1,0,0:0:0:0:
192,192,50545,1,0,0:0:0:0:
64,192,50585,1,0,0:0:0:0:
448,192,50624,1,0,0:0:0:0:
320,192,50664,1,0,0:0:0:0:
192,192,50703,1,0,0:0:0:0:
64,192,50743,1,0,0:0:0:0:
448,192,50782,1,0,0:0:0:0:
320,192,50821,1,0,0:0:0:0:
192,192,50861,1,0,0:0:0:0:
64,192,50900,1,0,0:0:0:0:
448,192,50940,1,0,0:0:0:0:
320,192,50979,1,0,0:0:0:0:
192,192,51019,1,0,0:0:0:0:
64,192,51058,1,0,0:0:0:0:
192,192,51098,1,0,0:0:0:0:
320,192,51098,1,0,0:0:0:0:
448,192,51098,128,0,54887:0:0:0:0:
320,192,52361,128,0,56150:0:0:0:0:
192,192,53624,128,0,57414:0:0:0:0:
64,192,54887,128,0,58677:0:0:0:0:
448,192,56150,128,0,59940:0:0:0:0:
320,192,57414,128,0,61124:0:0:0:0:
192,192,58677,128,0,61124:0:0:0:0:
64,192,59940,128,0,61124:0:0:0:0:
448,192,60887,128,0,61124:0:0:0:0:
64,192,61203,1,0,0:0:0:0:
192,192,61203,1,0,0:0:0:0:
320,192,61203,1,0,0:0:0:0:
448,192,61203,1,0,0:0:0:0:
64,192,61361,1,0,0:0:0:0:
192,192,61440,1,0,0:0:0:0:
448,192,61440,1,0,0:0:0:0:
192,192,61598,1,0,0:0:0:0:
320,192,61677,1,0,0:0:0:0:
64,192,61677,1,0,0:0:0:0:
320,192,61835,1,0,0:0:0:0:
448,192,61914,1,0,0:0:0:0:
192,192,61914,1,0,0:0:0:0:
448,192,62071,1,0,0:0:0:0:
192,192,62150,1,0,0:0:0:0:
64,192,62150,1,0,0:0:0:0:
320,192,62308,1,0,0:0:0:0:
448,192,62308,1,0,0:0:0:0:
320,192,62466,1,0,0:0:0:0:
64,192,62466,1,0,0:0:0:0:
64,192,62624,1,0,0:0:0:0:
192,192,62703,1,0,0:0:0:0:
448,192,62703,1,0,0:0:0:0:
192,192,62861,1,0,0:0:0:0:
64,192,62940,1,0,0:0:0:0:
320,192,62940,1,0,0:0:0:0:
320,192,63098,1,0,0:0:0:0:
192,192,63177,1,0,0:0:0:0:
448,192,63177,1,0,0:0:0:0:
448,192,63335,1,0,0:0:0:0:
192,192,63414,1,0,0:0:0:0:
64,192,63414,1,0,0:0:0:0:
448,192,63571,1,0,0:0:0:0:
320,192,63571,1,0,0:0:0:0:
192,192,63729,1,0,0:0:0:0:
64,192,63729,1,0,0:0:0:0:
448,192,63729,1,0,0:0:0:0:
448,192,63887,1,0,0:0:0:0:
320,192,63966,1,0,0:0:0:0:
64,192,63966,1,0,0:0:0:0:
320,192,64124,1,0,0:0:0:0:
192,192,64203,1,0,0:0:0:0:
448,192,64203,1,0,0:0:0:0:
192,192,64361,1,0,0:0:0:0:
64,192,64440,1,0,0:0:0:0:
320,192,64440,1,0,0:0:0:0:
64,192,64598,1,0,0:0:0:0:
320,192,64677,1,0,0:0:0:0:
448,192,64677,1,0,0:0:0:0:
64,192,64835,1,0,0:0:0:0:
192,192,64835,1,0,0:0:0:0:
448,192,64993,1,0,0:0:0:0:
192,192,64993,1,0,0:0:0:0:
448,192,65150,1,0,0:0:0:0:
320,192,65229,1,0,0:0:0:0:
64,192,65229,1,0,0:0:0:0:
320,192,65387,1,0,0:0:0:0:
192,192,65466,1,0,0:0:0:0:
448,192,65466,1,0,0:0:0:0:
192,192,65624,1,0,0:0:0:0:
64,192,65703,1,0,0:0:0:0:
320,192,65703,1,0,0:0:0:0:
320,192,65861,1,0,0:0:0:0:
448,192,65940,1,0,0:0:0:0:
64,192,66019,1,0,0:0:0:0:
192,192,66098,1,0,0:0:0:0:
320,192,66177,1,0,0:0:0:0:
448,192,66256,1,0,0:0:0:0:
64,192,66256,1,0,0:0:0:0:
192,192,66256,1,0,0:0:0:0:
64,192,66414,1,0,0:0:0:0:
192,192,66493,1,0,0:0:0:0:
320,192,66493,1,0,0:0:0:0:
192,192,66650,1,0,0:0:0:0:
320,192,66729,1,0,0:0:0:0:
448,192,66729,1,0,0:0:0:0:
320,192,66887,1,0,0:0:0:0:
448,192,66966,1,0,0:0:0:0:
64,192,66966,1,0,0:0:0:0:
448,192,67124,1,0,0:0:0:0:
320,192,67203,1,0,0:0:0:0:
192,192,67203,1,0,0:0:0:0:
64,192,67361,1,0,0:0:0:0:
192,192,67361,1,0,0:0:0:0:
64,192,67519,1,0,0:0:0:0:
320,192,67519,1,0,0:0:0:0:
448,192,67519,1,0,0:0:0:0:
448,192,67677,1,0,0:0:0:0:
320,192,67756,1,0,0:0:0:0:
192,192,67756,1,0,0:0:0:0:
320,192,67914,1,0,0:0:0:0:
192,192,67993,1,0,0:0:0:0:
64,192,67993,1,0,0:0:0:0:
192,192,68150,1,0,0:0:0:0:
64,192,68229,1,0,0:0:0:0:
448,192,68229,1,0,0:0:0:0:
64,192,68387,1,0,0:0:0:0:
192,192,68466,1,0,0:0:0:0:
320,192,68466,1,0,0:0:0:0:
320,192,68624,1,0,0:0:0:0:
448,192,68624,1,0,0:0:0:0:
448,192,68782,1,0,0:0:0:0:
192,192,68782,1,0,0:0:0:0:
64,192,68782,1,0,0:0:0:0:
64,192,68940,1,0,0:0:0:0:
320,192,69019,1,0,0:0:0:0:
448,192,69019,1,0,0:0:0:0:
320,192,69177,1,0,0:0:0:0:
192,192,69256,1,0,0:0:0:0:
64,192,69256,1,0,0:0:0:0:
192,192,69414,1,0,0:0:0:0:
320,192,69493,1,0,0:0:0:0:
448,192,69493,1,0,0:0:0:0:
448,192,69650,1,0,0:0:0:0:
192,192,69729,1,0,0:0:0:0:
64,192,69729,1,0,0:0:0:0:
448,192,69887,1,0,0:0:0:0:
320,192,69887,1,0,0:0:0:0:
64,192,70045,1,0,0:0:0:0:
192,192,70045,1,0,0:0:0:0:
448,192,70045,1,0,0:0:0:0:
448,192,70203,1,0,0:0:0:0:
192,192,70282,1,0,0:0:0:0:
64,192,70282,1,0,0:0:0:0:
192,192,70440,1,0,0:0:0:0:
320,192,70519,1,0,0:0:0:0:
448,192,70519,1,0,0:0:0:0:
320,192,70677,1,0,0:0:0:0:
64,192,70756,1,0,0:0:0:0:
192,192,70756,1,0,0:0:0:0:
64,192,70914,1,0,0:0:0:0:
448,192,70993,128,0,71229:0:0:0:0:
320,192,70993,1,0,0:0:0:0:
192,192,71071,1,0,0:0:0:0:
64,192,71150,1,0,0:0:0:0:
192,192,71229,1,0,0:0:0:0:
64,192,71308,1,0,0:0:0:0:
320,192,71308,1,0,0:0:0:0:
448,192,71308,1,0,0:0:0:0:
64,192,71466,1,0,0:0:0:0:
192,192,71545,1,0,0:0:0:0:
448,192,71624,1,0,0:0:0:0:
320,192,71624,1,0,0:0:0:0:
192,192,71703,1,0,0:0:0:0:
64,192,71782,1,0,0:0:0:0:
448,192,71940,1,0,0:0:0:0:
320,192,71940,1,0,0:0:0:0:
192,192,72019,1,0,0:0:0:0:
192,192,72177,1,0,0:0:0:0:
320,192,72256,1,0,0:0:0:0:
448,192,72256,1,0,0:0:0:0:
192,192,72414,1,0,0:0:0:0:
320,192,72414,1,0,0:0:0:0:
448,192,72571,1,0,0:0:0:0:
192,192,72571,1,0,0:0:0:0:
64,192,72571,1,0,0:0:0:0:
448,192,72729,1,0,0:0:0:0:
320,192,72808,1,0,0:0:0:0:
192,192,72887,1,0,0:0:0:0:
64,192,72887,1,0,0:0:0:0:
320,192,72966,1,0,0:0:0:0:
448,192,73045,1,0,0:0:0:0:
192,192,73203,1,0,0:0:0:0:
64,192,73203,1,0,0:0:0:0:
320,192,73282,1,0,0:0:0:0:
320,192,73440,1,0,0:0:0:0:
64,192,73519,1,0,0:0:0:0:
192,192,73519,1,0,0:0:0:0:
320,192,73677,1,0,0:0:0:0:
192,192,73677,1,0,0:0:0:0:
64,192,73835,1,0,0:0:0:0:
448,192,73835,1,0,0:0:0:0:
320,192,73835,1,0,0:0:0:0:
320,192,73993,1,0,0:0:0:0:
192,192,74071,1,0,0:0:0:0:
64,192,74150,1,0,0:0:0:0:
448,192,74150,1,0,0:0:0:0:
192,192,74229,1,0,0:0:0:0:
320,192,74308,1,0,0:0:0:0:
192,192,74466,1,0,0:0:0:0:
64,192,74466,1,0,0:0:0:0:
448,192,74545,1,0,0:0:0:0:
448,192,74703,1,0,0:0:0:0:
192,192,74782,1,0,0:0:0:0:
64,192,74782,1,0,0:0:0:0:
320,192,74940,1,0,0:0:0:0:
448,192,74940,1,0,0:0:0:0:
192,192,75098,1,0,0:0:0:0:
64,192,75098,1,0,0:0:0:0:
448,192,75098,128,0,76045:0:0:0:0:
64,192,75256,1,0,0:0:0:0:
192,192,75335,1,0,0:0:0:0:
192,192,75493,1,0,0:0:0:0:
320,192,75571,1,0,0:0:0:0:
320,192,75729,1,0,0:0:0:0:
192,192,75808,1,0,0:0:0:0:
192,192,75966,1,0,0:0:0:0:
64,192,76045,1,0,0:0:0:0:
320,192,76045,128,0,76361:0:0:0:0:
448,192,76203,1,0,0:0:0:0:
64,192,76361,1,0,0:0:0:0:
192,192,76361,1,0,0:0:0:0:
448,192,76361,1,0,0:0:0:0:
64,192,76519,1,0,0:0:0:0:
192,192,76598,1,0,0:0:0:0:
192,192,76756,1,0,0:0:0:0:
320,192,76835,1,0,0:0:0:0:
192,192,76993,1,0,0:0:0:0:
64,192,76993,1,0,0:0:0:0:
448,192,76993,1,0,0:0:0:0:
192,192,77150,1,0,0:0:0:0:
320,192,77229,1,0,0:0:0:0:
320,192,77387,1,0,0:0:0:0:
448,192,77466,1,0,0:0:0:0:
448,192,77624,1,0,0:0:0:0:
320,192,77624,1,0,0:0:0:0:
64,192,77624,1,0,0:0:0:0:
448,192,77782,1,0,0:0:0:0:
320,192,77861,1,0,0:0:0:0:
320,192,78019,1,0,0:0:0:0:
192,192,78098,1,0,0:0:0:0:
64,192,78256,1,0,0:0:0:0:
320,192,78256,1,0,0:0:0:0:
448,192,78256,1,0,0:0:0:0:
320,192,78414,1,0,0:0:0:0:
192,192,78493,1,0,0:0:0:0:
192,192,78650,1,0,0:0:0:0:
64,192,78729,1,0,0:0:0:0:
320,192,78887,1,0,0:0:0:0:
448,192,78887,1,0,0:0:0:0:
64,192,78887,1,0,0:0:0:0:
64,192,79045,1,0,0:0:0:0:
320,192,79045,1,0,0:0:0:0:
448,192,79045,1,0,0:0:0:0:
192,192,79203,1,0,0:0:0:0:
64,192,79203,1,0,0:0:0:0:
448,192,79203,1,0,0:0:0:0:
448,192,79361,1,0,0:0:0:0:
192,192,79361,1,0,0:0:0:0:
64,192,79361,1,0,0:0:0:0:
448,192,79519,1,0,0:0:0:0:
320,192,79519,1,0,0:0:0:0:
64,192,79598,1,0,0:0:0:0:
192,192,79677,1,0,0:0:0:0:
448,192,79677,1,0,0:0:0:0:
320,192,79756,1,0,0:0:0:0:
64,192,79835,1,0,0:0:0:0:
448,192,79835,1,0,0:0:0:0:
192,192,79914,1,0,0:0:0:0:
320,192,79993,1,0,0:0:0:0:
64,192,79993,1,0,0:0:0:0:
448,192,80071,1,0,0:0:0:0:
64,192,80150,128,0,81098:0:0:0:0:
192,192,80782,128,0,81098:0:0:0:0:
448,192,81098,1,0,0:0:0:0:
320,192,81137,1,0,0:0:0:0:
192,192,81177,1,0,0:0:0:0:
64,192,81216,1,0,0:0:0:0:
448,192,81256,1,0,0:0:0:0:
320,192,81295,1,0,0:0:0:0:
192,192,81335,1,0,0:0:0:0:
64,192,81374,1,0,0:0:0:0:
192,192,81414,1,0,0:0:0:0:
320,192,81414,1,0,0:0:0:0:
448,192,81414,1,0,0:0:0:0:
64,192,81493,1,0,0:0:0:0:
320,192,81571,1,0,0:0:0:0:
448,192,81571,1,0,0:0:0:0:
192,192,81650,1,0,0:0:0:0:
64,192,81650,1,0,0:0:0:0:
320,192,81729,1,0,0:0:0:0:
192,192,81808,1,0,0:0:0:0:
448,192,81808,1,0,0:0:0:0:
64,192,81887,1,0,0:0:0:0:
320,192,81887,1,0,0:0:0:0:
192,192,81966,1,0,0:0:0:0:
64,192,82045,1,0,0:0:0:0:
448,192,82045,1,0,0:0:0:0:
320,192,82124,1,0,0:0:0:0:
192,192,82124,1,0,0:0:0:0:
448,192,82203,1,0,0:0:0:0:
320,192,82282,1,0,0:0:0:0:
64,192,82282,1,0,0:0:0:0:
192,192,82361,1,0,0:0:0:0:
448,192,82361,1,0,0:0:0:0:
320,192,82440,1,0,0:0:0:0:
192,192,82519,1,0,0:0:0:0:
64,192,82519,1,0,0:0:0:0:
448,192,82598,1,0,0:0:0:0:
320,192,82677,1,0,0:0:0:0:
192,192,82677,1,0,0:0:0:0:
448,192,82756,1,0,0:0:0:0:
64,192,82835,1,0,0:0:0:0:
192,192,82835,1,0,0:0:0:0:
448,192,82914,1,0,0:0:0:0:
320,192,82914,1,0,0:0:0:0:
192,192,82993,1,0,0:0:0:0:
64,192,83071,1,0,0:0:0:0:
320,192,83071,1,0,0:0:0:0:
192,192,83150,1,0,0:0:0:0:
448,192,83150,1,0,0:0:0:0:
320,192,83229,1,0,0:0:0:0:
64,192,83308,1,0,0:0:0:0:
448,192,83308,1,0,0:0:0:0:
192,192,83387,1,0,0:0:0:0:
320,192,83387,1,0,0:0:0:0:
64,192,83466,1,0,0:0:0:0:
192,192,83545,1,0,0:0:0:0:
448,192,83545,1,0,0:0:0:0:
320,192,83624,1,0,0:0:0:0:
64,192,83624,1,0,0:0:0:0:
192,192,83703,1,0,0:0:0:0:
320,192,83782,1,0,0:0:0:0:
448,192,83782,1,0,0:0:0:0:
64,192,83861,1,0,0:0:0:0:
320,192,83940,1,0,0:0:0:0:
192,192,83940,1,0,0:0:0:0:
448,192,84019,1,0,0:0:0:0:
64,192,84098,1,0,0:0:0:0:
320,192,84098,1,0,0:0:0:0:
448,192,84177,1,0,0:0:0:0:
192,192,84177,1,0,0:0:0:0:
320,192,84256,1,0,0:0:0:0:
64,192,84335,1,0,0:0:0:0:
192,192,84335,1,0,0:0:0:0:
448,192,84414,1,0,0:0:0:0:
320,192,84414,1,0,0:0:0:0:
192,192,84493,1,0,0:0:0:0:
448,192,84571,1,0,0:0:0:0:
64,192,84571,1,0,0:0:0:0:
192,192,84650,1,0,0:0:0:0:
320,192,84650,1,0,0:0:0:0:
64,192,84729,1,0,0:0:0:0:
448,192,84808,1,0,0:0:0:0:
320,192,84808,1,0,0:0:0:0:
64,192,84887,1,0,0:0:0:0:
192,192,84887,1,0,0:0:0:0:
320,192,84966,1,0,0:0:0:0:
448,192,85045,1,0,0:0:0:0:
192,192,85045,1,0,0:0:0:0:
64,192,85124,1,0,0:0:0:0:
448,192,85203,1,0,0:0:0:0:
320,192,85203,1,0,0:0:0:0:
64,192,85282,1,0,0:0:0:0:
192,192,85361,1,0,0:0:0:0:
448,192,85361,1,0,0:0:0:0:
320,192,85440,1,0,0:0:0:0:
64,192,85440,1,0,0:0:0:0:
192,192,85519,1,0,0:0:0:0:
320,192,85598,1,0,0:0:0:0:
448,192,85598,1,0,0:0:0:0:
192,192,85677,1,0,0:0:0:0:
64,192,85677,1,0,0:0:0:0:
320,192,85756,1,0,0:0:0:0:
448,192,85835,1,0,0:0:0:0:
64,192,85835,128,0,85993:0:0:0:0:
192,192,85914,1,0,0:0:0:0:
320,192,85914,1,0,0:0:0:0:
448,192,85993,128,0,86150:0:0:0:0:
320,192,86071,1,0,0:0:0:0:
192,192,86150,1,0,0:0:0:0:
64,192,86150,1,0,0:0:0:0:
320,192,86229,1,0,0:0:0:0:
448,192,86229,1,0,0:0:0:0:
64,192,86308,1,0,0:0:0:0:
192,192,86308,1,0,0:0:0:0:
320,192,86387,1,0,0:0:0:0:
448,192,86466,1,0,0:0:0:0:
192,192,86466,1,0,0:0:0:0:
64,192,86466,1,0,0:0:0:0:
320,192,86545,1,0,0:0:0:0:
192,192,86624,1,0,0:0:0:0:
64,192,86624,1,0,0:0:0:0:
320,192,86703,1,0,0:0:0:0:
448,192,86703,1,0,0:0:0:0:
192,192,86782,1,0,0:0:0:0:
64,192,86861,1,0,0:0:0:0:
448,192,86861,1,0,0:0:0:0:
320,192,86940,1,0,0:0:0:0:
192,192,86940,1,0,0:0:0:0:
64,192,87019,1,0,0:0:0:0:
320,192,87098,1,0,0:0:0:0:
448,192,87098,1,0,0:0:0:0:
192,192,87177,1,0,0:0:0:0:
64,192,87177,1,0,0:0:0:0:
448,192,87256,1,0,0:0:0:0:
320,192,87335,1,0,0:0:0:0:
192,192,87335,1,0,0:0:0:0:
64,192,87414,1,0,0:0:0:0:
448,192,87414,1,0,0:0:0:0:
320,192,87493,1,0,0:0:0:0:
192,192,87571,1,0,0:0:0:0:
64,192,87571,1,0,0:0:0:0:
320,192,87650,1,0,0:0:0:0:
64,192,87729,1,0,0:0:0:0:
448,192,87729,1,0,0:0:0:0:
192,192,87808,1,0,0:0:0:0:
320,192,87887,1,0,0:0:0:0:
448,192,87887,1,0,0:0:0:0:
192,192,87966,1,0,0:0:0:0:
64,192,87966,1,0,0:0:0:0:
320,192,88045,1,0,0:0:0:0:
448,192,88124,1,0,0:0:0:0:
64,192,88124,1,0,0:0:0:0:
192,192,88203,1,0,0:0:0:0:
320,192,88203,1,0,0:0:0:0:
448,192,88282,1,0,0:0:0:0:
64,192,88361,1,0,0:0:0:0:
192,192,88361,1,0,0:0:0:0:
320,192,88440,1,0,0:0:0:0:
448,192,88440,1,0,0:0:0:0:
64,192,88519,1,0,0:0:0:0:
320,192,88598,1,0,0:0:0:0:
192,192,88598,1,0,0:0:0:0:
64,192,88677,1,0,0:0:0:0:
448,192,88677,1,0,0:0:0:0:
192,192,88756,1,0,0:0:0:0:
448,192,88835,1,0,0:0:0:0:
320,192,88835,1,0,0:0:0:0:
192,192,88914,1,0,0:0:0:0:
448,192,88993,1,0,0:0:0:0:
64,192,88993,1,0,0:0:0:0:
320,192,89071,1,0,0:0:0:0:
192,192,89150,1,0,0:0:0:0:
64,192,89150,1,0,0:0:0:0:
320,192,89229,1,0,0:0:0:0:
448,192,89229,1,0,0:0:0:0:
192,192,89308,1,0,0:0:0:0:
64,192,89387,1,0,0:0:0:0:
448,192,89387,1,0,0:0:0:0:
320,192,89466,1,0,0:0:0:0:
192,192,89466,1,0,0:0:0:0:
64,192,89545,1,0,0:0:0:0:
448,192,89624,1,0,0:0:0:0:
320,192,89624,1,0,0:0:0:0:
192,192,89703,1,0,0:0:0:0:
64,192,89703,1,0,0:0:0:0:
448,192,89782,1,0,0:0:0:0:
192,192,89861,1,0,0:0:0:0:
320,192,89861,1,0,0:0:0:0:
448,192,89940,1,0,0:0:0:0:
64,192,89940,1,0,0:0:0:0:
320,192,90019,1,0,0:0:0:0:
64,192,90098,1,0,0:0:0:0:
192,192,90098,1,0,0:0:0:0:
320,192,90177,1,0,0:0:0:0:
448,192,90256,128,0,90808:0:0:0:0:
64,192,90256,1,0,0:0:0:0:
192,192,90335,1,0,0:0:0:0:
320,192,90414,1,0,0:0:0:0:
64,192,90493,1,0,0:0:0:0:
192,192,90571,1,0,0:0:0:0:
320,192,90650,1,0,0:0:0:0:
64,192,90729,1,0,0:0:0:0:
192,192,90808,1,0,0:0:0:0:
320,192,90887,1,0,0:0:0:0:
448,192,90887,1,0,0:0:0:0:
192,192,90966,1,0,0:0:0:0:
64,192,90966,1,0,0:0:0:0:
320,192,91045,1,0,0:0:0:0:
64,192,91124,1,0,0:0:0:0:
448,192,91203,1,0,0:0:0:0:
320,192,91203,1,0,0:0:0:0:
192,192,91282,1,0,0:0:0:0:
64,192,91282,1,0,0:0:0:0:
448,192,91361,1,0,0:0:0:0:
192,192,91440,1,0,0:0:0:0:
64,192,91519,1,0,0:0:0:0:
320,192,91519,1,0,0:0:0:0:
448,192,91519,1,0,0:0:0:0:
192,192,91598,1,0,0:0:0:0:
320,192,91677,1,0,0:0:0:0:
448,192,91677,1,0,0:0:0:0:
64,192,91756,1,0,0:0:0:0:
192,192,91756,1,0,0:0:0:0:
320,192,91835,1,0,0:0:0:0:
64,192,91914,1,0,0:0:0:0:
448,192,91914,1,0,0:0:0:0:
192,192,91993,1,0,0:0:0:0:
320,192,91993,1,0,0:0:0:0:
448,192,92071,1,0,0:0:0:0:
64,192,92150,1,0,0:0:0:0:
192,192,92150,1,0,0:0:0:0:
448,192,92229,1,0,0:0:0:0:
320,192,92229,1,0,0:0:0:0:
64,192,92308,1,0,0:0:0:0:
192,192,92387,1,0,0:0:0:0:
320,192,92387,1,0,0:0:0:0:
64,192,92466,1,0,0:0:0:0:
448,192,92466,1,0,0:0:0:0:
192,192,92545,1,0,0:0:0:0:
320,192,92624,1,0,0:0:0:0:
64,192,92624,1,0,0:0:0:0:
448,192,92703,1,0,0:0:0:0:
192,192,92782,1,0,0:0:0:0:
64,192,92782,1,0,0:0:0:0:
320,192,92861,1,0,0:0:0:0:
192,192,92940,1,0,0:0:0:0:
64,192,92940,1,0,0:0:0:0:
320,192,93019,1,0,0:0:0:0:
448,192,93019,1,0,0:0:0:0:
192,192,93098,1,0,0:0:0:0:
64,192,93177,1,0,0:0:0:0:
448,192,93177,1,0,0:0:0:0:
320,192,93256,1,0,0:0:0:0:
192,192,93256,1,0,0:0:0:0:
64,192,93335,1,0,0:0:0:0:
448,192,93414,1,0,0:0:0:0:
320,192,93414,1,0,0:0:0:0:
192,192,93493,1,0,0:0:0:0:
64,192,93493,1,0,0:0:0:0:
448,192,93571,1,0,0:0:0:0:
320,192,93650,1,0,0:0:0:0:
192,192,93650,1,0,0:0:0:0:
64,192,93729,1,0,0:0:0:0:
448,192,93729,1,0,0:0:0:0:
320,192,93808,1,0,0:0:0:0:
192,192,93887,1,0,0:0:0:0:
448,192,93887,1,0,0:0:0:0:
64,192,93966,1,0,0:0:0:0:
320,192,94045,1,0,0:0:0:0:
448,192,94045,1,0,0:0:0:0:
192,192,94124,1,0,0:0:0:0:
64,192,94203,1,0,0:0:0:0:
320,192,94203,1,0,0:0:0:0:
448,192,94282,1,0,0:0:0:0:
192,192,94282,1,0,0:0:0:0:
320,192,94361,1,0,0:0:0:0:
192,192,94440,1,0,0:0:0:0:
448,192,94440,1,0,0:0:0:0:
320,192,94519,1,0,0:0:0:0:
64,192,94519,1,0,0:0:0:0:
192,192,94598,1,0,0:0:0:0:
320,192,94677,1,0,0:0:0:0:
448,192,94677,1,0,0:0:0:0:
192,192,94756,1,0,0:0:0:0:
64,192,94756,1,0,0:0:0:0:
448,192,94835,1,0,0:0:0:0:
64,192,94914,1,0,0:0:0:0:
192,192,94914,1,0,0:0:0:0:
320,192,94993,1,0,0:0:0:0:
448,192,94993,1,0,0:0:0:0:
192,192,95071,1,0,0:0:0:0:
64,192,95150,1,0,0:0:0:0:
448,192,95150,1,0,0:0:0:0:
320,192,95229,1,0,0:0:0:0:
192,192,95308,1,0,0:0:0:0:
64,192,95308,1,0,0:0:0:0:
320,192,95387,1,0,0:0:0:0:
448,192,95466,1,0,0:0:0:0:
192,192,95466,1,0,0:0:0:0:
64,192,95545,1,0,0:0:0:0:
320,192,95545,1,0,0:0:0:0:
192,192,95624,1,0,0:0:0:0:
64,192,95703,1,0,0:0:0:0:
320,192,95703,1,0,0:0:0:0:
192,192,95782,1,0,0:0:0:0:
448,192,95782,1,0,0:0:0:0:
320,192,95861,1,0,0:0:0:0:
64,192,95940,1,0,0:0:0:0:
192,192,95940,1,0,0:0:0:0:
320,192,96019,1,0,0:0:0:0:
448,192,96019,1,0,0:0:0:0:
64,192,96098,128,0,96256:0:0:0:0:
192,192,96098,1,0,0:0:0:0:
320,192,96177,1,0,0:0:0:0:
448,192,96177,1,0,0:0:0:0:
192,192,96256,1,0,0:0:0:0:
320,192,96335,1,0,0:0:0:0:
448,192,96414,1,0,0:0:0:0:
192,192,96414,1,0,0:0:0:0:
64,192,96493,1,0,0:0:0:0:
320,192,96571,1,0,0:0:0:0:
448,192,96571,1,0,0:0:0:0:
192,192,96571,1,0,0:0:0:0:
64,192,96650,1,0,0:0:0:0:
192,192,96729,1,0,0:0:0:0:
448,192,96729,1,0,0:0:0:0:
64,192,96808,1,0,0:0:0:0:
192,192,96887,1,0,0:0:0:0:
320,192,96887,1,0,0:0:0:0:
64,192,96966,1,0,0:0:0:0:
192,192,97045,1,0,0:0:0:0:
448,192,97045,1,0,0:0:0:0:
64,192,97124,1,0,0:0:0:0:
320,192,97203,1,0,0:0:0:0:
448,192,97203,1,0,0:0:0:0:
64,192,97282,1,0,0:0:0:0:
192,192,97361,1,0,0:0:0:0:
448,192,97361,1,0,0:0:0:0:
64,192,97440,1,0,0:0:0:0:
320,192,97519,1,0,0:0:0:0:
192,192,97519,1,0,0:0:0:0:
64,192,97598,1,0,0:0:0:0:
192,192,97677,1,0,0:0:0:0:
448,192,97677,1,0,0:0:0:0:
320,192,97756,1,0,0:0:0:0:
448,192,97835,1,0,0:0:0:0:
64,192,97835,1,0,0:0:0:0:
192,192,97914,1,0,0:0:0:0:
320,192,97993,1,0,0:0:0:0:
64,192,97993,1,0,0:0:0:0:
448,192,98071,1,0,0:0:0:0:
192,192,98150,1,0,0:0:0:0:
320,192,98150,1,0,0:0:0:0:
448,192,98229,1,0,0:0:0:0:
64,192,98308,1,0,0:0:0:0:
320,192,98308,1,0,0:0:0:0:
448,192,98387,1,0,0:0:0:0:
64,192,98466,1,0,0:0:0:0:
192,192,98466,1,0,0:0:0:0:
448,192,98545,1,0,0:0:0:0:
64,192,98624,1,0,0:0:0:0:
320,192,98624,1,0,0:0:0:0:
448,192,98703,1,0,0:0:0:0:
192,192,98782,1,0,0:0:0:0:
320,192,98782,1,0,0:0:0:0:
448,192,98861,1,0,0:0:0:0:
320,192,98940,1,0,0:0:0:0:
64,192,98940,1,0,0:0:0:0:
192,192,99019,1,0,0:0:0:0:
64,192,99098,1,0,0:0:0:0:
448,192,99098,1,0,0:0:0:0:
320,192,99177,1,0,0:0:0:0:
192,192,99256,1,0,0:0:0:0:
448,192,99256,1,0,0:0:0:0:
64,192,99335,1,0,0:0:0:0:
192,192,99414,1,0,0:0:0:0:
320,192,99414,1,0,0:0:0:0:
64,192,99493,1,0,0:0:0:0:
192,192,99571,1,0,0:0:0:0:
448,192,99571,1,0,0:0:0:0:
64,192,99650,1,0,0:0:0:0:
320,192,99729,1,0,0:0:0:0:
448,192,99729,1,0,0:0:0:0:
64,192,99808,1,0,0:0:0:0:
192,192,99887,1,0,0:0:0:0:
448,192,99887,1,0,0:0:0:0:
64,192,99966,1,0,0:0:0:0:
192,192,100045,1,0,0:0:0:0:
320,192,100045,1,0,0:0:0:0:
64,192,100124,1,0,0:0:0:0:
192,192,100203,1,0,0:0:0:0:
448,192,100203,1,0,0:0:0:0:
320,192,100282,1,0,0:0:0:0:
64,192,100361,128,0,100993:0:0:0:0:
192,192,100361,1,0,0:0:0:0:
320,192,100440,1,0,0:0:0:0:
448,192,100519,1,0,0:0:0:0:
192,192,100598,1,0,0:0:0:0:
320,192,100677,1,0,0:0:0:0:
448,192,100756,1,0,0:0:0:0:
192,192,100835,1,0,0:0:0:0:
320,192,100914,1,0,0:0:0:0:
448,192,100993,1,0,0:0:0:0:
192,192,101071,1,0,0:0:0:0:
320,192,101150,1,0,0:0:0:0:
448,192,101229,1,0,0:0:0:0:
64,192,101308,1,0,0:0:0:0:
192,192,101348,1,0,0:0:0:0:
320,192,101387,1,0,0:0:0:0:
448,192,101466,1,0,0:0:0:0:
320,192,101506,1,0,0:0:0:0:
192,192,101545,1,0,0:0:0:0:
320,192,101624,1,0,0:0:0:0:
448,192,101624,1,0,0:0:0:0:
64,192,101624,1,0,0:0:0:0:
448,192,101861,1,0,0:0:0:0:
192,192,101861,1,0,0:0:0:0:
64,192,101861,1,0,0:0:0:0:
64,192,102098,1,0,0:0:0:0:
448,192,102098,1,0,0:0:0:0:
320,192,102098,1,0,0:0:0:0:
192,192,102256,1,0,0:0:0:0:
448,192,102256,1,0,0:0:0:0:
320,192,102335,1,0,0:0:0:0:
192,192,102414,1,0,0:0:0:0:
64,192,102414,1,0,0:0:0:0:
448,192,102414,1,0,0:0:0:0:
320,192,102453,1,0,0:0:0:0:
192,192,102493,1,0,0:0:0:0:
64,192,102532,1,0,0:0:0:0:
448,192,102571,1,0,0:0:0:0:
320,192,102571,1,0,0:0:0:0:
192,192,102650,1,0,0:0:0:0:
64,192,102650,1,0,0:0:0:0:
448,192,102729,1,0,0:0:0:0:
320,192,102769,1,0,0:0:0:0:
192,192,102808,1,0,0:0:0:0:
64,192,102848,1,0,0:0:0:0:
192,192,102887,1,0,0:0:0:0:
448,192,102887,1,0,0:0:0:0:
320,192,102887,1,0,0:0:0:0:
64,192,103124,1,0,0:0:0:0:
192,192,103124,1,0,0:0:0:0:
320,192,103124,1,0,0:0:0:0:
192,192,103361,1,0,0:0:0:0:
320,192,103361,1,0,0:0:0:0:
448,192,103361,1,0,0:0:0:0:
64,192,103519,1,0,0:0:0:0:
192,192,103519,1,0,0:0:0:0:
320,192,103598,1,0,0:0:0:0:
448,192,103598,1,0,0:0:0:0:
192,192,103677,1,0,0:0:0:0:
64,192,103677,1,0,0:0:0:0:
320,192,103756,1,0,0:0:0:0:
448,192,103756,1,0,0:0:0:0:
192,192,103835,1,0,0:0:0:0:
64,192,103835,1,0,0:0:0:0:
320,192,103914,1,0,0:0:0:0:
448,192,103914,1,0,0:0:0:0:
64,192,103993,1,0,0:0:0:0:
192,192,104032,1,0,0:0:0:0:
448,192,104071,1,0,0:0:0:0:
320,192,104111,1,0,0:0:0:0:
64,192,104150,1,0,0:0:0:0:
448,192,104150,1,0,0:0:0:0:
192,192,104150,1,0,0:0:0:0:
64,192,104387,1,0,0:0:0:0:
448,192,104387,1,0,0:0:0:0:
320,192,104387,1,0,0:0:0:0:
192,192,104624,1,0,0:0:0:0:
64,192,104624,1,0,0:0:0:0:
448,192,104624,1,0,0:0:0:0:
64,192,104782,1,0,0:0:0:0:
320,192,104782,1,0,0:0:0:0:
192,192,104861,1,0,0:0:0:0:
320,192,104940,1,0,0:0:0:0:
64,192,104940,1,0,0:0:0:0:
448,192,104940,1,0,0:0:0:0:
192,192,104979,1,0,0:0:0:0:
320,192,105019,1,0,0:0:0:0:
448,192,105058,1,0,0:0:0:0:
192,192,105098,1,0,0:0:0:0:
64,192,105098,1,0,0:0:0:0:
448,192,105177,1,0,0:0:0:0:
320,192,105177,1,0,0:0:0:0:
64,192,105256,1,0,0:0:0:0:
192,192,105295,1,0,0:0:0:0:
320,192,105335,1,0,0:0:0:0:
448,192,105374,1,0,0:0:0:0:
64,192,105414,1,0,0:0:0:0:
320,192,105414,1,0,0:0:0:0:
192,192,105414,1,0,0:0:0:0:
448,192,105650,1,0,0:0:0:0:
192,192,105650,1,0,0:0:0:0:
320,192,105650,1,0,0:0:0:0:
192,192,105887,1,0,0:0:0:0:
64,192,105887,1,0,0:0:0:0:
320,192,105887,1,0,0:0:0:0:
448,192,106045,1,0,0:0:0:0:
320,192,106045,1,0,0:0:0:0:
64,192,106124,1,0,0:0:0:0:
192,192,106124,1,0,0:0:0:0:
448,192,106203,1,0,0:0:0:0:
320,192,106203,1,0,0:0:0:0:
64,192,106282,1,0,0:0:0:0:
192,192,106282,1,0,0:0:0:0:
448,192,106361,1,0,0:0:0:0:
320,192,106361,1,0,0:0:0:0:
192,192,106440,1,0,0:0:0:0:
64,192,106440,1,0,0:0:0:0:
320,192,106519,1,0,0:0:0:0:
448,192,106519,128,0,106677:0:0:0:0:
64,192,106677,1,0,0:0:0:0:
192,192,106716,1,0,0:0:0:0:
320,192,106756,1,0,0:0:0:0:
448,192,106795,1,0,0:0:0:0:
64,192,106835,1,0,0:0:0:0:
192,192,106835,1,0,0:0:0:0:
448,192,106914,1,0,0:0:0:0:
320,192,106953,1,0,0:0:0:0:
192,192,106993,1,0,0:0:0:0:
64,192,107032,1,0,0:0:0:0:
320,192,107071,1,0,0:0:0:0:
448,192,107071,1,0,0:0:0:0:
64,192,107150,1,0,0:0:0:0:
192,192,107190,1,0,0:0:0:0:
320,192,107229,1,0,0:0:0:0:
448,192,107269,1,0,0:0:0:0:
64,192,107308,1,0,0:0:0:0:
192,192,107308,1,0,0:0:0:0:
448,192,107387,1,0,0:0:0:0:
320,192,107387,1,0,0:0:0:0:
192,192,107466,1,0,0:0:0:0:
64,192,107466,1,0,0:0:0:0:
320,192,107545,1,0,0:0:0:0:
448,192,107545,1,0,0:0:0:0:
64,192,107624,1,0,0:0:0:0:
192,192,107624,1,0,0:0:0:0:
192,192,107782,1,0,0:0:0:0:
320,192,107782,1,0,0:0:0:0:
448,192,107940,1,0,0:0:0:0:
320,192,107979,1,0,0:0:0:0:
192,192,108019,1,0,0:0:0:0:
64,192,108058,1,0,0:0:0:0:
320,192,108098,1,0,0:0:0:0:
448,192,108098,1,0,0:0:0:0:
64,192,108177,1,0,0:0:0:0:
192,192,108216,1,0,0:0:0:0:
320,192,108256,1,0,0:0:0:0:
448,192,108295,1,0,0:0:0:0:
192,192,108335,1,0,0:0:0:0:
64,192,108335,1,0,0:0:0:0:
448,192,108414,1,0,0:0:0:0:
320,192,108453,1,0,0:0:0:0:
192,192,108493,1,0,0:0:0:0:
64,192,108532,1,0,0:0:0:0:
320,192,108571,1,0,0:0:0:0:
448,192,108571,1,0,0:0:0:0:
64,192,108650,1,0,0:0:0:0:
192,192,108650,1,0,0:0:0:0:
320,192,108729,1,0,0:0:0:0:
448,192,108729,1,0,0:0:0:0:
192,192,108808,1,0,0:0:0:0:
64,192,108808,1,0,0:0:0:0:
448,192,108887,1,0,0:0:0:0:
320,192,108927,1,0,0:0:0:0:
192,192,108966,1,0,0:0:0:0:
64,192,109006,1,0,0:0:0:0:
320,192,109045,1,0,0:0:0:0:
448,192,109045,1,0,0:0:0:0:
192,192,109124,1,0,0:0:0:0:
64,192,109203,1,0,0:0:0:0:
192,192,109243,1,0,0:0:0:0:
448,192,109282,1,0,0:0:0:0:
320,192,109321,1,0,0:0:0:0:
192,192,109361,1,0,0:0:0:0:
64,192,109361,1,0,0:0:0:0:
448,192,109440,1,0,0:0:0:0:
320,192,109479,1,0,0:0:0:0:
64,192,109519,1,0,0:0:0:0:
192,192,109558,1,0,0:0:0:0:
320,192,109598,1,0,0:0:0:0:
448,192,109598,1,0,0:0:0:0:
64,192,109677,1,0,0:0:0:0:
192,192,109716,1,0,0:0:0:0:
448,192,109756,1,0,0:0:0:0:
320,192,109795,1,0,0:0:0:0:
192,192,109835,1,0,0:0:0:0:
64,192,109835,1,0,0:0:0:0:
320,192,109914,1,0,0:0:0:0:
448,192,109914,1,0,0:0:0:0:
192,192,109993,1,0,0:0:0:0:
64,192,109993,1,0,0:0:0:0:
320,192,110071,1,0,0:0:0:0:
448,192,110071,1,0,0:0:0:0:
192,192,110150,1,0,0:0:0:0:
64,192,110150,1,0,0:0:0:0:
448,192,110229,1,0,0:0:0:0:
320,192,110308,1,0,0:0:0:0:
192,192,110308,1,0,0:0:0:0:
64,192,110387,1,0,0:0:0:0:
448,192,110466,1,0,0:0:0:0:
320,192,110506,1,0,0:0:0:0:
64,192,110545,1,0,0:0:0:0:
192,192,110585,1,0,0:0:0:0:
320,192,110624,1,0,0:0:0:0:
448,192,110624,1,0,0:0:0:0:
64,192,110703,128,0,110821:0:0:0:0:
192,192,110743,1,0,0:0:0:0:
320,192,110782,1,0,0:0:0:0:
448,192,110821,1,0,0:0:0:0:
192,192,110861,1,0,0:0:0:0:
64,192,110861,1,0,0:0:0:0:
448,192,110940,128,0,111058:0:0:0:0:
320,192,110979,1,0,0:0:0:0:
192,192,111019,1,0,0:0:0:0:
64,192,111058,1,0,0:0:0:0:
320,192,111098,1,0,0:0:0:0:
448,192,111098,1,0,0:0:0:0:
192,192,111177,1,0,0:0:0:0:
64,192,111177,1,0,0:0:0:0:
320,192,111256,1,0,0:0:0:0:
448,192,111256,1,0,0:0:0:0:
192,192,111335,1,0,0:0:0:0:
64,192,111414,1,0,0:0:0:0:
448,192,111414,1,0,0:0:0:0:
320,192,111453,1,0,0:0:0:0:
192,192,111493,1,0,0:0:0:0:
448,192,111571,1,0,0:0:0:0:
64,192,111571,1,0,0:0:0:0:
192,192,111611,1,0,0:0:0:0:
320,192,111650,1,0,0:0:0:0:
448,192,111690,1,0,0:0:0:0:
64,192,111729,128,0,112993:0:0:0:0:
320,192,111729,128,0,112677:0:0:0:0:
192,192,111729,128,0,112835:0:0:0:0:
