osu file format v14

[General]
AudioFilename: audio.mp3
AudioLeadIn: 0
PreviewTime: 80150
Countdown: 1
SampleSet: None
StackLeniency: 0.7
Mode: 3
LetterboxInBreaks: 0
SpecialStyle: 0
WidescreenStoryboard: 1

[Editor]
DistanceSpacing: 1
BeatDivisor: 2
GridSize: 32
TimelineZoom: 1.9

[Metadata]
Title:Pure Evil (Kobaryo FTN-Remix)
TitleUnicode:Pure Evil (Kobaryo FTN-Remix)
Artist:Kobaryo
ArtistUnicode:Kobaryo
Creator:Ortlinde
Version:BASIC
Source:SOUND VOLTEX III GRAVITY WARS
Tags:kors k楽曲REMIXコンテスト Song Contest Kosuke Saito Rei Furuba 斎藤広祐 HARDCORE TANO*C BEMANI KONAMI Digital Entertainment
BeatmapID:1232598
BeatmapSetID:582464

[Difficulty]
HPDrainRate:6
CircleSize:4
OverallDifficulty:6
ApproachRate:5
SliderMultiplier:1.4
SliderTickRate:1

[Events]
//Background and Video events
0,0,"Pure+Evil.png",0,0
//Break Periods
//Storyboard Layer 0 (Background)
//Storyboard Layer 1 (Fail)
//Storyboard Layer 2 (Pass)
//Storyboard Layer 3 (Foreground)
//Storyboard Sound Samples

[TimingPoints]
572,157.894736842105,4,2,0,20,1,0

[HitObjects]
64,192,572,5,0,0:0:0:0:
448,192,572,128,0,3098:0:0:0:0:
320,192,3098,128,0,4282:0:0:0:0:
192,192,4282,128,0,5624:0:0:0:0:
64,192,5624,128,0,8150:0:0:0:0:
192,192,8150,128,0,9335:0:0:0:0:
320,192,9335,128,0,10677:0:0:0:0:
64,192,10677,1,0,0:0:0:0:
448,192,10677,1,0,0:0:0:0:
192,192,10993,1,0,0:0:0:0:
320,192,11624,1,0,0:0:0:0:
192,192,12256,1,0,0:0:0:0:
320,192,12887,1,0,0:0:0:0:
64,192,13203,1,0,0:0:0:0:
448,192,13203,1,0,0:0:0:0:
320,192,13519,1,0,0:0:0:0:
192,192,14150,1,0,0:0:0:0:
320,192,14782,1,0,0:0:0:0:
448,192,15098,128,0,15414:0:0:0:0:
192,192,15414,128,0,15729:0:0:0:0:
64,192,15729,128,0,16361:0:0:0:0:
192,192,16361,128,0,16993:0:0:0:0:
320,192,16993,128,0,17624:0:0:0:0:
448,192,17624,128,0,18256:0:0:0:0:
320,192,18256,128,0,18887:0:0:0:0:
192,192,18887,128,0,19519:0:0:0:0:
64,192,19519,1,0,0:0:0:0:
448,192,20782,1,0,0:0:0:0:
64,192,20782,1,0,0:0:0:0:
320,192,21098,1,0,0:0:0:0:
192,192,21414,1,0,0:0:0:0:
64,192,21729,1,0,0:0:0:0:
320,192,22045,1,0,0:0:0:0:
192,192,22361,1,0,0:0:0:0:
448,192,22677,1,0,0:0:0:0:
320,192,22993,128,0,23308:0:0:0:0:
64,192,23308,1,0,0:0:0:0:
192,192,23624,1,0,0:0:0:0:
320,192,23940,1,0,0:0:0:0:
448,192,24256,1,0,0:0:0:0:
64,192,24571,1,0,0:0:0:0:
192,192,24729,1,0,0:0:0:0:
320,192,24887,1,0,0:0:0:0:
448,192,25045,1,0,0:0:0:0:
192,192,25203,128,0,25519:0:0:0:0:
320,192,25519,128,0,25835:0:0:0:0:
448,192,25835,1,0,0:0:0:0:
64,192,25835,1,0,0:0:0:0:
192,192,26150,1,0,0:0:0:0:
320,192,26466,1,0,0:0:0:0:
448,192,26782,1,0,0:0:0:0:
192,192,27098,1,0,0:0:0:0:
320,192,27414,1,0,0:0:0:0:
64,192,27729,1,0,0:0:0:0:
192,192,28045,128,0,28361:0:0:0:0:
448,192,28361,1,0,0:0:0:0:
320,192,28677,1,0,0:0:0:0:
192,192,28993,1,0,0:0:0:0:
64,192,29308,1,0,0:0:0:0:
448,192,29624,1,0,0:0:0:0:
320,192,29782,1,0,0:0:0:0:
192,192,29940,1,0,0:0:0:0:
64,192,30098,1,0,0:0:0:0:
320,192,30256,128,0,30729:0:0:0:0:
192,192,30729,1,0,0:0:0:0:
64,192,31045,1,0,0:0:0:0:
448,192,31045,1,0,0:0:0:0:
320,192,31361,1,0,0:0:0:0:
192,192,31519,1,0,0:0:0:0:
64,192,31677,1,0,0:0:0:0:
448,192,31993,1,0,0:0:0:0:
192,192,32150,1,0,0:0:0:0:
64,192,32308,1,0,0:0:0:0:
448,192,32624,1,0,0:0:0:0:
320,192,32782,1,0,0:0:0:0:
192,192,32940,1,0,0:0:0:0:
64,192,33098,1,0,0:0:0:0:
192,192,33256,1,0,0:0:0:0:
320,192,33414,1,0,0:0:0:0:
448,192,33571,1,0,0:0:0:0:
192,192,33887,1,0,0:0:0:0:
320,192,34045,1,0,0:0:0:0:
448,192,34203,1,0,0:0:0:0:
64,192,34519,1,0,0:0:0:0:
192,192,34677,1,0,0:0:0:0:
320,192,34835,1,0,0:0:0:0:
448,192,34993,1,0,0:0:0:0:
320,192,35150,1,0,0:0:0:0:
192,192,35308,128,0,35624:0:0:0:0:
448,192,35624,128,0,35940:0:0:0:0:
64,192,35940,1,0,0:0:0:0:
192,192,36098,1,0,0:0:0:0:
448,192,36414,1,0,0:0:0:0:
64,192,36571,1,0,0:0:0:0:
320,192,36729,1,0,0:0:0:0:
192,192,37045,1,0,0:0:0:0:
448,192,37203,1,0,0:0:0:0:
320,192,37361,1,0,0:0:0:0:
64,192,37677,1,0,0:0:0:0:
192,192,37835,1,0,0:0:0:0:
320,192,37993,1,0,0:0:0:0:
448,192,38150,1,0,0:0:0:0:
320,192,38308,1,0,0:0:0:0:
192,192,38466,1,0,0:0:0:0:
64,192,38624,1,0,0:0:0:0:
192,192,38940,1,0,0:0:0:0:
320,192,39098,1,0,0:0:0:0:
448,192,39256,1,0,0:0:0:0:
64,192,39571,1,0,0:0:0:0:
192,192,39729,1,0,0:0:0:0:
320,192,39887,1,0,0:0:0:0:
192,192,40203,1,0,0:0:0:0:
320,192,40361,1,0,0:0:0:0:
448,192,40519,128,0,40993:0:0:0:0:
64,192,40993,1,0,0:0:0:0:
192,192,41229,1,0,0:0:0:0:
320,192,41466,1,0,0:0:0:0:
64,192,41624,128,0,42256:0:0:0:0:
448,192,42256,1,0,0:0:0:0:
320,192,42493,1,0,0:0:0:0:
192,192,42729,1,0,0:0:0:0:
448,192,42887,128,0,43519:0:0:0:0:
320,192,43519,1,0,0:0:0:0:
192,192,43756,1,0,0:0:0:0:
64,192,43993,1,0,0:0:0:0:
448,192,44150,128,0,44782:0:0:0:0:
192,192,44782,1,0,0:0:0:0:
320,192,45019,1,0,0:0:0:0:
448,192,45256,1,0,0:0:0:0:
64,192,45414,128,0,46045:0:0:0:0:
448,192,46045,1,0,0:0:0:0:
448,192,46282,1,0,0:0:0:0:
448,192,46519,1,0,0:0:0:0:
192,192,46677,128,0,47308:0:0:0:0:
320,192,47308,1,0,0:0:0:0:
320,192,47545,1,0,0:0:0:0:
320,192,47782,1,0,0:0:0:0:
64,192,47940,128,0,48571:0:0:0:0:
192,192,48571,1,0,0:0:0:0:
192,192,48808,1,0,0:0:0:0:
192,192,49045,1,0,0:0:0:0:
448,192,49203,128,0,49835:0:0:0:0:
64,192,49835,1,0,0:0:0:0:
64,192,50071,1,0,0:0:0:0:
64,192,50308,1,0,0:0:0:0:
320,192,50466,128,0,50782:0:0:0:0:
192,192,50782,128,0,51098:0:0:0:0:
448,192,51098,128,0,61203:0:0:0:0:
64,192,51098,1,0,0:0:0:0:
64,192,61203,1,0,0:0:0:0:
192,192,61203,1,0,0:0:0:0:
320,192,63729,1,0,0:0:0:0:
448,192,63729,1,0,0:0:0:0:
64,192,66256,1,0,0:0:0:0:
192,192,66256,1,0,0:0:0:0:
320,192,67519,1,0,0:0:0:0:
448,192,67519,1,0,0:0:0:0:
64,192,68782,1,0,0:0:0:0:
320,192,68782,1,0,0:0:0:0:
192,192,70045,1,0,0:0:0:0:
448,192,70045,1,0,0:0:0:0:
320,192,70677,128,0,70993:0:0:0:0:
192,192,70993,128,0,71308:0:0:0:0:
64,192,71308,1,0,0:0:0:0:
64,192,71624,1,0,0:0:0:0:
192,192,71940,1,0,0:0:0:0:
192,192,72256,1,0,0:0:0:0:
320,192,72571,1,0,0:0:0:0:
320,192,72887,1,0,0:0:0:0:
448,192,73203,1,0,0:0:0:0:
448,192,73519,1,0,0:0:0:0:
64,192,73835,1,0,0:0:0:0:
64,192,74150,1,0,0:0:0:0:
192,192,74466,1,0,0:0:0:0:
192,192,74782,1,0,0:0:0:0:
448,192,75098,128,0,75414:0:0:0:0:
320,192,75414,128,0,75729:0:0:0:0:
192,192,75729,128,0,76045:0:0:0:0:
64,192,76045,128,0,76361:0:0:0:0:
448,192,76361,1,0,0:0:0:0:
192,192,76677,1,0,0:0:0:0:
320,192,76993,1,0,0:0:0:0:
64,192,77308,1,0,0:0:0:0:
192,192,77624,1,0,0:0:0:0:
448,192,77940,1,0,0:0:0:0:
64,192,78256,1,0,0:0:0:0:
320,192,78571,1,0,0:0:0:0:
64,192,78887,128,0,79203:0:0:0:0:
192,192,79203,128,0,79519:0:0:0:0:
320,192,79519,128,0,79835:0:0:0:0:
448,192,79835,128,0,80150:0:0:0:0:
64,192,80150,1,0,0:0:0:0:
64,192,81414,1,0,0:0:0:0:
448,192,81414,1,0,0:0:0:0:
192,192,81729,1,0,0:0:0:0:
320,192,82045,1,0,0:0:0:0:
448,192,82361,1,0,0:0:0:0:
192,192,82677,1,0,0:0:0:0:
320,192,82993,1,0,0:0:0:0:
64,192,83308,1,0,0:0:0:0:
192,192,83624,1,0,0:0:0:0:
448,192,83940,1,0,0:0:0:0:
320,192,84256,1,0,0:0:0:0:
192,192,84571,1,0,0:0:0:0:
64,192,84887,1,0,0:0:0:0:
320,192,85203,1,0,0:0:0:0:
192,192,85519,1,0,0:0:0:0:
448,192,85835,1,0,0:0:0:0:
320,192,86150,1,0,0:0:0:0:
64,192,86466,1,0,0:0:0:0:
192,192,86782,1,0,0:0:0:0:
320,192,87098,1,0,0:0:0:0:
192,192,87414,1,0,0:0:0:0:
64,192,87729,1,0,0:0:0:0:
448,192,88045,1,0,0:0:0:0:
320,192,88361,1,0,0:0:0:0:
192,192,88677,1,0,0:0:0:0:
320,192,88993,1,0,0:0:0:0:
448,192,89308,1,0,0:0:0:0:
192,192,89624,1,0,0:0:0:0:
320,192,89940,1,0,0:0:0:0:
64,192,90256,128,0,90571:0:0:0:0:
192,192,90571,128,0,90887:0:0:0:0:
320,192,90887,128,0,91203:0:0:0:0:
448,192,91203,128,0,91519:0:0:0:0:
64,192,91519,1,0,0:0:0:0:
320,192,91835,1,0,0:0:0:0:
192,192,92150,1,0,0:0:0:0:
448,192,92466,1,0,0:0:0:0:
64,192,92782,1,0,0:0:0:0:
320,192,93098,1,0,0:0:0:0:
192,192,93414,1,0,0:0:0:0:
448,192,93729,1,0,0:0:0:0:
64,192,94045,1,0,0:0:0:0:
448,192,94361,1,0,0:0:0:0:
192,192,94677,1,0,0:0:0:0:
320,192,94993,1,0,0:0:0:0:
64,192,95308,1,0,0:0:0:0:
448,192,95624,1,0,0:0:0:0:
192,192,95940,1,0,0:0:0:0:
320,192,96256,1,0,0:0:0:0:
448,192,96571,1,0,0:0:0:0:
192,192,96887,1,0,0:0:0:0:
320,192,97203,1,0,0:0:0:0:
64,192,97519,1,0,0:0:0:0:
448,192,97835,1,0,0:0:0:0:
192,192,98150,1,0,0:0:0:0:
320,192,98466,1,0,0:0:0:0:
64,192,98782,1,0,0:0:0:0:
448,192,99098,1,0,0:0:0:0:
64,192,99414,1,0,0:0:0:0:
320,192,99729,1,0,0:0:0:0:
192,192,100045,1,0,0:0:0:0:
448,192,100361,128,0,100677:0:0:0:0:
320,192,100677,128,0,100993:0:0:0:0:
192,192,100993,128,0,101308:0:0:0:0:
64,192,101308,128,0,101624:0:0:0:0:
448,192,101624,1,0,0:0:0:0:
192,192,101624,1,0,0:0:0:0:
320,192,101861,1,0,0:0:0:0:
192,192,102098,1,0,0:0:0:0:
64,192,102335,1,0,0:0:0:0:
448,192,102571,1,0,0:0:0:0:
64,192,102887,1,0,0:0:0:0:
192,192,103124,1,0,0:0:0:0:
320,192,103361,1,0,0:0:0:0:
448,192,103598,1,0,0:0:0:0:
64,192,103835,1,0,0:0:0:0:
448,192,104150,1,0,0:0:0:0:
320,192,104387,1,0,0:0:0:0:
192,192,104624,1,0,0:0:0:0:
320,192,104861,1,0,0:0:0:0:
448,192,105098,1,0,0:0:0:0:
64,192,105414,1,0,0:0:0:0:
192,192,105650,1,0,0:0:0:0:
320,192,105887,1,0,0:0:0:0:
192,192,106124,1,0,0:0:0:0:
64,192,106361,1,0,0:0:0:0:
448,192,106677,128,0,106914:0:0:0:0:
320,192,106914,128,0,107150:0:0:0:0:
192,192,107150,128,0,107387:0:0:0:0:
64,192,107387,128,0,107624:0:0:0:0:
320,192,107624,1,0,0:0:0:0:
64,192,107940,128,0,108177:0:0:0:0:
192,192,108177,128,0,108414:0:0:0:0:
320,192,108414,128,0,108650:0:0:0:0:
448,192,108650,128,0,108887:0:0:0:0:
192,192,108887,1,0,0:0:0:0:
448,192,109203,128,0,109440:0:0:0:0:
64,192,109440,128,0,109677:0:0:0:0:
320,192,109677,128,0,109914:0:0:0:0:
192,192,109914,128,0,110150:0:0:0:0:
448,192,110150,1,0,0:0:0:0:
64,192,110466,128,0,110703:0:0:0:0:
448,192,110703,128,0,110940:0:0:0:0:
192,192,110940,128,0,111177:0:0:0:0:
320,192,111177,128,0,111414:0:0:0:0:
64,192,111414,1,0,0:0:0:0:
192,192,111571,1,0,0:0:0:0:
320,192,111729,1,0,0:0:0:0:
448,192,111729,128,0,112993:0:0:0:0:
