osu file format v14

[General]
AudioFilename: audio.mp3
AudioLeadIn: 0
PreviewTime: 122901
Countdown: 1
SampleSet: Normal
StackLeniency: 0.7
Mode: 1
LetterboxInBreaks: 0
WidescreenStoryboard: 0

[Editor]
Bookmarks: 12071,21671,31271,40871,50471,60071,69671,79271,88871,98471,123423,138192,145577,152961,160346,167731,175115,189884,193577
DistanceSpacing: 0.6
BeatDivisor: 4
GridSize: 4
TimelineZoom: 3.070003

[Metadata]
Title:Ponko2 Girlish (Kobaryo's FTN-Remix)
TitleUnicode:Ponko2 Girlish (Kobaryo's FTN-Remix)
Artist:Kobaryo
ArtistUnicode:Kobaryo
Creator:katacheh
Version:Poison
Source:
Tags:C.H.S ななひら Nanahira t+pazolite
BeatmapID:1188759
BeatmapSetID:562250

[Difficulty]
HPDrainRate:5.87
CircleSize:2.87
OverallDifficulty:5.87
ApproachRate:5.87
SliderMultiplier:1.4
SliderTickRate:1

[Events]
//Background and Video events
0,0,"BG.png",0,0
//Break Periods
//Storyboard Layer 0 (Background)
//Storyboard Layer 1 (Fail)
//Storyboard Layer 2 (Pass)
//Storyboard Layer 3 (Foreground)
//Storyboard Sound Samples

[TimingPoints]
1271,300,4,1,0,100,1,0
2471,-43.4782608695652,4,1,0,100,0,0
2621,-44.0528634361233,4,1,0,100,0,0
2771,-44.6428571428571,4,1,0,100,0,0
2921,-45.2488687782805,4,1,0,100,0,0
3071,-45.8715596330275,4,1,0,100,0,0
3221,-46.5116279069767,4,1,0,100,0,0
3371,-47.1698113207547,4,1,0,100,0,0
3521,-47.8468899521531,4,1,0,100,0,0
3671,-48.5436893203883,4,1,0,100,0,0
3821,-49.2610837438424,4,1,0,100,0,0
3971,-50,4,1,0,100,0,0
4121,-50.761421319797,4,1,0,100,0,0
4271,-51.5463917525773,4,1,0,100,0,0
4421,-52.3560209424084,4,1,0,100,0,0
4571,-53.1914893617021,4,1,0,100,0,0
4721,-54.054054054054,4,1,0,100,0,0
4871,-54.9450549450549,4,1,0,100,0,0
5021,-55.8659217877095,4,1,0,100,0,0
5171,-56.8181818181818,4,1,0,100,0,0
5321,-57.8034682080925,4,1,0,100,0,0
5471,-58.8235294117647,4,1,0,100,0,0
5621,-59.8802395209581,4,1,0,100,0,0
5771,-60.9756097560976,4,1,0,100,0,0
5921,-62.111801242236,4,1,0,100,0,0
6071,-63.2911392405063,4,1,0,100,0,0
6221,-64.5161290322581,4,1,0,100,0,0
6371,-65.7894736842105,4,1,0,100,0,0
6521,-67.1140939597315,4,1,0,100,0,0
6671,-68.4931506849315,4,1,0,100,0,0
6821,-69.9300699300699,4,1,0,100,0,0
6971,-71.4285714285714,4,1,0,100,0,0
7121,-72.992700729927,4,1,0,100,0,0
7271,-74.6268656716418,4,1,0,100,0,0
7421,-76.3358778625954,4,1,0,100,0,0
7571,-78.125,4,1,0,100,0,0
7721,-80,4,1,0,100,0,0
7871,-81.9672131147541,4,1,0,100,0,0
8021,-84.0336134453781,4,1,0,100,0,0
8171,-86.2068965517241,4,1,0,100,0,0
8321,-88.4955752212389,4,1,0,100,0,0
8471,-90.9090909090909,4,1,0,100,0,0
8621,-92.5925925925926,4,1,0,100,0,0
8771,-94.3396226415094,4,1,0,100,0,0
8921,-96.1538461538461,4,1,0,100,0,0
9071,-98.0392156862745,4,1,0,100,0,0
9221,-100,4,1,0,100,0,0
9371,-102.040816326531,4,1,0,100,0,0
9521,-104.166666666667,4,1,0,100,0,0
9671,-106.382978723404,4,1,0,100,0,0
9821,-108.695652173913,4,1,0,100,0,0
9971,-111.111111111111,4,1,0,100,0,0
10121,-113.636363636364,4,1,0,100,0,0
10271,-116.279069767442,4,1,0,100,0,0
10421,-119.047619047619,4,1,0,100,0,0
10571,-121.951219512195,4,1,0,100,0,0
10721,-125,4,1,0,100,0,0
10871,-128.205128205128,4,1,0,100,0,0
11021,-131.578947368421,4,1,0,100,0,0
11171,-135.135135135135,4,1,0,100,0,0
11321,-138.888888888889,4,1,0,100,0,0
11471,-142.857142857143,4,1,0,100,0,0
11621,-147.058823529412,4,1,0,100,0,0
11771,-151.515151515152,4,1,0,100,0,0
11921,-156.25,4,1,0,100,0,0
12071,-161.290322580645,4,1,0,100,0,0
19271,-153.846153846154,4,1,1,100,0,0
19346,-147.058823529412,4,1,1,100,0,0
19421,-140.845070422535,4,1,1,100,0,0
19496,-135.135135135135,4,1,1,100,0,0
19571,-129.87012987013,4,1,1,100,0,0
19646,-125,4,1,1,100,0,0
19721,-121.951219512195,4,1,1,100,0,0
19796,-119.047619047619,4,1,1,100,0,0
19871,-116.279069767442,4,1,1,100,0,0
19946,-113.636363636364,4,1,1,100,0,0
20021,-111.111111111111,4,1,1,100,0,0
20096,-108.695652173913,4,1,1,100,0,0
20171,-106.382978723404,4,1,1,100,0,0
20246,-104.166666666667,4,1,1,100,0,0
20321,-102.040816326531,4,1,1,100,0,0
20396,-101.010101010101,4,1,1,100,0,0
20471,-100,4,1,1,100,0,0
21671,-62.5,4,1,1,100,0,0
21746,-68.9655172413793,4,1,1,100,0,0
21821,-76.9230769230769,4,1,1,100,0,0
21896,-86.9565217391304,4,1,1,100,0,0
21971,-94.3396226415094,4,1,1,100,0,0
22121,-62.5,4,1,1,100,0,0
22196,-68.9655172413793,4,1,1,100,0,0
22271,-76.9230769230769,4,1,1,100,0,0
22346,-86.9565217391304,4,1,1,100,0,0
22421,-94.3396226415094,4,1,1,100,0,0
22533,-100,4,1,1,100,0,1
22646,-100,4,1,1,100,0,0
22871,-100,4,1,1,100,0,0
22946,-90.9090909090909,4,1,1,100,0,0
23021,-83.3333333333333,4,1,1,100,0,0
23096,-76.9230769230769,4,1,1,100,0,0
23171,-71.4285714285714,4,1,1,100,0,0
23321,-100,4,1,1,100,0,0
23396,-90.9090909090909,4,1,1,100,0,0
23471,-83.3333333333333,4,1,1,100,0,0
23546,-76.9230769230769,4,1,1,100,0,0
23621,-71.4285714285714,4,1,1,100,0,0
23733,-58.8235294117647,4,1,1,100,0,1
23846,-100,4,1,1,100,0,0
23883,-58.8235294117647,4,1,1,100,0,1
23996,-100,4,1,1,100,0,0
24071,-62.5,4,1,1,100,0,0
24146,-68.9655172413793,4,1,1,100,0,0
24221,-76.9230769230769,4,1,1,100,0,0
24296,-86.9565217391304,4,1,1,100,0,0
24371,-94.3396226415094,4,1,1,100,0,0
24521,-62.5,4,1,1,100,0,0
24596,-68.9655172413793,4,1,1,100,0,0
24671,-76.9230769230769,4,1,1,100,0,0
24746,-86.9565217391304,4,1,1,100,0,0
24821,-94.3396226415094,4,1,1,100,0,0
24933,-100,4,1,1,100,0,1
25046,-100,4,1,1,100,0,0
25271,-100,4,1,1,100,0,0
25346,-90.9090909090909,4,1,1,100,0,0
25421,-83.3333333333333,4,1,1,100,0,0
25496,-76.9230769230769,4,1,1,100,0,0
25571,-71.4285714285714,4,1,1,100,0,0
25721,-100,4,1,1,100,0,0
25796,-90.9090909090909,4,1,1,100,0,0
25871,-83.3333333333333,4,1,1,100,0,0
25946,-76.9230769230769,4,1,1,100,0,0
26021,-71.4285714285714,4,1,1,100,0,0
26133,-58.8235294117647,4,1,1,100,0,1
26246,-100,4,1,1,100,0,0
26283,-58.8235294117647,4,1,1,100,0,1
26396,-100,4,1,1,100,0,0
26471,-62.5,4,1,1,100,0,0
26546,-68.9655172413793,4,1,1,100,0,0
26621,-76.9230769230769,4,1,1,100,0,0
26696,-86.9565217391304,4,1,1,100,0,0
26771,-94.3396226415094,4,1,1,100,0,0
26921,-62.5,4,1,1,100,0,0
26996,-68.9655172413793,4,1,1,100,0,0
27071,-76.9230769230769,4,1,1,100,0,0
27146,-86.9565217391304,4,1,1,100,0,0
27221,-94.3396226415094,4,1,1,100,0,0
27333,-100,4,1,1,100,0,1
27446,-100,4,1,1,100,0,0
27671,-100,4,1,1,100,0,0
27746,-90.9090909090909,4,1,1,100,0,0
27821,-83.3333333333333,4,1,1,100,0,0
27896,-76.9230769230769,4,1,1,100,0,0
27971,-71.4285714285714,4,1,1,100,0,0
28121,-100,4,1,1,100,0,0
28196,-90.9090909090909,4,1,1,100,0,0
28271,-83.3333333333333,4,1,1,100,0,0
28346,-76.9230769230769,4,1,1,100,0,0
28421,-71.4285714285714,4,1,1,100,0,0
28533,-58.8235294117647,4,1,1,100,0,1
28646,-100,4,1,1,100,0,0
28683,-58.8235294117647,4,1,1,100,0,1
28796,-100,4,1,1,100,0,0
28871,-62.5,4,1,1,100,0,0
28946,-68.9655172413793,4,1,1,100,0,0
29021,-76.9230769230769,4,1,1,100,0,0
29096,-86.9565217391304,4,1,1,100,0,0
29171,-94.3396226415094,4,1,1,100,0,0
29321,-62.5,4,1,1,100,0,0
29396,-68.9655172413793,4,1,1,100,0,0
29471,-76.9230769230769,4,1,1,100,0,0
29546,-86.9565217391304,4,1,1,100,0,0
29621,-94.3396226415094,4,1,1,100,0,0
29733,-100,4,1,1,100,0,1
29846,-100,4,1,1,100,0,0
30071,-100,4,1,1,100,0,0
30146,-90.9090909090909,4,1,1,100,0,0
30221,-83.3333333333333,4,1,1,100,0,0
30296,-76.9230769230769,4,1,1,100,0,0
30371,-71.4285714285714,4,1,1,100,0,0
30521,-100,4,1,1,100,0,0
30596,-90.9090909090909,4,1,1,100,0,0
30671,-83.3333333333333,4,1,1,100,0,0
30746,-76.9230769230769,4,1,1,100,0,0
30821,-71.4285714285714,4,1,1,100,0,0
30933,-58.8235294117647,4,1,1,100,0,1
31046,-100,4,1,1,100,0,0
31083,-58.8235294117647,4,1,1,100,0,1
31196,-100,4,1,1,100,0,0
32133,-45.4545454545455,4,1,1,100,0,1
32246,-100,4,1,1,100,0,0
33333,-45.4545454545455,4,1,1,100,0,1
33446,-100,4,1,1,100,0,0
33483,-45.4545454545455,4,1,1,100,0,1
33596,-100,4,1,1,100,0,0
34533,-45.4545454545455,4,1,1,100,0,1
34646,-100,4,1,1,100,0,0
35733,-45.4545454545455,4,1,1,100,0,1
35846,-100,4,1,1,100,0,0
35883,-45.4545454545455,4,1,1,100,0,1
35996,-100,4,1,1,100,0,0
36933,-45.4545454545455,4,1,1,100,0,1
37046,-100,4,1,1,100,0,0
38133,-45.4545454545455,4,1,1,100,0,1
38246,-100,4,1,1,100,0,0
38283,-45.4545454545455,4,1,1,100,0,1
38396,-100,4,1,1,100,0,0
39333,-45.4545454545455,4,1,1,100,0,1
39446,-100,4,1,1,100,0,0
40871,-90.9090909090909,4,1,1,100,0,0
41771,-58.8235294117647,4,1,1,100,0,0
41996,-90.9090909090909,4,1,1,100,0,0
42071,-83.3333333333333,4,1,1,100,0,0
42971,-58.8235294117647,4,1,1,100,0,0
43196,-90.9090909090909,4,1,1,100,0,0
43271,-76.9230769230769,4,1,1,100,0,0
44171,-58.8235294117647,4,1,1,100,0,0
44396,-90.9090909090909,4,1,1,100,0,0
44471,-83.3333333333333,4,1,1,100,0,0
45371,-58.8235294117647,4,1,1,100,0,0
45596,-90.9090909090909,4,1,1,100,0,0
45671,-76.9230769230769,4,1,1,100,0,0
46571,-58.8235294117647,4,1,1,100,0,0
46796,-90.9090909090909,4,1,1,100,0,0
46871,-125,4,1,1,100,0,0
47771,-58.8235294117647,4,1,1,100,0,0
47996,-90.9090909090909,4,1,1,100,0,0
48071,-83.3333333333333,4,1,1,100,0,0
48933,-45.4545454545455,4,1,1,100,0,0
49046,-100,4,1,1,100,0,0
50433,-125,4,1,1,100,0,0
59696,-58.8235294117647,4,1,0,100,0,0
59996,-166.666666666667,4,1,0,100,0,0
64871,-100,4,1,0,100,0,0
70271,-66.6666666666667,4,1,1,100,0,0
70421,-125,4,1,1,100,0,0
70571,-100,4,1,1,100,0,0
70871,-200,4,1,1,100,0,0
71021,-142.857142857143,4,1,1,100,0,0
71171,-83.3333333333334,4,1,1,100,0,0
71246,-100,4,1,1,100,0,0
71396,-250.000000000001,4,1,1,100,0,0
71771,-125,4,1,1,100,0,0
71921,-76.9230769230769,4,1,1,100,0,0
72071,-111.111111111111,4,1,1,100,0,0
72371,-200,4,1,1,100,0,0
72521,-83.3333333333334,4,1,1,100,0,0
72671,-142.857142857143,4,1,1,100,0,0
72821,-250.000000000001,4,1,1,100,0,0
72971,-125,4,1,1,100,0,0
73271,-200,4,1,1,100,0,0
73421,-100,4,1,1,100,0,0
73571,-71.4285714285715,4,1,1,100,0,0
73721,-142.857142857143,4,1,1,100,0,0
73871,-166.666666666667,4,1,1,100,0,0
74021,-83.3333333333334,4,1,1,100,0,0
74171,-333.333333333334,4,1,1,100,0,0
74321,-100,4,1,1,100,0,0
74471,-83.3333333333333,4,1,1,100,0,0
74771,-111.111111111111,4,1,1,100,0,0
74921,-200,4,1,1,100,0,0
75071,-90.9090909090909,4,1,1,100,0,0
75221,-250.000000000001,4,1,1,100,0,0
75371,-90.909090909091,4,1,1,100,0,0
75671,-166.666666666667,4,1,1,100,0,0
75821,-76.923076923077,4,1,1,100,0,0
75971,-125,4,1,1,100,0,0
76121,-83.3333333333333,4,1,1,100,0,0
76271,-250.000000000001,4,1,1,100,0,0
76571,-142.857142857143,4,1,1,100,0,0
76721,-500.000000000003,4,1,1,100,0,0
76871,-71.4285714285715,4,1,1,100,0,0
77171,-200,4,1,1,100,0,0
77321,-100,4,1,1,100,0,0
77471,-76.923076923077,4,1,1,100,0,0
77621,-166.666666666667,4,1,1,100,0,0
77771,-125,4,1,1,100,0,0
77921,-142.857142857143,4,1,1,100,0,0
77996,-333.333333333333,4,1,1,100,0,0
78221,-76.923076923077,4,1,1,100,0,0
78371,-90.9090909090909,4,1,1,100,0,0
78671,-111.111111111111,4,1,1,100,0,0
78896,-100,4,1,0,100,0,0
80471,-111.111111111111,4,1,0,100,0,0
81671,-125,4,1,0,100,0,0
82871,-125,4,1,0,100,0,0
84071,-142.857142857143,4,1,0,100,0,0
85271,-166.666666666667,4,1,0,100,0,0
86471,-200,4,1,0,100,0,0
87671,-200,4,1,0,100,0,0
88871,-50,4,1,0,100,0,0
88946,-100,4,1,0,100,0,0
90071,-50,4,1,0,100,0,0
90146,-100,4,1,0,100,0,0
91271,-50,4,1,0,100,0,0
91346,-100,4,1,0,100,0,0
92471,-50,4,1,0,100,0,0
92546,-100,4,1,0,100,0,0
93671,-50,4,1,0,100,0,0
93746,-100,4,1,0,100,0,0
94871,-50,4,1,0,100,0,0
94946,-100,4,1,0,100,0,0
96071,-66.6666666666667,4,1,0,100,0,0
97271,-100,4,1,0,100,0,0
98471,300,4,1,1,80,1,0
99671,285.714285714286,4,1,1,100,1,0
100813,272.727272727273,4,1,1,100,1,0
101903,260.869565217391,4,1,1,100,1,0
102946,250,4,1,1,100,1,0
103946,244.897959183673,4,1,1,100,1,0
104925,240,4,1,1,100,1,0
105885,235.294117647059,4,1,1,100,1,0
106826,226.415094339623,4,1,1,100,1,0
106854,0.0632386404957066,4,1,0,100,1,0
106854,-99999999999,4,1,0,100,0,0
107066,0.163238640495707,4,1,0,100,1,0
107066,-99999999999,4,1,0,100,0,0
107297,0.113238640495707,4,1,0,100,1,0
107297,-99999999999,4,1,0,100,0,0
107527,0.0632386404957066,4,1,0,100,1,0
107527,-99999999999,4,1,0,100,0,0
107731,230.769230769231,4,1,0,100,1,0
107745,0.163238640495707,4,1,0,100,1,0
107745,-99999999999,4,1,0,100,0,0
107961,230.769230769231,4,1,0,100,1,8
107976,0.113238640495707,4,1,0,100,1,0
107976,-99999999999,4,1,0,100,0,0
108191,230.769230769231,4,1,0,100,1,8
108206,0.0632386404957066,4,1,0,100,1,0
108206,-99999999999,4,1,0,100,0,0
108421,230.769230769231,4,1,0,100,1,8
108651,230.769230769231,4,1,0,100,1,0
116035,-100,4,1,0,100,0,1
122497,-100,4,1,0,100,0,0
123423,923.076923076923,4,1,0,100,1,9
123423,-25,4,1,0,100,0,1
123481,923.076923076923,4,1,0,100,1,9
123481,-25,4,1,0,100,0,1
123539,923.076923076923,4,1,0,100,1,9
123539,-25,4,1,0,100,0,1
123596,923.076923076923,4,1,0,100,1,9
123596,-25,4,1,0,100,0,1
123654,923.076923076923,4,1,0,100,1,9
123654,-25,4,1,0,100,0,1
123712,923.076923076923,4,1,0,100,1,9
123712,-25,4,1,0,100,0,1
123769,923.076923076923,4,1,0,100,1,9
123769,-25,4,1,0,100,0,1
123827,923.076923076923,4,1,0,100,1,9
123827,-25,4,1,0,100,0,1
123884,923.076923076923,4,1,0,100,1,9
123884,-25,4,1,0,100,0,1
123942,923.076923076923,4,1,0,100,1,9
123942,-25,4,1,0,100,0,1
124000,923.076923076923,4,1,0,100,1,9
124000,-25,4,1,0,100,0,1
124057,923.076923076923,4,1,0,100,1,9
124057,-25,4,1,0,100,0,1
124115,923.076923076923,4,1,0,100,1,9
124115,-25,4,1,0,100,0,1
124173,923.076923076923,4,1,0,100,1,9
124173,-25,4,1,0,100,0,1
124230,923.076923076923,4,1,0,100,1,9
124230,-25,4,1,0,100,0,1
124288,923.076923076923,4,1,0,100,1,9
124288,-25,4,1,0,100,0,1
124346,923.076923076923,4,1,0,100,1,9
124346,-25,4,1,0,100,0,1
124404,923.076923076923,4,1,0,100,1,9
124404,-25,4,1,0,100,0,1
124462,923.076923076923,4,1,0,100,1,9
124462,-25,4,1,0,100,0,1
124519,923.076923076923,4,1,0,100,1,9
124519,-25,4,1,0,100,0,1
124577,923.076923076923,4,1,0,100,1,9
124577,-25,4,1,0,100,0,1
124635,923.076923076923,4,1,0,100,1,9
124635,-25,4,1,0,100,0,1
124692,923.076923076923,4,1,0,100,1,9
124692,-25,4,1,0,100,0,1
124750,923.076923076923,4,1,0,100,1,9
124750,-25,4,1,0,100,0,1
124807,923.076923076923,4,1,0,100,1,9
124807,-25,4,1,0,100,0,1
124865,923.076923076923,4,1,0,100,1,9
124865,-25,4,1,0,100,0,1
124923,923.076923076923,4,1,0,100,1,9
124923,-25,4,1,0,100,0,1
124980,923.076923076923,4,1,0,100,1,9
124980,-25,4,1,0,100,0,1
125038,923.076923076923,4,1,0,100,1,9
125038,-25,4,1,0,100,0,1
125096,923.076923076923,4,1,0,100,1,9
125096,-25,4,1,0,100,0,1
125153,923.076923076923,4,1,0,100,1,9
125153,-25,4,1,0,100,0,1
125211,923.076923076923,4,1,0,100,1,9
125211,-25,4,1,0,100,0,1
125269,923.076923076923,4,1,0,100,1,9
125269,-25,4,1,0,100,0,1
125327,923.076923076923,4,1,0,100,1,9
125327,-25,4,1,0,100,0,1
125385,923.076923076923,4,1,0,100,1,9
125385,-25,4,1,0,100,0,1
125442,923.076923076923,4,1,0,100,1,9
125442,-25,4,1,0,100,0,1
125500,923.076923076923,4,1,0,100,1,9
125500,-25,4,1,0,100,0,1
125558,923.076923076923,4,1,0,100,1,9
125558,-25,4,1,0,100,0,1
125615,923.076923076923,4,1,0,100,1,9
125615,-25,4,1,0,100,0,1
125673,923.076923076923,4,1,0,100,1,9
125673,-25,4,1,0,100,0,1
125731,923.076923076923,4,1,0,100,1,9
125731,-25,4,1,0,100,0,1
125789,923.076923076923,4,1,0,100,1,9
125789,-25,4,1,0,100,0,1
125847,923.076923076923,4,1,0,100,1,9
125847,-25,4,1,0,100,0,1
125904,923.076923076923,4,1,0,100,1,9
125904,-25,4,1,0,100,0,1
125962,923.076923076923,4,1,0,100,1,9
125962,-25,4,1,0,100,0,1
126020,923.076923076923,4,1,0,100,1,9
126020,-25,4,1,0,100,0,1
126077,923.076923076923,4,1,0,100,1,9
126077,-25,4,1,0,100,0,1
126135,923.076923076923,4,1,0,100,1,9
126135,-25,4,1,0,100,0,1
126192,923.076923076923,4,1,0,100,1,9
126192,-25,4,1,0,100,0,1
126250,923.076923076923,4,1,0,100,1,9
126250,-25,4,1,0,100,0,1
126308,923.076923076923,4,1,0,100,1,9
126308,-25,4,1,0,100,0,1
126365,923.076923076923,4,1,0,100,1,9
126365,-25,4,1,0,100,0,1
126423,923.076923076923,4,1,0,100,1,9
126423,-25,4,1,0,100,0,1
126481,923.076923076923,4,1,0,100,1,9
126481,-25,4,1,0,100,0,1
126538,923.076923076923,4,1,0,100,1,9
126538,-25,4,1,0,100,0,1
126596,923.076923076923,4,1,0,100,1,9
126596,-25,4,1,0,100,0,1
126654,923.076923076923,4,1,0,100,1,9
126654,-25,4,1,0,100,0,1
126712,923.076923076923,4,1,0,100,1,9
126712,-25,4,1,0,100,0,1
126770,923.076923076923,4,1,0,100,1,9
126770,-25,4,1,0,100,0,1
126827,923.076923076923,4,1,0,100,1,9
126827,-25,4,1,0,100,0,1
126885,923.076923076923,4,1,0,100,1,9
126885,-25,4,1,0,100,0,1
126943,923.076923076923,4,1,0,100,1,9
126943,-25,4,1,0,100,0,1
127000,923.076923076923,4,1,0,100,1,9
127000,-25,4,1,0,100,0,1
127058,923.076923076923,4,1,0,100,1,9
127058,-25,4,1,0,100,0,1
127115,923.076923076923,4,1,0,100,1,9
127115,-25,4,1,0,100,0,1
127173,923.076923076923,4,1,0,100,1,9
127173,-25,4,1,0,100,0,1
127231,923.076923076923,4,1,0,100,1,9
127231,-25,4,1,0,100,0,1
127288,923.076923076923,4,1,0,100,1,9
127288,-25,4,1,0,100,0,1
127346,923.076923076923,4,1,0,100,1,9
127346,-25,4,1,0,100,0,1
127404,923.076923076923,4,1,0,100,1,9
127404,-25,4,1,0,100,0,1
127461,923.076923076923,4,1,0,100,1,9
127461,-25,4,1,0,100,0,1
127519,923.076923076923,4,1,0,100,1,9
127519,-25,4,1,0,100,0,1
127577,923.076923076923,4,1,0,100,1,9
127577,-25,4,1,0,100,0,1
127635,923.076923076923,4,1,0,100,1,9
127635,-25,4,1,0,100,0,1
127693,923.076923076923,4,1,0,100,1,9
127693,-25,4,1,0,100,0,1
127750,923.076923076923,4,1,0,100,1,9
127750,-25,4,1,0,100,0,1
127808,923.076923076923,4,1,0,100,1,9
127808,-25,4,1,0,100,0,1
127866,923.076923076923,4,1,0,100,1,9
127866,-25,4,1,0,100,0,1
127923,923.076923076923,4,1,0,100,1,9
127923,-25,4,1,0,100,0,1
127981,923.076923076923,4,1,0,100,1,9
127981,-25,4,1,0,100,0,1
128038,923.076923076923,4,1,0,100,1,9
128038,-25,4,1,0,100,0,1
128096,923.076923076923,4,1,0,100,1,9
128096,-25,4,1,0,100,0,1
128154,923.076923076923,4,1,0,100,1,9
128154,-25,4,1,0,100,0,1
128211,923.076923076923,4,1,0,100,1,9
128211,-25,4,1,0,100,0,1
128269,923.076923076923,4,1,0,100,1,9
128269,-25,4,1,0,100,0,1
128327,923.076923076923,4,1,0,100,1,9
128327,-25,4,1,0,100,0,1
128384,923.076923076923,4,1,0,100,1,9
128384,-25,4,1,0,100,0,1
128442,923.076923076923,4,1,0,100,1,9
128442,-25,4,1,0,100,0,1
128500,923.076923076923,4,1,0,100,1,9
128500,-25,4,1,0,100,0,1
128558,923.076923076923,4,1,0,100,1,9
128558,-25,4,1,0,100,0,1
128616,923.076923076923,4,1,0,100,1,9
128616,-25,4,1,0,100,0,1
128673,923.076923076923,4,1,0,100,1,9
128673,-25,4,1,0,100,0,1
128731,923.076923076923,4,1,0,100,1,9
128731,-25,4,1,0,100,0,1
128789,923.076923076923,4,1,0,100,1,9
128789,-25,4,1,0,100,0,1
128846,923.076923076923,4,1,0,100,1,9
128846,-25,4,1,0,100,0,1
128904,923.076923076923,4,1,0,100,1,9
128904,-25,4,1,0,100,0,1
128961,923.076923076923,4,1,0,100,1,9
128961,-25,4,1,0,100,0,1
129019,923.076923076923,4,1,0,100,1,9
129019,-25,4,1,0,100,0,1
129077,923.076923076923,4,1,0,100,1,9
129077,-25,4,1,0,100,0,1
129134,923.076923076923,4,1,0,100,1,9
129134,-25,4,1,0,100,0,1
129192,923.076923076923,4,1,0,100,1,9
129192,-25,4,1,0,100,0,1
129250,923.076923076923,4,1,0,100,1,9
129250,-25,4,1,0,100,0,1
129307,923.076923076923,4,1,0,100,1,9
129307,-25,4,1,0,100,0,1
129365,923.076923076923,4,1,0,100,1,9
129365,-25,4,1,0,100,0,1
129423,923.076923076923,4,1,0,100,1,9
129423,-25,4,1,0,100,0,1
129481,923.076923076923,4,1,0,100,1,9
129481,-25,4,1,0,100,0,1
129539,923.076923076923,4,1,0,100,1,9
129539,-25,4,1,0,100,0,1
129596,923.076923076923,4,1,0,100,1,9
129596,-25,4,1,0,100,0,0
129654,923.076923076923,4,1,0,100,1,8
129654,-25,4,1,0,100,0,0
129712,923.076923076923,4,1,0,100,1,8
129712,-25,4,1,0,100,0,0
129769,923.076923076923,4,1,0,100,1,8
129769,-25,4,1,0,100,0,0
129827,923.076923076923,4,1,0,100,1,8
129827,-25,4,1,0,100,0,0
129884,923.076923076923,4,1,0,100,1,8
129884,-25,4,1,0,100,0,0
129942,923.076923076923,4,1,0,100,1,8
129942,-25,4,1,0,100,0,0
130000,923.076923076923,4,1,0,100,1,8
130000,-25,4,1,0,100,0,0
130057,923.076923076923,4,1,0,100,1,8
130057,-25,4,1,0,100,0,0
130115,923.076923076923,4,1,0,100,1,8
130115,-25,4,1,0,100,0,0
130173,923.076923076923,4,1,0,100,1,8
130173,-25,4,1,0,100,0,0
130230,923.076923076923,4,1,0,100,1,8
130230,-25,4,1,0,100,0,0
130288,923.076923076923,4,1,0,100,1,8
130288,-25,4,1,0,100,0,0
130346,923.076923076923,4,1,0,100,1,8
130346,-25,4,1,0,100,0,0
130404,923.076923076923,4,1,0,100,1,8
130404,-25,4,1,0,100,0,0
130462,923.076923076923,4,1,0,100,1,8
130462,-25,4,1,0,100,0,0
130519,923.076923076923,4,1,0,100,1,8
130519,-25,4,1,0,100,0,0
130577,923.076923076923,4,1,0,100,1,8
130577,-25,4,1,0,100,0,0
130635,923.076923076923,4,1,0,100,1,8
130635,-25,4,1,0,100,0,1
130692,923.076923076923,4,1,0,100,1,9
130692,-25,4,1,0,100,0,1
130750,923.076923076923,4,1,0,100,1,9
130750,-25,4,1,0,100,0,1
130807,923.076923076923,4,1,0,100,1,9
130807,-25,4,1,0,100,0,1
130865,923.076923076923,4,1,0,100,1,9
130865,-25,4,1,0,100,0,1
130923,923.076923076923,4,1,0,100,1,9
130923,-25,4,1,0,100,0,1
130980,923.076923076923,4,1,0,100,1,9
130980,-25,4,1,0,100,0,1
131038,923.076923076923,4,1,0,100,1,9
131038,-25,4,1,0,100,0,1
131096,923.076923076923,4,1,0,100,1,9
131096,-25,4,1,0,100,0,1
131153,923.076923076923,4,1,0,100,1,9
131153,-25,4,1,0,100,0,1
131211,923.076923076923,4,1,0,100,1,9
131211,-25,4,1,0,100,0,1
131269,923.076923076923,4,1,0,100,1,9
131269,-25,4,1,0,100,0,1
131327,923.076923076923,4,1,0,100,1,9
131327,-25,4,1,0,100,0,1
131385,923.076923076923,4,1,0,100,1,9
131385,-25,4,1,0,100,0,1
131442,923.076923076923,4,1,0,100,1,9
131442,-25,4,1,0,100,0,1
131500,923.076923076923,4,1,0,100,1,9
131500,-25,4,1,0,100,0,1
131558,923.076923076923,4,1,0,100,1,9
131558,-25,4,1,0,100,0,1
131615,923.076923076923,4,1,0,100,1,9
131615,-25,4,1,0,100,0,1
131673,923.076923076923,4,1,0,100,1,9
131673,-25,4,1,0,100,0,1
131731,923.076923076923,4,1,0,100,1,9
131731,-25,4,1,0,100,0,1
131789,923.076923076923,4,1,0,100,1,9
131789,-25,4,1,0,100,0,1
131847,923.076923076923,4,1,0,100,1,9
131847,-25,4,1,0,100,0,1
131904,923.076923076923,4,1,0,100,1,9
131904,-25,4,1,0,100,0,1
131962,923.076923076923,4,1,0,100,1,9
131962,-25,4,1,0,100,0,1
132020,923.076923076923,4,1,0,100,1,9
132020,-25,4,1,0,100,0,1
132077,923.076923076923,4,1,0,100,1,9
132077,-25,4,1,0,100,0,1
132135,923.076923076923,4,1,0,100,1,9
132135,-25,4,1,0,100,0,1
132192,923.076923076923,4,1,0,100,1,9
132192,-25,4,1,0,100,0,1
132250,923.076923076923,4,1,0,100,1,9
132250,-25,4,1,0,100,0,1
132308,923.076923076923,4,1,0,100,1,9
132308,-25,4,1,0,100,0,1
132365,923.076923076923,4,1,0,100,1,9
132365,-25,4,1,0,100,0,1
132423,923.076923076923,4,1,0,100,1,9
132423,-25,4,1,0,100,0,1
132481,923.076923076923,4,1,0,100,1,9
132481,-25,4,1,0,100,0,1
132538,923.076923076923,4,1,0,100,1,9
132538,-25,4,1,0,100,0,1
132596,923.076923076923,4,1,0,100,1,9
132596,-25,4,1,0,100,0,1
132654,923.076923076923,4,1,0,100,1,9
132654,-25,4,1,0,100,0,1
132712,923.076923076923,4,1,0,100,1,9
132712,-25,4,1,0,100,0,1
132770,923.076923076923,4,1,0,100,1,9
132770,-25,4,1,0,100,0,1
132827,923.076923076923,4,1,0,100,1,9
132827,-25,4,1,0,100,0,1
132885,923.076923076923,4,1,0,100,1,9
132885,-25,4,1,0,100,0,1
132943,923.076923076923,4,1,0,100,1,9
132943,-25,4,1,0,100,0,1
133000,923.076923076923,4,1,0,100,1,9
133000,-25,4,1,0,100,0,1
133058,923.076923076923,4,1,0,100,1,9
133058,-25,4,1,0,100,0,1
133115,923.076923076923,4,1,0,100,1,9
133115,-25,4,1,0,100,0,1
133173,923.076923076923,4,1,0,100,1,9
133173,-25,4,1,0,100,0,1
133231,923.076923076923,4,1,0,100,1,9
133231,-25,4,1,0,100,0,1
133288,923.076923076923,4,1,0,100,1,9
133288,-25,4,1,0,100,0,1
133346,923.076923076923,4,1,0,100,1,9
133346,-25,4,1,0,100,0,1
133404,923.076923076923,4,1,0,100,1,9
133404,-25,4,1,0,100,0,1
133461,923.076923076923,4,1,0,100,1,9
133461,-25,4,1,0,100,0,1
133519,923.076923076923,4,1,0,100,1,9
133519,-25,4,1,0,100,0,1
133577,923.076923076923,4,1,0,100,1,9
133577,-25,4,1,0,100,0,1
133635,923.076923076923,4,1,0,100,1,9
133635,-25,4,1,0,100,0,1
133693,923.076923076923,4,1,0,100,1,9
133693,-25,4,1,0,100,0,1
133750,923.076923076923,4,1,0,100,1,9
133750,-25,4,1,0,100,0,1
133808,923.076923076923,4,1,0,100,1,9
133808,-25,4,1,0,100,0,1
133866,923.076923076923,4,1,0,100,1,9
133866,-25,4,1,0,100,0,1
133923,923.076923076923,4,1,0,100,1,9
133923,-25,4,1,0,100,0,1
133981,923.076923076923,4,1,0,100,1,9
133981,-25,4,1,0,100,0,1
134038,923.076923076923,4,1,0,100,1,9
134038,-25,4,1,0,100,0,1
134096,923.076923076923,4,1,0,100,1,9
134096,-25,4,1,0,100,0,1
134154,923.076923076923,4,1,0,100,1,9
134154,-25,4,1,0,100,0,1
134211,923.076923076923,4,1,0,100,1,9
134211,-25,4,1,0,100,0,1
134269,923.076923076923,4,1,0,100,1,9
134269,-25,4,1,0,100,0,1
134327,923.076923076923,4,1,0,100,1,9
134327,-25,4,1,0,100,0,1
134384,923.076923076923,4,1,0,100,1,9
134384,-25,4,1,0,100,0,1
134442,923.076923076923,4,1,0,100,1,9
134442,-25,4,1,0,100,0,1
134500,923.076923076923,4,1,0,100,1,9
134500,-25,4,1,0,100,0,1
134558,923.076923076923,4,1,0,100,1,9
134558,-25,4,1,0,100,0,1
134616,923.076923076923,4,1,0,100,1,9
134616,-25,4,1,0,100,0,1
134673,923.076923076923,4,1,0,100,1,9
134673,-25,4,1,0,100,0,1
134731,923.076923076923,4,1,0,100,1,9
134731,-25,4,1,0,100,0,1
134789,923.076923076923,4,1,0,100,1,9
134789,-25,4,1,0,100,0,1
134846,923.076923076923,4,1,0,100,1,9
134846,-25,4,1,0,100,0,1
134904,923.076923076923,4,1,0,100,1,9
134904,-25,4,1,0,100,0,1
134961,923.076923076923,4,1,0,100,1,9
134961,-25,4,1,0,100,0,1
135019,923.076923076923,4,1,0,100,1,9
135019,-25,4,1,0,100,0,1
135077,923.076923076923,4,1,0,100,1,9
135077,-25,4,1,0,100,0,1
135134,923.076923076923,4,1,0,100,1,9
135134,-25,4,1,0,100,0,1
135192,923.076923076923,4,1,0,100,1,9
135192,-25,4,1,0,100,0,1
135250,923.076923076923,4,1,0,100,1,9
135250,-25,4,1,0,100,0,1
135307,923.076923076923,4,1,0,100,1,9
135307,-25,4,1,0,100,0,1
135365,923.076923076923,4,1,0,100,1,9
135365,-25,4,1,0,100,0,1
135423,923.076923076923,4,1,0,100,1,9
135423,-25,4,1,0,100,0,1
135481,923.076923076923,4,1,0,100,1,9
135481,-25,4,1,0,100,0,1
135539,923.076923076923,4,1,0,100,1,9
135539,-25,4,1,0,100,0,1
135596,923.076923076923,4,1,0,100,1,9
135596,-25,4,1,0,100,0,1
135654,923.076923076923,4,1,0,100,1,9
135654,-25,4,1,0,100,0,1
135712,923.076923076923,4,1,0,100,1,9
135712,-25,4,1,0,100,0,1
135769,923.076923076923,4,1,0,100,1,9
135769,-25,4,1,0,100,0,1
135827,923.076923076923,4,1,0,100,1,9
135827,-25,4,1,0,100,0,1
135884,923.076923076923,4,1,0,100,1,9
135884,-25,4,1,0,100,0,1
135942,923.076923076923,4,1,0,100,1,9
135942,-25,4,1,0,100,0,1
136000,923.076923076923,4,1,0,100,1,9
136000,-25,4,1,0,100,0,1
136057,923.076923076923,4,1,0,100,1,9
136057,-25,4,1,0,100,0,1
136115,923.076923076923,4,1,0,100,1,9
136115,-25,4,1,0,100,0,1
136173,923.076923076923,4,1,0,100,1,9
136173,-25,4,1,0,100,0,1
136230,923.076923076923,4,1,0,100,1,9
136230,-25,4,1,0,100,0,1
136288,923.076923076923,4,1,0,100,1,9
136288,-25,4,1,0,100,0,1
136346,923.076923076923,4,1,0,100,1,9
136346,-25,4,1,0,100,0,1
136404,923.076923076923,4,1,0,100,1,9
136404,-25,4,1,0,100,0,1
136462,923.076923076923,4,1,0,100,1,9
136462,-25,4,1,0,100,0,1
136519,923.076923076923,4,1,0,100,1,9
136519,-25,4,1,0,100,0,1
136577,923.076923076923,4,1,0,100,1,9
136577,-25,4,1,0,100,0,1
136635,923.076923076923,4,1,0,100,1,9
136635,-25,4,1,0,100,0,1
136692,923.076923076923,4,1,0,100,1,9
136692,-25,4,1,0,100,0,1
136750,923.076923076923,4,1,0,100,1,9
136750,-25,4,1,0,100,0,1
136807,923.076923076923,4,1,0,100,1,9
136807,-25,4,1,0,100,0,1
136865,923.076923076923,4,1,0,100,1,9
136865,-25,4,1,0,100,0,1
136923,923.076923076923,4,1,0,100,1,9
136923,-25,4,1,0,100,0,1
136980,923.076923076923,4,1,0,100,1,9
136980,-25,4,1,0,100,0,1
137038,923.076923076923,4,1,0,100,1,9
137038,-25,4,1,0,100,0,1
137096,923.076923076923,4,1,0,100,1,9
137096,-25,4,1,0,100,0,1
137153,923.076923076923,4,1,0,100,1,9
137153,-25,4,1,0,100,0,1
137211,923.076923076923,4,1,0,100,1,9
137211,-25,4,1,0,100,0,1
137269,230.769230769231,4,1,0,100,1,0
138192,-125,4,1,0,100,0,0
142807,-62.5,4,1,0,100,0,0
143672,-55.5555555555556,4,1,0,100,0,0
143788,-100,4,1,0,100,0,0
144595,-55.5555555555556,4,1,0,100,0,0
144711,-100,4,1,0,100,0,0
152961,461.538461538462,4,1,0,100,1,0
152961,-50,4,1,0,100,0,1
159422,230.769230769231,4,1,0,100,1,0
159422,-100,4,1,0,100,0,0
160345,-90.9090909090909,4,1,0,100,0,0
166807,-100,4,1,0,100,0,0
167730,923.076923076923,4,1,0,100,1,9
167730,-25,4,1,0,100,0,1
167788,923.076923076923,4,1,0,100,1,9
167788,-25,4,1,0,100,0,1
167846,923.076923076923,4,1,0,100,1,9
167846,-25,4,1,0,100,0,1
167903,923.076923076923,4,1,0,100,1,9
167903,-25,4,1,0,100,0,1
167961,923.076923076923,4,1,0,100,1,9
167961,-25,4,1,0,100,0,1
168019,923.076923076923,4,1,0,100,1,9
168019,-25,4,1,0,100,0,1
168076,923.076923076923,4,1,0,100,1,9
168076,-25,4,1,0,100,0,1
168134,923.076923076923,4,1,0,100,1,9
168134,-25,4,1,0,100,0,1
168192,923.076923076923,4,1,0,100,1,9
168192,-25,4,1,0,100,0,1
168250,923.076923076923,4,1,0,100,1,9
168250,-25,4,1,0,100,0,1
168308,923.076923076923,4,1,0,100,1,9
168308,-25,4,1,0,100,0,1
168365,923.076923076923,4,1,0,100,1,9
168365,-25,4,1,0,100,0,1
168423,923.076923076923,4,1,0,100,1,9
168423,-25,4,1,0,100,0,1
168481,923.076923076923,4,1,0,100,1,9
168481,-25,4,1,0,100,0,1
168538,923.076923076923,4,1,0,100,1,9
168538,-25,4,1,0,100,0,1
168596,923.076923076923,4,1,0,100,1,9
168596,-25,4,1,0,100,0,1
168653,923.076923076923,4,1,0,100,1,9
168653,-25,4,1,0,100,0,1
168711,923.076923076923,4,1,0,100,1,9
168711,-25,4,1,0,100,0,1
168769,923.076923076923,4,1,0,100,1,9
168769,-25,4,1,0,100,0,1
168826,923.076923076923,4,1,0,100,1,9
168826,-25,4,1,0,100,0,1
168884,923.076923076923,4,1,0,100,1,9
168884,-25,4,1,0,100,0,1
168942,923.076923076923,4,1,0,100,1,9
168942,-25,4,1,0,100,0,1
168999,923.076923076923,4,1,0,100,1,9
168999,-25,4,1,0,100,0,1
169057,923.076923076923,4,1,0,100,1,9
169057,-25,4,1,0,100,0,1
169115,923.076923076923,4,1,0,100,1,9
169115,-25,4,1,0,100,0,1
169173,923.076923076923,4,1,0,100,1,9
169173,-25,4,1,0,100,0,1
169231,923.076923076923,4,1,0,100,1,9
169231,-25,4,1,0,100,0,1
169288,923.076923076923,4,1,0,100,1,9
169288,-25,4,1,0,100,0,1
169346,923.076923076923,4,1,0,100,1,9
169346,-25,4,1,0,100,0,1
169404,923.076923076923,4,1,0,100,1,9
169404,-25,4,1,0,100,0,1
169461,923.076923076923,4,1,0,100,1,9
169461,-25,4,1,0,100,0,1
169519,923.076923076923,4,1,0,100,1,9
169519,-25,4,1,0,100,0,1
169576,923.076923076923,4,1,0,100,1,9
169576,-25,4,1,0,100,0,1
169634,923.076923076923,4,1,0,100,1,9
169634,-25,4,1,0,100,0,1
169692,923.076923076923,4,1,0,100,1,9
169692,-25,4,1,0,100,0,1
169749,923.076923076923,4,1,0,100,1,9
169749,-25,4,1,0,100,0,1
169807,923.076923076923,4,1,0,100,1,9
169807,-25,4,1,0,100,0,1
169865,923.076923076923,4,1,0,100,1,9
169865,-25,4,1,0,100,0,1
169922,923.076923076923,4,1,0,100,1,9
169922,-25,4,1,0,100,0,1
169980,923.076923076923,4,1,0,100,1,9
169980,-25,4,1,0,100,0,1
170038,923.076923076923,4,1,0,100,1,9
170038,-25,4,1,0,100,0,1
170096,923.076923076923,4,1,0,100,1,9
170096,-25,4,1,0,100,0,1
170154,923.076923076923,4,1,0,100,1,9
170154,-25,4,1,0,100,0,1
170211,923.076923076923,4,1,0,100,1,9
170211,-25,4,1,0,100,0,1
170269,923.076923076923,4,1,0,100,1,9
170269,-25,4,1,0,100,0,1
170327,923.076923076923,4,1,0,100,1,9
170327,-25,4,1,0,100,0,1
170384,923.076923076923,4,1,0,100,1,9
170384,-25,4,1,0,100,0,1
170442,923.076923076923,4,1,0,100,1,9
170442,-25,4,1,0,100,0,1
170499,923.076923076923,4,1,0,100,1,9
170499,-25,4,1,0,100,0,1
170557,923.076923076923,4,1,0,100,1,9
170557,-25,4,1,0,100,0,1
170615,923.076923076923,4,1,0,100,1,9
170615,-25,4,1,0,100,0,1
170672,923.076923076923,4,1,0,100,1,9
170672,-25,4,1,0,100,0,1
170730,923.076923076923,4,1,0,100,1,9
170730,-25,4,1,0,100,0,1
170788,923.076923076923,4,1,0,100,1,9
170788,-25,4,1,0,100,0,1
170845,923.076923076923,4,1,0,100,1,9
170845,-25,4,1,0,100,0,1
170903,923.076923076923,4,1,0,100,1,9
170903,-25,4,1,0,100,0,1
170961,923.076923076923,4,1,0,100,1,9
170961,-25,4,1,0,100,0,1
171019,923.076923076923,4,1,0,100,1,9
171019,-25,4,1,0,100,0,1
171077,923.076923076923,4,1,0,100,1,9
171077,-25,4,1,0,100,0,1
171134,923.076923076923,4,1,0,100,1,9
171134,-25,4,1,0,100,0,1
171192,923.076923076923,4,1,0,100,1,9
171192,-25,4,1,0,100,0,1
171250,923.076923076923,4,1,0,100,1,9
171250,-25,4,1,0,100,0,1
171307,923.076923076923,4,1,0,100,1,9
171307,-25,4,1,0,100,0,1
171365,923.076923076923,4,1,0,100,1,9
171365,-25,4,1,0,100,0,1
171422,923.076923076923,4,1,0,100,1,9
171422,-25,4,1,0,100,0,1
171480,923.076923076923,4,1,0,100,1,9
171480,-25,4,1,0,100,0,1
171538,923.076923076923,4,1,0,100,1,9
171538,-25,4,1,0,100,0,1
171595,923.076923076923,4,1,0,100,1,9
171595,-25,4,1,0,100,0,1
171653,923.076923076923,4,1,0,100,1,9
171653,-25,4,1,0,100,0,1
171711,923.076923076923,4,1,0,100,1,9
171711,-25,4,1,0,100,0,1
171768,923.076923076923,4,1,0,100,1,9
171768,-25,4,1,0,100,0,1
171826,923.076923076923,4,1,0,100,1,9
171826,-25,4,1,0,100,0,1
171884,923.076923076923,4,1,0,100,1,9
171884,-25,4,1,0,100,0,1
171942,923.076923076923,4,1,0,100,1,9
171942,-25,4,1,0,100,0,1
172000,923.076923076923,4,1,0,100,1,9
172000,-25,4,1,0,100,0,1
172057,923.076923076923,4,1,0,100,1,9
172057,-25,4,1,0,100,0,1
172115,923.076923076923,4,1,0,100,1,9
172115,-25,4,1,0,100,0,1
172173,923.076923076923,4,1,0,100,1,9
172173,-25,4,1,0,100,0,1
172230,923.076923076923,4,1,0,100,1,9
172230,-25,4,1,0,100,0,1
172288,923.076923076923,4,1,0,100,1,9
172288,-25,4,1,0,100,0,1
172345,923.076923076923,4,1,0,100,1,9
172345,-25,4,1,0,100,0,1
172403,923.076923076923,4,1,0,100,1,9
172403,-25,4,1,0,100,0,1
172461,923.076923076923,4,1,0,100,1,9
172461,-25,4,1,0,100,0,1
172518,923.076923076923,4,1,0,100,1,9
172518,-25,4,1,0,100,0,1
172576,923.076923076923,4,1,0,100,1,9
172576,-25,4,1,0,100,0,1
172634,923.076923076923,4,1,0,100,1,9
172634,-25,4,1,0,100,0,1
172691,923.076923076923,4,1,0,100,1,9
172691,-25,4,1,0,100,0,1
172749,923.076923076923,4,1,0,100,1,9
172749,-25,4,1,0,100,0,1
172807,923.076923076923,4,1,0,100,1,9
172807,-25,4,1,0,100,0,1
172865,923.076923076923,4,1,0,100,1,9
172865,-25,4,1,0,100,0,1
172923,923.076923076923,4,1,0,100,1,9
172923,-25,4,1,0,100,0,1
172980,923.076923076923,4,1,0,100,1,9
172980,-25,4,1,0,100,0,1
173038,923.076923076923,4,1,0,100,1,9
173038,-25,4,1,0,100,0,1
173096,923.076923076923,4,1,0,100,1,9
173096,-25,4,1,0,100,0,1
173153,923.076923076923,4,1,0,100,1,9
173153,-25,4,1,0,100,0,1
173211,923.076923076923,4,1,0,100,1,9
173211,-25,4,1,0,100,0,1
173269,923.076923076923,4,1,0,100,1,9
173269,-25,4,1,0,100,0,1
173327,923.076923076923,4,1,0,100,1,9
173327,-25,4,1,0,100,0,1
173385,923.076923076923,4,1,0,100,1,9
173385,-25,4,1,0,100,0,1
173442,923.076923076923,4,1,0,100,1,9
173442,-25,4,1,0,100,0,1
173500,923.076923076923,4,1,0,100,1,9
173500,-25,4,1,0,100,0,1
173558,923.076923076923,4,1,0,100,1,9
173558,-25,4,1,0,100,0,1
173615,923.076923076923,4,1,0,100,1,9
173615,-25,4,1,0,100,0,1
173673,923.076923076923,4,1,0,100,1,9
173673,-25,4,1,0,100,0,1
173730,923.076923076923,4,1,0,100,1,9
173730,-25,4,1,0,100,0,1
173788,923.076923076923,4,1,0,100,1,9
173788,-25,4,1,0,100,0,1
173846,923.076923076923,4,1,0,100,1,9
173846,-25,4,1,0,100,0,1
173903,923.076923076923,4,1,0,100,1,9
173903,-25,4,1,0,100,0,1
173961,923.076923076923,4,1,0,100,1,9
173961,-25,4,1,0,100,0,1
174019,923.076923076923,4,1,0,100,1,9
174019,-25,4,1,0,100,0,1
174076,923.076923076923,4,1,0,100,1,9
174076,-25,4,1,0,100,0,1
174134,923.076923076923,4,1,0,100,1,9
174134,-25,4,1,0,100,0,1
174192,230.769230769231,4,1,0,100,1,0
175115,923.076923076923,4,1,0,100,1,9
175115,-25,4,1,0,100,0,1
175173,923.076923076923,4,1,0,100,1,9
175173,-25,4,1,0,100,0,1
175231,923.076923076923,4,1,0,100,1,9
175231,-25,4,1,0,100,0,1
175288,923.076923076923,4,1,0,100,1,9
175288,-25,4,1,0,100,0,1
175346,923.076923076923,4,1,0,100,1,9
175346,-25,4,1,0,100,0,1
175404,923.076923076923,4,1,0,100,1,9
175404,-25,4,1,0,100,0,1
175461,923.076923076923,4,1,0,100,1,9
175461,-25,4,1,0,100,0,1
175519,923.076923076923,4,1,0,100,1,9
175519,-25,4,1,0,100,0,1
175577,923.076923076923,4,1,0,100,1,9
175577,-25,4,1,0,100,0,1
175635,923.076923076923,4,1,0,100,1,9
175635,-25,4,1,0,100,0,1
175693,923.076923076923,4,1,0,100,1,9
175693,-25,4,1,0,100,0,1
175750,923.076923076923,4,1,0,100,1,9
175750,-25,4,1,0,100,0,1
175808,923.076923076923,4,1,0,100,1,9
175808,-25,4,1,0,100,0,1
175866,923.076923076923,4,1,0,100,1,9
175866,-25,4,1,0,100,0,1
175923,923.076923076923,4,1,0,100,1,9
175923,-25,4,1,0,100,0,1
175981,923.076923076923,4,1,0,100,1,9
175981,-25,4,1,0,100,0,1
176038,923.076923076923,4,1,0,100,1,9
176038,-25,4,1,0,100,0,1
176096,923.076923076923,4,1,0,100,1,9
176096,-25,4,1,0,100,0,1
176154,923.076923076923,4,1,0,100,1,9
176154,-25,4,1,0,100,0,1
176211,923.076923076923,4,1,0,100,1,9
176211,-25,4,1,0,100,0,1
176269,923.076923076923,4,1,0,100,1,9
176269,-25,4,1,0,100,0,1
176327,923.076923076923,4,1,0,100,1,9
176327,-25,4,1,0,100,0,1
176384,923.076923076923,4,1,0,100,1,9
176384,-25,4,1,0,100,0,1
176442,923.076923076923,4,1,0,100,1,9
176442,-25,4,1,0,100,0,1
176500,923.076923076923,4,1,0,100,1,9
176500,-25,4,1,0,100,0,1
176558,923.076923076923,4,1,0,100,1,9
176558,-25,4,1,0,100,0,1
176616,923.076923076923,4,1,0,100,1,9
176616,-25,4,1,0,100,0,1
176673,923.076923076923,4,1,0,100,1,9
176673,-25,4,1,0,100,0,1
176731,923.076923076923,4,1,0,100,1,9
176731,-25,4,1,0,100,0,1
176789,923.076923076923,4,1,0,100,1,9
176789,-25,4,1,0,100,0,1
176846,923.076923076923,4,1,0,100,1,9
176846,-25,4,1,0,100,0,1
176904,923.076923076923,4,1,0,100,1,9
176904,-25,4,1,0,100,0,1
176961,923.076923076923,4,1,0,100,1,9
176961,-25,4,1,0,100,0,1
177019,923.076923076923,4,1,0,100,1,9
177019,-25,4,1,0,100,0,1
177077,923.076923076923,4,1,0,100,1,9
177077,-25,4,1,0,100,0,1
177134,923.076923076923,4,1,0,100,1,9
177134,-25,4,1,0,100,0,1
177192,923.076923076923,4,1,0,100,1,9
177192,-25,4,1,0,100,0,1
177250,923.076923076923,4,1,0,100,1,9
177250,-25,4,1,0,100,0,1
177307,923.076923076923,4,1,0,100,1,9
177307,-25,4,1,0,100,0,1
177365,923.076923076923,4,1,0,100,1,9
177365,-25,4,1,0,100,0,1
177423,923.076923076923,4,1,0,100,1,9
177423,-25,4,1,0,100,0,1
177481,923.076923076923,4,1,0,100,1,9
177481,-25,4,1,0,100,0,1
177539,923.076923076923,4,1,0,100,1,9
177539,-25,4,1,0,100,0,1
177596,923.076923076923,4,1,0,100,1,9
177596,-25,4,1,0,100,0,1
177654,923.076923076923,4,1,0,100,1,9
177654,-25,4,1,0,100,0,1
177712,923.076923076923,4,1,0,100,1,9
177712,-25,4,1,0,100,0,1
177769,923.076923076923,4,1,0,100,1,9
177769,-25,4,1,0,100,0,1
177827,923.076923076923,4,1,0,100,1,9
177827,-25,4,1,0,100,0,1
177884,923.076923076923,4,1,0,100,1,9
177884,-25,4,1,0,100,0,1
177942,923.076923076923,4,1,0,100,1,9
177942,-25,4,1,0,100,0,1
178000,923.076923076923,4,1,0,100,1,9
178000,-25,4,1,0,100,0,1
178057,923.076923076923,4,1,0,100,1,9
178057,-25,4,1,0,100,0,1
178115,923.076923076923,4,1,0,100,1,9
178115,-25,4,1,0,100,0,1
178173,923.076923076923,4,1,0,100,1,9
178173,-25,4,1,0,100,0,1
178230,923.076923076923,4,1,0,100,1,9
178230,-25,4,1,0,100,0,1
178288,923.076923076923,4,1,0,100,1,9
178288,-25,4,1,0,100,0,1
178346,923.076923076923,4,1,0,100,1,9
178346,-25,4,1,0,100,0,1
178404,923.076923076923,4,1,0,100,1,9
178404,-25,4,1,0,100,0,1
178462,923.076923076923,4,1,0,100,1,9
178462,-25,4,1,0,100,0,1
178519,923.076923076923,4,1,0,100,1,9
178519,-25,4,1,0,100,0,1
178577,923.076923076923,4,1,0,100,1,9
178577,-25,4,1,0,100,0,1
178635,923.076923076923,4,1,0,100,1,9
178635,-25,4,1,0,100,0,1
178692,923.076923076923,4,1,0,100,1,9
178692,-25,4,1,0,100,0,1
178750,923.076923076923,4,1,0,100,1,9
178750,-25,4,1,0,100,0,1
178807,923.076923076923,4,1,0,100,1,9
178807,-25,4,1,0,100,0,1
178865,923.076923076923,4,1,0,100,1,9
178865,-25,4,1,0,100,0,1
178923,923.076923076923,4,1,0,100,1,9
178923,-25,4,1,0,100,0,1
178980,923.076923076923,4,1,0,100,1,9
178980,-25,4,1,0,100,0,1
179038,923.076923076923,4,1,0,100,1,9
179038,-25,4,1,0,100,0,1
179096,923.076923076923,4,1,0,100,1,9
179096,-25,4,1,0,100,0,1
179153,923.076923076923,4,1,0,100,1,9
179153,-25,4,1,0,100,0,1
179211,923.076923076923,4,1,0,100,1,9
179211,-25,4,1,0,100,0,1
179269,923.076923076923,4,1,0,100,1,9
179269,-25,4,1,0,100,0,1
179327,923.076923076923,4,1,0,100,1,9
179327,-25,4,1,0,100,0,1
179385,923.076923076923,4,1,0,100,1,9
179385,-25,4,1,0,100,0,1
179442,923.076923076923,4,1,0,100,1,9
179442,-25,4,1,0,100,0,1
179500,923.076923076923,4,1,0,100,1,9
179500,-25,4,1,0,100,0,1
179558,923.076923076923,4,1,0,100,1,9
179558,-25,4,1,0,100,0,1
179615,923.076923076923,4,1,0,100,1,9
179615,-25,4,1,0,100,0,1
179673,923.076923076923,4,1,0,100,1,9
179673,-25,4,1,0,100,0,1
179731,923.076923076923,4,1,0,100,1,9
179731,-25,4,1,0,100,0,1
179789,923.076923076923,4,1,0,100,1,9
179789,-25,4,1,0,100,0,1
179847,923.076923076923,4,1,0,100,1,9
179847,-25,4,1,0,100,0,1
179904,923.076923076923,4,1,0,100,1,9
179904,-25,4,1,0,100,0,1
179962,923.076923076923,4,1,0,100,1,9
179962,-25,4,1,0,100,0,1
180020,923.076923076923,4,1,0,100,1,9
180020,-25,4,1,0,100,0,1
180077,923.076923076923,4,1,0,100,1,9
180077,-25,4,1,0,100,0,1
180135,923.076923076923,4,1,0,100,1,9
180135,-25,4,1,0,100,0,1
180192,923.076923076923,4,1,0,100,1,9
180192,-25,4,1,0,100,0,1
180250,923.076923076923,4,1,0,100,1,9
180250,-25,4,1,0,100,0,1
180308,923.076923076923,4,1,0,100,1,9
180308,-25,4,1,0,100,0,1
180365,923.076923076923,4,1,0,100,1,9
180365,-25,4,1,0,100,0,1
180423,923.076923076923,4,1,0,100,1,9
180423,-25,4,1,0,100,0,1
180481,923.076923076923,4,1,0,100,1,9
180481,-25,4,1,0,100,0,1
180538,923.076923076923,4,1,0,100,1,9
180538,-25,4,1,0,100,0,1
180596,923.076923076923,4,1,0,100,1,9
180596,-25,4,1,0,100,0,1
180654,923.076923076923,4,1,0,100,1,9
180654,-25,4,1,0,100,0,1
180712,923.076923076923,4,1,0,100,1,9
180712,-25,4,1,0,100,0,1
180770,923.076923076923,4,1,0,100,1,9
180770,-25,4,1,0,100,0,1
180827,923.076923076923,4,1,0,100,1,9
180827,-25,4,1,0,100,0,1
180885,923.076923076923,4,1,0,100,1,9
180885,-25,4,1,0,100,0,1
180943,923.076923076923,4,1,0,100,1,9
180943,-25,4,1,0,100,0,1
181000,923.076923076923,4,1,0,100,1,9
181000,-25,4,1,0,100,0,1
181058,923.076923076923,4,1,0,100,1,9
181058,-25,4,1,0,100,0,1
181115,923.076923076923,4,1,0,100,1,9
181115,-25,4,1,0,100,0,1
181173,923.076923076923,4,1,0,100,1,9
181173,-25,4,1,0,100,0,1
181231,923.076923076923,4,1,0,100,1,9
181231,-25,4,1,0,100,0,1
181288,923.076923076923,4,1,0,100,1,9
181288,-25,4,1,0,100,0,1
181346,923.076923076923,4,1,0,100,1,9
181346,-25,4,1,0,100,0,1
181404,923.076923076923,4,1,0,100,1,9
181404,-25,4,1,0,100,0,1
181461,923.076923076923,4,1,0,100,1,9
181461,-25,4,1,0,100,0,1
181519,923.076923076923,4,1,0,100,1,9
181519,-25,4,1,0,100,0,1
181577,923.076923076923,4,1,0,100,1,9
181577,-25,4,1,0,100,0,1
181635,923.076923076923,4,1,0,100,1,9
181635,-25,4,1,0,100,0,1
181693,923.076923076923,4,1,0,100,1,9
181693,-25,4,1,0,100,0,1
181750,923.076923076923,4,1,0,100,1,9
181750,-25,4,1,0,100,0,1
181808,923.076923076923,4,1,0,100,1,9
181808,-25,4,1,0,100,0,1
181866,923.076923076923,4,1,0,100,1,9
181866,-25,4,1,0,100,0,1
181923,923.076923076923,4,1,0,100,1,9
181923,-25,4,1,0,100,0,1
181981,923.076923076923,4,1,0,100,1,9
181981,-25,4,1,0,100,0,1
182038,923.076923076923,4,1,0,100,1,9
182038,-25,4,1,0,100,0,1
182096,923.076923076923,4,1,0,100,1,9
182096,-25,4,1,0,100,0,1
182154,923.076923076923,4,1,0,100,1,9
182154,-25,4,1,0,100,0,1
182211,923.076923076923,4,1,0,100,1,9
182211,-25,4,1,0,100,0,1
182269,923.076923076923,4,1,0,100,1,9
182269,-25,4,1,0,100,0,1
182327,923.076923076923,4,1,0,100,1,9
182327,-25,4,1,0,100,0,1
182384,923.076923076923,4,1,0,100,1,9
182384,-25,4,1,0,100,0,1
182442,923.076923076923,4,1,0,100,1,9
182442,-25,4,1,0,100,0,1
182499,923.076923076923,4,1,0,100,1,9
182499,-25,4,1,0,100,0,1
182557,923.076923076923,4,1,0,100,1,9
182557,-25,4,1,0,100,0,1
182615,923.076923076923,4,1,0,100,1,9
182615,-25,4,1,0,100,0,1
182672,923.076923076923,4,1,0,100,1,9
182672,-25,4,1,0,100,0,1
182730,923.076923076923,4,1,0,100,1,9
182730,-25,4,1,0,100,0,1
182788,923.076923076923,4,1,0,100,1,9
182788,-25,4,1,0,100,0,1
182845,923.076923076923,4,1,0,100,1,9
182845,-25,4,1,0,100,0,1
182903,923.076923076923,4,1,0,100,1,9
182903,-25,4,1,0,100,0,1
182961,923.076923076923,4,1,0,100,1,9
182961,-25,4,1,0,100,0,1
183019,923.076923076923,4,1,0,100,1,9
183019,-25,4,1,0,100,0,1
183077,923.076923076923,4,1,0,100,1,9
183077,-25,4,1,0,100,0,1
183134,923.076923076923,4,1,0,100,1,9
183134,-25,4,1,0,100,0,1
183192,923.076923076923,4,1,0,100,1,9
183192,-25,4,1,0,100,0,1
183250,923.076923076923,4,1,0,100,1,9
183250,-25,4,1,0,100,0,1
183307,923.076923076923,4,1,0,100,1,9
183307,-25,4,1,0,100,0,1
183365,923.076923076923,4,1,0,100,1,9
183365,-25,4,1,0,100,0,1
183422,923.076923076923,4,1,0,100,1,9
183422,-25,4,1,0,100,0,1
183480,923.076923076923,4,1,0,100,1,9
183480,-25,4,1,0,100,0,1
183538,923.076923076923,4,1,0,100,1,9
183538,-25,4,1,0,100,0,1
183595,923.076923076923,4,1,0,100,1,9
183595,-25,4,1,0,100,0,1
183653,923.076923076923,4,1,0,100,1,9
183653,-25,4,1,0,100,0,1
183711,923.076923076923,4,1,0,100,1,9
183711,-25,4,1,0,100,0,1
183768,923.076923076923,4,1,0,100,1,9
183768,-25,4,1,0,100,0,1
183826,923.076923076923,4,1,0,100,1,9
183826,-25,4,1,0,100,0,1
183884,923.076923076923,4,1,0,100,1,9
183884,-25,4,1,0,100,0,1
183942,923.076923076923,4,1,0,100,1,9
183942,-25,4,1,0,100,0,1
184000,923.076923076923,4,1,0,100,1,9
184000,-25,4,1,0,100,0,1
184057,923.076923076923,4,1,0,100,1,9
184057,-25,4,1,0,100,0,1
184115,923.076923076923,4,1,0,100,1,9
184115,-25,4,1,0,100,0,1
184173,923.076923076923,4,1,0,100,1,9
184173,-25,4,1,0,100,0,1
184230,923.076923076923,4,1,0,100,1,9
184230,-25,4,1,0,100,0,1
184288,923.076923076923,4,1,0,100,1,9
184288,-25,4,1,0,100,0,1
184345,923.076923076923,4,1,0,100,1,9
184345,-25,4,1,0,100,0,1
184403,923.076923076923,4,1,0,100,1,9
184403,-25,4,1,0,100,0,1
184461,923.076923076923,4,1,0,100,1,9
184461,-25,4,1,0,100,0,1
184518,923.076923076923,4,1,0,100,1,9
184518,-25,4,1,0,100,0,1
184576,923.076923076923,4,1,0,100,1,9
184576,-25,4,1,0,100,0,1
184634,923.076923076923,4,1,0,100,1,9
184634,-25,4,1,0,100,0,1
184691,923.076923076923,4,1,0,100,1,9
184691,-25,4,1,0,100,0,1
184749,923.076923076923,4,1,0,100,1,9
184749,-25,4,1,0,100,0,1
184807,923.076923076923,4,1,0,100,1,9
184807,-25,4,1,0,100,0,1
184865,923.076923076923,4,1,0,100,1,9
184865,-25,4,1,0,100,0,1
184923,923.076923076923,4,1,0,100,1,9
184923,-25,4,1,0,100,0,1
184980,923.076923076923,4,1,0,100,1,9
184980,-25,4,1,0,100,0,1
185038,923.076923076923,4,1,0,100,1,9
185038,-25,4,1,0,100,0,1
185096,923.076923076923,4,1,0,100,1,9
185096,-25,4,1,0,100,0,1
185153,923.076923076923,4,1,0,100,1,9
185153,-25,4,1,0,100,0,1
185211,923.076923076923,4,1,0,100,1,9
185211,-25,4,1,0,100,0,1
185268,923.076923076923,4,1,0,100,1,9
185268,-25,4,1,0,100,0,1
185326,923.076923076923,4,1,0,100,1,9
185326,-25,4,1,0,100,0,1
185384,923.076923076923,4,1,0,100,1,9
185384,-25,4,1,0,100,0,1
185441,923.076923076923,4,1,0,100,1,9
185441,-25,4,1,0,100,0,1
185499,923.076923076923,4,1,0,100,1,9
185499,-25,4,1,0,100,0,1
185557,923.076923076923,4,1,0,100,1,9
185557,-25,4,1,0,100,0,1
185614,923.076923076923,4,1,0,100,1,9
185614,-25,4,1,0,100,0,1
185672,923.076923076923,4,1,0,100,1,9
185672,-25,4,1,0,100,0,1
185730,923.076923076923,4,1,0,100,1,9
185730,-25,4,1,0,100,0,1
185788,923.076923076923,4,1,0,100,1,9
185788,-25,4,1,0,100,0,1
185846,923.076923076923,4,1,0,100,1,9
185846,-25,4,1,0,100,0,1
185903,923.076923076923,4,1,0,100,1,9
185903,-25,4,1,0,100,0,1
185961,923.076923076923,4,1,0,100,1,9
185961,-25,4,1,0,100,0,1
186019,923.076923076923,4,1,0,100,1,9
186019,-25,4,1,0,100,0,1
186076,923.076923076923,4,1,0,100,1,9
186076,-25,4,1,0,100,0,1
186134,923.076923076923,4,1,0,100,1,9
186134,-25,4,1,0,100,0,1
186191,923.076923076923,4,1,0,100,1,9
186191,-25,4,1,0,100,0,1
186249,923.076923076923,4,1,0,100,1,9
186249,-25,4,1,0,100,0,1
186307,923.076923076923,4,1,0,100,1,9
186307,-25,4,1,0,100,0,1
186364,923.076923076923,4,1,0,100,1,9
186364,-25,4,1,0,100,0,1
186422,923.076923076923,4,1,0,100,1,9
186422,-25,4,1,0,100,0,1
186480,923.076923076923,4,1,0,100,1,9
186480,-25,4,1,0,100,0,1
186537,923.076923076923,4,1,0,100,1,9
186537,-25,4,1,0,100,0,1
186595,923.076923076923,4,1,0,100,1,9
186595,-25,4,1,0,100,0,1
186653,923.076923076923,4,1,0,100,1,9
186653,-25,4,1,0,100,0,1
186711,923.076923076923,4,1,0,100,1,9
186711,-25,4,1,0,100,0,1
186769,923.076923076923,4,1,0,100,1,9
186769,-25,4,1,0,100,0,1
186826,923.076923076923,4,1,0,100,1,9
186826,-25,4,1,0,100,0,1
186884,923.076923076923,4,1,0,100,1,9
186884,-25,4,1,0,100,0,1
186942,923.076923076923,4,1,0,100,1,9
186942,-25,4,1,0,100,0,1
186999,923.076923076923,4,1,0,100,1,9
186999,-25,4,1,0,100,0,1
187057,923.076923076923,4,1,0,100,1,9
187057,-25,4,1,0,100,0,1
187115,923.076923076923,4,1,0,100,1,9
187115,-25,4,1,0,100,0,1
187173,923.076923076923,4,1,0,100,1,9
187173,-25,4,1,0,100,0,1
187231,923.076923076923,4,1,0,100,1,9
187231,-25,4,1,0,100,0,1
187288,923.076923076923,4,1,0,100,1,9
187288,-25,4,1,0,100,0,1
187346,923.076923076923,4,1,0,100,1,9
187346,-25,4,1,0,100,0,1
187404,923.076923076923,4,1,0,100,1,9
187404,-25,4,1,0,100,0,1
187461,923.076923076923,4,1,0,100,1,9
187461,-25,4,1,0,100,0,1
187519,923.076923076923,4,1,0,100,1,9
187519,-25,4,1,0,100,0,1
187576,923.076923076923,4,1,0,100,1,9
187576,-25,4,1,0,100,0,1
187634,923.076923076923,4,1,0,100,1,9
187634,-25,4,1,0,100,0,1
187692,923.076923076923,4,1,0,100,1,9
187692,-25,4,1,0,100,0,1
187749,923.076923076923,4,1,0,100,1,9
187749,-25,4,1,0,100,0,1
187807,923.076923076923,4,1,0,100,1,9
187807,-25,4,1,0,100,0,1
187865,923.076923076923,4,1,0,100,1,9
187865,-25,4,1,0,100,0,1
187922,923.076923076923,4,1,0,100,1,9
187922,-25,4,1,0,100,0,1
187980,923.076923076923,4,1,0,100,1,9
187980,-25,4,1,0,100,0,1
188038,923.076923076923,4,1,0,100,1,9
188038,-25,4,1,0,100,0,1
188096,923.076923076923,4,1,0,100,1,9
188096,-25,4,1,0,100,0,1
188154,923.076923076923,4,1,0,100,1,9
188154,-25,4,1,0,100,0,1
188211,923.076923076923,4,1,0,100,1,9
188211,-25,4,1,0,100,0,1
188269,923.076923076923,4,1,0,100,1,9
188269,-25,4,1,0,100,0,1
188327,923.076923076923,4,1,0,100,1,9
188327,-25,4,1,0,100,0,1
188384,923.076923076923,4,1,0,100,1,9
188384,-25,4,1,0,100,0,1
188442,923.076923076923,4,1,0,100,1,9
188442,-25,4,1,0,100,0,1
188499,923.076923076923,4,1,0,100,1,9
188499,-25,4,1,0,100,0,1
188557,923.076923076923,4,1,0,100,1,9
188557,-25,4,1,0,100,0,1
188615,923.076923076923,4,1,0,100,1,9
188615,-25,4,1,0,100,0,1
188672,923.076923076923,4,1,0,100,1,9
188672,-25,4,1,0,100,0,1
188730,923.076923076923,4,1,0,100,1,9
188730,-25,4,1,0,100,0,1
188788,923.076923076923,4,1,0,100,1,9
188788,-25,4,1,0,100,0,1
188845,923.076923076923,4,1,0,100,1,9
188845,-25,4,1,0,100,0,1
188903,923.076923076923,4,1,0,100,1,9
188903,-25,4,1,0,100,0,1
188961,923.076923076923,4,1,0,100,1,9
188961,-25,4,1,0,100,0,1
189019,923.076923076923,4,1,0,100,1,9
189019,-25,4,1,0,100,0,1
189077,923.076923076923,4,1,0,100,1,9
189077,-25,4,1,0,100,0,1
189134,923.076923076923,4,1,0,100,1,9
189134,-25,4,1,0,100,0,1
189192,923.076923076923,4,1,0,100,1,9
189192,-25,4,1,0,100,0,1
189250,923.076923076923,4,1,0,100,1,9
189250,-25,4,1,0,100,0,1
189307,923.076923076923,4,1,0,100,1,9
189307,-25,4,1,0,100,0,1
189365,923.076923076923,4,1,0,100,1,9
189365,-25,4,1,0,100,0,1
189422,923.076923076923,4,1,0,100,1,9
189422,-25,4,1,0,100,0,1
189480,923.076923076923,4,1,0,100,1,9
189480,-25,4,1,0,100,0,1
189538,923.076923076923,4,1,0,100,1,9
189538,-25,4,1,0,100,0,1
189595,923.076923076923,4,1,0,100,1,9
189595,-25,4,1,0,100,0,1
189653,923.076923076923,4,1,0,100,1,9
189653,-25,4,1,0,100,0,1
189711,923.076923076923,4,1,0,100,1,9
189711,-25,4,1,0,100,0,1
189768,923.076923076923,4,1,0,100,1,9
189768,-25,4,1,0,100,0,1
189826,923.076923076923,4,1,0,100,1,9
189826,-25,4,1,0,100,0,1
189884,230.769230769231,4,1,0,100,1,0
189884,-100,4,1,0,100,0,0
190576,4.56323864049571,4,1,0,100,1,0
190576,-99999999999,4,1,0,100,0,0
190807,3.06323864049571,4,1,0,100,1,0
190807,-99999999999,4,1,0,100,0,0
191037,2.86323864049571,4,1,0,100,1,0
191037,-99999999999,4,1,0,100,0,0
191268,1.66323864049571,4,1,0,100,1,0
191268,-99999999999,4,1,0,100,0,0
191499,1.46323864049571,4,1,0,100,1,0
191499,-99999999999,4,1,0,100,0,0
191730,0.643238640495707,4,1,0,100,1,0
191730,-99999999999,4,1,0,100,0,0
191960,0.443238640495707,4,1,0,100,1,0
191960,-99999999999,4,1,0,100,0,0
192191,0.283238640495707,4,1,0,100,1,0
192191,-99999999999,4,1,0,100,0,0
192422,0.213238640495707,4,1,0,100,1,0
192422,-99999999999,4,1,0,100,0,0
192653,0.163238640495707,4,1,0,100,1,0
192653,-99999999999,4,1,0,100,0,0
192884,0.113238640495707,4,1,0,100,1,0
192884,-99999999999,4,1,0,100,0,0
193114,0.0632386404957066,4,1,0,100,1,0
193114,-99999999999,4,1,0,100,0,0
193345,230.769230769231,4,1,0,100,1,8
193345,-25,4,1,0,100,0,0
193576,230.769230769231,4,1,0,100,1,0
193576,-100,4,1,0,100,0,0
196864,-100,4,1,0,100,0,1
197037,-25,4,1,0,100,0,0

[HitObjects]
256,192,1571,12,0,2321,0:0:0:0:
280,164,2471,5,2,0:0:0:0:
280,164,2621,1,2,0:0:0:0:
268,168,2771,1,0,0:0:0:0:
260,184,2921,1,2,0:0:0:0:
256,184,3071,1,2,0:0:0:0:
216,208,3221,1,0,0:0:0:0:
208,212,3371,1,2,0:0:0:0:
204,220,3521,1,0,0:0:0:0:
208,216,3671,1,2,0:0:0:0:
328,136,3821,1,2,0:0:0:0:
248,204,3971,1,0,0:0:0:0:
244,204,4121,1,2,0:0:0:0:
248,204,4271,1,2,0:0:0:0:
208,216,4421,1,0,0:0:0:0:
208,216,4571,1,2,0:0:0:0:
208,216,4721,1,2,0:0:0:0:
372,128,4871,1,2,0:0:0:0:
372,128,5021,1,2,0:0:0:0:
340,168,5171,1,0,0:0:0:0:
336,176,5321,1,2,0:0:0:0:
336,176,5471,1,2,0:0:0:0:
308,184,5621,1,0,0:0:0:0:
304,184,5771,1,2,0:0:0:0:
288,188,5921,1,0,0:0:0:0:
284,188,6071,1,2,0:0:0:0:
424,120,6221,1,2,0:0:0:0:
384,152,6371,1,0,0:0:0:0:
368,164,6521,1,2,0:0:0:0:
368,164,6671,1,2,0:0:0:0:
336,188,6821,1,0,0:0:0:0:
336,188,6971,1,2,0:0:0:0:
336,188,7121,1,2,0:0:0:0:
408,96,7271,1,2,0:0:0:0:
368,164,7421,1,0,0:0:0:0:
368,164,7571,1,0,0:0:0:0:
360,160,7721,1,2,0:0:0:0:
236,212,7871,1,0,0:0:0:0:
236,212,8021,1,0,0:0:0:0:
236,212,8171,1,2,0:0:0:0:
376,100,8321,1,0,0:0:0:0:
376,100,8471,1,2,0:0:0:0:
376,100,8621,1,2,0:0:0:0:
348,140,8771,1,0,0:0:0:0:
340,144,8921,1,2,0:0:0:0:
340,144,9071,1,2,0:0:0:0:
272,180,9221,1,0,0:0:0:0:
272,180,9371,1,2,0:0:0:0:
200,196,9521,1,0,0:0:0:0:
380,116,9671,1,2,0:0:0:0:
380,116,9821,1,2,0:0:0:0:
328,164,9971,1,0,0:0:0:0:
316,176,10121,1,2,0:0:0:0:
316,176,10271,1,2,0:0:0:0:
308,184,10421,1,0,0:0:0:0:
308,184,10571,1,2,0:0:0:0:
440,96,10721,1,0,0:0:0:0:
416,128,10871,1,2,0:0:0:0:
368,176,11021,1,0,0:0:0:0:
368,176,11171,1,0,0:0:0:0:
368,176,11321,1,2,0:0:0:0:
356,200,11471,1,0,0:0:0:0:
356,200,11621,1,0,0:0:0:0:
356,200,11771,1,2,0:0:0:0:
356,200,11921,1,2,0:0:0:0:
352,200,12071,1,4,0:0:0:0:
392,176,13271,1,0,0:0:0:0:
392,176,13871,1,2,0:0:0:0:
392,176,14471,1,2,0:0:0:0:
392,176,15371,1,2,0:0:0:0:
288,192,15521,1,2,0:0:0:0:
336,232,15596,1,2,0:0:0:0:
288,192,15671,1,0,0:0:0:0:
328,192,16571,1,0,0:0:0:0:
328,192,16871,1,2,0:0:0:0:
336,188,17771,1,2,0:0:0:0:
288,232,18071,1,0,0:0:0:0:
288,232,18671,1,2,0:0:0:0:
288,232,19271,1,0,0:0:0:0:
288,232,19346,1,0,0:0:0:0:
392,196,19421,1,0,0:0:0:0:
288,232,19496,1,0,0:0:0:0:
288,232,19571,1,0,0:0:0:0:
288,232,19646,1,0,0:0:0:0:
288,232,19721,1,0,0:0:0:0:
392,196,19796,1,0,0:0:0:0:
392,196,19871,1,0,0:0:0:0:
392,196,19946,1,0,0:0:0:0:
392,196,20021,1,0,0:0:0:0:
392,196,20096,1,0,0:0:0:0:
392,196,20171,1,0,0:0:0:0:
392,196,20246,1,0,0:0:0:0:
392,196,20321,1,0,0:0:0:0:
392,196,20396,1,0,0:0:0:0:
388,208,20471,1,2,0:0:0:0:
452,192,20621,1,0,0:0:0:0:
452,192,20696,1,2,0:0:0:0:
364,96,20771,1,0,0:0:0:0:
452,192,20846,1,2,0:0:0:0:
388,176,20921,1,0,0:0:0:0:
360,184,21071,1,0,0:0:0:0:
360,184,21146,1,2,0:0:0:0:
376,108,21221,1,2,0:0:0:0:
360,184,21296,1,2,0:0:0:0:
328,156,21371,1,0,0:0:0:0:
372,148,21671,1,2,0:0:0:0:
372,148,21746,1,0,0:0:0:0:
360,120,21821,1,2,0:0:0:0:
352,128,21896,1,0,0:0:0:0:
308,192,21971,1,0,0:0:0:0:
300,212,22121,1,2,0:0:0:0:
292,232,22196,1,0,0:0:0:0:
288,72,22271,1,2,0:0:0:0:
288,72,22346,1,0,0:0:0:0:
228,96,22421,1,0,0:0:0:0:
352,96,22571,1,6,0:0:0:0:
328,176,22871,1,2,0:0:0:0:
288,200,22946,1,0,0:0:0:0:
288,200,23021,1,2,0:0:0:0:
288,200,23096,1,0,0:0:0:0:
288,200,23171,1,0,0:0:0:0:
408,128,23321,1,2,0:0:0:0:
368,148,23396,1,0,0:0:0:0:
360,148,23471,1,2,0:0:0:0:
320,172,23546,1,0,0:0:0:0:
312,176,23621,1,0,0:0:0:0:
404,112,23771,1,6,0:0:0:0:
468,120,23921,1,6,0:0:0:0:
344,104,24071,1,2,0:0:0:0:
328,72,24146,1,0,0:0:0:0:
328,72,24221,1,2,0:0:0:0:
328,72,24296,1,2,0:0:0:0:
328,72,24371,1,0,0:0:0:0:
256,40,24521,1,2,0:0:0:0:
164,100,24596,1,0,0:0:0:0:
164,100,24671,1,2,0:0:0:0:
140,112,24746,1,2,0:0:0:0:
136,112,24821,1,0,0:0:0:0:
344,68,24971,1,6,0:0:0:0:
396,80,25271,1,2,0:0:0:0:
296,128,25346,1,0,0:0:0:0:
296,128,25421,1,0,0:0:0:0:
296,128,25496,1,2,0:0:0:0:
296,128,25571,1,0,0:0:0:0:
324,64,25721,1,2,0:0:0:0:
284,104,25796,1,0,0:0:0:0:
280,104,25871,1,0,0:0:0:0:
184,156,25946,1,2,0:0:0:0:
184,156,26021,1,0,0:0:0:0:
420,104,26171,1,6,0:0:0:0:
420,104,26321,1,6,0:0:0:0:
392,56,26471,1,2,0:0:0:0:
332,64,26546,1,0,0:0:0:0:
344,120,26621,1,2,0:0:0:0:
320,92,26696,1,0,0:0:0:0:
168,148,26771,1,0,0:0:0:0:
280,36,26921,1,2,0:0:0:0:
204,100,26996,1,0,0:0:0:0:
204,100,27071,1,2,0:0:0:0:
264,140,27146,1,0,0:0:0:0:
368,80,27221,1,0,0:0:0:0:
368,80,27371,1,6,0:0:0:0:
288,144,27671,1,2,0:0:0:0:
232,248,27746,1,0,0:0:0:0:
384,112,27821,1,2,0:0:0:0:
384,112,27896,1,2,0:0:0:0:
232,248,27971,1,0,0:0:0:0:
216,104,28121,1,2,0:0:0:0:
168,184,28196,1,0,0:0:0:0:
168,184,28271,1,2,0:0:0:0:
136,192,28346,1,2,0:0:0:0:
128,192,28421,1,0,0:0:0:0:
372,136,28571,1,6,0:0:0:0:
372,136,28721,1,6,0:0:0:0:
328,100,28871,1,2,0:0:0:0:
316,108,28946,1,2,0:0:0:0:
312,112,29021,1,0,0:0:0:0:
308,92,29096,1,2,0:0:0:0:
328,100,29171,1,0,0:0:0:0:
332,64,29321,1,2,0:0:0:0:
300,112,29396,1,2,0:0:0:0:
296,120,29471,1,0,0:0:0:0:
304,112,29546,1,2,0:0:0:0:
228,148,29621,1,0,0:0:0:0:
400,144,29771,1,6,0:0:0:0:
340,84,30071,1,2,0:0:0:0:
308,136,30146,1,0,0:0:0:0:
304,136,30221,1,0,0:0:0:0:
340,84,30296,1,2,0:0:0:0:
304,132,30371,1,0,0:0:0:0:
356,72,30521,1,2,0:0:0:0:
328,84,30596,1,0,0:0:0:0:
236,56,30671,1,0,0:0:0:0:
348,80,30746,1,2,0:0:0:0:
236,56,30821,1,0,0:0:0:0:
396,144,30971,1,6,0:0:0:0:
396,144,31121,1,6,0:0:0:0:
360,108,31271,1,0,0:0:0:0:
360,108,31346,1,0,0:0:0:0:
360,108,31421,1,0,0:0:0:0:
360,108,31571,1,2,0:0:0:0:
228,196,31721,1,0,0:0:0:0:
228,196,31796,1,0,0:0:0:0:
304,72,31871,1,2,0:0:0:0:
256,124,32021,1,0,0:0:0:0:
296,152,32171,1,6,0:0:0:0:
340,164,32471,1,0,0:0:0:0:
432,116,32621,1,2,0:0:0:0:
340,164,32696,1,2,0:0:0:0:
320,180,32771,1,2,0:0:0:0:
344,184,32921,1,0,0:0:0:0:
340,188,33071,1,2,0:0:0:0:
356,140,33146,1,2,0:0:0:0:
220,224,33221,1,0,0:0:0:0:
308,124,33371,1,6,0:0:0:0:
308,124,33521,1,6,0:0:0:0:
392,92,33671,1,0,0:0:0:0:
392,92,33746,1,0,0:0:0:0:
392,92,33821,1,0,0:0:0:0:
292,56,33971,1,2,0:0:0:0:
260,92,34121,1,0,0:0:0:0:
260,92,34196,1,0,0:0:0:0:
260,92,34271,1,0,0:0:0:0:
248,92,34421,1,0,0:0:0:0:
248,92,34571,1,6,0:0:0:0:
404,140,34871,1,0,0:0:0:0:
404,140,35021,1,2,0:0:0:0:
404,140,35096,1,2,0:0:0:0:
320,192,35171,1,0,0:0:0:0:
364,68,35321,1,2,0:0:0:0:
332,136,35471,1,0,0:0:0:0:
332,136,35546,1,0,0:0:0:0:
332,136,35621,1,0,0:0:0:0:
424,88,35771,1,6,0:0:0:0:
424,88,35921,1,6,0:0:0:0:
320,208,36071,1,0,0:0:0:0:
392,144,36146,1,0,0:0:0:0:
320,208,36221,1,0,0:0:0:0:
384,152,36371,1,2,0:0:0:0:
272,220,36521,1,0,0:0:0:0:
248,224,36596,1,2,0:0:0:0:
248,224,36671,1,2,0:0:0:0:
212,240,36821,1,0,0:0:0:0:
220,232,36971,1,6,0:0:0:0:
400,136,37271,1,2,0:0:0:0:
360,180,37421,1,0,0:0:0:0:
360,180,37496,1,0,0:0:0:0:
360,180,37571,1,2,0:0:0:0:
304,236,37721,1,0,0:0:0:0:
276,244,37871,1,2,0:0:0:0:
268,248,37946,1,2,0:0:0:0:
312,92,38021,1,0,0:0:0:0:
312,92,38171,1,6,0:0:0:0:
312,92,38321,1,6,0:0:0:0:
276,184,38471,1,0,0:0:0:0:
348,80,38546,1,2,0:0:0:0:
348,80,38621,1,2,0:0:0:0:
284,120,38771,1,0,0:0:0:0:
272,132,38921,1,2,0:0:0:0:
276,128,38996,1,2,0:0:0:0:
220,152,39071,1,0,0:0:0:0:
208,164,39221,1,0,0:0:0:0:
208,168,39371,1,6,0:0:0:0:
272,184,39671,1,0,0:0:0:0:
272,184,39821,1,0,0:0:0:0:
272,184,39896,1,2,0:0:0:0:
272,184,39971,1,2,0:0:0:0:
272,184,40121,1,2,0:0:0:0:
160,220,40271,1,0,0:0:0:0:
392,116,40346,1,0,0:0:0:0:
392,116,40421,1,2,0:0:0:0:
392,116,40571,1,4,0:0:0:0:
392,116,40721,1,4,0:0:0:0:
308,232,40871,1,0,0:0:0:0:
408,204,40946,1,0,0:0:0:0:
308,232,41021,1,0,0:0:0:0:
308,232,41096,1,0,0:0:0:0:
368,120,41171,1,2,0:0:0:0:
344,176,41221,1,2,0:0:0:0:
256,228,41271,1,2,0:0:0:0:
304,88,41321,1,0,0:0:0:0:
304,88,41396,1,0,0:0:0:0:
424,260,41471,1,2,0:0:0:0:
320,116,41521,1,2,0:0:0:0:
348,248,41571,1,2,0:0:0:0:
384,304,41621,1,0,0:0:0:0:
168,192,41696,1,0,0:0:0:0:
456,120,41771,1,6,0:0:0:0:
308,136,42071,1,0,0:0:0:0:
308,136,42146,1,0,0:0:0:0:
308,136,42221,1,0,0:0:0:0:
308,136,42296,1,0,0:0:0:0:
304,136,42371,1,2,0:0:0:0:
296,128,42421,1,2,0:0:0:0:
264,200,42471,1,2,0:0:0:0:
172,216,42521,1,0,0:0:0:0:
172,216,42596,1,0,0:0:0:0:
296,108,42671,1,2,0:0:0:0:
492,200,42746,1,0,0:0:0:0:
452,216,42821,1,2,0:0:0:0:
248,192,42896,1,0,0:0:0:0:
348,224,42971,1,6,0:0:0:0:
348,224,43121,1,6,0:0:0:0:
428,144,43271,1,0,0:0:0:0:
428,144,43346,1,0,0:0:0:0:
428,144,43421,1,0,0:0:0:0:
428,144,43496,1,0,0:0:0:0:
360,116,43571,1,2,0:0:0:0:
360,116,43621,1,2,0:0:0:0:
248,248,43671,1,2,0:0:0:0:
316,152,43721,1,0,0:0:0:0:
316,160,43796,1,0,0:0:0:0:
328,72,43871,1,2,0:0:0:0:
328,72,43921,1,2,0:0:0:0:
364,176,43971,1,2,0:0:0:0:
284,120,44021,1,0,0:0:0:0:
284,120,44096,1,0,0:0:0:0:
416,240,44171,1,6,0:0:0:0:
304,192,44471,1,0,0:0:0:0:
300,188,44546,1,0,0:0:0:0:
300,188,44621,1,0,0:0:0:0:
300,188,44696,1,0,0:0:0:0:
344,104,44771,1,2,0:0:0:0:
376,48,44821,1,2,0:0:0:0:
244,136,44871,1,0,0:0:0:0:
352,88,44921,1,2,0:0:0:0:
352,88,44971,1,2,0:0:0:0:
312,92,45021,1,0,0:0:0:0:
248,120,45071,1,2,0:0:0:0:
232,136,45146,1,0,0:0:0:0:
384,72,45221,1,2,0:0:0:0:
324,112,45296,1,0,0:0:0:0:
416,240,45371,1,6,0:0:0:0:
416,240,45521,1,6,0:0:0:0:
356,160,45671,1,0,0:0:0:0:
356,160,45746,1,0,0:0:0:0:
356,160,45821,1,0,0:0:0:0:
356,160,45896,1,0,0:0:0:0:
356,160,45971,1,2,0:0:0:0:
312,96,46021,1,2,0:0:0:0:
360,148,46071,1,2,0:0:0:0:
296,104,46121,1,0,0:0:0:0:
296,104,46196,1,0,0:0:0:0:
292,104,46271,1,2,0:0:0:0:
400,88,46321,1,2,0:0:0:0:
308,160,46371,1,2,0:0:0:0:
284,112,46421,1,0,0:0:0:0:
240,136,46496,1,0,0:0:0:0:
404,240,46571,1,6,0:0:0:0:
408,116,46871,1,2,0:0:0:0:
308,48,46946,1,2,0:0:0:0:
352,120,47021,1,0,0:0:0:0:
352,120,47096,1,0,0:0:0:0:
384,64,47171,1,2,0:0:0:0:
384,64,47221,1,2,0:0:0:0:
352,76,47271,1,2,0:0:0:0:
320,100,47321,1,0,0:0:0:0:
344,60,47396,1,0,0:0:0:0:
280,24,47471,1,2,0:0:0:0:
344,60,47546,1,0,0:0:0:0:
420,60,47621,1,2,0:0:0:0:
288,104,47696,1,0,0:0:0:0:
400,240,47771,1,6,0:0:0:0:
400,240,47921,1,6,0:0:0:0:
336,112,48071,1,0,0:0:0:0:
336,112,48146,1,0,0:0:0:0:
336,112,48221,1,0,0:0:0:0:
336,112,48296,1,0,0:0:0:0:
336,112,48371,1,2,0:0:0:0:
392,260,48421,1,2,0:0:0:0:
392,264,48471,1,2,0:0:0:0:
424,152,48521,1,0,0:0:0:0:
416,136,48596,1,0,0:0:0:0:
364,180,48671,1,2,0:0:0:0:
364,180,48721,1,2,0:0:0:0:
364,180,48771,1,2,0:0:0:0:
352,192,48821,1,0,0:0:0:0:
400,180,48896,1,0,0:0:0:0:
400,240,48971,1,6,0:0:0:0:
324,220,49271,1,0,0:0:0:0:
328,204,49471,1,0,0:0:0:0:
328,200,49571,1,2,0:0:0:0:
332,200,49771,1,2,0:0:0:0:
272,232,49871,1,0,0:0:0:0:
272,232,50071,1,0,0:0:0:0:
348,152,50171,1,6,0:0:0:0:
272,232,50321,1,6,0:0:0:0:
340,216,50471,1,0,0:0:0:0:
404,124,50771,1,2,0:0:0:0:
408,84,50921,1,0,0:0:0:0:
368,272,51221,1,2,0:0:0:0:
364,96,51521,1,2,0:0:0:0:
352,116,51821,1,0,0:0:0:0:
352,116,51971,1,0,0:0:0:0:
352,116,52121,1,2,0:0:0:0:
408,108,52271,1,2,0:0:0:0:
388,116,52871,1,2,0:0:0:0:
260,168,53021,1,0,0:0:0:0:
268,168,53321,1,2,0:0:0:0:
328,168,53471,1,0,0:0:0:0:
264,176,53621,1,0,0:0:0:0:
316,64,53921,1,2,0:0:0:0:
400,88,54221,1,0,0:0:0:0:
456,84,54371,1,2,0:0:0:0:
456,84,54521,1,2,0:0:0:0:
408,112,54671,1,0,0:0:0:0:
316,132,55271,1,2,0:0:0:0:
360,112,55571,1,0,0:0:0:0:
204,148,55721,1,0,0:0:0:0:
280,152,55871,1,2,0:0:0:0:
296,152,56171,1,0,0:0:0:0:
296,152,56471,1,2,0:0:0:0:
348,124,56771,1,2,0:0:0:0:
288,156,56921,1,0,0:0:0:0:
288,156,57071,1,0,0:0:0:0:
288,156,57371,1,0,0:0:0:0:
288,156,57671,1,2,0:0:0:0:
288,156,57971,1,2,0:0:0:0:
272,164,58271,1,0,0:0:0:0:
272,164,58571,1,0,0:0:0:0:
272,164,58871,1,2,0:0:0:0:
272,164,59321,1,0,0:0:0:0:
264,168,59471,1,0,0:0:0:0:
464,228,59771,1,2,0:0:0:0:
452,228,59921,1,2,0:0:0:0:
212,300,60071,1,0,0:0:0:0:
352,168,61271,1,2,0:0:0:0:
352,168,62471,1,0,0:0:0:0:
352,168,63671,5,2,0:0:0:0:
336,192,64871,5,0,0:0:0:0:
384,200,65321,1,2,0:0:0:0:
384,200,65471,1,2,0:0:0:0:
456,120,65771,1,2,0:0:0:0:
412,112,66221,1,2,0:0:0:0:
412,112,66371,1,2,0:0:0:0:
412,112,66671,1,2,0:0:0:0:
412,112,66971,1,2,0:0:0:0:
412,112,67046,1,2,0:0:0:0:
412,112,67121,1,2,0:0:0:0:
412,112,67196,1,2,0:0:0:0:
272,176,67271,1,0,0:0:0:0:
336,88,67421,1,2,0:0:0:0:
336,88,67571,1,2,0:0:0:0:
456,224,67646,1,2,0:0:0:0:
312,164,67721,1,0,0:0:0:0:
336,88,67871,1,2,0:0:0:0:
312,164,68021,1,0,0:0:0:0:
456,224,68096,1,2,0:0:0:0:
336,88,68171,1,2,0:0:0:0:
336,88,68321,1,2,0:0:0:0:
444,108,68396,1,0,0:0:0:0:
336,88,68471,1,2,0:0:0:0:
244,244,68546,1,0,0:0:0:0:
336,88,68621,1,2,0:0:0:0:
336,88,68696,1,2,0:0:0:0:
244,244,68771,1,0,0:0:0:0:
336,88,68846,1,2,0:0:0:0:
372,208,68921,1,2,0:0:0:0:
440,116,68996,1,2,0:0:0:0:
280,264,69221,1,0,0:0:0:0:
388,144,69371,1,2,0:0:0:0:
388,144,69521,1,2,0:0:0:0:
312,168,69671,1,0,0:0:0:0:
204,140,70121,1,0,0:0:0:0:
264,140,70271,1,2,0:0:0:0:
168,188,70308,1,2,0:0:0:0:
264,140,70571,1,2,0:0:0:0:
168,188,70608,1,2,0:0:0:0:
264,140,70871,1,2,0:0:0:0:
396,200,70908,1,2,0:0:0:0:
264,140,71021,1,0,0:0:0:0:
168,188,71058,1,0,0:0:0:0:
264,140,71171,1,0,0:0:0:0:
168,188,71208,1,0,0:0:0:0:
264,140,71471,1,2,0:0:0:0:
168,188,71508,1,2,0:0:0:0:
264,140,71771,1,2,0:0:0:0:
168,188,71808,1,2,0:0:0:0:
264,140,72071,1,0,0:0:0:0:
168,188,72108,1,0,0:0:0:0:
264,140,72371,1,0,0:0:0:0:
376,168,72408,1,0,0:0:0:0:
264,140,72521,1,2,0:0:0:0:
168,188,72558,1,2,0:0:0:0:
264,140,72671,1,2,0:0:0:0:
168,188,72708,1,2,0:0:0:0:
264,140,72971,1,2,0:0:0:0:
168,188,73008,1,2,0:0:0:0:
264,140,73271,1,2,0:0:0:0:
168,188,73308,1,2,0:0:0:0:
264,140,73421,1,0,0:0:0:0:
168,188,73458,1,0,0:0:0:0:
264,140,73571,1,0,0:0:0:0:
168,188,73608,1,0,0:0:0:0:
372,128,73871,1,2,0:0:0:0:
400,176,73908,1,2,0:0:0:0:
264,140,74021,1,0,0:0:0:0:
168,188,74058,1,0,0:0:0:0:
264,140,74321,1,2,0:0:0:0:
168,188,74358,1,2,0:0:0:0:
264,140,74471,1,0,0:0:0:0:
168,188,74508,1,0,0:0:0:0:
264,140,74771,1,0,0:0:0:0:
384,180,74808,1,0,0:0:0:0:
264,140,74921,1,2,0:0:0:0:
168,188,74958,1,2,0:0:0:0:
264,140,75071,1,2,0:0:0:0:
168,188,75108,1,2,0:0:0:0:
264,140,75371,1,2,0:0:0:0:
168,188,75408,1,2,0:0:0:0:
264,140,75671,1,2,0:0:0:0:
408,128,75708,1,2,0:0:0:0:
264,140,75821,1,0,0:0:0:0:
168,188,75858,1,0,0:0:0:0:
264,140,75971,1,0,0:0:0:0:
168,188,76008,1,0,0:0:0:0:
264,140,76271,1,2,0:0:0:0:
168,188,76308,1,2,0:0:0:0:
264,140,76571,1,2,0:0:0:0:
168,188,76608,1,2,0:0:0:0:
264,140,76871,1,0,0:0:0:0:
168,188,76908,1,0,0:0:0:0:
264,140,77171,1,0,0:0:0:0:
168,188,77208,1,0,0:0:0:0:
264,140,77321,1,2,0:0:0:0:
168,188,77358,1,2,0:0:0:0:
264,140,77471,1,2,0:0:0:0:
168,188,77508,1,2,0:0:0:0:
336,120,77621,1,0,0:0:0:0:
412,140,77658,1,0,0:0:0:0:
264,140,77771,1,2,0:0:0:0:
168,188,77808,1,2,0:0:0:0:
264,140,78071,1,2,0:0:0:0:
168,188,78108,1,2,0:0:0:0:
264,140,78221,1,0,0:0:0:0:
168,188,78258,1,0,0:0:0:0:
264,140,78371,1,0,0:0:0:0:
168,188,78408,1,0,0:0:0:0:
264,140,78671,1,0,0:0:0:0:
168,188,78708,1,0,0:0:0:0:
264,140,78971,1,2,0:0:0:0:
264,140,79121,1,2,0:0:0:0:
256,152,79271,1,0,0:0:0:0:
360,212,79346,1,0,0:0:0:0:
272,144,79421,1,0,0:0:0:0:
276,148,79571,1,2,0:0:0:0:
240,176,79721,1,0,0:0:0:0:
360,212,79796,1,0,0:0:0:0:
240,176,79871,1,0,0:0:0:0:
240,184,80021,1,2,0:0:0:0:
208,212,80171,1,0,0:0:0:0:
360,212,80246,1,0,0:0:0:0:
208,212,80321,1,0,0:0:0:0:
208,212,80621,1,0,0:0:0:0:
360,212,80696,1,0,0:0:0:0:
208,212,80771,1,2,0:0:0:0:
172,224,80921,1,0,0:0:0:0:
172,224,81071,1,0,0:0:0:0:
360,212,81146,1,0,0:0:0:0:
172,224,81221,1,2,0:0:0:0:
152,248,81371,1,0,0:0:0:0:
360,212,81446,1,0,0:0:0:0:
152,248,81521,1,0,0:0:0:0:
152,248,81821,1,0,0:0:0:0:
152,248,81971,1,2,0:0:0:0:
360,212,82046,1,0,0:0:0:0:
140,248,82121,1,0,0:0:0:0:
140,248,82271,1,0,0:0:0:0:
140,248,82421,1,2,0:0:0:0:
360,212,82496,1,0,0:0:0:0:
136,256,82571,1,0,0:0:0:0:
136,256,82721,1,0,0:0:0:0:
136,256,83021,1,2,0:0:0:0:
136,256,83321,1,2,0:0:0:0:
136,256,83621,1,2,0:0:0:0:
136,256,83771,1,2,0:0:0:0:
136,256,84071,1,0,0:0:0:0:
172,176,84146,1,0,0:0:0:0:
136,256,84221,1,0,0:0:0:0:
136,256,84371,1,2,0:0:0:0:
108,268,84521,1,0,0:0:0:0:
180,184,84596,1,0,0:0:0:0:
108,268,84671,1,0,0:0:0:0:
108,268,84821,1,2,0:0:0:0:
64,280,84971,1,0,0:0:0:0:
204,200,85046,1,0,0:0:0:0:
64,280,85121,1,0,0:0:0:0:
76,276,85421,1,0,0:0:0:0:
268,184,85496,1,0,0:0:0:0:
76,276,85571,1,2,0:0:0:0:
72,284,85721,1,0,0:0:0:0:
72,284,85871,1,0,0:0:0:0:
288,192,85946,1,0,0:0:0:0:
72,284,86021,1,2,0:0:0:0:
64,292,86171,1,0,0:0:0:0:
288,192,86246,1,0,0:0:0:0:
64,292,86321,1,0,0:0:0:0:
64,288,86621,1,0,0:0:0:0:
64,288,86771,1,2,0:0:0:0:
288,192,86846,1,0,0:0:0:0:
64,292,86921,1,0,0:0:0:0:
64,292,87071,1,0,0:0:0:0:
64,292,87221,1,2,0:0:0:0:
288,192,87296,1,0,0:0:0:0:
288,192,87371,1,0,0:0:0:0:
64,288,87521,1,2,0:0:0:0:
64,292,87821,1,2,0:0:0:0:
64,292,88121,1,0,0:0:0:0:
64,288,88421,1,2,0:0:0:0:
440,176,88571,1,0,0:0:0:0:
372,156,88871,1,4,0:0:0:0:
420,156,89471,1,2,0:0:0:0:
432,156,89621,1,2,0:0:0:0:
420,156,89771,1,2,0:0:0:0:
432,156,89921,1,2,0:0:0:0:
364,160,90071,1,4,0:0:0:0:
432,156,90671,1,2,0:0:0:0:
432,156,90971,1,2,0:0:0:0:
348,160,91271,1,4,0:0:0:0:
300,116,91871,1,2,0:0:0:0:
300,116,92021,1,2,0:0:0:0:
300,116,92171,1,2,0:0:0:0:
340,160,92471,1,0,0:0:0:0:
180,172,92771,1,0,0:0:0:0:
236,180,93071,1,2,0:0:0:0:
304,140,93371,1,2,0:0:0:0:
336,160,93671,1,4,0:0:0:0:
220,116,94121,1,2,0:0:0:0:
308,148,94271,1,2,0:0:0:0:
308,148,94571,1,2,0:0:0:0:
328,168,94871,1,4,0:0:0:0:
308,148,95171,1,2,0:0:0:0:
308,148,95471,1,2,0:0:0:0:
308,148,95771,1,2,0:0:0:0:
308,148,95921,1,2,0:0:0:0:
328,168,96071,1,4,0:0:0:0:
328,168,96221,1,2,0:0:0:0:
328,168,96371,1,4,0:0:0:0:
328,176,96521,1,2,0:0:0:0:
328,168,96671,1,4,0:0:0:0:
328,176,96821,1,2,0:0:0:0:
328,168,96971,1,4,0:0:0:0:
328,168,97121,1,6,0:0:0:0:
140,160,98171,1,2,0:0:0:0:
332,168,98321,1,2,0:0:0:0:
248,220,98471,5,0,0:0:0:0:
248,220,98546,1,0,0:0:0:0:
248,220,98621,1,0,0:0:0:0:
248,220,98696,1,0,0:0:0:0:
296,212,98771,1,2,0:0:0:0:
264,224,98921,1,0,0:0:0:0:
264,224,98996,1,0,0:0:0:0:
352,140,99071,1,0,0:0:0:0:
352,140,99146,1,0,0:0:0:0:
352,140,99221,1,2,0:0:0:0:
336,148,99371,1,0,0:0:0:0:
404,104,99521,1,2,0:0:0:0:
344,120,99671,1,0,0:0:0:0:
344,120,99742,1,0,0:0:0:0:
344,120,99813,1,2,0:0:0:0:
344,120,99885,1,0,0:0:0:0:
344,120,99956,1,2,0:0:0:0:
360,124,100099,1,0,0:0:0:0:
360,124,100171,1,0,0:0:0:0:
360,124,100242,1,2,0:0:0:0:
360,124,100313,1,0,0:0:0:0:
360,124,100385,1,2,0:0:0:0:
292,148,100528,1,0,0:0:0:0:
292,148,100671,1,2,0:0:0:0:
288,116,100813,1,0,0:0:0:0:
288,116,100881,1,0,0:0:0:0:
288,116,100949,1,2,0:0:0:0:
288,116,101017,1,2,0:0:0:0:
288,116,101085,1,2,0:0:0:0:
272,136,101222,1,0,0:0:0:0:
272,136,101290,1,0,0:0:0:0:
272,136,101358,1,2,0:0:0:0:
372,72,101426,1,2,0:0:0:0:
272,136,101494,1,2,0:0:0:0:
372,88,101631,1,0,0:0:0:0:
356,96,101767,1,2,0:0:0:0:
308,124,101903,1,0,0:0:0:0:
308,124,101968,1,2,0:0:0:0:
308,124,102033,1,2,0:0:0:0:
308,124,102098,1,0,0:0:0:0:
308,124,102163,1,2,0:0:0:0:
280,136,102294,1,0,0:0:0:0:
280,136,102359,1,2,0:0:0:0:
408,124,102424,1,2,0:0:0:0:
280,136,102489,1,0,0:0:0:0:
280,136,102555,1,2,0:0:0:0:
392,176,102685,1,0,0:0:0:0:
392,176,102816,1,2,0:0:0:0:
380,180,102946,1,0,0:0:0:0:
380,180,103008,1,0,0:0:0:0:
384,180,103071,1,0,0:0:0:0:
384,180,103133,1,0,0:0:0:0:
384,180,103196,1,2,0:0:0:0:
296,84,103321,1,0,0:0:0:0:
296,84,103383,1,0,0:0:0:0:
244,64,103446,1,2,0:0:0:0:
436,200,103571,1,0,0:0:0:0:
436,200,103633,1,0,0:0:0:0:
324,136,103696,1,2,0:0:0:0:
416,220,103821,1,0,0:0:0:0:
192,220,103946,1,2,0:0:0:0:
188,236,104068,1,0,0:0:0:0:
376,116,104129,1,0,0:0:0:0:
184,236,104190,1,2,0:0:0:0:
376,140,104313,1,0,0:0:0:0:
376,140,104374,1,0,0:0:0:0:
296,52,104435,1,2,0:0:0:0:
296,52,104497,1,2,0:0:0:0:
288,56,104558,1,0,0:0:0:0:
288,56,104619,1,0,0:0:0:0:
288,56,104680,1,2,0:0:0:0:
296,104,104803,1,0,0:0:0:0:
296,104,104864,1,0,0:0:0:0:
296,104,104925,1,2,0:0:0:0:
332,76,104985,1,2,0:0:0:0:
280,84,105045,1,0,0:0:0:0:
276,84,105165,1,2,0:0:0:0:
272,84,105225,1,2,0:0:0:0:
180,112,105285,1,0,0:0:0:0:
180,112,105405,1,2,0:0:0:0:
180,112,105465,1,2,0:0:0:0:
144,112,105525,1,0,0:0:0:0:
152,116,105645,1,2,0:0:0:0:
156,116,105705,1,2,0:0:0:0:
136,144,105765,1,0,0:0:0:0:
136,144,105825,1,0,0:0:0:0:
136,144,105885,1,2,0:0:0:0:
360,184,105943,1,2,0:0:0:0:
360,184,106002,1,2,0:0:0:0:
360,184,106061,1,2,0:0:0:0:
320,180,106120,1,0,0:0:0:0:
320,180,106179,1,0,0:0:0:0:
320,180,106237,1,0,0:0:0:0:
320,180,106296,1,0,0:0:0:0:
320,180,106355,1,2,0:0:0:0:
320,180,106414,1,2,0:0:0:0:
320,180,106473,1,2,0:0:0:0:
320,180,106532,1,2,0:0:0:0:
320,180,106590,1,0,0:0:0:0:
320,180,106649,1,0,0:0:0:0:
320,180,106708,1,0,0:0:0:0:
320,180,106767,1,0,0:0:0:0:
320,180,106826,1,2,0:0:0:0:
380,168,107731,1,2,0:0:0:0:
380,168,107961,1,2,0:0:0:0:
380,168,108192,1,2,0:0:0:0:
380,168,108423,1,6,0:0:0:0:
328,216,108654,1,0,0:0:0:0:
328,216,108711,1,0,0:0:0:0:
328,216,108769,1,0,0:0:0:0:
328,216,108884,1,2,0:0:0:0:
304,224,109000,1,0,0:0:0:0:
276,116,109057,1,0,0:0:0:0:
308,224,109115,1,0,0:0:0:0:
308,224,109231,1,2,0:0:0:0:
240,40,109346,1,0,0:0:0:0:
240,40,109461,1,2,0:0:0:0:
208,100,109577,1,0,0:0:0:0:
208,100,109634,1,0,0:0:0:0:
208,100,109692,1,0,0:0:0:0:
280,80,109807,1,2,0:0:0:0:
244,108,109923,1,0,0:0:0:0:
244,108,109981,1,0,0:0:0:0:
244,108,110038,1,0,0:0:0:0:
244,104,110154,1,2,0:0:0:0:
132,120,110269,1,0,0:0:0:0:
224,84,110384,1,2,0:0:0:0:
208,100,110500,1,0,0:0:0:0:
208,100,110557,1,0,0:0:0:0:
208,100,110615,1,0,0:0:0:0:
204,92,110731,1,2,0:0:0:0:
184,100,110846,1,0,0:0:0:0:
184,100,110904,1,0,0:0:0:0:
304,56,110961,1,0,0:0:0:0:
256,88,111077,1,2,0:0:0:0:
216,148,111192,1,0,0:0:0:0:
260,48,111250,1,0,0:0:0:0:
216,148,111307,1,2,0:0:0:0:
308,128,111423,1,0,0:0:0:0:
308,128,111538,1,2,0:0:0:0:
408,136,111596,1,2,0:0:0:0:
272,132,111654,1,0,0:0:0:0:
380,152,111769,1,2,0:0:0:0:
344,176,111884,1,0,0:0:0:0:
344,176,111942,1,0,0:0:0:0:
332,112,112000,1,0,0:0:0:0:
260,168,112057,1,0,0:0:0:0:
292,48,112115,1,2,0:0:0:0:
292,48,112173,1,2,0:0:0:0:
320,196,112231,1,2,0:0:0:0:
320,196,112288,1,2,0:0:0:0:
280,204,112346,1,0,0:0:0:0:
224,80,112461,1,0,0:0:0:0:
296,56,112519,1,0,0:0:0:0:
296,56,112577,1,2,0:0:0:0:
240,72,112692,1,0,0:0:0:0:
240,72,112807,1,0,0:0:0:0:
304,80,112865,1,0,0:0:0:0:
296,80,112923,1,2,0:0:0:0:
252,80,113038,1,0,0:0:0:0:
356,228,113096,1,0,0:0:0:0:
328,168,113154,1,0,0:0:0:0:
404,208,113269,1,2,0:0:0:0:
272,40,113384,1,0,0:0:0:0:
272,40,113442,1,0,0:0:0:0:
272,40,113500,1,2,0:0:0:0:
276,124,113615,1,0,0:0:0:0:
276,124,113731,1,0,0:0:0:0:
312,72,113788,1,0,0:0:0:0:
276,124,113846,1,2,0:0:0:0:
300,88,113961,1,0,0:0:0:0:
300,88,114019,1,0,0:0:0:0:
416,100,114077,1,0,0:0:0:0:
408,116,114192,1,2,0:0:0:0:
284,48,114307,1,0,0:0:0:0:
284,48,114365,1,0,0:0:0:0:
284,48,114423,1,2,0:0:0:0:
328,100,114538,1,0,0:0:0:0:
328,100,114654,1,0,0:0:0:0:
328,100,114711,1,0,0:0:0:0:
424,112,114769,1,2,0:0:0:0:
228,56,114884,1,0,0:0:0:0:
236,160,114942,1,0,0:0:0:0:
228,56,115000,1,2,0:0:0:0:
284,76,115057,1,2,0:0:0:0:
232,96,115115,1,0,0:0:0:0:
392,56,115173,1,0,0:0:0:0:
252,128,115231,1,2,0:0:0:0:
336,212,115346,1,2,0:0:0:0:
264,92,115404,1,0,0:0:0:0:
232,224,115461,1,0,0:0:0:0:
344,80,115519,1,0,0:0:0:0:
344,80,115577,1,2,0:0:0:0:
344,80,115634,1,2,0:0:0:0:
288,32,115692,1,0,0:0:0:0:
280,88,115750,1,0,0:0:0:0:
288,32,115807,1,2,0:0:0:0:
276,88,115865,1,2,0:0:0:0:
276,88,115923,1,2,0:0:0:0:
276,88,115981,1,2,0:0:0:0:
272,88,116038,1,0,0:0:0:0:
280,132,116154,1,2,0:0:0:0:
280,132,116212,1,2,0:0:0:0:
280,132,116269,1,0,0:0:0:0:
328,112,116384,1,2,0:0:0:0:
372,232,116442,1,2,0:0:0:0:
288,92,116500,1,0,0:0:0:0:
352,160,116615,1,2,0:0:0:0:
352,160,116673,1,2,0:0:0:0:
352,152,116731,1,0,0:0:0:0:
288,80,116788,1,0,0:0:0:0:
160,152,116846,1,2,0:0:0:0:
352,100,116961,1,0,0:0:0:0:
280,64,117077,1,2,0:0:0:0:
304,180,117134,1,2,0:0:0:0:
336,108,117192,1,0,0:0:0:0:
320,196,117307,1,2,0:0:0:0:
320,88,117423,1,0,0:0:0:0:
292,80,117481,1,0,0:0:0:0:
316,176,117538,1,2,0:0:0:0:
256,200,117654,1,0,0:0:0:0:
412,120,117711,1,0,0:0:0:0:
428,180,117769,1,2,0:0:0:0:
428,180,117827,1,2,0:0:0:0:
416,184,117884,1,0,0:0:0:0:
324,104,118000,1,2,0:0:0:0:
324,104,118058,1,2,0:0:0:0:
324,104,118115,1,0,0:0:0:0:
324,108,118231,1,2,0:0:0:0:
288,56,118288,1,2,0:0:0:0:
288,56,118346,1,0,0:0:0:0:
320,88,118404,1,0,0:0:0:0:
324,108,118461,1,2,0:0:0:0:
344,68,118577,1,0,0:0:0:0:
288,56,118634,1,0,0:0:0:0:
272,72,118692,1,2,0:0:0:0:
248,192,118750,1,2,0:0:0:0:
344,208,118807,1,0,0:0:0:0:
344,208,118923,1,2,0:0:0:0:
388,104,118981,1,2,0:0:0:0:
232,232,119038,1,0,0:0:0:0:
368,152,119096,1,0,0:0:0:0:
232,232,119154,1,2,0:0:0:0:
392,120,119211,1,2,0:0:0:0:
224,244,119269,1,0,0:0:0:0:
324,88,119327,1,0,0:0:0:0:
216,248,119384,1,2,0:0:0:0:
384,136,119442,1,0,0:0:0:0:
304,52,119500,1,2,0:0:0:0:
432,96,119557,1,2,0:0:0:0:
332,196,119615,1,2,0:0:0:0:
332,196,119673,1,2,0:0:0:0:
208,264,119731,1,0,0:0:0:0:
308,68,119846,1,2,0:0:0:0:
232,172,119903,1,2,0:0:0:0:
312,68,119961,1,0,0:0:0:0:
344,88,120077,1,2,0:0:0:0:
420,88,120134,1,2,0:0:0:0:
316,108,120192,1,0,0:0:0:0:
384,72,120250,1,0,0:0:0:0:
316,108,120307,1,2,0:0:0:0:
312,120,120423,1,0,0:0:0:0:
312,120,120481,1,0,0:0:0:0:
248,88,120538,1,2,0:0:0:0:
336,112,120654,1,0,0:0:0:0:
424,80,120711,1,0,0:0:0:0:
240,48,120769,1,2,0:0:0:0:
456,160,120827,1,2,0:0:0:0:
240,48,120884,1,0,0:0:0:0:
224,68,121000,1,2,0:0:0:0:
320,60,121058,1,2,0:0:0:0:
264,48,121116,1,0,0:0:0:0:
228,64,121173,1,0,0:0:0:0:
376,180,121231,1,2,0:0:0:0:
236,88,121346,1,0,0:0:0:0:
232,88,121404,1,2,0:0:0:0:
204,128,121461,1,2,0:0:0:0:
276,64,121577,1,2,0:0:0:0:
392,156,121634,1,2,0:0:0:0:
240,80,121692,1,0,0:0:0:0:
240,80,121750,1,2,0:0:0:0:
248,60,121807,1,0,0:0:0:0:
112,80,121865,1,0,0:0:0:0:
112,80,121923,1,2,0:0:0:0:
112,80,121981,1,0,0:0:0:0:
100,80,122038,1,0,0:0:0:0:
256,72,122096,1,2,0:0:0:0:
244,96,122154,1,0,0:0:0:0:
244,96,122211,1,0,0:0:0:0:
240,96,122269,1,2,0:0:0:0:
456,160,122327,1,0,0:0:0:0:
240,96,122384,1,2,0:0:0:0:
240,96,122442,1,2,0:0:0:0:
228,116,122500,1,0,0:0:0:0:
384,224,122961,1,0,0:0:0:0:
384,224,123192,1,0,0:0:0:0:
352,204,123423,1,2,0:0:0:0:
288,220,123424,2,2,L|336:212,1,0.01
288,220,123424,2,2,L|336:212,1,0.01
288,220,123424,2,2,L|336:212,1,0.01
288,168,123481,1,0,0:0:0:0:
352,204,123538,1,2,0:0:0:0:
288,220,123539,2,2,L|336:212,1,0.01
288,220,123539,2,2,L|336:212,1,0.01
288,220,123539,2,2,L|336:212,1,0.01
268,188,123654,1,0,0:0:0:0:
352,204,123769,1,2,0:0:0:0:
288,220,123770,2,2,L|336:212,1,0.01
288,220,123770,2,2,L|336:212,1,0.01
288,220,123770,2,2,L|336:212,1,0.01
352,204,123827,1,2,0:0:0:0:
288,220,123828,2,2,L|336:212,1,0.01
288,220,123828,2,2,L|336:212,1,0.01
288,220,123828,2,2,L|336:212,1,0.01
352,204,123884,1,2,0:0:0:0:
288,220,123885,2,2,L|336:212,1,0.01
288,220,123885,2,2,L|336:212,1,0.01
288,220,123885,2,2,L|336:212,1,0.01
392,320,124000,1,0,0:0:0:0:
352,204,124115,1,2,0:0:0:0:
288,220,124116,2,2,L|336:212,1,0.01
288,220,124116,2,2,L|336:212,1,0.01
288,220,124116,2,2,L|336:212,1,0.01
280,200,124231,1,0,0:0:0:0:
280,200,124288,1,0,0:0:0:0:
280,200,124346,1,0,0:0:0:0:
352,204,124461,1,2,0:0:0:0:
288,220,124462,2,2,L|336:212,1,0.01
288,220,124462,2,2,L|336:212,1,0.01
288,220,124462,2,2,L|336:212,1,0.01
352,204,124577,1,2,0:0:0:0:
288,220,124578,2,2,L|336:212,1,0.01
288,220,124578,2,2,L|336:212,1,0.01
288,220,124578,2,2,L|336:212,1,0.01
344,264,124692,1,0,0:0:0:0:
352,204,124807,1,2,0:0:0:0:
288,220,124808,2,2,L|336:212,1,0.01
288,220,124808,2,2,L|336:212,1,0.01
288,220,124808,2,2,L|336:212,1,0.01
352,204,124865,1,2,0:0:0:0:
288,220,124866,2,2,L|336:212,1,0.01
288,220,124866,2,2,L|336:212,1,0.01
288,220,124866,2,2,L|336:212,1,0.01
388,160,124923,1,0,0:0:0:0:
352,204,125038,1,2,0:0:0:0:
288,220,125039,2,2,L|336:212,1,0.01
288,220,125039,2,2,L|336:212,1,0.01
288,220,125039,2,2,L|336:212,1,0.01
184,212,125154,1,0,0:0:0:0:
352,204,125269,1,2,0:0:0:0:
288,220,125270,2,2,L|336:212,1,0.01
288,220,125270,2,2,L|336:212,1,0.01
288,220,125270,2,2,L|336:212,1,0.01
340,96,125327,1,0,0:0:0:0:
352,204,125384,1,2,0:0:0:0:
288,220,125385,2,2,L|336:212,1,0.01
288,220,125385,2,2,L|336:212,1,0.01
288,220,125385,2,2,L|336:212,1,0.01
288,148,125500,1,0,0:0:0:0:
352,204,125615,1,2,0:0:0:0:
288,220,125616,2,2,L|336:212,1,0.01
288,220,125616,2,2,L|336:212,1,0.01
288,220,125616,2,2,L|336:212,1,0.01
352,204,125673,1,2,0:0:0:0:
288,220,125674,2,2,L|336:212,1,0.01
288,220,125674,2,2,L|336:212,1,0.01
288,220,125674,2,2,L|336:212,1,0.01
352,204,125731,1,2,0:0:0:0:
288,220,125732,2,2,L|336:212,1,0.01
288,220,125732,2,2,L|336:212,1,0.01
288,220,125732,2,2,L|336:212,1,0.01
332,168,125846,1,0,0:0:0:0:
352,168,125961,1,0,0:0:0:0:
352,204,126019,1,2,0:0:0:0:
288,220,126020,2,2,L|336:212,1,0.01
288,220,126020,2,2,L|336:212,1,0.01
288,220,126020,2,2,L|336:212,1,0.01
352,204,126077,1,2,0:0:0:0:
288,220,126078,2,2,L|336:212,1,0.01
288,220,126078,2,2,L|336:212,1,0.01
288,220,126078,2,2,L|336:212,1,0.01
352,204,126134,1,2,0:0:0:0:
288,220,126135,2,2,L|336:212,1,0.01
288,220,126135,2,2,L|336:212,1,0.01
288,220,126135,2,2,L|336:212,1,0.01
164,172,126192,1,0,0:0:0:0:
352,204,126307,1,2,0:0:0:0:
288,220,126308,2,2,L|336:212,1,0.01
288,220,126308,2,2,L|336:212,1,0.01
288,220,126308,2,2,L|336:212,1,0.01
164,172,126423,1,0,0:0:0:0:
352,204,126538,1,2,0:0:0:0:
288,220,126539,2,2,L|336:212,1,0.01
288,220,126539,2,2,L|336:212,1,0.01
288,220,126539,2,2,L|336:212,1,0.01
428,176,126596,1,0,0:0:0:0:
200,160,126654,1,0,0:0:0:0:
200,160,126769,1,0,0:0:0:0:
352,204,126884,1,2,0:0:0:0:
288,220,126885,2,2,L|336:212,1,0.01
288,220,126885,2,2,L|336:212,1,0.01
288,220,126885,2,2,L|336:212,1,0.01
352,204,127115,1,2,0:0:0:0:
288,220,127116,2,2,L|336:212,1,0.01
288,220,127116,2,2,L|336:212,1,0.01
288,220,127116,2,2,L|336:212,1,0.01
352,204,127173,1,2,0:0:0:0:
288,220,127174,2,2,L|336:212,1,0.01
288,220,127174,2,2,L|336:212,1,0.01
288,220,127174,2,2,L|336:212,1,0.01
352,204,127231,1,2,0:0:0:0:
288,220,127232,2,2,L|336:212,1,0.01
288,220,127232,2,2,L|336:212,1,0.01
288,220,127232,2,2,L|336:212,1,0.01
424,220,127346,1,0,0:0:0:0:
352,204,127461,1,2,0:0:0:0:
288,220,127462,2,2,L|336:212,1,0.01
288,220,127462,2,2,L|336:212,1,0.01
288,220,127462,2,2,L|336:212,1,0.01
348,132,127577,1,0,0:0:0:0:
348,88,127634,1,0,0:0:0:0:
368,88,127692,1,0,0:0:0:0:
352,204,127807,1,2,0:0:0:0:
288,220,127808,2,2,L|336:212,1,0.01
288,220,127808,2,2,L|336:212,1,0.01
288,220,127808,2,2,L|336:212,1,0.01
312,132,127923,1,0,0:0:0:0:
352,204,128038,1,2,0:0:0:0:
288,220,128039,2,2,L|336:212,1,0.01
288,220,128039,2,2,L|336:212,1,0.01
288,220,128039,2,2,L|336:212,1,0.01
352,204,128096,1,2,0:0:0:0:
288,220,128097,2,2,L|336:212,1,0.01
288,220,128097,2,2,L|336:212,1,0.01
288,220,128097,2,2,L|336:212,1,0.01
352,204,128154,1,2,0:0:0:0:
288,220,128155,2,2,L|336:212,1,0.01
288,220,128155,2,2,L|336:212,1,0.01
288,220,128155,2,2,L|336:212,1,0.01
208,96,128269,1,0,0:0:0:0:
352,204,128384,1,2,0:0:0:0:
288,220,128385,2,2,L|336:212,1,0.01
288,220,128385,2,2,L|336:212,1,0.01
288,220,128385,2,2,L|336:212,1,0.01
280,44,128500,1,0,0:0:0:0:
352,204,128557,1,2,0:0:0:0:
288,220,128558,2,2,L|336:212,1,0.01
288,220,128558,2,2,L|336:212,1,0.01
288,220,128558,2,2,L|336:212,1,0.01
272,136,128615,1,0,0:0:0:0:
352,204,128731,1,2,0:0:0:0:
288,220,128732,2,2,L|336:212,1,0.01
288,220,128732,2,2,L|336:212,1,0.01
288,220,128732,2,2,L|336:212,1,0.01
352,204,128846,1,2,0:0:0:0:
288,220,128847,2,2,L|336:212,1,0.01
288,220,128847,2,2,L|336:212,1,0.01
288,220,128847,2,2,L|336:212,1,0.01
352,160,128961,1,0,0:0:0:0:
352,160,129019,1,0,0:0:0:0:
352,160,129077,1,0,0:0:0:0:
200,176,129134,1,0,0:0:0:0:
352,204,129192,1,2,0:0:0:0:
288,220,129193,2,2,L|336:212,1,0.01
288,220,129193,2,2,L|336:212,1,0.01
288,220,129193,2,2,L|336:212,1,0.01
352,156,129423,1,0,0:0:0:0:
352,156,129481,1,0,0:0:0:0:
352,156,129538,1,0,0:0:0:0:
352,156,129596,1,0,0:0:0:0:
352,204,129654,1,2,0:0:0:0:
288,220,129655,2,2,L|336:212,1,0.01
288,220,129655,2,2,L|336:212,1,0.01
288,220,129655,2,2,L|336:212,1,0.01
304,120,129769,1,0,0:0:0:0:
232,204,129827,1,0,0:0:0:0:
352,204,130000,1,2,0:0:0:0:
288,220,130001,2,2,L|336:212,1,0.01
288,220,130001,2,2,L|336:212,1,0.01
288,220,130001,2,2,L|336:212,1,0.01
352,204,130057,1,2,0:0:0:0:
288,220,130058,2,2,L|336:212,1,0.01
288,220,130058,2,2,L|336:212,1,0.01
288,220,130058,2,2,L|336:212,1,0.01
300,68,130115,1,0,0:0:0:0:
352,204,130173,1,2,0:0:0:0:
288,220,130174,2,2,L|336:212,1,0.01
288,220,130174,2,2,L|336:212,1,0.01
288,220,130174,2,2,L|336:212,1,0.01
352,204,130231,1,2,0:0:0:0:
288,220,130232,2,2,L|336:212,1,0.01
288,220,130232,2,2,L|336:212,1,0.01
288,220,130232,2,2,L|336:212,1,0.01
244,144,130346,1,0,0:0:0:0:
328,48,130404,1,0,0:0:0:0:
352,204,130461,1,2,0:0:0:0:
288,220,130462,2,2,L|336:212,1,0.01
288,220,130462,2,2,L|336:212,1,0.01
288,220,130462,2,2,L|336:212,1,0.01
352,204,130519,1,2,0:0:0:0:
288,220,130520,2,2,L|336:212,1,0.01
288,220,130520,2,2,L|336:212,1,0.01
288,220,130520,2,2,L|336:212,1,0.01
352,204,130577,1,2,0:0:0:0:
288,220,130578,2,2,L|336:212,1,0.01
288,220,130578,2,2,L|336:212,1,0.01
288,220,130578,2,2,L|336:212,1,0.01
360,176,130692,1,0,0:0:0:0:
488,96,130807,1,2,0:0:0:0:
352,204,130865,1,0,0:0:0:0:
288,220,130866,2,0,L|336:212,1,0.01
288,220,130866,2,0,L|336:212,1,0.01
288,220,130866,2,0,L|336:212,1,0.01
472,136,130923,1,2,0:0:0:0:
352,204,131038,1,0,0:0:0:0:
288,220,131039,2,0,L|336:212,1,0.01
288,220,131039,2,0,L|336:212,1,0.01
288,220,131039,2,0,L|336:212,1,0.01
260,160,131154,1,2,0:0:0:0:
260,160,131211,1,2,0:0:0:0:
240,180,131269,1,2,0:0:0:0:
352,204,131384,1,0,0:0:0:0:
288,220,131385,2,0,L|336:212,1,0.01
288,220,131385,2,0,L|336:212,1,0.01
288,220,131385,2,0,L|336:212,1,0.01
364,112,131500,1,2,0:0:0:0:
352,204,131615,1,0,0:0:0:0:
288,220,131616,2,0,L|336:212,1,0.01
288,220,131616,2,0,L|336:212,1,0.01
288,220,131616,2,0,L|336:212,1,0.01
352,204,131673,1,0,0:0:0:0:
288,220,131674,2,0,L|336:212,1,0.01
288,220,131674,2,0,L|336:212,1,0.01
288,220,131674,2,0,L|336:212,1,0.01
292,56,131731,1,2,0:0:0:0:
352,204,131846,1,0,0:0:0:0:
288,220,131847,2,0,L|336:212,1,0.01
288,220,131847,2,0,L|336:212,1,0.01
288,220,131847,2,0,L|336:212,1,0.01
352,204,131961,1,0,0:0:0:0:
288,220,131962,2,0,L|336:212,1,0.01
288,220,131962,2,0,L|336:212,1,0.01
288,220,131962,2,0,L|336:212,1,0.01
272,176,132077,1,2,0:0:0:0:
352,204,132192,1,0,0:0:0:0:
288,220,132193,2,0,L|336:212,1,0.01
288,220,132193,2,0,L|336:212,1,0.01
288,220,132193,2,0,L|336:212,1,0.01
228,124,132250,1,2,0:0:0:0:
352,204,132307,1,0,0:0:0:0:
288,220,132308,2,0,L|336:212,1,0.01
288,220,132308,2,0,L|336:212,1,0.01
288,220,132308,2,0,L|336:212,1,0.01
384,120,132423,1,2,0:0:0:0:
352,204,132538,1,0,0:0:0:0:
288,220,132539,2,0,L|336:212,1,0.01
288,220,132539,2,0,L|336:212,1,0.01
288,220,132539,2,0,L|336:212,1,0.01
352,204,132596,1,0,0:0:0:0:
288,220,132597,2,0,L|336:212,1,0.01
288,220,132597,2,0,L|336:212,1,0.01
288,220,132597,2,0,L|336:212,1,0.01
132,184,132654,1,2,0:0:0:0:
352,204,132711,1,0,0:0:0:0:
288,220,132712,2,0,L|336:212,1,0.01
288,220,132712,2,0,L|336:212,1,0.01
288,220,132712,2,0,L|336:212,1,0.01
312,100,132769,1,2,0:0:0:0:
304,204,132884,1,2,0:0:0:0:
352,204,133000,1,0,0:0:0:0:
288,220,133001,2,0,L|336:212,1,0.01
288,220,133001,2,0,L|336:212,1,0.01
288,220,133001,2,0,L|336:212,1,0.01
352,204,133057,1,0,0:0:0:0:
288,220,133058,2,0,L|336:212,1,0.01
288,220,133058,2,0,L|336:212,1,0.01
288,220,133058,2,0,L|336:212,1,0.01
352,204,133115,1,0,0:0:0:0:
288,220,133116,2,0,L|336:212,1,0.01
288,220,133116,2,0,L|336:212,1,0.01
288,220,133116,2,0,L|336:212,1,0.01
208,56,133231,1,2,0:0:0:0:
352,204,133346,1,0,0:0:0:0:
288,220,133347,2,0,L|336:212,1,0.01
288,220,133347,2,0,L|336:212,1,0.01
288,220,133347,2,0,L|336:212,1,0.01
376,152,133461,1,2,0:0:0:0:
336,40,133519,1,2,0:0:0:0:
408,80,133577,1,2,0:0:0:0:
336,40,133634,1,2,0:0:0:0:
352,204,133692,1,0,0:0:0:0:
288,220,133693,2,0,L|336:212,1,0.01
288,220,133693,2,0,L|336:212,1,0.01
288,220,133693,2,0,L|336:212,1,0.01
352,204,133807,1,0,0:0:0:0:
288,220,133808,2,0,L|336:212,1,0.01
288,220,133808,2,0,L|336:212,1,0.01
288,220,133808,2,0,L|336:212,1,0.01
400,104,133923,1,2,0:0:0:0:
352,204,134038,1,0,0:0:0:0:
288,220,134039,2,0,L|336:212,1,0.01
288,220,134039,2,0,L|336:212,1,0.01
288,220,134039,2,0,L|336:212,1,0.01
352,204,134096,1,0,0:0:0:0:
288,220,134097,2,0,L|336:212,1,0.01
288,220,134097,2,0,L|336:212,1,0.01
288,220,134097,2,0,L|336:212,1,0.01
352,204,134154,1,0,0:0:0:0:
288,220,134155,2,0,L|336:212,1,0.01
288,220,134155,2,0,L|336:212,1,0.01
288,220,134155,2,0,L|336:212,1,0.01
328,72,134269,1,6,0:0:0:0:
352,204,134500,1,0,0:0:0:0:
288,220,134501,2,0,L|336:212,1,0.01
288,220,134501,2,0,L|336:212,1,0.01
288,220,134501,2,0,L|336:212,1,0.01
352,204,134557,1,0,0:0:0:0:
288,220,134558,2,0,L|336:212,1,0.01
288,220,134558,2,0,L|336:212,1,0.01
288,220,134558,2,0,L|336:212,1,0.01
352,204,134615,1,0,0:0:0:0:
288,220,134616,2,0,L|336:212,1,0.01
288,220,134616,2,0,L|336:212,1,0.01
288,220,134616,2,0,L|336:212,1,0.01
352,204,134673,1,0,0:0:0:0:
288,220,134674,2,0,L|336:212,1,0.01
288,220,134674,2,0,L|336:212,1,0.01
288,220,134674,2,0,L|336:212,1,0.01
348,64,134731,1,2,0:0:0:0:
352,204,134846,1,0,0:0:0:0:
288,220,134847,2,0,L|336:212,1,0.01
288,220,134847,2,0,L|336:212,1,0.01
288,220,134847,2,0,L|336:212,1,0.01
352,204,134904,1,0,0:0:0:0:
288,220,134905,2,0,L|336:212,1,0.01
288,220,134905,2,0,L|336:212,1,0.01
288,220,134905,2,0,L|336:212,1,0.01
340,88,134961,1,2,0:0:0:0:
352,204,135077,1,0,0:0:0:0:
288,220,135078,2,0,L|336:212,1,0.01
288,220,135078,2,0,L|336:212,1,0.01
288,220,135078,2,0,L|336:212,1,0.01
296,108,135192,1,2,0:0:0:0:
352,204,135307,1,0,0:0:0:0:
288,220,135308,2,0,L|336:212,1,0.01
288,220,135308,2,0,L|336:212,1,0.01
288,220,135308,2,0,L|336:212,1,0.01
352,204,135365,1,0,0:0:0:0:
288,220,135366,2,0,L|336:212,1,0.01
288,220,135366,2,0,L|336:212,1,0.01
288,220,135366,2,0,L|336:212,1,0.01
276,48,135423,1,2,0:0:0:0:
344,80,135481,1,2,0:0:0:0:
344,84,135538,1,2,0:0:0:0:
352,204,135654,1,0,0:0:0:0:
288,220,135655,2,0,L|336:212,1,0.01
288,220,135655,2,0,L|336:212,1,0.01
288,220,135655,2,0,L|336:212,1,0.01
352,204,135769,1,0,0:0:0:0:
288,220,135770,2,0,L|336:212,1,0.01
288,220,135770,2,0,L|336:212,1,0.01
288,220,135770,2,0,L|336:212,1,0.01
272,92,135884,1,2,0:0:0:0:
288,56,136000,1,2,0:0:0:0:
352,204,136057,1,0,0:0:0:0:
288,220,136058,2,0,L|336:212,1,0.01
288,220,136058,2,0,L|336:212,1,0.01
288,220,136058,2,0,L|336:212,1,0.01
252,116,136115,1,2,0:0:0:0:
352,204,136173,1,0,0:0:0:0:
288,220,136174,2,0,L|336:212,1,0.01
288,220,136174,2,0,L|336:212,1,0.01
288,220,136174,2,0,L|336:212,1,0.01
352,204,136231,1,0,0:0:0:0:
288,220,136232,2,0,L|336:212,1,0.01
288,220,136232,2,0,L|336:212,1,0.01
288,220,136232,2,0,L|336:212,1,0.01
280,76,136346,1,2,0:0:0:0:
400,76,136404,1,2,0:0:0:0:
352,204,136461,1,0,0:0:0:0:
288,220,136462,2,0,L|336:212,1,0.01
288,220,136462,2,0,L|336:212,1,0.01
288,220,136462,2,0,L|336:212,1,0.01
352,204,136519,1,0,0:0:0:0:
288,220,136520,2,0,L|336:212,1,0.01
288,220,136520,2,0,L|336:212,1,0.01
288,220,136520,2,0,L|336:212,1,0.01
400,76,136577,1,2,0:0:0:0:
400,76,136634,1,2,0:0:0:0:
400,76,136692,1,2,0:0:0:0:
400,76,136750,1,2,0:0:0:0:
352,204,136807,1,0,0:0:0:0:
288,220,136808,2,0,L|336:212,1,0.01
288,220,136808,2,0,L|336:212,1,0.01
288,220,136808,2,0,L|336:212,1,0.01
352,204,136865,1,0,0:0:0:0:
288,220,136866,2,0,L|336:212,1,0.01
288,220,136866,2,0,L|336:212,1,0.01
288,220,136866,2,0,L|336:212,1,0.01
376,92,136923,1,2,0:0:0:0:
376,92,136981,1,2,0:0:0:0:
352,204,137038,1,0,0:0:0:0:
288,220,137039,2,0,L|336:212,1,0.01
288,220,137039,2,0,L|336:212,1,0.01
288,220,137039,2,0,L|336:212,1,0.01
352,204,137096,1,0,0:0:0:0:
288,220,137097,2,0,L|336:212,1,0.01
288,220,137097,2,0,L|336:212,1,0.01
288,220,137097,2,0,L|336:212,1,0.01
352,204,137154,1,0,0:0:0:0:
288,220,137155,2,0,L|336:212,1,0.01
288,220,137155,2,0,L|336:212,1,0.01
288,220,137155,2,0,L|336:212,1,0.01
352,204,137211,1,0,0:0:0:0:
288,220,137212,2,0,L|336:212,1,0.01
288,220,137212,2,0,L|336:212,1,0.01
288,220,137212,2,0,L|336:212,1,0.01
352,96,137269,1,2,0:0:0:0:
288,180,138192,1,6,0:0:0:0:
264,212,138538,1,0,0:0:0:0:
264,212,138654,1,0,0:0:0:0:
264,212,138884,1,0,0:0:0:0:
360,160,139115,1,2,0:0:0:0:
360,160,139461,1,2,0:0:0:0:
360,160,139577,1,2,0:0:0:0:
316,192,139807,1,0,0:0:0:0:
408,200,140038,1,2,0:0:0:0:
448,276,140269,1,0,0:0:0:0:
408,160,140500,1,2,0:0:0:0:
376,200,140731,1,0,0:0:0:0:
324,104,140846,1,0,0:0:0:0:
376,200,140961,1,2,0:0:0:0:
300,136,141192,1,2,0:0:0:0:
356,92,141307,1,0,0:0:0:0:
352,96,141423,1,2,0:0:0:0:
304,192,141654,1,0,0:0:0:0:
360,128,141884,1,0,0:0:0:0:
360,128,142115,1,2,0:0:0:0:
360,128,142231,1,2,0:0:0:0:
360,128,142346,1,2,0:0:0:0:
360,128,142577,1,2,0:0:0:0:
288,176,142807,1,4,0:0:0:0:
448,248,142961,1,6,0:0:0:0:
448,248,143038,1,4,0:0:0:0:
448,248,143192,1,4,0:0:0:0:
448,248,143269,1,6,0:0:0:0:
396,168,143731,1,4,0:0:0:0:
384,100,143846,1,2,0:0:0:0:
440,160,143961,1,0,0:0:0:0:
440,160,144077,1,0,0:0:0:0:
440,160,144192,1,2,0:0:0:0:
400,160,144307,1,0,0:0:0:0:
360,160,144423,1,2,0:0:0:0:
360,160,144538,1,2,0:0:0:0:
360,160,144654,1,6,0:0:0:0:
388,188,145115,1,0,0:0:0:0:
388,188,145346,1,0,0:0:0:0:
388,188,145577,1,2,0:0:0:0:
408,160,145692,1,2,0:0:0:0:
388,180,145923,1,0,0:0:0:0:
388,180,146154,1,0,0:0:0:0:
384,180,146384,1,2,0:0:0:0:
376,192,146615,1,0,0:0:0:0:
368,72,146731,1,0,0:0:0:0:
372,192,146846,1,2,0:0:0:0:
368,72,146961,1,2,0:0:0:0:
364,96,147192,1,0,0:0:0:0:
364,100,147423,1,2,0:0:0:0:
348,60,147538,1,0,0:0:0:0:
344,152,147654,1,2,0:0:0:0:
400,112,147769,1,0,0:0:0:0:
272,104,148000,1,0,0:0:0:0:
272,104,148231,1,2,0:0:0:0:
272,112,148461,1,0,0:0:0:0:
272,112,148577,1,2,0:0:0:0:
272,112,148692,1,2,0:0:0:0:
236,128,148807,1,0,0:0:0:0:
236,128,149038,1,2,0:0:0:0:
224,208,149269,1,0,0:0:0:0:
224,208,149384,1,0,0:0:0:0:
224,208,149500,1,2,0:0:0:0:
224,208,149615,1,2,0:0:0:0:
212,220,149731,1,0,0:0:0:0:
332,192,149961,1,2,0:0:0:0:
320,212,150192,1,0,0:0:0:0:
368,156,150307,1,2,0:0:0:0:
360,168,150423,1,0,0:0:0:0:
360,168,150538,1,0,0:0:0:0:
320,212,150654,1,2,0:0:0:0:
120,144,150884,1,0,0:0:0:0:
276,112,151115,1,2,0:0:0:0:
276,112,151346,1,2,0:0:0:0:
188,152,151577,1,0,0:0:0:0:
188,152,151807,1,0,0:0:0:0:
396,80,152038,1,2,0:0:0:0:
412,116,152384,1,2,0:0:0:0:
344,160,152500,1,0,0:0:0:0:
396,80,152731,1,2,0:0:0:0:
352,204,152961,1,4,0:0:0:0:
288,220,152962,2,4,L|336:212,1,0.01
288,220,152962,2,4,L|336:212,1,0.01
288,220,152962,2,4,L|336:212,1,0.01
480,196,153077,1,2,0:0:0:0:
424,212,153307,1,2,0:0:0:0:
424,212,153538,1,2,0:0:0:0:
424,212,153769,1,2,0:0:0:0:
352,204,153884,1,4,0:0:0:0:
288,220,153885,2,4,L|336:212,1,0.01
288,220,153885,2,4,L|336:212,1,0.01
288,220,153885,2,4,L|336:212,1,0.01
424,212,153999,1,2,0:0:0:0:
328,132,154231,1,2,0:0:0:0:
396,176,154461,1,2,0:0:0:0:
384,136,154692,1,2,0:0:0:0:
352,204,154807,1,4,0:0:0:0:
288,220,154808,2,4,L|336:212,1,0.01
288,220,154808,2,4,L|336:212,1,0.01
288,220,154808,2,4,L|336:212,1,0.01
280,236,154923,1,2,0:0:0:0:
396,184,155154,1,2,0:0:0:0:
352,204,155268,1,4,0:0:0:0:
288,220,155269,2,4,L|336:212,1,0.01
288,220,155269,2,4,L|336:212,1,0.01
288,220,155269,2,4,L|336:212,1,0.01
280,236,155384,1,2,0:0:0:0:
384,168,155615,1,2,0:0:0:0:
352,204,155730,1,4,0:0:0:0:
288,220,155731,2,4,L|336:212,1,0.01
288,220,155731,2,4,L|336:212,1,0.01
288,220,155731,2,4,L|336:212,1,0.01
304,132,155846,1,2,0:0:0:0:
396,88,156077,1,2,0:0:0:0:
352,204,156192,1,4,0:0:0:0:
288,220,156193,2,4,L|336:212,1,0.01
288,220,156193,2,4,L|336:212,1,0.01
288,220,156193,2,4,L|336:212,1,0.01
352,204,156307,1,4,0:0:0:0:
288,220,156308,2,4,L|336:212,1,0.01
288,220,156308,2,4,L|336:212,1,0.01
288,220,156308,2,4,L|336:212,1,0.01
352,204,156422,1,4,0:0:0:0:
288,220,156423,2,4,L|336:212,1,0.01
288,220,156423,2,4,L|336:212,1,0.01
288,220,156423,2,4,L|336:212,1,0.01
352,204,156538,1,4,0:0:0:0:
288,220,156539,2,4,L|336:212,1,0.01
288,220,156539,2,4,L|336:212,1,0.01
288,220,156539,2,4,L|336:212,1,0.01
352,204,156653,1,4,0:0:0:0:
288,220,156654,2,4,L|336:212,1,0.01
288,220,156654,2,4,L|336:212,1,0.01
288,220,156654,2,4,L|336:212,1,0.01
304,132,156769,1,2,0:0:0:0:
304,132,156884,1,2,0:0:0:0:
304,132,157000,1,2,0:0:0:0:
352,204,157115,1,4,0:0:0:0:
288,220,157116,2,4,L|336:212,1,0.01
288,220,157116,2,4,L|336:212,1,0.01
288,220,157116,2,4,L|336:212,1,0.01
304,132,157231,1,2,0:0:0:0:
304,132,157461,1,2,0:0:0:0:
352,204,157576,1,4,0:0:0:0:
288,220,157577,2,4,L|336:212,1,0.01
288,220,157577,2,4,L|336:212,1,0.01
288,220,157577,2,4,L|336:212,1,0.01
304,132,157692,1,2,0:0:0:0:
304,132,157923,1,2,0:0:0:0:
352,204,158038,1,4,0:0:0:0:
288,220,158039,2,4,L|336:212,1,0.01
288,220,158039,2,4,L|336:212,1,0.01
288,220,158039,2,4,L|336:212,1,0.01
296,120,158154,1,2,0:0:0:0:
336,136,158269,1,2,0:0:0:0:
276,112,158384,1,2,0:0:0:0:
352,204,158499,1,4,0:0:0:0:
288,220,158500,2,4,L|336:212,1,0.01
288,220,158500,2,4,L|336:212,1,0.01
288,220,158500,2,4,L|336:212,1,0.01
352,204,158615,1,4,0:0:0:0:
288,220,158616,2,4,L|336:212,1,0.01
288,220,158616,2,4,L|336:212,1,0.01
288,220,158616,2,4,L|336:212,1,0.01
352,204,158730,1,4,0:0:0:0:
288,220,158731,2,4,L|336:212,1,0.01
288,220,158731,2,4,L|336:212,1,0.01
288,220,158731,2,4,L|336:212,1,0.01
352,204,158845,1,4,0:0:0:0:
288,220,158846,2,4,L|336:212,1,0.01
288,220,158846,2,4,L|336:212,1,0.01
288,220,158846,2,4,L|336:212,1,0.01
352,204,158961,1,4,0:0:0:0:
288,220,158962,2,4,L|336:212,1,0.01
288,220,158962,2,4,L|336:212,1,0.01
288,220,158962,2,4,L|336:212,1,0.01
352,204,159076,1,4,0:0:0:0:
288,220,159077,2,4,L|336:212,1,0.01
288,220,159077,2,4,L|336:212,1,0.01
288,220,159077,2,4,L|336:212,1,0.01
352,204,159192,1,4,0:0:0:0:
288,220,159193,2,4,L|336:212,1,0.01
288,220,159193,2,4,L|336:212,1,0.01
288,220,159193,2,4,L|336:212,1,0.01
352,204,159307,1,4,0:0:0:0:
288,220,159308,2,4,L|336:212,1,0.01
288,220,159308,2,4,L|336:212,1,0.01
288,220,159308,2,4,L|336:212,1,0.01
336,168,160115,1,2,0:0:0:0:
296,200,160346,1,0,0:0:0:0:
296,200,160404,1,0,0:0:0:0:
296,200,160461,1,0,0:0:0:0:
252,232,160519,2,0,L|312:236,1,0.1
296,192,160577,1,2,0:0:0:0:
252,232,160634,2,0,L|312:236,1,0.1
296,192,160692,1,0,0:0:0:0:
296,200,160750,1,0,0:0:0:0:
296,200,160807,1,0,0:0:0:0:
252,232,160865,2,0,L|312:236,1,0.1
328,188,160923,1,2,0:0:0:0:
252,232,160981,2,0,L|312:236,1,0.1
308,192,161038,1,0,0:0:0:0:
308,192,161096,1,0,0:0:0:0:
308,192,161154,1,2,0:0:0:0:
252,232,161211,2,0,L|312:236,1,0.1
308,192,161269,1,0,0:0:0:0:
308,192,161327,1,0,0:0:0:0:
396,104,161384,1,0,0:0:0:0:
252,232,161442,2,0,L|312:236,1,0.1
244,168,161500,1,2,0:0:0:0:
252,232,161557,2,0,L|312:236,1,0.1
240,176,161615,1,0,0:0:0:0:
240,176,161673,1,0,0:0:0:0:
396,104,161731,1,0,0:0:0:0:
252,232,161788,2,0,L|312:236,1,0.1
240,176,161846,1,2,0:0:0:0:
252,232,161904,2,0,L|312:236,1,0.1
232,188,161961,1,0,0:0:0:0:
360,96,162019,1,0,0:0:0:0:
232,188,162077,1,2,0:0:0:0:
252,232,162134,2,0,L|312:236,1,0.1
232,188,162192,1,0,0:0:0:0:
360,100,162250,1,0,0:0:0:0:
232,188,162307,1,0,0:0:0:0:
252,232,162365,2,0,L|312:236,1,0.1
232,188,162423,1,2,0:0:0:0:
252,232,162481,2,0,L|312:236,1,0.1
224,196,162538,1,0,0:0:0:0:
304,96,162596,1,0,0:0:0:0:
224,196,162654,1,0,0:0:0:0:
252,232,162711,2,0,L|312:236,1,0.1
224,196,162769,1,2,0:0:0:0:
252,232,162827,2,0,L|312:236,1,0.1
180,216,162884,1,0,0:0:0:0:
180,216,162942,1,0,0:0:0:0:
168,216,163000,1,2,0:0:0:0:
252,232,163057,2,0,L|312:236,1,0.1
368,128,163115,1,0,0:0:0:0:
252,232,163173,2,0,L|312:236,1,0.1
360,132,163231,1,2,0:0:0:0:
320,148,163288,1,0,0:0:0:0:
376,144,163346,1,0,0:0:0:0:
252,232,163404,2,0,L|312:236,1,0.1
364,144,163461,1,2,0:0:0:0:
252,232,163519,2,0,L|312:236,1,0.1
272,76,163577,1,0,0:0:0:0:
340,64,163634,1,0,0:0:0:0:
440,136,163692,1,0,0:0:0:0:
340,96,163750,1,0,0:0:0:0:
328,68,163807,1,2,0:0:0:0:
372,120,163865,1,2,0:0:0:0:
372,120,163923,1,2,0:0:0:0:
332,104,163981,1,2,0:0:0:0:
288,52,164038,1,0,0:0:0:0:
252,232,164096,2,0,L|312:236,1,0.1
384,184,164154,1,2,0:0:0:0:
380,176,164211,1,2,0:0:0:0:
408,128,164269,1,2,0:0:0:0:
252,232,164327,2,0,L|312:236,1,0.1
432,152,164384,1,0,0:0:0:0:
252,232,164442,2,0,L|312:236,1,0.1
372,120,164500,1,2,0:0:0:0:
372,120,164557,1,2,0:0:0:0:
372,120,164615,1,2,0:0:0:0:
252,232,164673,2,0,L|312:236,1,0.1
256,52,164731,1,0,0:0:0:0:
256,52,164788,1,0,0:0:0:0:
256,52,164846,1,0,0:0:0:0:
252,232,164904,2,0,L|312:236,1,0.1
328,64,164961,1,2,0:0:0:0:
252,232,165019,2,0,L|312:236,1,0.1
288,108,165077,1,0,0:0:0:0:
288,108,165134,1,0,0:0:0:0:
288,108,165192,1,2,0:0:0:0:
252,232,165250,2,0,L|312:236,1,0.1
320,92,165307,1,0,0:0:0:0:
252,232,165365,2,0,L|312:236,1,0.1
344,104,165423,1,2,0:0:0:0:
344,104,165481,1,2,0:0:0:0:
344,104,165538,1,0,0:0:0:0:
252,232,165596,2,0,L|312:236,1,0.1
348,136,165654,1,2,0:0:0:0:
348,136,165711,1,2,0:0:0:0:
348,112,165769,1,2,0:0:0:0:
252,232,165827,2,0,L|312:236,1,0.1
268,104,165884,1,0,0:0:0:0:
252,232,165942,2,0,L|312:236,1,0.1
268,112,166000,1,2,0:0:0:0:
268,112,166057,1,2,0:0:0:0:
268,112,166115,1,2,0:0:0:0:
252,232,166173,2,0,L|312:236,1,0.1
288,132,166231,1,0,0:0:0:0:
252,232,166288,2,0,L|312:236,1,0.1
288,132,166346,1,2,0:0:0:0:
380,80,166404,1,2,0:0:0:0:
248,144,166461,1,0,0:0:0:0:
252,232,166519,2,0,L|312:236,1,0.1
344,88,166577,1,2,0:0:0:0:
252,232,166634,2,0,L|312:236,1,0.1
296,176,166692,1,0,0:0:0:0:
328,176,166923,1,0,0:0:0:0:
320,136,166981,1,0,0:0:0:0:
372,108,167038,1,2,0:0:0:0:
232,168,167154,1,0,0:0:0:0:
220,168,167269,1,2,0:0:0:0:
256,88,167327,1,0,0:0:0:0:
256,88,167384,1,0,0:0:0:0:
244,72,167442,1,0,0:0:0:0:
192,88,167500,1,2,0:0:0:0:
352,72,167557,1,2,0:0:0:0:
364,116,167615,1,2,0:0:0:0:
364,116,167673,1,2,0:0:0:0:
284,68,167731,1,0,0:0:0:0:
280,72,167846,1,2,0:0:0:0:
300,68,167904,1,2,0:0:0:0:
252,80,167961,1,0,0:0:0:0:
352,204,168076,1,2,0:0:0:0:
288,220,168077,2,2,L|336:212,1,0.01
288,220,168077,2,2,L|336:212,1,0.01
288,220,168077,2,2,L|336:212,1,0.01
308,160,168134,1,2,0:0:0:0:
352,204,168192,1,0,0:0:0:0:
288,220,168193,2,0,L|336:212,1,0.01
288,220,168193,2,0,L|336:212,1,0.01
288,220,168193,2,0,L|336:212,1,0.01
320,68,168307,1,2,0:0:0:0:
352,204,168365,1,2,0:0:0:0:
288,220,168366,2,2,L|336:212,1,0.01
288,220,168366,2,2,L|336:212,1,0.01
288,220,168366,2,2,L|336:212,1,0.01
256,88,168423,1,0,0:0:0:0:
352,204,168538,1,2,0:0:0:0:
288,220,168539,2,2,L|336:212,1,0.01
288,220,168539,2,2,L|336:212,1,0.01
288,220,168539,2,2,L|336:212,1,0.01
344,176,168595,1,2,0:0:0:0:
344,124,168654,1,0,0:0:0:0:
296,64,168769,1,2,0:0:0:0:
212,128,168884,1,0,0:0:0:0:
212,128,168942,1,0,0:0:0:0:
212,128,169000,1,2,0:0:0:0:
316,116,169057,1,2,0:0:0:0:
208,120,169115,1,0,0:0:0:0:
236,64,169231,1,2,0:0:0:0:
236,64,169288,1,2,0:0:0:0:
172,84,169346,1,0,0:0:0:0:
200,120,169404,1,0,0:0:0:0:
308,56,169461,1,2,0:0:0:0:
360,144,169577,1,0,0:0:0:0:
360,144,169692,1,2,0:0:0:0:
336,176,169749,1,0,0:0:0:0:
312,216,169807,1,0,0:0:0:0:
352,204,169922,1,2,0:0:0:0:
288,220,169923,2,2,L|336:212,1,0.01
288,220,169923,2,2,L|336:212,1,0.01
288,220,169923,2,2,L|336:212,1,0.01
284,108,169981,1,0,0:0:0:0:
352,204,170038,1,0,0:0:0:0:
288,220,170039,2,0,L|336:212,1,0.01
288,220,170039,2,0,L|336:212,1,0.01
288,220,170039,2,0,L|336:212,1,0.01
348,100,170154,1,2,0:0:0:0:
272,208,170211,1,0,0:0:0:0:
352,204,170269,1,0,0:0:0:0:
288,220,170270,2,0,L|336:212,1,0.01
288,220,170270,2,0,L|336:212,1,0.01
288,220,170270,2,0,L|336:212,1,0.01
352,204,170384,1,2,0:0:0:0:
288,220,170385,2,2,L|336:212,1,0.01
288,220,170385,2,2,L|336:212,1,0.01
288,220,170385,2,2,L|336:212,1,0.01
352,204,170442,1,0,0:0:0:0:
288,220,170443,2,0,L|336:212,1,0.01
288,220,170443,2,0,L|336:212,1,0.01
288,220,170443,2,0,L|336:212,1,0.01
128,176,170500,1,0,0:0:0:0:
348,160,170615,1,2,0:0:0:0:
312,180,170731,1,0,0:0:0:0:
312,180,170788,1,0,0:0:0:0:
312,180,170846,1,2,0:0:0:0:
304,76,170904,1,2,0:0:0:0:
240,180,170961,1,0,0:0:0:0:
240,180,171077,1,2,0:0:0:0:
344,120,171134,1,2,0:0:0:0:
224,180,171192,1,0,0:0:0:0:
316,172,171250,1,0,0:0:0:0:
320,184,171307,1,2,0:0:0:0:
376,168,171365,1,2,0:0:0:0:
312,172,171423,1,0,0:0:0:0:
364,156,171538,1,2,0:0:0:0:
440,212,171595,1,2,0:0:0:0:
292,176,171654,1,0,0:0:0:0:
352,204,171769,1,2,0:0:0:0:
288,220,171770,2,2,L|336:212,1,0.01
288,220,171770,2,2,L|336:212,1,0.01
288,220,171770,2,2,L|336:212,1,0.01
352,152,171827,1,2,0:0:0:0:
316,172,171884,1,0,0:0:0:0:
292,116,172000,1,2,0:0:0:0:
352,204,172057,1,2,0:0:0:0:
288,220,172058,2,2,L|336:212,1,0.01
288,220,172058,2,2,L|336:212,1,0.01
288,220,172058,2,2,L|336:212,1,0.01
352,204,172115,1,0,0:0:0:0:
288,220,172116,2,0,L|336:212,1,0.01
288,220,172116,2,0,L|336:212,1,0.01
288,220,172116,2,0,L|336:212,1,0.01
352,204,172230,1,2,0:0:0:0:
288,220,172231,2,2,L|336:212,1,0.01
288,220,172231,2,2,L|336:212,1,0.01
288,220,172231,2,2,L|336:212,1,0.01
392,112,172288,1,2,0:0:0:0:
352,204,172345,1,0,0:0:0:0:
288,220,172346,2,0,L|336:212,1,0.01
288,220,172346,2,0,L|336:212,1,0.01
288,220,172346,2,0,L|336:212,1,0.01
292,76,172461,1,2,0:0:0:0:
236,100,172577,1,0,0:0:0:0:
236,100,172634,1,0,0:0:0:0:
236,100,172692,1,2,0:0:0:0:
352,48,172750,1,2,0:0:0:0:
236,100,172807,1,0,0:0:0:0:
248,60,172923,1,2,0:0:0:0:
248,60,172981,1,2,0:0:0:0:
196,88,173038,1,0,0:0:0:0:
440,132,173096,1,0,0:0:0:0:
196,88,173154,1,2,0:0:0:0:
296,108,173269,1,0,0:0:0:0:
296,108,173327,1,0,0:0:0:0:
436,112,173384,1,2,0:0:0:0:
384,104,173442,1,0,0:0:0:0:
436,112,173500,1,2,0:0:0:0:
436,112,173557,1,2,0:0:0:0:
380,144,173615,1,0,0:0:0:0:
380,144,173673,1,2,0:0:0:0:
300,180,173731,1,0,0:0:0:0:
300,180,173788,1,0,0:0:0:0:
300,180,173846,1,2,0:0:0:0:
240,224,173904,1,0,0:0:0:0:
240,224,173961,1,2,0:0:0:0:
240,224,174019,1,2,0:0:0:0:
240,224,174077,1,2,0:0:0:0:
240,224,174134,1,2,0:0:0:0:
392,280,174654,1,0,0:0:0:0:
352,204,174884,1,2,0:0:0:0:
352,204,175115,1,2,0:0:0:0:
288,220,175116,2,2,L|336:212,1,0.01
288,220,175116,2,2,L|336:212,1,0.01
288,220,175116,2,2,L|336:212,1,0.01
352,204,175231,1,0,0:0:0:0:
288,220,175232,2,0,L|336:212,1,0.01
288,220,175232,2,0,L|336:212,1,0.01
288,220,175232,2,0,L|336:212,1,0.01
352,204,175288,1,0,0:0:0:0:
288,220,175289,2,0,L|336:212,1,0.01
288,220,175289,2,0,L|336:212,1,0.01
288,220,175289,2,0,L|336:212,1,0.01
352,204,175346,1,0,0:0:0:0:
288,220,175347,2,0,L|336:212,1,0.01
288,220,175347,2,0,L|336:212,1,0.01
288,220,175347,2,0,L|336:212,1,0.01
352,204,175461,1,2,0:0:0:0:
288,220,175462,2,2,L|336:212,1,0.01
288,220,175462,2,2,L|336:212,1,0.01
288,220,175462,2,2,L|336:212,1,0.01
352,204,175577,1,0,0:0:0:0:
288,220,175578,2,0,L|336:212,1,0.01
288,220,175578,2,0,L|336:212,1,0.01
288,220,175578,2,0,L|336:212,1,0.01
352,204,175634,1,0,0:0:0:0:
288,220,175635,2,0,L|336:212,1,0.01
288,220,175635,2,0,L|336:212,1,0.01
288,220,175635,2,0,L|336:212,1,0.01
352,204,175692,1,2,0:0:0:0:
288,220,175693,2,2,L|336:212,1,0.01
288,220,175693,2,2,L|336:212,1,0.01
288,220,175693,2,2,L|336:212,1,0.01
352,204,175807,1,0,0:0:0:0:
288,220,175808,2,0,L|336:212,1,0.01
288,220,175808,2,0,L|336:212,1,0.01
288,220,175808,2,0,L|336:212,1,0.01
352,204,175923,1,2,0:0:0:0:
288,220,175924,2,2,L|336:212,1,0.01
288,220,175924,2,2,L|336:212,1,0.01
288,220,175924,2,2,L|336:212,1,0.01
352,204,176154,1,0,0:0:0:0:
288,220,176155,2,0,L|336:212,1,0.01
288,220,176155,2,0,L|336:212,1,0.01
288,220,176155,2,0,L|336:212,1,0.01
352,204,176211,1,0,0:0:0:0:
288,220,176212,2,0,L|336:212,1,0.01
288,220,176212,2,0,L|336:212,1,0.01
288,220,176212,2,0,L|336:212,1,0.01
352,204,176269,1,2,0:0:0:0:
288,220,176270,2,2,L|336:212,1,0.01
288,220,176270,2,2,L|336:212,1,0.01
288,220,176270,2,2,L|336:212,1,0.01
352,204,176384,1,2,0:0:0:0:
288,220,176385,2,2,L|336:212,1,0.01
288,220,176385,2,2,L|336:212,1,0.01
288,220,176385,2,2,L|336:212,1,0.01
352,204,176500,1,0,0:0:0:0:
288,220,176501,2,0,L|336:212,1,0.01
288,220,176501,2,0,L|336:212,1,0.01
288,220,176501,2,0,L|336:212,1,0.01
352,204,176615,1,2,0:0:0:0:
288,220,176616,2,2,L|336:212,1,0.01
288,220,176616,2,2,L|336:212,1,0.01
288,220,176616,2,2,L|336:212,1,0.01
352,204,176731,1,0,0:0:0:0:
288,220,176732,2,0,L|336:212,1,0.01
288,220,176732,2,0,L|336:212,1,0.01
288,220,176732,2,0,L|336:212,1,0.01
352,204,176788,1,0,0:0:0:0:
288,220,176789,2,0,L|336:212,1,0.01
288,220,176789,2,0,L|336:212,1,0.01
288,220,176789,2,0,L|336:212,1,0.01
352,204,176846,1,2,0:0:0:0:
288,220,176847,2,2,L|336:212,1,0.01
288,220,176847,2,2,L|336:212,1,0.01
288,220,176847,2,2,L|336:212,1,0.01
352,204,176904,1,2,0:0:0:0:
288,220,176905,2,2,L|336:212,1,0.01
288,220,176905,2,2,L|336:212,1,0.01
288,220,176905,2,2,L|336:212,1,0.01
352,204,176961,1,2,0:0:0:0:
288,220,176962,2,2,L|336:212,1,0.01
288,220,176962,2,2,L|336:212,1,0.01
288,220,176962,2,2,L|336:212,1,0.01
352,204,177077,1,0,0:0:0:0:
288,220,177078,2,0,L|336:212,1,0.01
288,220,177078,2,0,L|336:212,1,0.01
288,220,177078,2,0,L|336:212,1,0.01
352,204,177192,1,2,0:0:0:0:
288,220,177193,2,2,L|336:212,1,0.01
288,220,177193,2,2,L|336:212,1,0.01
288,220,177193,2,2,L|336:212,1,0.01
352,204,177250,1,2,0:0:0:0:
288,220,177251,2,2,L|336:212,1,0.01
288,220,177251,2,2,L|336:212,1,0.01
288,220,177251,2,2,L|336:212,1,0.01
352,204,177307,1,0,0:0:0:0:
288,220,177308,2,0,L|336:212,1,0.01
288,220,177308,2,0,L|336:212,1,0.01
288,220,177308,2,0,L|336:212,1,0.01
352,204,177423,1,2,0:0:0:0:
288,220,177424,2,2,L|336:212,1,0.01
288,220,177424,2,2,L|336:212,1,0.01
288,220,177424,2,2,L|336:212,1,0.01
352,204,177538,1,0,0:0:0:0:
288,220,177539,2,0,L|336:212,1,0.01
288,220,177539,2,0,L|336:212,1,0.01
288,220,177539,2,0,L|336:212,1,0.01
352,204,177596,1,0,0:0:0:0:
288,220,177597,2,0,L|336:212,1,0.01
288,220,177597,2,0,L|336:212,1,0.01
288,220,177597,2,0,L|336:212,1,0.01
352,204,177654,1,0,0:0:0:0:
288,220,177655,2,0,L|336:212,1,0.01
288,220,177655,2,0,L|336:212,1,0.01
288,220,177655,2,0,L|336:212,1,0.01
352,204,177769,1,2,0:0:0:0:
288,220,177770,2,2,L|336:212,1,0.01
288,220,177770,2,2,L|336:212,1,0.01
288,220,177770,2,2,L|336:212,1,0.01
352,204,177884,1,0,0:0:0:0:
288,220,177885,2,0,L|336:212,1,0.01
288,220,177885,2,0,L|336:212,1,0.01
288,220,177885,2,0,L|336:212,1,0.01
352,204,177942,1,0,0:0:0:0:
288,220,177943,2,0,L|336:212,1,0.01
288,220,177943,2,0,L|336:212,1,0.01
288,220,177943,2,0,L|336:212,1,0.01
352,204,178000,1,2,0:0:0:0:
288,220,178001,2,2,L|336:212,1,0.01
288,220,178001,2,2,L|336:212,1,0.01
288,220,178001,2,2,L|336:212,1,0.01
352,204,178057,1,2,0:0:0:0:
288,220,178058,2,2,L|336:212,1,0.01
288,220,178058,2,2,L|336:212,1,0.01
288,220,178058,2,2,L|336:212,1,0.01
352,204,178115,1,0,0:0:0:0:
288,220,178116,2,0,L|336:212,1,0.01
288,220,178116,2,0,L|336:212,1,0.01
288,220,178116,2,0,L|336:212,1,0.01
352,204,178231,1,2,0:0:0:0:
288,220,178232,2,2,L|336:212,1,0.01
288,220,178232,2,2,L|336:212,1,0.01
288,220,178232,2,2,L|336:212,1,0.01
352,204,178346,1,0,0:0:0:0:
288,220,178347,2,0,L|336:212,1,0.01
288,220,178347,2,0,L|336:212,1,0.01
288,220,178347,2,0,L|336:212,1,0.01
352,204,178461,1,0,0:0:0:0:
288,220,178462,2,0,L|336:212,1,0.01
288,220,178462,2,0,L|336:212,1,0.01
288,220,178462,2,0,L|336:212,1,0.01
352,204,178577,1,6,0:0:0:0:
288,220,178578,2,6,L|336:212,1,0.01
288,220,178578,2,6,L|336:212,1,0.01
288,220,178578,2,6,L|336:212,1,0.01
352,204,178807,1,2,0:0:0:0:
288,220,178808,2,2,L|336:212,1,0.01
288,220,178808,2,2,L|336:212,1,0.01
288,220,178808,2,2,L|336:212,1,0.01
352,204,178865,1,2,0:0:0:0:
288,220,178866,2,2,L|336:212,1,0.01
288,220,178866,2,2,L|336:212,1,0.01
288,220,178866,2,2,L|336:212,1,0.01
352,204,178923,1,2,0:0:0:0:
288,220,178924,2,2,L|336:212,1,0.01
288,220,178924,2,2,L|336:212,1,0.01
288,220,178924,2,2,L|336:212,1,0.01
352,204,178981,1,2,0:0:0:0:
288,220,178982,2,2,L|336:212,1,0.01
288,220,178982,2,2,L|336:212,1,0.01
288,220,178982,2,2,L|336:212,1,0.01
352,204,179038,1,0,0:0:0:0:
288,220,179039,2,0,L|336:212,1,0.01
288,220,179039,2,0,L|336:212,1,0.01
288,220,179039,2,0,L|336:212,1,0.01
352,204,179154,1,2,0:0:0:0:
288,220,179155,2,2,L|336:212,1,0.01
288,220,179155,2,2,L|336:212,1,0.01
288,220,179155,2,2,L|336:212,1,0.01
352,204,179269,1,0,0:0:0:0:
288,220,179270,2,0,L|336:212,1,0.01
288,220,179270,2,0,L|336:212,1,0.01
288,220,179270,2,0,L|336:212,1,0.01
352,204,179327,1,0,0:0:0:0:
288,220,179328,2,0,L|336:212,1,0.01
288,220,179328,2,0,L|336:212,1,0.01
288,220,179328,2,0,L|336:212,1,0.01
352,204,179384,1,0,0:0:0:0:
288,220,179385,2,0,L|336:212,1,0.01
288,220,179385,2,0,L|336:212,1,0.01
288,220,179385,2,0,L|336:212,1,0.01
352,204,179500,1,2,0:0:0:0:
288,220,179501,2,2,L|336:212,1,0.01
288,220,179501,2,2,L|336:212,1,0.01
288,220,179501,2,2,L|336:212,1,0.01
352,204,179731,1,0,0:0:0:0:
288,220,179732,2,0,L|336:212,1,0.01
288,220,179732,2,0,L|336:212,1,0.01
288,220,179732,2,0,L|336:212,1,0.01
352,204,179788,1,0,0:0:0:0:
288,220,179789,2,0,L|336:212,1,0.01
288,220,179789,2,0,L|336:212,1,0.01
288,220,179789,2,0,L|336:212,1,0.01
352,204,179846,1,2,0:0:0:0:
288,220,179847,2,2,L|336:212,1,0.01
288,220,179847,2,2,L|336:212,1,0.01
288,220,179847,2,2,L|336:212,1,0.01
352,204,179904,1,2,0:0:0:0:
288,220,179905,2,2,L|336:212,1,0.01
288,220,179905,2,2,L|336:212,1,0.01
288,220,179905,2,2,L|336:212,1,0.01
352,204,179961,1,2,0:0:0:0:
288,220,179962,2,2,L|336:212,1,0.01
288,220,179962,2,2,L|336:212,1,0.01
288,220,179962,2,2,L|336:212,1,0.01
352,204,180077,1,0,0:0:0:0:
288,220,180078,2,0,L|336:212,1,0.01
288,220,180078,2,0,L|336:212,1,0.01
288,220,180078,2,0,L|336:212,1,0.01
352,204,180192,1,2,0:0:0:0:
288,220,180193,2,2,L|336:212,1,0.01
288,220,180193,2,2,L|336:212,1,0.01
288,220,180193,2,2,L|336:212,1,0.01
352,204,180250,1,2,0:0:0:0:
288,220,180251,2,2,L|336:212,1,0.01
288,220,180251,2,2,L|336:212,1,0.01
288,220,180251,2,2,L|336:212,1,0.01
352,204,180307,1,0,0:0:0:0:
288,220,180308,2,0,L|336:212,1,0.01
288,220,180308,2,0,L|336:212,1,0.01
288,220,180308,2,0,L|336:212,1,0.01
352,204,180423,1,2,0:0:0:0:
288,220,180424,2,2,L|336:212,1,0.01
288,220,180424,2,2,L|336:212,1,0.01
288,220,180424,2,2,L|336:212,1,0.01
352,204,180654,1,0,0:0:0:0:
288,220,180655,2,0,L|336:212,1,0.01
288,220,180655,2,0,L|336:212,1,0.01
288,220,180655,2,0,L|336:212,1,0.01
352,204,180711,1,0,0:0:0:0:
288,220,180712,2,0,L|336:212,1,0.01
288,220,180712,2,0,L|336:212,1,0.01
288,220,180712,2,0,L|336:212,1,0.01
352,204,180769,1,0,0:0:0:0:
288,220,180770,2,0,L|336:212,1,0.01
288,220,180770,2,0,L|336:212,1,0.01
288,220,180770,2,0,L|336:212,1,0.01
352,204,180827,1,0,0:0:0:0:
288,220,180828,2,0,L|336:212,1,0.01
288,220,180828,2,0,L|336:212,1,0.01
288,220,180828,2,0,L|336:212,1,0.01
352,204,180884,1,2,0:0:0:0:
288,220,180885,2,2,L|336:212,1,0.01
288,220,180885,2,2,L|336:212,1,0.01
288,220,180885,2,2,L|336:212,1,0.01
352,204,181000,1,2,0:0:0:0:
288,220,181001,2,2,L|336:212,1,0.01
288,220,181001,2,2,L|336:212,1,0.01
288,220,181001,2,2,L|336:212,1,0.01
352,204,181115,1,0,0:0:0:0:
288,220,181116,2,0,L|336:212,1,0.01
288,220,181116,2,0,L|336:212,1,0.01
288,220,181116,2,0,L|336:212,1,0.01
352,204,181173,1,0,0:0:0:0:
288,220,181174,2,0,L|336:212,1,0.01
288,220,181174,2,0,L|336:212,1,0.01
288,220,181174,2,0,L|336:212,1,0.01
352,204,181231,1,2,0:0:0:0:
288,220,181232,2,2,L|336:212,1,0.01
288,220,181232,2,2,L|336:212,1,0.01
288,220,181232,2,2,L|336:212,1,0.01
352,204,181288,1,2,0:0:0:0:
288,220,181289,2,2,L|336:212,1,0.01
288,220,181289,2,2,L|336:212,1,0.01
288,220,181289,2,2,L|336:212,1,0.01
352,204,181346,1,2,0:0:0:0:
288,220,181347,2,2,L|336:212,1,0.01
288,220,181347,2,2,L|336:212,1,0.01
288,220,181347,2,2,L|336:212,1,0.01
352,204,181461,1,2,0:0:0:0:
288,220,181462,2,2,L|336:212,1,0.01
288,220,181462,2,2,L|336:212,1,0.01
288,220,181462,2,2,L|336:212,1,0.01
352,204,181692,1,0,0:0:0:0:
288,220,181693,2,0,L|336:212,1,0.01
288,220,181693,2,0,L|336:212,1,0.01
288,220,181693,2,0,L|336:212,1,0.01
352,204,181807,1,0,0:0:0:0:
288,220,181808,2,0,L|336:212,1,0.01
288,220,181808,2,0,L|336:212,1,0.01
288,220,181808,2,0,L|336:212,1,0.01
352,204,181865,1,2,0:0:0:0:
288,220,181866,2,2,L|336:212,1,0.01
288,220,181866,2,2,L|336:212,1,0.01
288,220,181866,2,2,L|336:212,1,0.01
352,204,181923,1,2,0:0:0:0:
288,220,181924,2,2,L|336:212,1,0.01
288,220,181924,2,2,L|336:212,1,0.01
288,220,181924,2,2,L|336:212,1,0.01
352,204,182038,1,0,0:0:0:0:
288,220,182039,2,0,L|336:212,1,0.01
288,220,182039,2,0,L|336:212,1,0.01
288,220,182039,2,0,L|336:212,1,0.01
352,204,182154,1,2,0:0:0:0:
288,220,182155,2,2,L|336:212,1,0.01
288,220,182155,2,2,L|336:212,1,0.01
288,220,182155,2,2,L|336:212,1,0.01
352,204,182211,1,2,0:0:0:0:
288,220,182212,2,2,L|336:212,1,0.01
288,220,182212,2,2,L|336:212,1,0.01
288,220,182212,2,2,L|336:212,1,0.01
352,204,182269,1,2,0:0:0:0:
288,220,182270,2,2,L|336:212,1,0.01
288,220,182270,2,2,L|336:212,1,0.01
288,220,182270,2,2,L|336:212,1,0.01
352,204,182384,1,2,0:0:0:0:
288,220,182385,2,2,L|336:212,1,0.01
288,220,182385,2,2,L|336:212,1,0.01
288,220,182385,2,2,L|336:212,1,0.01
352,204,182500,1,4,0:0:0:0:
288,220,182501,2,4,L|336:212,1,0.01
288,220,182501,2,4,L|336:212,1,0.01
288,220,182501,2,4,L|336:212,1,0.01
352,204,182615,1,2,0:0:0:0:
288,220,182616,2,2,L|336:212,1,0.01
288,220,182616,2,2,L|336:212,1,0.01
288,220,182616,2,2,L|336:212,1,0.01
352,204,182673,1,2,0:0:0:0:
288,220,182674,2,2,L|336:212,1,0.01
288,220,182674,2,2,L|336:212,1,0.01
288,220,182674,2,2,L|336:212,1,0.01
352,204,182731,1,2,0:0:0:0:
288,220,182732,2,2,L|336:212,1,0.01
288,220,182732,2,2,L|336:212,1,0.01
288,220,182732,2,2,L|336:212,1,0.01
352,204,182846,1,0,0:0:0:0:
288,220,182847,2,0,L|336:212,1,0.01
288,220,182847,2,0,L|336:212,1,0.01
288,220,182847,2,0,L|336:212,1,0.01
352,204,182961,1,2,0:0:0:0:
288,220,182962,2,2,L|336:212,1,0.01
288,220,182962,2,2,L|336:212,1,0.01
288,220,182962,2,2,L|336:212,1,0.01
352,204,183019,1,2,0:0:0:0:
288,220,183020,2,2,L|336:212,1,0.01
288,220,183020,2,2,L|336:212,1,0.01
288,220,183020,2,2,L|336:212,1,0.01
352,204,183077,1,0,0:0:0:0:
288,220,183078,2,0,L|336:212,1,0.01
288,220,183078,2,0,L|336:212,1,0.01
288,220,183078,2,0,L|336:212,1,0.01
352,204,183192,1,0,0:0:0:0:
288,220,183193,2,0,L|336:212,1,0.01
288,220,183193,2,0,L|336:212,1,0.01
288,220,183193,2,0,L|336:212,1,0.01
352,204,183307,1,2,0:0:0:0:
288,220,183308,2,2,L|336:212,1,0.01
288,220,183308,2,2,L|336:212,1,0.01
288,220,183308,2,2,L|336:212,1,0.01
352,204,183538,1,0,0:0:0:0:
288,220,183539,2,0,L|336:212,1,0.01
288,220,183539,2,0,L|336:212,1,0.01
288,220,183539,2,0,L|336:212,1,0.01
352,204,183596,1,2,0:0:0:0:
288,220,183597,2,2,L|336:212,1,0.01
288,220,183597,2,2,L|336:212,1,0.01
288,220,183597,2,2,L|336:212,1,0.01
352,204,183654,1,2,0:0:0:0:
288,220,183655,2,2,L|336:212,1,0.01
288,220,183655,2,2,L|336:212,1,0.01
288,220,183655,2,2,L|336:212,1,0.01
352,204,183769,1,2,0:0:0:0:
288,220,183770,2,2,L|336:212,1,0.01
288,220,183770,2,2,L|336:212,1,0.01
288,220,183770,2,2,L|336:212,1,0.01
352,204,183884,1,0,0:0:0:0:
288,220,183885,2,0,L|336:212,1,0.01
288,220,183885,2,0,L|336:212,1,0.01
288,220,183885,2,0,L|336:212,1,0.01
352,204,184000,1,0,0:0:0:0:
288,220,184001,2,0,L|336:212,1,0.01
288,220,184001,2,0,L|336:212,1,0.01
288,220,184001,2,0,L|336:212,1,0.01
352,204,184115,1,2,0:0:0:0:
288,220,184116,2,2,L|336:212,1,0.01
288,220,184116,2,2,L|336:212,1,0.01
288,220,184116,2,2,L|336:212,1,0.01
352,204,184346,1,2,0:0:0:0:
288,220,184347,2,2,L|336:212,1,0.01
288,220,184347,2,2,L|336:212,1,0.01
288,220,184347,2,2,L|336:212,1,0.01
352,204,184404,1,0,0:0:0:0:
288,220,184405,2,0,L|336:212,1,0.01
288,220,184405,2,0,L|336:212,1,0.01
288,220,184405,2,0,L|336:212,1,0.01
352,204,184461,1,2,0:0:0:0:
288,220,184462,2,2,L|336:212,1,0.01
288,220,184462,2,2,L|336:212,1,0.01
288,220,184462,2,2,L|336:212,1,0.01
352,204,184577,1,0,0:0:0:0:
288,220,184578,2,0,L|336:212,1,0.01
288,220,184578,2,0,L|336:212,1,0.01
288,220,184578,2,0,L|336:212,1,0.01
352,204,184692,1,2,0:0:0:0:
288,220,184693,2,2,L|336:212,1,0.01
288,220,184693,2,2,L|336:212,1,0.01
288,220,184693,2,2,L|336:212,1,0.01
352,204,184750,1,2,0:0:0:0:
288,220,184751,2,2,L|336:212,1,0.01
288,220,184751,2,2,L|336:212,1,0.01
288,220,184751,2,2,L|336:212,1,0.01
352,204,184807,1,0,0:0:0:0:
288,220,184808,2,0,L|336:212,1,0.01
288,220,184808,2,0,L|336:212,1,0.01
288,220,184808,2,0,L|336:212,1,0.01
352,204,184923,1,2,0:0:0:0:
288,220,184924,2,2,L|336:212,1,0.01
288,220,184924,2,2,L|336:212,1,0.01
288,220,184924,2,2,L|336:212,1,0.01
352,204,185038,1,0,0:0:0:0:
288,220,185039,2,0,L|336:212,1,0.01
288,220,185039,2,0,L|336:212,1,0.01
288,220,185039,2,0,L|336:212,1,0.01
352,204,185154,1,6,0:0:0:0:
288,220,185155,2,6,L|336:212,1,0.01
288,220,185155,2,6,L|336:212,1,0.01
288,220,185155,2,6,L|336:212,1,0.01
352,204,185384,1,4,0:0:0:0:
288,220,185385,2,4,L|336:212,1,0.01
288,220,185385,2,4,L|336:212,1,0.01
288,220,185385,2,4,L|336:212,1,0.01
352,204,185615,1,4,0:0:0:0:
288,220,185616,2,4,L|336:212,1,0.01
288,220,185616,2,4,L|336:212,1,0.01
288,220,185616,2,4,L|336:212,1,0.01
352,204,185846,1,6,0:0:0:0:
288,220,185847,2,6,L|336:212,1,0.01
288,220,185847,2,6,L|336:212,1,0.01
288,220,185847,2,6,L|336:212,1,0.01
352,204,185961,1,0,0:0:0:0:
288,220,185962,2,0,L|336:212,1,0.01
288,220,185962,2,0,L|336:212,1,0.01
288,220,185962,2,0,L|336:212,1,0.01
352,204,186019,1,0,0:0:0:0:
288,220,186020,2,0,L|336:212,1,0.01
288,220,186020,2,0,L|336:212,1,0.01
288,220,186020,2,0,L|336:212,1,0.01
352,204,186077,1,2,0:0:0:0:
288,220,186078,2,2,L|336:212,1,0.01
288,220,186078,2,2,L|336:212,1,0.01
288,220,186078,2,2,L|336:212,1,0.01
352,204,186134,1,2,0:0:0:0:
288,220,186135,2,2,L|336:212,1,0.01
288,220,186135,2,2,L|336:212,1,0.01
288,220,186135,2,2,L|336:212,1,0.01
352,204,186192,1,0,0:0:0:0:
288,220,186193,2,0,L|336:212,1,0.01
288,220,186193,2,0,L|336:212,1,0.01
288,220,186193,2,0,L|336:212,1,0.01
352,204,186307,1,0,0:0:0:0:
288,220,186308,2,0,L|336:212,1,0.01
288,220,186308,2,0,L|336:212,1,0.01
288,220,186308,2,0,L|336:212,1,0.01
352,204,186423,1,2,0:0:0:0:
288,220,186424,2,2,L|336:212,1,0.01
288,220,186424,2,2,L|336:212,1,0.01
288,220,186424,2,2,L|336:212,1,0.01
352,204,186538,1,0,0:0:0:0:
288,220,186539,2,0,L|336:212,1,0.01
288,220,186539,2,0,L|336:212,1,0.01
288,220,186539,2,0,L|336:212,1,0.01
352,204,186596,1,0,0:0:0:0:
288,220,186597,2,0,L|336:212,1,0.01
288,220,186597,2,0,L|336:212,1,0.01
288,220,186597,2,0,L|336:212,1,0.01
352,204,186654,1,2,0:0:0:0:
288,220,186655,2,2,L|336:212,1,0.01
288,220,186655,2,2,L|336:212,1,0.01
288,220,186655,2,2,L|336:212,1,0.01
352,204,186769,1,2,0:0:0:0:
288,220,186770,2,2,L|336:212,1,0.01
288,220,186770,2,2,L|336:212,1,0.01
288,220,186770,2,2,L|336:212,1,0.01
352,204,186884,1,0,0:0:0:0:
288,220,186885,2,0,L|336:212,1,0.01
288,220,186885,2,0,L|336:212,1,0.01
288,220,186885,2,0,L|336:212,1,0.01
352,204,187000,1,0,0:0:0:0:
288,220,187001,2,0,L|288:219,1,0.01
288,220,187001,2,0,L|288:219,1,0.01
288,220,187001,2,0,L|288:219,1,0.01
352,204,187057,1,0,0:0:0:0:
288,220,187058,2,0,L|288:219,1,0.01
288,220,187058,2,0,L|288:219,1,0.01
288,220,187058,2,0,L|288:219,1,0.01
352,204,187115,1,2,0:0:0:0:
288,220,187116,2,2,L|288:219,1,0.01
288,220,187116,2,2,L|288:219,1,0.01
288,220,187116,2,2,L|288:219,1,0.01
352,204,187173,1,2,0:0:0:0:
288,220,187174,2,2,L|288:219,1,0.01
288,220,187174,2,2,L|288:219,1,0.01
288,220,187174,2,2,L|288:219,1,0.01
352,204,187231,1,0,0:0:0:0:
288,220,187232,2,0,L|336:212,1,0.01
288,220,187232,2,0,L|336:212,1,0.01
288,220,187232,2,0,L|336:212,1,0.01
352,204,187346,1,2,0:0:0:0:
288,220,187347,2,2,L|288:219,1,0.01
288,220,187347,2,2,L|288:219,1,0.01
288,220,187347,2,2,L|288:219,1,0.01
352,204,187461,1,0,0:0:0:0:
288,220,187462,2,0,L|336:212,1,0.01
288,220,187462,2,0,L|336:212,1,0.01
288,220,187462,2,0,L|336:212,1,0.01
352,204,187519,1,0,0:0:0:0:
288,220,187520,2,0,L|336:212,1,0.01
288,220,187520,2,0,L|336:212,1,0.01
288,220,187520,2,0,L|336:212,1,0.01
352,204,187577,1,0,0:0:0:0:
288,220,187578,2,0,L|336:212,1,0.01
288,220,187578,2,0,L|336:212,1,0.01
288,220,187578,2,0,L|336:212,1,0.01
352,204,187692,1,2,0:0:0:0:
288,220,187693,2,2,L|336:212,1,0.01
288,220,187693,2,2,L|336:212,1,0.01
288,220,187693,2,2,L|336:212,1,0.01
352,204,187807,1,2,0:0:0:0:
288,220,187808,2,2,L|336:212,1,0.01
288,220,187808,2,2,L|336:212,1,0.01
288,220,187808,2,2,L|336:212,1,0.01
352,204,187923,1,0,0:0:0:0:
288,220,187924,2,0,L|336:212,1,0.01
288,220,187924,2,0,L|336:212,1,0.01
288,220,187924,2,0,L|336:212,1,0.01
352,204,188038,1,0,0:0:0:0:
288,220,188039,2,0,L|336:212,1,0.01
288,220,188039,2,0,L|336:212,1,0.01
288,220,188039,2,0,L|336:212,1,0.01
352,204,188096,1,0,0:0:0:0:
288,220,188097,2,0,L|336:212,1,0.01
288,220,188097,2,0,L|336:212,1,0.01
288,220,188097,2,0,L|336:212,1,0.01
352,204,188154,1,2,0:0:0:0:
288,220,188155,2,2,L|336:212,1,0.01
288,220,188155,2,2,L|336:212,1,0.01
288,220,188155,2,2,L|336:212,1,0.01
352,204,188211,1,2,0:0:0:0:
288,220,188212,2,2,L|336:212,1,0.01
288,220,188212,2,2,L|336:212,1,0.01
288,220,188212,2,2,L|336:212,1,0.01
352,204,188269,1,0,0:0:0:0:
288,220,188270,2,0,L|336:212,1,0.01
288,220,188270,2,0,L|336:212,1,0.01
288,220,188270,2,0,L|336:212,1,0.01
352,204,188327,1,0,0:0:0:0:
288,220,188328,2,0,L|336:212,1,0.01
288,220,188328,2,0,L|336:212,1,0.01
288,220,188328,2,0,L|336:212,1,0.01
352,204,188384,1,0,0:0:0:0:
288,220,188385,2,0,L|336:212,1,0.01
288,220,188385,2,0,L|336:212,1,0.01
288,220,188385,2,0,L|336:212,1,0.01
352,204,188442,1,0,0:0:0:0:
288,220,188443,2,0,L|336:212,1,0.01
288,220,188443,2,0,L|336:212,1,0.01
288,220,188443,2,0,L|336:212,1,0.01
352,204,188500,1,2,0:0:0:0:
288,220,188501,2,2,L|336:212,1,0.01
288,220,188501,2,2,L|336:212,1,0.01
288,220,188501,2,2,L|336:212,1,0.01
352,204,188557,1,2,0:0:0:0:
288,220,188558,2,2,L|336:212,1,0.01
288,220,188558,2,2,L|336:212,1,0.01
288,220,188558,2,2,L|336:212,1,0.01
352,204,188615,1,0,0:0:0:0:
288,220,188616,2,0,L|336:212,1,0.01
288,220,188616,2,0,L|336:212,1,0.01
288,220,188616,2,0,L|336:212,1,0.01
352,204,188673,1,0,0:0:0:0:
288,220,188674,2,0,L|336:212,1,0.01
288,220,188674,2,0,L|336:212,1,0.01
288,220,188674,2,0,L|336:212,1,0.01
352,204,188731,1,2,0:0:0:0:
288,220,188732,2,2,L|336:212,1,0.01
288,220,188732,2,2,L|336:212,1,0.01
288,220,188732,2,2,L|336:212,1,0.01
352,204,188788,1,2,0:0:0:0:
288,220,188789,2,2,L|336:212,1,0.01
288,220,188789,2,2,L|336:212,1,0.01
288,220,188789,2,2,L|336:212,1,0.01
352,204,188846,1,2,0:0:0:0:
288,220,188847,2,2,L|336:212,1,0.01
288,220,188847,2,2,L|336:212,1,0.01
288,220,188847,2,2,L|336:212,1,0.01
352,204,188904,1,2,0:0:0:0:
288,220,188905,2,2,L|336:212,1,0.01
288,220,188905,2,2,L|336:212,1,0.01
288,220,188905,2,2,L|336:212,1,0.01
352,204,188961,1,0,0:0:0:0:
288,220,188962,2,0,L|336:212,1,0.01
288,220,188962,2,0,L|336:212,1,0.01
288,220,188962,2,0,L|336:212,1,0.01
352,204,189077,1,4,0:0:0:0:
288,220,189078,2,4,L|336:212,1,0.01
288,220,189078,2,4,L|336:212,1,0.01
288,220,189078,2,4,L|336:212,1,0.01
352,204,189307,5,6,0:0:0:0:
288,220,189308,2,6,L|336:212,1,0.01
288,220,189308,2,6,L|336:212,1,0.01
288,220,189308,2,6,L|336:212,1,0.01
352,204,189538,1,6,0:0:0:0:
288,220,189539,2,6,L|336:212,1,0.01
288,220,189539,2,6,L|336:212,1,0.01
288,220,189539,2,6,L|336:212,1,0.01
352,204,189769,1,6,0:0:0:0:
288,220,189770,2,6,L|336:212,1,0.01
288,220,189770,2,6,L|336:212,1,0.01
288,220,189770,2,6,L|336:212,1,0.01
268,232,190230,1,4,0:0:0:0:
268,232,190345,5,4,0:0:0:0:
440,204,193345,5,6,0:0:0:0:
344,280,193576,1,0,0:0:0:0:
344,280,193691,1,0,0:0:0:0:
344,280,193749,1,0,0:0:0:0:
344,280,193807,1,2,0:0:0:0:
344,280,193922,1,2,0:0:0:0:
360,216,193980,1,2,0:0:0:0:
264,304,194037,1,0,0:0:0:0:
264,304,194153,1,0,0:0:0:0:
184,196,194268,1,2,0:0:0:0:
388,136,194499,1,2,0:0:0:0:
388,136,194557,1,2,0:0:0:0:
388,136,194614,1,0,0:0:0:0:
292,200,194730,1,2,0:0:0:0:
264,208,194845,1,0,0:0:0:0:
264,208,194903,1,0,0:0:0:0:
264,208,194960,1,2,0:0:0:0:
408,120,195076,1,2,0:0:0:0:
384,160,195191,1,0,0:0:0:0:
288,140,195422,1,2,0:0:0:0:
288,140,195480,1,2,0:0:0:0:
288,140,195537,1,2,0:0:0:0:
240,192,195653,1,0,0:0:0:0:
296,100,195768,1,2,0:0:0:0:
284,92,195826,1,2,0:0:0:0:
172,116,195884,1,0,0:0:0:0:
176,136,195999,1,0,0:0:0:0:
344,80,196114,1,2,0:0:0:0:
312,204,196345,1,0,0:0:0:0:
312,204,196460,1,0,0:0:0:0:
328,160,196576,1,2,0:0:0:0:
312,204,196691,1,0,0:0:0:0:
312,204,196807,1,2,0:0:0:0:
352,204,197037,1,2,0:0:0:0:
288,220,197038,2,2,L|336:212,1,0.01
288,220,197038,2,2,L|336:212,1,0.01
288,220,197038,2,2,L|336:212,1,0.01
288,220,197038,2,2,L|336:212,1,0.01
288,220,197038,2,2,L|336:212,1,0.01
288,220,197038,2,2,L|336:212,1,0.01
288,220,197038,2,2,L|336:212,1,0.01
288,220,197038,2,2,L|336:212,1,0.01
288,220,197038,2,2,L|336:212,1,0.01
288,220,197038,2,2,L|336:212,1,0.01
288,220,197038,2,2,L|336:212,1,0.01
288,220,197038,2,2,L|336:212,1,0.01
288,220,197038,2,2,L|336:212,1,0.01
288,220,197038,2,2,L|336:212,1,0.01
288,220,197038,2,2,L|336:212,1,0.01
288,220,197038,2,2,L|336:212,1,0.01
288,220,197038,2,2,L|336:212,1,0.01
288,220,197038,2,2,L|336:212,1,0.01
288,220,197038,2,2,L|336:212,1,0.01
288,220,197038,2,2,L|336:212,1,0.01
288,220,197038,2,2,L|336:212,1,0.01
288,220,197038,2,2,L|336:212,1,0.01
288,220,197038,2,2,L|336:212,1,0.01
288,220,197038,2,2,L|336:212,1,0.01
288,220,197038,2,2,L|336:212,1,0.01
288,220,197038,2,2,L|336:212,1,0.01
288,220,197038,2,2,L|336:212,1,0.01
288,220,197038,2,2,L|336:212,1,0.01
288,220,197038,2,2,L|336:212,1,0.01
288,220,197038,2,2,L|336:212,1,0.01
288,220,197038,2,2,L|336:212,1,0.01
288,220,197038,2,2,L|336:212,1,0.01
288,220,197038,2,2,L|336:212,1,0.01
288,220,197038,2,2,L|336:212,1,0.01
288,220,197038,2,2,L|336:212,1,0.01
288,220,197038,2,2,L|336:212,1,0.01
288,220,197038,2,2,L|336:212,1,0.01
288,220,197038,2,2,L|336:212,1,0.01
288,220,197038,2,2,L|336:212,1,0.01
288,220,197038,2,2,L|336:212,1,0.01
288,220,197038,2,2,L|336:212,1,0.01
288,220,197038,2,2,L|336:212,1,0.01
288,220,197038,2,2,L|336:212,1,0.01
288,220,197038,2,2,L|336:212,1,0.01
288,220,197038,2,2,L|336:212,1,0.01
288,220,197038,2,2,L|336:212,1,0.01
288,220,197038,2,2,L|336:212,1,0.01
288,220,197038,2,2,L|336:212,1,0.01
288,220,197038,2,2,L|336:212,1,0.01
288,220,197038,2,2,L|336:212,1,0.01
288,220,197038,2,2,L|336:212,1,0.01
288,220,197038,2,2,L|336:212,1,0.01
288,220,197038,2,2,L|336:212,1,0.01
288,220,197038,2,2,L|336:212,1,0.01
288,220,197038,2,2,L|336:212,1,0.01
288,220,197038,2,2,L|336:212,1,0.01
288,220,197038,2,2,L|336:212,1,0.01
288,220,197038,2,2,L|336:212,1,0.01
288,220,197038,2,2,L|336:212,1,0.01
288,220,197038,2,2,L|336:212,1,0.01
288,220,197038,2,2,L|336:212,1,0.01
288,220,197038,2,2,L|336:212,1,0.01
288,220,197038,2,2,L|336:212,1,0.01
288,220,197038,2,2,L|336:212,1,0.01
288,220,197038,2,2,L|336:212,1,0.01
288,220,197038,2,2,L|336:212,1,0.01
288,220,197038,2,2,L|336:212,1,0.01
288,220,197038,2,2,L|336:212,1,0.01
288,220,197038,2,2,L|336:212,1,0.01
288,220,197038,2,2,L|336:212,1,0.01
288,220,197038,2,2,L|336:212,1,0.01
288,220,197038,2,2,L|336:212,1,0.01
288,220,197038,2,2,L|336:212,1,0.01
288,220,197038,2,2,L|336:212,1,0.01
288,220,197038,2,2,L|336:212,1,0.01
288,220,197038,2,2,L|336:212,1,0.01
288,220,197038,2,2,L|336:212,1,0.01
288,220,197038,2,2,L|336:212,1,0.01
288,220,197038,2,2,L|336:212,1,0.01
288,220,197038,2,2,L|336:212,1,0.01
288,220,197038,2,2,L|336:212,1,0.01
288,220,197038,2,2,L|336:212,1,0.01
288,220,197038,2,2,L|336:212,1,0.01
288,220,197038,2,2,L|336:212,1,0.01
288,220,197038,2,2,L|336:212,1,0.01
288,220,197038,2,2,L|336:212,1,0.01
288,220,197038,2,2,L|336:212,1,0.01
288,220,197038,2,2,L|336:212,1,0.01
288,220,197038,2,2,L|336:212,1,0.01
288,220,197038,2,2,L|336:212,1,0.01
288,220,197038,2,2,L|336:212,1,0.01
288,220,197038,2,2,L|336:212,1,0.01
288,220,197038,2,2,L|336:212,1,0.01
288,220,197038,2,2,L|336:212,1,0.01
288,220,197038,2,2,L|336:212,1,0.01
288,220,197038,2,2,L|336:212,1,0.01
288,220,197038,2,2,L|336:212,1,0.01
288,220,197038,2,2,L|336:212,1,0.01
288,220,197038,2,2,L|336:212,1,0.01
288,220,197038,2,2,L|336:212,1,0.01
288,220,197038,2,2,L|336:212,1,0.01
288,220,197038,2,2,L|336:212,1,0.01
288,220,197038,2,2,L|336:212,1,0.01
288,220,197038,2,2,L|336:212,1,0.01
288,220,197038,2,2,L|336:212,1,0.01
288,220,197038,2,2,L|336:212,1,0.01
288,220,197038,2,2,L|336:212,1,0.01
288,220,197038,2,2,L|336:212,1,0.01
288,220,197038,2,2,L|336:212,1,0.01
288,220,197038,2,2,L|336:212,1,0.01
288,220,197038,2,2,L|336:212,1,0.01
288,220,197038,2,2,L|336:212,1,0.01
288,220,197038,2,2,L|336:212,1,0.01
288,220,197038,2,2,L|336:212,1,0.01
288,220,197038,2,2,L|336:212,1,0.01
288,220,197038,2,2,L|336:212,1,0.01
288,220,197038,2,2,L|336:212,1,0.01
288,220,197038,2,2,L|336:212,1,0.01
288,220,197038,2,2,L|336:212,1,0.01
288,220,197038,2,2,L|336:212,1,0.01
288,220,197038,2,2,L|336:212,1,0.01
288,220,197038,2,2,L|336:212,1,0.01
288,220,197038,2,2,L|336:212,1,0.01
288,220,197038,2,2,L|336:212,1,0.01
288,220,197038,2,2,L|336:212,1,0.01
288,220,197038,2,2,L|336:212,1,0.01
288,220,197038,2,2,L|336:212,1,0.01
288,220,197038,2,2,L|336:212,1,0.01
288,220,197038,2,2,L|336:212,1,0.01
288,220,197038,2,2,L|336:212,1,0.01
288,220,197038,2,2,L|336:212,1,0.01
288,220,197038,2,2,L|336:212,1,0.01
288,220,197038,2,2,L|336:212,1,0.01
288,220,197038,2,2,L|336:212,1,0.01
288,220,197038,2,2,L|336:212,1,0.01
288,220,197038,2,2,L|336:212,1,0.01
288,220,197038,2,2,L|336:212,1,0.01
288,220,197038,2,2,L|336:212,1,0.01
288,220,197038,2,2,L|336:212,1,0.01
288,220,197038,2,2,L|336:212,1,0.01
288,220,197038,2,2,L|336:212,1,0.01
288,220,197038,2,2,L|336:212,1,0.01
288,220,197038,2,2,L|336:212,1,0.01
288,220,197038,2,2,L|336:212,1,0.01
288,220,197038,2,2,L|336:212,1,0.01
288,220,197038,2,2,L|336:212,1,0.01
288,220,197038,2,2,L|336:212,1,0.01
288,220,197038,2,2,L|336:212,1,0.01
288,220,197038,2,2,L|336:212,1,0.01
288,220,197038,2,2,L|336:212,1,0.01
288,220,197038,2,2,L|336:212,1,0.01
288,220,197038,2,2,L|336:212,1,0.01
288,220,197038,2,2,L|336:212,1,0.01
288,220,197038,2,2,L|336:212,1,0.01
288,220,197038,2,2,L|336:212,1,0.01
288,220,197038,2,2,L|336:212,1,0.01
288,220,197038,2,2,L|336:212,1,0.01
288,220,197038,2,2,L|336:212,1,0.01
288,220,197038,2,2,L|336:212,1,0.01
288,220,197038,2,2,L|336:212,1,0.01
288,220,197038,2,2,L|336:212,1,0.01
288,220,197038,2,2,L|336:212,1,0.01
288,220,197038,2,2,L|336:212,1,0.01
288,220,197038,2,2,L|336:212,1,0.01
288,220,197038,2,2,L|336:212,1,0.01
288,220,197038,2,2,L|336:212,1,0.01
288,220,197038,2,2,L|336:212,1,0.01
288,220,197038,2,2,L|336:212,1,0.01
288,220,197038,2,2,L|336:212,1,0.01
288,220,197038,2,2,L|336:212,1,0.01
288,220,197038,2,2,L|336:212,1,0.01
288,220,197038,2,2,L|336:212,1,0.01
288,220,197038,2,2,L|336:212,1,0.01
288,220,197038,2,2,L|336:212,1,0.01
288,220,197038,2,2,L|336:212,1,0.01
288,220,197038,2,2,L|336:212,1,0.01
288,220,197038,2,2,L|336:212,1,0.01
288,220,197038,2,2,L|336:212,1,0.01
288,220,197038,2,2,L|336:212,1,0.01
288,220,197038,2,2,L|336:212,1,0.01
288,220,197038,2,2,L|336:212,1,0.01
288,220,197038,2,2,L|336:212,1,0.01
288,220,197038,2,2,L|336:212,1,0.01
288,220,197038,2,2,L|336:212,1,0.01
288,220,197038,2,2,L|336:212,1,0.01
288,220,197038,2,2,L|336:212,1,0.01
288,220,197038,2,2,L|336:212,1,0.01
288,220,197038,2,2,L|336:212,1,0.01
288,220,197038,2,2,L|336:212,1,0.01
288,220,197038,2,2,L|336:212,1,0.01
288,220,197038,2,2,L|336:212,1,0.01
288,220,197038,2,2,L|336:212,1,0.01
288,220,197038,2,2,L|336:212,1,0.01
288,220,197038,2,2,L|336:212,1,0.01
288,220,197038,2,2,L|336:212,1,0.01
288,220,197038,2,2,L|336:212,1,0.01
288,220,197038,2,2,L|336:212,1,0.01
288,220,197038,2,2,L|336:212,1,0.01
288,220,197038,2,2,L|336:212,1,0.01
288,220,197038,2,2,L|336:212,1,0.01
288,220,197038,2,2,L|336:212,1,0.01
288,220,197038,2,2,L|336:212,1,0.01
288,220,197038,2,2,L|336:212,1,0.01
288,220,197038,2,2,L|336:212,1,0.01
288,220,197038,2,2,L|336:212,1,0.01
288,220,197038,2,2,L|336:212,1,0.01
288,220,197038,2,2,L|336:212,1,0.01
288,220,197038,2,2,L|336:212,1,0.01
288,220,197038,2,2,L|336:212,1,0.01
288,220,197038,2,2,L|336:212,1,0.01
288,220,197038,2,2,L|336:212,1,0.01
288,220,197038,2,2,L|336:212,1,0.01
288,220,197038,2,2,L|336:212,1,0.01
288,220,197038,2,2,L|336:212,1,0.01
288,220,197038,2,2,L|336:212,1,0.01
288,220,197038,2,2,L|336:212,1,0.01
288,220,197038,2,2,L|336:212,1,0.01
288,220,197038,2,2,L|336:212,1,0.01
288,220,197038,2,2,L|336:212,1,0.01
288,220,197038,2,2,L|336:212,1,0.01
288,220,197038,2,2,L|336:212,1,0.01
288,220,197038,2,2,L|336:212,1,0.01
288,220,197038,2,2,L|336:212,1,0.01
288,220,197038,2,2,L|336:212,1,0.01
288,220,197038,2,2,L|336:212,1,0.01
288,220,197038,2,2,L|336:212,1,0.01
288,220,197038,2,2,L|336:212,1,0.01
288,220,197038,2,2,L|336:212,1,0.01
288,220,197038,2,2,L|336:212,1,0.01
288,220,197038,2,2,L|336:212,1,0.01
288,220,197038,2,2,L|336:212,1,0.01
288,220,197038,2,2,L|336:212,1,0.01
288,220,197038,2,2,L|336:212,1,0.01
288,220,197038,2,2,L|336:212,1,0.01
288,220,197038,2,2,L|336:212,1,0.01
288,220,197038,2,2,L|336:212,1,0.01
288,220,197038,2,2,L|336:212,1,0.01
288,220,197038,2,2,L|336:212,1,0.01
288,220,197038,2,2,L|336:212,1,0.01
288,220,197038,2,2,L|336:212,1,0.01
288,220,197038,2,2,L|336:212,1,0.01
288,220,197038,2,2,L|336:212,1,0.01
288,220,197038,2,2,L|336:212,1,0.01
288,220,197038,2,2,L|336:212,1,0.01
288,220,197038,2,2,L|336:212,1,0.01
288,220,197038,2,2,L|336:212,1,0.01
288,220,197038,2,2,L|336:212,1,0.01
288,220,197038,2,2,L|336:212,1,0.01
288,220,197038,2,2,L|336:212,1,0.01
288,220,197038,2,2,L|336:212,1,0.01
288,220,197038,2,2,L|336:212,1,0.01
288,220,197038,2,2,L|336:212,1,0.01
