osu file format v14

[General]
AudioFilename: audio.mp3
AudioLeadIn: 0
PreviewTime: 56379
Countdown: 0
SampleSet: Normal
StackLeniency: 0.7
Mode: 1
LetterboxInBreaks: 0
WidescreenStoryboard: 1

[Editor]
Bookmarks: 10466,27161,43857,73074,89770,98118,106466,114814,123161,131509
DistanceSpacing: 0.8
BeatDivisor: 2
GridSize: 32
TimelineZoom: 1.550001

[Metadata]
Title:Perfect Neglect
TitleUnicode:Perfect Neglect
Artist:Kobaryo
ArtistUnicode:Kobaryo
Creator:duski
Version:Yales' Kantan
Source:
Tags:HiTNEX TRAX SUPER REUNION スーパー リユニオン HNX-001 Speedcore Yales ARGENTINE DREAM _WWWWWW_WWWWWW_ Kqrth Vulkin
BeatmapID:1743862
BeatmapSetID:692347

[Difficulty]
HPDrainRate:7
CircleSize:2
OverallDifficulty:3
ApproachRate:5
SliderMultiplier:1.2
SliderTickRate:1

[Events]
//Background and Video events
0,0,"angry sword man.jpg",0,50
//Break Periods
//Storyboard Layer 0 (Background)
//Storyboard Layer 1 (Fail)
//Storyboard Layer 2 (Pass)
//Storyboard Layer 3 (Foreground)
//Storyboard Sound Samples

[TimingPoints]
1075,260.869565217391,4,1,0,90,1,0
56379,-100,4,1,0,90,0,1
73074,-100,4,1,0,90,0,0
89770,-100,4,1,0,90,0,1
96944,-100,4,1,0,90,0,0
114814,-100,4,1,0,70,0,0
122248,-100,4,1,0,90,0,0
123161,-100,4,1,0,90,0,1
131509,-100,4,1,0,90,0,0

[HitObjects]
256,192,1075,5,0,0:0:0:0:
256,192,1596,1,0,0:0:0:0:
256,192,2118,1,12,0:0:0:0:
256,192,3031,1,4,0:0:0:0:
256,192,4205,1,12,0:0:0:0:
256,192,5118,1,4,0:0:0:0:
256,192,5640,1,12,0:0:0:0:
256,192,6031,1,0,0:0:0:0:
256,192,6292,1,12,0:0:0:0:
256,192,7205,1,4,0:0:0:0:
256,192,8379,1,12,0:0:0:0:
256,192,9292,1,4,0:0:0:0:
256,192,9814,1,12,0:0:0:0:
224,192,10205,1,0,0:0:0:0:
224,192,10466,1,12,0:0:0:0:
256,192,10988,1,0,0:0:0:0:
256,192,11509,1,8,0:0:0:0:
256,192,12031,1,0,0:0:0:0:
256,192,12422,1,12,0:0:0:0:
256,192,13335,1,0,0:0:0:0:
256,192,13596,1,8,0:0:0:0:
256,192,14118,1,0,0:0:0:0:
256,192,14509,1,12,0:0:0:0:
256,192,15553,1,4,0:0:0:0:
256,192,16727,1,12,0:0:0:0:
256,192,17640,1,4,0:0:0:0:
256,192,18161,1,12,0:0:0:0:
256,192,18553,1,0,0:0:0:0:
224,192,18814,1,12,0:0:0:0:
256,192,19336,1,0,0:0:0:0:
256,192,19857,1,8,0:0:0:0:
256,192,20379,1,0,0:0:0:0:
256,192,20770,1,12,0:0:0:0:
256,192,21683,1,0,0:0:0:0:
256,192,21944,1,8,0:0:0:0:
256,192,22466,1,0,0:0:0:0:
256,192,22857,1,12,0:0:0:0:
256,192,23901,1,4,0:0:0:0:
256,192,25075,1,12,0:0:0:0:
256,192,25988,5,4,0:0:0:0:
256,192,26509,1,12,0:0:0:0:
256,192,26901,1,0,0:0:0:0:
256,192,27161,1,12,0:0:0:0:
256,192,28466,1,0,0:0:0:0:
256,192,28988,1,8,0:0:0:0:
256,192,30553,1,0,0:0:0:0:
256,192,31074,1,0,0:0:0:0:
256,192,31335,1,12,0:0:0:0:
256,192,31857,1,8,0:0:0:0:
256,192,32118,1,0,0:0:0:0:
256,192,32379,1,8,0:0:0:0:
256,192,32901,1,0,0:0:0:0:
256,192,33422,1,8,0:0:0:0:
256,192,33683,1,0,0:0:0:0:
256,192,33944,1,0,0:0:0:0:
256,192,34466,1,0,0:0:0:0:
256,192,34988,5,8,0:0:0:0:
256,192,35248,1,8,0:0:0:0:
256,192,35509,1,4,0:0:0:0:
256,192,36814,1,0,0:0:0:0:
256,192,37335,1,8,0:0:0:0:
256,192,38901,1,0,0:0:0:0:
256,192,39422,1,0,0:0:0:0:
256,192,39683,1,12,0:0:0:0:
256,192,40205,1,0,0:0:0:0:
256,192,40466,1,0,0:0:0:0:
256,192,40727,1,8,0:0:0:0:
256,192,41248,1,0,0:0:0:0:
256,192,41770,1,0,0:0:0:0:
256,192,42031,1,8,0:0:0:0:
256,192,42292,1,8,0:0:0:0:
256,192,42814,1,0,0:0:0:0:
256,192,43335,1,8,0:0:0:0:
256,192,43596,1,8,0:0:0:0:
256,192,43857,1,4,0:0:0:0:
256,192,44379,1,0,0:0:0:0:
256,192,44901,1,0,0:0:0:0:
256,192,45944,1,0,0:0:0:0:
256,192,46466,1,0,0:0:0:0:
256,192,46988,12,0,48031,0:0:0:0:
256,192,48553,5,0,0:0:0:0:
256,192,49074,1,0,0:0:0:0:
256,192,50118,1,0,0:0:0:0:
256,192,50640,1,0,0:0:0:0:
256,192,51161,12,0,54292,0:0:0:0:
256,192,54683,5,4,0:0:0:0:
256,192,55335,5,0,0:0:0:0:
256,192,55596,1,0,0:0:0:0:
256,192,55857,1,0,0:0:0:0:
256,192,56379,5,4,0:0:0:0:
256,192,56770,1,8,0:0:0:0:
256,192,57161,1,0,0:0:0:0:
256,192,57422,1,8,0:0:0:0:
256,192,57944,1,8,0:0:0:0:
256,192,58466,1,4,0:0:0:0:
256,192,59248,1,0,0:0:0:0:
256,192,59640,1,8,0:0:0:0:
256,192,60031,1,8,0:0:0:0:
256,192,60553,1,4,0:0:0:0:
256,192,60944,1,8,0:0:0:0:
256,192,61335,1,0,0:0:0:0:
256,192,61596,1,8,0:0:0:0:
256,192,62118,1,8,0:0:0:0:
256,192,62639,1,4,0:0:0:0:
256,192,63422,1,8,0:0:0:0:
256,192,64205,1,0,0:0:0:0:
256,192,64727,1,12,0:0:0:0:
256,192,65118,1,0,0:0:0:0:
256,192,65509,1,0,0:0:0:0:
256,192,65770,1,8,0:0:0:0:
256,192,66292,1,0,0:0:0:0:
256,192,66814,1,12,0:0:0:0:
256,192,67596,1,0,0:0:0:0:
256,192,68379,1,8,0:0:0:0:
256,192,68901,1,4,0:0:0:0:
256,192,69292,1,8,0:0:0:0:
256,192,69682,1,0,0:0:0:0:
256,192,69944,1,8,0:0:0:0:
256,192,70465,1,8,0:0:0:0:
256,192,70988,1,4,0:0:0:0:
256,192,71770,1,4,0:0:0:0:
256,192,72553,1,8,0:0:0:0:
256,192,72814,1,0,0:0:0:0:
256,192,73074,1,12,0:0:0:0:
256,192,73857,1,0,0:0:0:0:
256,192,74640,1,0,0:0:0:0:
256,192,74901,1,0,0:0:0:0:
256,192,75161,1,8,0:0:0:0:
256,192,75944,1,0,0:0:0:0:
256,192,76727,1,8,0:0:0:0:
256,192,76988,1,0,0:0:0:0:
256,192,77248,1,8,0:0:0:0:
256,192,78031,1,0,0:0:0:0:
256,192,78814,1,0,0:0:0:0:
256,192,79074,1,0,0:0:0:0:
256,192,79335,1,8,0:0:0:0:
256,192,80118,1,0,0:0:0:0:
256,192,80901,1,8,0:0:0:0:
256,192,81161,1,0,0:0:0:0:
256,192,81422,1,12,0:0:0:0:
256,192,81814,1,8,0:0:0:0:
256,192,82205,1,0,0:0:0:0:
256,192,82988,1,0,0:0:0:0:
256,192,83248,1,0,0:0:0:0:
256,192,83509,1,8,0:0:0:0:
256,192,83901,1,8,0:0:0:0:
256,192,84292,1,0,0:0:0:0:
256,192,85074,1,8,0:0:0:0:
256,192,85335,1,0,0:0:0:0:
256,192,85595,1,8,0:0:0:0:
256,192,85987,1,8,0:0:0:0:
256,192,86379,1,0,0:0:0:0:
256,192,87161,1,0,0:0:0:0:
256,192,87422,1,0,0:0:0:0:
256,192,87682,1,8,0:0:0:0:
256,192,88074,1,8,0:0:0:0:
256,192,88465,1,0,0:0:0:0:
256,192,89248,1,8,0:0:0:0:
256,192,89509,1,0,0:0:0:0:
256,192,89770,2,0,L|256:128,8,60,4|0|0|0|0|0|0|0|0,0:0|0:0|0:0|0:0|0:0|0:0|0:0|0:0|0:0,0:0:0:0:
256,192,91074,1,0,0:0:0:0:
256,192,91335,1,0,0:0:0:0:
256,192,91596,1,0,0:0:0:0:
256,192,91857,1,8,0:0:0:0:
256,192,92379,1,0,0:0:0:0:
256,192,92770,1,12,0:0:0:0:
256,192,93683,1,8,0:0:0:0:
256,192,93944,1,0,0:0:0:0:
256,192,94727,1,0,0:0:0:0:
256,192,95509,1,0,0:0:0:0:
256,192,95770,1,0,0:0:0:0:
256,192,96031,1,8,0:0:0:0:
256,192,96944,1,12,0:0:0:0:
256,192,98118,1,0,0:0:0:0:
256,192,98640,1,0,0:0:0:0:
256,192,99161,1,8,0:0:0:0:
256,192,100205,1,0,0:0:0:0:
256,192,100727,1,0,0:0:0:0:
256,192,101248,12,0,102292,0:0:0:0:
256,192,102814,5,0,0:0:0:0:
256,192,103335,5,0,0:0:0:0:
256,192,104379,1,8,0:0:0:0:
256,192,104901,1,8,0:0:0:0:
256,192,105422,12,8,106466,0:0:0:0:
256,192,107509,5,0,0:0:0:0:
256,192,108422,1,8,0:0:0:0:
256,192,109596,1,8,0:0:0:0:
256,192,109988,1,8,0:0:0:0:
256,192,110379,1,8,0:0:0:0:
256,192,110640,1,8,0:0:0:0:
256,192,111683,1,0,0:0:0:0:
256,192,112596,1,8,0:0:0:0:
256,192,113770,1,8,0:0:0:0:
256,192,114161,1,8,0:0:0:0:
256,192,114553,1,8,0:0:0:0:
256,192,114814,1,0,0:0:0:0:
256,192,115857,1,0,0:0:0:0:
256,192,116901,1,0,0:0:0:0:
256,192,117944,1,0,0:0:0:0:
256,192,118988,1,8,0:0:0:0:
256,192,120031,1,8,0:0:0:0:
256,192,121074,12,0,122118,0:0:0:0:
256,192,123161,5,12,0:0:0:0:
256,192,123552,1,0,0:0:0:0:
256,192,123943,1,0,0:0:0:0:
256,192,124204,1,8,0:0:0:0:
256,192,124726,1,0,0:0:0:0:
256,192,125248,1,8,0:0:0:0:
256,192,126030,1,0,0:0:0:0:
256,192,126813,1,8,0:0:0:0:
256,192,127335,1,4,0:0:0:0:
256,192,127726,1,8,0:0:0:0:
256,192,128118,1,0,0:0:0:0:
256,192,128378,1,8,0:0:0:0:
256,192,128901,5,8,0:0:0:0:
256,192,129422,1,4,0:0:0:0:
256,192,129814,5,4,0:0:0:0:
256,192,130205,1,4,0:0:0:0:
256,192,130466,12,0,131510,0:0:0:0:
256,192,132422,5,12,0:0:0:0:
256,192,133596,5,12,0:0:0:0:
256,192,134509,5,4,0:0:0:0:
256,192,135031,1,12,0:0:0:0:
256,192,135422,1,0,0:0:0:0:
256,192,135683,1,12,0:0:0:0:
256,192,136596,1,4,0:0:0:0:
256,192,137770,1,12,0:0:0:0:
256,192,138683,1,4,0:0:0:0:
256,192,139205,1,12,0:0:0:0:
256,192,139596,5,0,0:0:0:0:
256,192,139857,5,12,0:0:0:0:
