osu file format v14

[General]
AudioFilename: audio.mp3
AudioLeadIn: 0
PreviewTime: 56379
Countdown: 0
SampleSet: Normal
StackLeniency: 1
Mode: 1
LetterboxInBreaks: 0
WidescreenStoryboard: 1

[Editor]
Bookmarks: 10466,27161,43857,56379,73074,89770,98118,106466,114814,123161,131509
DistanceSpacing: 0.8
BeatDivisor: 2
GridSize: 32
TimelineZoom: 1.450001

[Metadata]
Title:Perfect Neglect
TitleUnicode:Perfect Neglect
Artist:Kobaryo
ArtistUnicode:Kobaryo
Creator:duski
Version:Vulkin's Futsuu
Source:
Tags:HiTNEX TRAX SUPER REUNION スーパー リユニオン HNX-001 Speedcore Yales ARGENTINE DREAM _WWWWWW_WWWWWW_ Kqrth Vulkin
BeatmapID:1749299
BeatmapSetID:692347

[Difficulty]
HPDrainRate:6
CircleSize:7
OverallDifficulty:4
ApproachRate:10
SliderMultiplier:1.2
SliderTickRate:1

[Events]
//Background and Video events
0,0,"angry sword man.jpg",0,50
//Break Periods
//Storyboard Layer 0 (Background)
//Storyboard Layer 1 (Fail)
//Storyboard Layer 2 (Pass)
//Storyboard Layer 3 (Foreground)
//Storyboard Sound Samples

[TimingPoints]
1075,260.869565217391,4,1,0,90,1,0
56379,-100,4,1,0,90,0,1
73074,-100,4,1,0,90,0,0
106727,-105.263157894737,4,1,0,90,0,0
114814,-105.263157894737,4,1,0,70,0,0
115335,-111.111111111111,4,1,0,70,0,0
122118,-100,4,1,0,90,0,0
123161,-100,4,1,0,90,0,1
131509,-100,4,1,0,90,0,0

[HitObjects]
256,192,2118,5,0,0:0:0:0:
256,192,2640,1,8,0:0:0:0:
256,192,3031,1,0,0:0:0:0:
256,192,3422,1,8,0:0:0:0:
256,192,3683,1,8,0:0:0:0:
256,192,4205,1,0,0:0:0:0:
256,192,4727,1,8,0:0:0:0:
256,192,5118,1,0,0:0:0:0:
256,192,5509,1,0,0:0:0:0:
256,192,5770,1,8,0:0:0:0:
256,192,6031,1,8,0:0:0:0:
256,192,6292,1,0,0:0:0:0:
256,192,6422,1,0,0:0:0:0:
256,192,6814,1,8,0:0:0:0:
256,192,7205,1,0,0:0:0:0:
256,192,7466,1,0,0:0:0:0:
256,192,7596,1,0,0:0:0:0:
256,192,7857,1,8,0:0:0:0:
256,192,8379,1,0,0:0:0:0:
256,192,8509,1,0,0:0:0:0:
256,192,8901,1,8,0:0:0:0:
256,192,9292,1,0,0:0:0:0:
256,192,9814,1,8,0:0:0:0:
256,192,10074,1,0,0:0:0:0:
256,192,10205,1,0,0:0:0:0:
256,192,10466,1,12,0:0:0:0:
256,192,10988,1,8,0:0:0:0:
256,192,11248,1,0,0:0:0:0:
256,192,11379,1,0,0:0:0:0:
256,192,11509,1,8,0:0:0:0:
256,192,11770,1,0,0:0:0:0:
256,192,12031,1,8,0:0:0:0:
256,192,12422,1,8,0:0:0:0:
256,192,13074,1,8,0:0:0:0:
256,192,13335,1,0,0:0:0:0:
256,192,13466,1,0,0:0:0:0:
256,192,13596,1,8,0:0:0:0:
256,192,13857,1,0,0:0:0:0:
256,192,14118,1,8,0:0:0:0:
256,192,14509,1,0,0:0:0:0:
256,192,14901,1,0,0:0:0:0:
256,192,15161,1,8,0:0:0:0:
256,192,15553,1,0,0:0:0:0:
256,192,15944,1,0,0:0:0:0:
256,192,16205,1,8,0:0:0:0:
256,192,16466,1,8,0:0:0:0:
256,192,16727,1,0,0:0:0:0:
256,192,16857,1,0,0:0:0:0:
256,192,17248,1,8,0:0:0:0:
256,192,17640,1,0,0:0:0:0:
256,192,18031,1,0,0:0:0:0:
256,192,18161,1,0,0:0:0:0:
256,192,18553,1,8,0:0:0:0:
256,192,18814,1,0,0:0:0:0:
256,192,19596,1,0,0:0:0:0:
256,192,19857,1,0,0:0:0:0:
256,192,20118,1,0,0:0:0:0:
256,192,20379,1,8,0:0:0:0:
256,192,20770,1,8,0:0:0:0:
256,192,21422,1,8,0:0:0:0:
256,192,21683,1,0,0:0:0:0:
256,192,21814,1,0,0:0:0:0:
256,192,21944,1,8,0:0:0:0:
256,192,22205,1,0,0:0:0:0:
256,192,22466,1,8,0:0:0:0:
256,192,22857,1,0,0:0:0:0:
256,192,23509,1,8,0:0:0:0:
256,192,23901,1,0,0:0:0:0:
256,192,24161,1,0,0:0:0:0:
256,192,24292,1,0,0:0:0:0:
256,192,24553,1,8,0:0:0:0:
256,192,25074,1,0,0:0:0:0:
256,192,25205,1,0,0:0:0:0:
256,192,25596,1,8,0:0:0:0:
256,192,25988,1,0,0:0:0:0:
256,192,26379,1,0,0:0:0:0:
256,192,26640,1,8,0:0:0:0:
256,192,26770,1,0,0:0:0:0:
256,192,26901,1,8,0:0:0:0:
256,192,27161,1,12,0:0:0:0:
256,192,27944,1,8,0:0:0:0:
256,192,28074,1,0,0:0:0:0:
256,192,28466,1,8,0:0:0:0:
256,192,28727,1,0,0:0:0:0:
256,192,28988,1,8,0:0:0:0:
256,192,29770,1,0,0:0:0:0:
256,192,30031,1,8,0:0:0:0:
256,192,30161,1,0,0:0:0:0:
256,192,30553,1,8,0:0:0:0:
256,192,30814,1,8,0:0:0:0:
256,192,31074,1,8,0:0:0:0:
256,192,31335,1,0,0:0:0:0:
256,192,31857,1,0,0:0:0:0:
256,192,32118,1,0,0:0:0:0:
256,192,32248,1,0,0:0:0:0:
256,192,32379,1,8,0:0:0:0:
256,192,32640,1,0,0:0:0:0:
256,192,32901,1,8,0:0:0:0:
256,192,33422,1,0,0:0:0:0:
256,192,33944,1,8,0:0:0:0:
256,192,34205,1,0,0:0:0:0:
256,192,34335,1,0,0:0:0:0:
256,192,34466,1,8,0:0:0:0:
256,192,34727,1,0,0:0:0:0:
256,192,34988,1,8,0:0:0:0:
256,192,35118,1,8,0:0:0:0:
256,192,35248,1,0,0:0:0:0:
256,192,35509,1,8,0:0:0:0:
256,192,36292,1,8,0:0:0:0:
256,192,36422,1,0,0:0:0:0:
256,192,36814,1,8,0:0:0:0:
256,192,37074,1,0,0:0:0:0:
256,192,37335,1,8,0:0:0:0:
256,192,38118,1,0,0:0:0:0:
256,192,38379,1,8,0:0:0:0:
256,192,38509,1,0,0:0:0:0:
256,192,38901,1,8,0:0:0:0:
256,192,39161,1,8,0:0:0:0:
256,192,39422,1,8,0:0:0:0:
256,192,39683,1,0,0:0:0:0:
256,192,40205,1,8,0:0:0:0:
256,192,40466,1,8,0:0:0:0:
256,192,40596,1,0,0:0:0:0:
256,192,40727,1,8,0:0:0:0:
256,192,40988,1,0,0:0:0:0:
256,192,41248,1,8,0:0:0:0:
256,192,41770,1,0,0:0:0:0:
256,192,42292,1,8,0:0:0:0:
256,192,42553,1,0,0:0:0:0:
256,192,42683,1,0,0:0:0:0:
256,192,42814,1,8,0:0:0:0:
256,192,43074,1,0,0:0:0:0:
256,192,43335,1,8,0:0:0:0:
256,192,43466,1,8,0:0:0:0:
256,192,43596,1,0,0:0:0:0:
256,192,43857,1,12,0:0:0:0:
256,192,44379,1,0,0:0:0:0:
256,192,44640,1,0,0:0:0:0:
256,192,44770,1,0,0:0:0:0:
256,192,44901,1,8,0:0:0:0:
256,192,45161,1,0,0:0:0:0:
256,192,45422,1,8,0:0:0:0:
256,192,45944,1,8,0:0:0:0:
256,192,46466,1,0,0:0:0:0:
256,192,46727,1,0,0:0:0:0:
256,192,46857,1,0,0:0:0:0:
256,192,46988,1,8,0:0:0:0:
256,192,47248,1,0,0:0:0:0:
256,192,47509,1,8,0:0:0:0:
256,192,47640,1,8,0:0:0:0:
256,192,47770,1,0,0:0:0:0:
256,192,48031,1,8,0:0:0:0:
256,192,48553,1,0,0:0:0:0:
256,192,48814,1,0,0:0:0:0:
256,192,49074,1,8,0:0:0:0:
256,192,49335,1,0,0:0:0:0:
256,192,49596,1,8,0:0:0:0:
256,192,50118,1,8,0:0:0:0:
256,192,50640,1,0,0:0:0:0:
256,192,50901,1,8,0:0:0:0:
256,192,51161,1,0,0:0:0:0:
256,192,51422,1,0,0:0:0:0:
256,192,51683,1,8,0:0:0:0:
256,192,52205,1,0,0:0:0:0:
256,192,52466,1,8,0:0:0:0:
256,192,52727,1,8,0:0:0:0:
256,192,53248,1,0,0:0:0:0:
256,192,53509,1,8,0:0:0:0:
256,192,53640,1,0,0:0:0:0:
256,192,53770,1,8,0:0:0:0:
256,192,54031,1,8,0:0:0:0:
256,192,54292,1,0,0:0:0:0:
256,192,54683,1,8,0:0:0:0:
256,192,55074,1,0,0:0:0:0:
256,192,55335,1,8,0:0:0:0:
256,192,55857,1,0,0:0:0:0:
256,192,56118,1,0,0:0:0:0:
256,192,56379,1,12,0:0:0:0:
256,192,56901,1,8,0:0:0:0:
256,192,57161,1,0,0:0:0:0:
256,192,57292,1,0,0:0:0:0:
256,192,57422,1,8,0:0:0:0:
256,192,57683,1,0,0:0:0:0:
256,192,57944,1,8,0:0:0:0:
256,192,58466,1,8,0:0:0:0:
256,192,58988,1,8,0:0:0:0:
256,192,59248,1,0,0:0:0:0:
256,192,59379,1,8,0:0:0:0:
256,192,59509,1,0,0:0:0:0:
256,192,59770,1,0,0:0:0:0:
256,192,60031,1,8,0:0:0:0:
256,192,60553,1,12,0:0:0:0:
256,192,61074,1,8,0:0:0:0:
256,192,61335,1,0,0:0:0:0:
256,192,61466,1,0,0:0:0:0:
256,192,61596,1,8,0:0:0:0:
256,192,61857,1,0,0:0:0:0:
256,192,62118,1,8,0:0:0:0:
256,192,62640,1,0,0:0:0:0:
256,192,62901,1,0,0:0:0:0:
256,192,63161,1,8,0:0:0:0:
256,192,63683,1,0,0:0:0:0:
256,192,63944,1,8,0:0:0:0:
256,192,64205,1,0,0:0:0:0:
256,192,64466,1,8,0:0:0:0:
256,192,64727,1,12,0:0:0:0:
256,192,65248,1,8,0:0:0:0:
256,192,65509,1,8,0:0:0:0:
256,192,65640,1,0,0:0:0:0:
256,192,65770,1,8,0:0:0:0:
256,192,66031,1,0,0:0:0:0:
256,192,66292,1,8,0:0:0:0:
256,192,66814,1,8,0:0:0:0:
256,192,67335,1,8,0:0:0:0:
256,192,67596,1,8,0:0:0:0:
256,192,67727,1,8,0:0:0:0:
256,192,67857,1,0,0:0:0:0:
256,192,68118,1,8,0:0:0:0:
256,192,68379,1,0,0:0:0:0:
256,192,68901,1,12,0:0:0:0:
256,192,69422,1,8,0:0:0:0:
256,192,69683,1,0,0:0:0:0:
256,192,69944,1,8,0:0:0:0:
256,192,70205,1,8,0:0:0:0:
256,192,70466,1,0,0:0:0:0:
256,192,70727,1,8,0:0:0:0:
256,192,70988,1,0,0:0:0:0:
256,192,71509,1,0,0:0:0:0:
256,192,71770,1,8,0:0:0:0:
256,192,72031,1,0,0:0:0:0:
256,192,72292,1,8,0:0:0:0:
256,192,72553,1,8,0:0:0:0:
256,192,72683,1,8,0:0:0:0:
256,192,72814,1,8,0:0:0:0:
256,192,73074,1,4,0:0:0:0:
256,192,73857,1,0,0:0:0:0:
256,192,73988,1,0,0:0:0:0:
256,192,74118,1,8,0:0:0:0:
256,192,74379,1,0,0:0:0:0:
256,192,74640,1,8,0:0:0:0:
256,192,75161,1,0,0:0:0:0:
256,192,75944,1,8,0:0:0:0:
256,192,76074,1,8,0:0:0:0:
256,192,76205,1,8,0:0:0:0:
256,192,76466,1,8,0:0:0:0:
256,192,76727,1,0,0:0:0:0:
256,192,77248,1,0,0:0:0:0:
256,192,78031,1,0,0:0:0:0:
256,192,78161,1,0,0:0:0:0:
256,192,78292,1,8,0:0:0:0:
256,192,78553,1,0,0:0:0:0:
256,192,78814,1,8,0:0:0:0:
256,192,79074,1,8,0:0:0:0:
256,192,79335,1,0,0:0:0:0:
256,192,79857,1,0,0:0:0:0:
256,192,80379,1,8,0:0:0:0:
256,192,80640,1,0,0:0:0:0:
256,192,80901,1,8,0:0:0:0:
256,192,81422,1,4,0:0:0:0:
256,192,81944,1,8,0:0:0:0:
256,192,82205,1,8,0:0:0:0:
256,192,82335,1,8,0:0:0:0:
256,192,82466,1,0,0:0:0:0:
256,192,82727,1,8,0:0:0:0:
256,192,82988,1,0,0:0:0:0:
256,192,83509,1,0,0:0:0:0:
256,192,84031,1,8,0:0:0:0:
256,192,84292,1,0,0:0:0:0:
256,192,84422,1,0,0:0:0:0:
256,192,84553,1,8,0:0:0:0:
256,192,84814,1,0,0:0:0:0:
256,192,85074,1,8,0:0:0:0:
256,192,85596,1,0,0:0:0:0:
256,192,86118,1,8,0:0:0:0:
256,192,86379,1,8,0:0:0:0:
256,192,86509,1,8,0:0:0:0:
256,192,86640,1,0,0:0:0:0:
256,192,86901,1,8,0:0:0:0:
256,192,87161,1,0,0:0:0:0:
256,192,87683,1,0,0:0:0:0:
256,192,87944,1,0,0:0:0:0:
256,192,88205,1,8,0:0:0:0:
256,192,88727,1,0,0:0:0:0:
256,192,88988,1,8,0:0:0:0:
256,192,89248,1,8,0:0:0:0:
256,192,89770,1,0,0:0:0:0:
256,192,89901,1,0,0:0:0:0:
256,192,90031,1,0,0:0:0:0:
256,192,90292,1,0,0:0:0:0:
256,192,90553,1,0,0:0:0:0:
256,192,90814,1,0,0:0:0:0:
256,192,91335,1,8,0:0:0:0:
256,192,91857,1,0,0:0:0:0:
256,192,92118,1,8,0:0:0:0:
256,192,92379,1,8,0:0:0:0:
256,192,92901,1,8,0:0:0:0:
256,192,93161,1,0,0:0:0:0:
256,192,93422,1,8,0:0:0:0:
256,192,93944,1,0,0:0:0:0:
256,192,94074,1,0,0:0:0:0:
256,192,94205,1,0,0:0:0:0:
256,192,94466,1,0,0:0:0:0:
256,192,94727,1,0,0:0:0:0:
256,192,94988,1,0,0:0:0:0:
256,192,95509,1,8,0:0:0:0:
256,192,96031,1,0,0:0:0:0:
256,192,96553,1,0,0:0:0:0:
256,192,96944,1,12,0:0:0:0:
256,192,97596,1,8,0:0:0:0:
256,192,97857,1,0,0:0:0:0:
256,192,98118,1,12,0:0:0:0:
256,192,99161,1,8,0:0:0:0:
256,192,99422,1,0,0:0:0:0:
256,192,99683,1,8,0:0:0:0:
256,192,99944,1,0,0:0:0:0:
256,192,100205,1,8,0:0:0:0:
256,192,100988,1,0,0:0:0:0:
256,192,101118,1,0,0:0:0:0:
256,192,101248,1,8,0:0:0:0:
256,192,101509,1,8,0:0:0:0:
256,192,101770,1,0,0:0:0:0:
256,192,102031,1,0,0:0:0:0:
256,192,102292,1,8,0:0:0:0:
256,192,103335,1,8,0:0:0:0:
256,192,103596,1,0,0:0:0:0:
256,192,103857,1,8,0:0:0:0:
256,192,104118,1,0,0:0:0:0:
256,192,104379,1,8,0:0:0:0:
256,192,105161,1,0,0:0:0:0:
256,192,105292,1,0,0:0:0:0:
256,192,105422,1,8,0:0:0:0:
256,192,105683,1,8,0:0:0:0:
256,192,105944,1,8,0:0:0:0:
256,192,106205,1,0,0:0:0:0:
256,192,106466,1,12,0:0:0:0:
256,192,107509,1,8,0:0:0:0:
256,192,108422,1,0,0:0:0:0:
256,192,108553,1,0,0:0:0:0:
256,192,108683,1,0,0:0:0:0:
256,192,109596,1,8,0:0:0:0:
256,192,110118,1,8,0:0:0:0:
256,192,110640,1,0,0:0:0:0:
256,192,111683,1,8,0:0:0:0:
256,192,112596,1,0,0:0:0:0:
256,192,112727,1,0,0:0:0:0:
256,192,112857,1,0,0:0:0:0:
256,192,113770,1,8,0:0:0:0:
256,192,114031,1,0,0:0:0:0:
256,192,114161,1,0,0:0:0:0:
256,192,114292,1,8,0:0:0:0:
256,192,114553,1,8,0:0:0:0:
256,192,114814,1,0,0:0:0:0:
256,192,115857,1,8,0:0:0:0:
256,192,116379,1,8,0:0:0:0:
256,192,116901,1,0,0:0:0:0:
256,192,117944,1,8,0:0:0:0:
256,192,118205,1,0,0:0:0:0:
256,192,118466,1,8,0:0:0:0:
256,192,118988,1,0,0:0:0:0:
256,192,120031,1,8,0:0:0:0:
256,192,120553,1,8,0:0:0:0:
256,192,121074,1,0,0:0:0:0:
256,192,121596,1,0,0:0:0:0:
256,192,121857,1,0,0:0:0:0:
256,192,122248,1,8,0:0:0:0:
256,192,122379,1,8,0:0:0:0:
256,192,122640,1,8,0:0:0:0:
256,192,122770,1,8,0:0:0:0:
256,192,123031,1,8,0:0:0:0:
256,192,123161,1,4,0:0:0:0:
256,192,123683,1,0,0:0:0:0:
256,192,123944,1,0,0:0:0:0:
256,192,124074,1,0,0:0:0:0:
256,192,124205,1,8,0:0:0:0:
256,192,124466,1,0,0:0:0:0:
256,192,124727,1,8,0:0:0:0:
256,192,125248,1,0,0:0:0:0:
256,192,125770,1,8,0:0:0:0:
256,192,126031,1,8,0:0:0:0:
256,192,126161,1,8,0:0:0:0:
256,192,126292,1,0,0:0:0:0:
256,192,126553,1,8,0:0:0:0:
256,192,126814,1,0,0:0:0:0:
256,192,127335,1,0,0:0:0:0:
256,192,127596,1,0,0:0:0:0:
256,192,127857,1,0,0:0:0:0:
256,192,128118,1,0,0:0:0:0:
256,192,128379,1,0,0:0:0:0:
256,192,128901,1,8,0:0:0:0:
256,192,129422,1,0,0:0:0:0:
256,192,129683,1,0,0:0:0:0:
256,192,129944,1,0,0:0:0:0:
256,192,130074,1,0,0:0:0:0:
256,192,130205,1,0,0:0:0:0:
256,192,130466,1,8,0:0:0:0:
256,192,130727,1,0,0:0:0:0:
256,192,130988,1,8,0:0:0:0:
256,192,131509,1,0,0:0:0:0:
256,192,131640,1,0,0:0:0:0:
256,192,132422,1,0,0:0:0:0:
256,192,132683,1,0,0:0:0:0:
256,192,133596,1,0,0:0:0:0:
256,192,133727,1,0,0:0:0:0:
256,192,134509,1,0,0:0:0:0:
256,192,134901,1,0,0:0:0:0:
256,192,135031,1,8,0:0:0:0:
256,192,135292,1,8,0:0:0:0:
256,192,135422,1,0,0:0:0:0:
256,192,135683,1,0,0:0:0:0:
256,192,135814,1,0,0:0:0:0:
256,192,136205,1,8,0:0:0:0:
256,192,136596,1,0,0:0:0:0:
256,192,136857,1,0,0:0:0:0:
256,192,136988,1,0,0:0:0:0:
256,192,137248,1,8,0:0:0:0:
256,192,137770,1,0,0:0:0:0:
256,192,137901,1,0,0:0:0:0:
256,192,138292,1,8,0:0:0:0:
256,192,138683,1,0,0:0:0:0:
256,192,139074,1,0,0:0:0:0:
256,192,139205,1,8,0:0:0:0:
256,192,139596,1,0,0:0:0:0:
256,192,139857,1,8,0:0:0:0:
256,192,139988,1,8,0:0:0:0:
