osu file format v14

[General]
AudioFilename: audio.mp3
AudioLeadIn: 0
PreviewTime: 56379
Countdown: 0
SampleSet: Normal
StackLeniency: 0.7
Mode: 1
LetterboxInBreaks: 0
WidescreenStoryboard: 1

[Editor]
Bookmarks: 10466,27161,43857,56379,73074,89770,98118,106466,114814,123161,131509
DistanceSpacing: 0.8
BeatDivisor: 4
GridSize: 32
TimelineZoom: 3.7

[Metadata]
Title:Perfect Neglect
TitleUnicode:Perfect Neglect
Artist:Kobaryo
ArtistUnicode:Kobaryo
Creator:duski
Version:Dilapidation
Source:
Tags:HiTNEX TRAX SUPER REUNION スーパー リユニオン HNX-001 Speedcore Yales ARGENTINE DREAM _WWWWWW_WWWWWW_ Kqrth Vulkin
BeatmapID:1465000
BeatmapSetID:692347

[Difficulty]
HPDrainRate:6
CircleSize:5
OverallDifficulty:7
ApproachRate:5
SliderMultiplier:1.4
SliderTickRate:1

[Events]
//Background and Video events
0,0,"angry sword man.jpg",0,50
//Break Periods
//Storyboard Layer 0 (Background)
//Storyboard Layer 1 (Fail)
//Storyboard Layer 2 (Pass)
//Storyboard Layer 3 (Foreground)
//Storyboard Sound Samples

[TimingPoints]
1075,260.869565217391,4,1,0,90,1,0
27292,-105.263157894737,4,1,0,90,0,0
27553,-111.111111111111,4,1,0,90,0,0
30944,-105.263157894737,4,1,0,90,0,0
31205,-100,4,1,0,90,0,0
35640,-105.263157894737,4,1,0,90,0,0
35901,-111.111111111111,4,1,0,90,0,0
39292,-105.263157894737,4,1,0,90,0,0
39553,-100,4,1,0,90,0,0
52205,-95.2380952380952,4,1,0,90,0,0
53248,-90.9090909090909,4,1,0,90,0,0
54357,-92.5925925925926,4,1,0,90,0,0
54488,-94.3396226415094,4,1,0,90,0,0
54618,-96.1538461538461,4,1,0,90,0,0
54879,-100,4,1,0,90,0,0
56118,-99.009900990099,4,1,0,90,0,0
56183,-98.0392156862745,4,1,0,90,0,0
56248,-97.0873786407767,4,1,0,90,0,0
56314,-96.1538461538461,4,1,0,90,0,0
56379,-95.2380952380952,4,1,0,90,0,1
73074,-95.2380952380952,4,1,0,90,0,0
73335,-105.263157894737,4,1,0,90,0,0
81161,-104.166666666667,4,1,0,90,0,0
81227,-103.092783505155,4,1,0,90,0,0
81292,-102.040816326531,4,1,0,90,0,0
81357,-101.010101010101,4,1,0,90,0,0
81422,-100,4,1,0,90,0,0
89509,-99.009900990099,4,1,0,90,0,0
89574,-98.0392156862745,4,1,0,90,0,0
89640,-97.0873786407767,4,1,0,90,0,0
89705,-96.1538461538461,4,1,0,90,0,0
89770,-95.2380952380952,4,1,0,90,0,1
96944,-95.2380952380952,4,1,0,90,0,0
97205,-97.0873786407767,4,1,0,90,0,0
97466,-98.0392156862745,4,1,0,90,0,0
97727,-99.009900990099,4,1,0,90,0,0
97988,-100,4,1,0,90,0,0
106727,-111.111111111111,4,1,0,90,0,0
113835,-108.695652173913,4,1,0,90,0,0
114096,-105.263157894737,4,1,0,90,0,0
114227,-103.092783505155,4,1,0,90,0,0
114488,-99.009900990099,4,1,0,90,0,0
114618,-97.0873786407767,4,1,0,90,0,0
114748,-95.2380952380952,4,1,0,90,0,0
114879,-95.2380952380952,4,1,0,70,0,0
115140,-98.0392156862745,4,1,0,70,0,0
115531,-101.010101010101,4,1,0,70,0,0
115792,-103.092783505155,4,1,0,70,0,0
116053,-105.263157894737,4,1,0,70,0,0
116314,-107.52688172043,4,1,0,70,0,0
116574,-109.89010989011,4,1,0,70,0,0
116835,-112.359550561798,4,1,0,70,0,0
121140,-109.89010989011,4,1,0,70,0,0
121270,-108.695652173913,4,1,0,70,0,0
121401,-107.52688172043,4,1,0,70,0,0
121531,-106.382978723404,4,1,0,70,0,0
121661,-105.263157894737,4,1,0,70,0,0
121792,-104.166666666667,4,1,0,70,0,0
121922,-103.092783505155,4,1,0,70,0,0
122118,-95.2380952380952,4,1,0,90,0,0
123161,-95.2380952380952,4,1,0,90,0,1
126814,-94.3396226415094,4,1,0,90,0,1
126879,-93.4579439252336,4,1,0,90,0,1
126944,-92.5925925925926,4,1,0,90,0,1
127009,-91.743119266055,4,1,0,90,0,1
127074,-90.9090909090909,4,1,0,90,0,1
131509,-100,4,1,0,90,0,0
132031,-100,4,1,0,60,0,0
132422,-100,4,1,0,90,0,0
133074,-100,4,1,0,60,0,0
133596,-100,4,1,0,90,0,0
134118,-100,4,1,0,60,0,0
134509,-100,4,1,0,90,0,0

[HitObjects]
256,192,1075,5,8,0:0:0:0:
256,192,1335,1,8,0:0:0:0:
256,192,1596,1,8,0:0:0:0:
256,192,1857,1,8,0:0:0:0:
256,192,2118,1,4,0:0:0:0:
256,192,2248,1,4,0:0:0:0:
256,192,2379,1,8,0:0:0:0:
256,192,2640,1,0,0:0:0:0:
256,192,2770,1,0,0:0:0:0:
256,192,2835,1,0,0:0:0:0:
256,192,2901,1,8,0:0:0:0:
256,192,3031,1,4,0:0:0:0:
256,192,3292,1,0,0:0:0:0:
256,192,3422,1,8,0:0:0:0:
256,192,3683,1,0,0:0:0:0:
256,192,3814,1,0,0:0:0:0:
256,192,3879,1,0,0:0:0:0:
256,192,3944,1,8,0:0:0:0:
256,192,4205,1,4,0:0:0:0:
256,192,4335,1,4,0:0:0:0:
256,192,4466,1,8,0:0:0:0:
256,192,4727,1,0,0:0:0:0:
256,192,4857,1,0,0:0:0:0:
256,192,4922,1,0,0:0:0:0:
256,192,4988,1,8,0:0:0:0:
256,192,5118,1,4,0:0:0:0:
256,192,5379,1,0,0:0:0:0:
256,192,5509,1,8,0:0:0:0:
256,192,5640,1,4,0:0:0:0:
256,192,5901,1,0,0:0:0:0:
256,192,6031,1,8,0:0:0:0:
256,192,6292,1,4,0:0:0:0:
256,192,6422,1,4,0:0:0:0:
256,192,6553,1,8,0:0:0:0:
256,192,6814,1,0,0:0:0:0:
256,192,6944,1,0,0:0:0:0:
256,192,7009,1,0,0:0:0:0:
256,192,7074,1,8,0:0:0:0:
256,192,7205,1,4,0:0:0:0:
256,192,7466,1,0,0:0:0:0:
256,192,7596,1,8,0:0:0:0:
256,192,7857,1,0,0:0:0:0:
256,192,7988,1,0,0:0:0:0:
256,192,8053,1,0,0:0:0:0:
256,192,8118,1,8,0:0:0:0:
256,192,8379,1,4,0:0:0:0:
256,192,8509,1,4,0:0:0:0:
256,192,8640,1,8,0:0:0:0:
256,192,8901,1,0,0:0:0:0:
256,192,9031,1,0,0:0:0:0:
256,192,9096,1,0,0:0:0:0:
256,192,9161,1,8,0:0:0:0:
256,192,9292,1,4,0:0:0:0:
256,192,9553,1,0,0:0:0:0:
256,192,9683,1,8,0:0:0:0:
256,192,9814,1,4,0:0:0:0:
256,192,10074,1,0,0:0:0:0:
256,192,10140,1,0,0:0:0:0:
256,192,10205,1,8,0:0:0:0:
256,192,10466,1,0,0:0:0:0:
256,192,10727,1,8,0:0:0:0:
256,192,10792,1,8,0:0:0:0:
256,192,10857,1,0,0:0:0:0:
256,192,10988,1,8,0:0:0:0:
256,192,11118,1,0,0:0:0:0:
256,192,11183,1,0,0:0:0:0:
256,192,11248,1,8,0:0:0:0:
256,192,11379,1,0,0:0:0:0:
256,192,11509,1,8,0:0:0:0:
256,192,11574,1,8,0:0:0:0:
256,192,11640,1,0,0:0:0:0:
256,192,11770,1,8,0:0:0:0:
256,192,11901,1,0,0:0:0:0:
256,192,12031,1,8,0:0:0:0:
256,192,12096,1,0,0:0:0:0:
256,192,12161,1,0,0:0:0:0:
256,192,12227,1,0,0:0:0:0:
256,192,12292,1,8,0:0:0:0:
256,192,12422,1,4,0:0:0:0:
256,192,12683,1,0,0:0:0:0:
256,192,12748,1,0,0:0:0:0:
256,192,12814,1,8,0:0:0:0:
256,192,12944,1,0,0:0:0:0:
256,192,13074,1,8,0:0:0:0:
256,192,13140,1,8,0:0:0:0:
256,192,13205,1,0,0:0:0:0:
256,192,13335,1,8,0:0:0:0:
256,192,13466,1,0,0:0:0:0:
256,192,13596,1,0,0:0:0:0:
256,192,13661,1,0,0:0:0:0:
256,192,13727,1,8,0:0:0:0:
256,192,13857,1,0,0:0:0:0:
256,192,13988,1,8,0:0:0:0:
256,192,14118,1,0,0:0:0:0:
256,192,14183,1,0,0:0:0:0:
256,192,14248,1,0,0:0:0:0:
256,192,14314,1,0,0:0:0:0:
256,192,14379,1,8,0:0:0:0:
256,192,14509,1,4,0:0:0:0:
256,192,14770,1,0,0:0:0:0:
256,192,14901,1,8,0:0:0:0:
256,192,15161,1,0,0:0:0:0:
256,192,15292,1,0,0:0:0:0:
256,192,15357,1,0,0:0:0:0:
256,192,15422,1,8,0:0:0:0:
256,192,15553,1,4,0:0:0:0:
256,192,15814,1,0,0:0:0:0:
256,192,15944,1,8,0:0:0:0:
256,192,16205,1,0,0:0:0:0:
256,192,16335,1,0,0:0:0:0:
256,192,16401,1,0,0:0:0:0:
256,192,16466,1,8,0:0:0:0:
256,192,16727,1,4,0:0:0:0:
256,192,16857,1,4,0:0:0:0:
256,192,16988,1,8,0:0:0:0:
256,192,17248,1,0,0:0:0:0:
256,192,17379,1,8,0:0:0:0:
256,192,17444,1,8,0:0:0:0:
256,192,17509,1,0,0:0:0:0:
256,192,17640,1,4,0:0:0:0:
256,192,17901,1,0,0:0:0:0:
256,192,18031,1,8,0:0:0:0:
256,192,18161,1,4,0:0:0:0:
256,192,18422,1,0,0:0:0:0:
256,192,18488,1,0,0:0:0:0:
256,192,18553,1,8,0:0:0:0:
256,192,18814,1,0,0:0:0:0:
256,192,19074,1,8,0:0:0:0:
256,192,19140,1,8,0:0:0:0:
256,192,19205,1,0,0:0:0:0:
256,192,19335,1,8,0:0:0:0:
256,192,19466,1,0,0:0:0:0:
256,192,19531,1,0,0:0:0:0:
256,192,19596,1,8,0:0:0:0:
256,192,19727,1,0,0:0:0:0:
256,192,19857,1,8,0:0:0:0:
256,192,19922,1,8,0:0:0:0:
256,192,19988,1,0,0:0:0:0:
256,192,20118,1,8,0:0:0:0:
256,192,20248,1,0,0:0:0:0:
256,192,20379,1,8,0:0:0:0:
256,192,20444,1,0,0:0:0:0:
256,192,20509,1,0,0:0:0:0:
256,192,20574,1,0,0:0:0:0:
256,192,20640,1,8,0:0:0:0:
256,192,20770,1,4,0:0:0:0:
256,192,21031,1,0,0:0:0:0:
256,192,21161,1,8,0:0:0:0:
256,192,21227,1,8,0:0:0:0:
256,192,21292,1,0,0:0:0:0:
256,192,21422,1,8,0:0:0:0:
256,192,21553,1,0,0:0:0:0:
256,192,21683,1,8,0:0:0:0:
256,192,21814,1,4,0:0:0:0:
256,192,22074,1,0,0:0:0:0:
256,192,22205,1,0,0:0:0:0:
256,192,22335,1,8,0:0:0:0:
256,192,22466,1,0,0:0:0:0:
256,192,22531,1,0,0:0:0:0:
256,192,22596,1,0,0:0:0:0:
256,192,22661,1,0,0:0:0:0:
256,192,22727,1,8,0:0:0:0:
256,192,22857,1,4,0:0:0:0:
256,192,23118,1,0,0:0:0:0:
256,192,23248,1,8,0:0:0:0:
256,192,23509,1,0,0:0:0:0:
256,192,23640,1,0,0:0:0:0:
256,192,23705,1,0,0:0:0:0:
256,192,23770,1,8,0:0:0:0:
256,192,23901,1,4,0:0:0:0:
256,192,24161,1,0,0:0:0:0:
256,192,24292,1,8,0:0:0:0:
256,192,24553,1,0,0:0:0:0:
256,192,24683,1,0,0:0:0:0:
256,192,24748,1,0,0:0:0:0:
256,192,24814,1,8,0:0:0:0:
256,192,25074,1,4,0:0:0:0:
256,192,25205,1,4,0:0:0:0:
256,192,25335,1,8,0:0:0:0:
256,192,25596,1,0,0:0:0:0:
256,192,25727,1,8,0:0:0:0:
256,192,25792,1,8,0:0:0:0:
256,192,25857,1,0,0:0:0:0:
256,192,25988,1,4,0:0:0:0:
256,192,26248,1,0,0:0:0:0:
256,192,26379,1,8,0:0:0:0:
256,192,26509,1,0,0:0:0:0:
256,192,26640,1,8,0:0:0:0:
256,192,26770,1,0,0:0:0:0:
256,192,26835,1,0,0:0:0:0:
256,192,26901,1,0,0:0:0:0:
256,192,27161,1,4,0:0:0:0:
256,192,27422,1,8,0:0:0:0:
256,192,27944,1,8,0:0:0:0:
256,192,28466,1,8,0:0:0:0:
256,192,28988,1,8,0:0:0:0:
256,192,29509,1,8,0:0:0:0:
256,192,30031,1,8,0:0:0:0:
256,192,30553,1,8,0:0:0:0:
256,192,31074,1,8,0:0:0:0:
256,192,31335,1,0,0:0:0:0:
256,192,31466,1,8,0:0:0:0:
256,192,31596,1,0,0:0:0:0:
256,192,31661,1,0,0:0:0:0:
256,192,31727,1,8,0:0:0:0:
256,192,31857,1,8,0:0:0:0:
256,192,31922,1,8,0:0:0:0:
256,192,31988,1,8,0:0:0:0:
256,192,32118,1,0,0:0:0:0:
256,192,32248,1,8,0:0:0:0:
256,192,32314,1,8,0:0:0:0:
256,192,32379,1,0,0:0:0:0:
256,192,32509,1,8,0:0:0:0:
256,192,32574,1,0,0:0:0:0:
256,192,32640,1,0,0:0:0:0:
256,192,32770,1,8,0:0:0:0:
256,192,32901,1,0,0:0:0:0:
256,192,32966,1,0,0:0:0:0:
256,192,33031,1,8,0:0:0:0:
256,192,33161,1,0,0:0:0:0:
256,192,33227,1,0,0:0:0:0:
256,192,33292,1,8,0:0:0:0:
256,192,33422,1,0,0:0:0:0:
256,192,33553,1,8,0:0:0:0:
256,192,33683,1,0,0:0:0:0:
256,192,33748,1,0,0:0:0:0:
256,192,33814,1,8,0:0:0:0:
256,192,33944,1,8,0:0:0:0:
256,192,34009,1,8,0:0:0:0:
256,192,34074,1,8,0:0:0:0:
256,192,34205,1,0,0:0:0:0:
256,192,34335,1,8,0:0:0:0:
256,192,34401,1,8,0:0:0:0:
256,192,34466,1,0,0:0:0:0:
256,192,34596,1,8,0:0:0:0:
256,192,34661,1,8,0:0:0:0:
256,192,34727,1,0,0:0:0:0:
256,192,34857,1,8,0:0:0:0:
256,192,34988,1,0,0:0:0:0:
256,192,35053,1,0,0:0:0:0:
256,192,35118,1,8,0:0:0:0:
256,192,35248,1,8,0:0:0:0:
256,192,35314,1,8,0:0:0:0:
256,192,35379,1,8,0:0:0:0:
256,192,35509,1,4,0:0:0:0:
256,192,35770,1,8,0:0:0:0:
256,192,36292,1,8,0:0:0:0:
256,192,36814,1,8,0:0:0:0:
256,192,37335,1,8,0:0:0:0:
256,192,37857,1,8,0:0:0:0:
256,192,38379,1,8,0:0:0:0:
256,192,38901,1,8,0:0:0:0:
256,192,39422,1,8,0:0:0:0:
256,192,39683,1,0,0:0:0:0:
256,192,39814,1,8,0:0:0:0:
256,192,39944,1,0,0:0:0:0:
256,192,40009,1,0,0:0:0:0:
256,192,40074,1,8,0:0:0:0:
256,192,40205,1,8,0:0:0:0:
256,192,40270,1,8,0:0:0:0:
256,192,40335,1,8,0:0:0:0:
256,192,40466,1,0,0:0:0:0:
256,192,40596,1,8,0:0:0:0:
256,192,40661,1,8,0:0:0:0:
256,192,40727,1,0,0:0:0:0:
256,192,40857,1,8,0:0:0:0:
256,192,40922,1,0,0:0:0:0:
256,192,40988,1,0,0:0:0:0:
256,192,41118,1,8,0:0:0:0:
256,192,41248,1,0,0:0:0:0:
256,192,41314,1,0,0:0:0:0:
256,192,41379,1,8,0:0:0:0:
256,192,41509,1,0,0:0:0:0:
256,192,41574,1,0,0:0:0:0:
256,192,41640,1,8,0:0:0:0:
256,192,41770,1,0,0:0:0:0:
256,192,41901,1,8,0:0:0:0:
256,192,42031,1,0,0:0:0:0:
256,192,42096,1,0,0:0:0:0:
256,192,42161,1,8,0:0:0:0:
256,192,42292,1,8,0:0:0:0:
256,192,42357,1,8,0:0:0:0:
256,192,42422,1,8,0:0:0:0:
256,192,42553,1,0,0:0:0:0:
256,192,42683,1,8,0:0:0:0:
256,192,42748,1,8,0:0:0:0:
256,192,42814,1,0,0:0:0:0:
256,192,42944,1,8,0:0:0:0:
256,192,43074,1,0,0:0:0:0:
256,192,43140,1,0,0:0:0:0:
256,192,43205,1,8,0:0:0:0:
256,192,43335,1,0,0:0:0:0:
256,192,43401,1,0,0:0:0:0:
256,192,43466,1,8,0:0:0:0:
256,192,43596,1,8,0:0:0:0:
256,192,43661,1,8,0:0:0:0:
256,192,43727,1,8,0:0:0:0:
256,192,43857,1,8,0:0:0:0:
256,192,43922,1,8,0:0:0:0:
256,192,43988,1,0,0:0:0:0:
256,192,44118,1,0,0:0:0:0:
256,192,44248,1,0,0:0:0:0:
256,192,44379,1,8,0:0:0:0:
256,192,44444,1,0,0:0:0:0:
256,192,44509,1,0,0:0:0:0:
256,192,44640,1,0,0:0:0:0:
256,192,44770,1,0,0:0:0:0:
256,192,44901,1,8,0:0:0:0:
256,192,44966,1,0,0:0:0:0:
256,192,45031,1,0,0:0:0:0:
256,192,45161,1,0,0:0:0:0:
256,192,45292,1,0,0:0:0:0:
256,192,45422,1,0,0:0:0:0:
256,192,45553,1,8,0:0:0:0:
256,192,45944,1,8,0:0:0:0:
256,192,46009,1,8,0:0:0:0:
256,192,46074,1,0,0:0:0:0:
256,192,46205,1,0,0:0:0:0:
256,192,46335,1,0,0:0:0:0:
256,192,46466,1,8,0:0:0:0:
256,192,46531,1,0,0:0:0:0:
256,192,46596,1,0,0:0:0:0:
256,192,46727,1,0,0:0:0:0:
256,192,46857,1,8,0:0:0:0:
256,192,46988,1,0,0:0:0:0:
256,192,47118,1,12,0:0:0:0:
256,192,47248,1,12,0:0:0:0:
256,192,47379,1,0,0:0:0:0:
256,192,47509,1,12,0:0:0:0:
256,192,47640,1,12,0:0:0:0:
256,192,47770,1,0,0:0:0:0:
256,192,47901,1,12,0:0:0:0:
256,192,48031,1,8,0:0:0:0:
256,192,48096,1,8,0:0:0:0:
256,192,48161,1,0,0:0:0:0:
256,192,48292,1,0,0:0:0:0:
256,192,48422,1,0,0:0:0:0:
256,192,48553,1,8,0:0:0:0:
256,192,48618,1,0,0:0:0:0:
256,192,48683,1,0,0:0:0:0:
256,192,48814,1,0,0:0:0:0:
256,192,48944,1,0,0:0:0:0:
256,192,49074,1,8,0:0:0:0:
256,192,49140,1,0,0:0:0:0:
256,192,49205,1,0,0:0:0:0:
256,192,49335,1,0,0:0:0:0:
256,192,49466,1,0,0:0:0:0:
256,192,49596,1,0,0:0:0:0:
256,192,49727,1,8,0:0:0:0:
256,192,50118,1,8,0:0:0:0:
256,192,50183,1,8,0:0:0:0:
256,192,50248,1,0,0:0:0:0:
256,192,50379,1,0,0:0:0:0:
256,192,50509,1,0,0:0:0:0:
256,192,50640,1,8,0:0:0:0:
256,192,50705,1,0,0:0:0:0:
256,192,50770,1,0,0:0:0:0:
256,192,50901,1,0,0:0:0:0:
256,192,51031,1,8,0:0:0:0:
256,192,51161,1,0,0:0:0:0:
256,192,51292,1,12,0:0:0:0:
256,192,51422,1,12,0:0:0:0:
256,192,51553,1,0,0:0:0:0:
256,192,51683,1,12,0:0:0:0:
256,192,51814,1,12,0:0:0:0:
256,192,51944,1,0,0:0:0:0:
256,192,52074,1,12,0:0:0:0:
256,192,52205,1,0,0:0:0:0:
256,192,52335,1,12,0:0:0:0:
256,192,52466,1,12,0:0:0:0:
256,192,52596,1,0,0:0:0:0:
256,192,52727,1,12,0:0:0:0:
256,192,52857,1,12,0:0:0:0:
256,192,52988,1,0,0:0:0:0:
256,192,53118,1,12,0:0:0:0:
256,192,53248,1,0,0:0:0:0:
256,192,53379,1,12,0:0:0:0:
256,192,53509,1,12,0:0:0:0:
256,192,53640,1,0,0:0:0:0:
256,192,53770,1,12,0:0:0:0:
256,192,53901,1,12,0:0:0:0:
256,192,54031,1,0,0:0:0:0:
256,192,54161,1,12,0:0:0:0:
256,192,54292,1,0,0:0:0:0:
256,192,54422,1,0,0:0:0:0:
256,192,54553,1,8,0:0:0:0:
256,192,54683,1,0,0:0:0:0:
256,192,54944,1,0,0:0:0:0:
256,192,55009,1,0,0:0:0:0:
256,192,55074,1,8,0:0:0:0:
256,192,55205,1,0,0:0:0:0:
256,192,55335,1,4,0:0:0:0:
256,192,55596,1,4,0:0:0:0:
256,192,55857,1,8,0:0:0:0:
256,192,55922,1,8,0:0:0:0:
256,192,55988,1,8,0:0:0:0:
256,192,56053,1,8,0:0:0:0:
256,192,56118,1,0,0:0:0:0:
256,192,56183,1,0,0:0:0:0:
256,192,56248,1,0,0:0:0:0:
256,192,56314,1,0,0:0:0:0:
256,192,56379,1,8,0:0:0:0:
256,192,56509,1,0,0:0:0:0:
256,192,56640,1,8,0:0:0:0:
256,192,56770,1,0,0:0:0:0:
256,192,56835,1,8,0:0:0:0:
256,192,56901,1,0,0:0:0:0:
256,192,57031,1,0,0:0:0:0:
256,192,57161,1,8,0:0:0:0:
256,192,57227,1,0,0:0:0:0:
256,192,57292,1,0,0:0:0:0:
256,192,57422,1,8,0:0:0:0:
256,192,57488,1,8,0:0:0:0:
256,192,57553,1,0,0:0:0:0:
256,192,57683,1,8,0:0:0:0:
256,192,57748,1,0,0:0:0:0:
256,192,57814,1,0,0:0:0:0:
256,192,57944,1,0,0:0:0:0:
256,192,58009,1,0,0:0:0:0:
256,192,58074,1,0,0:0:0:0:
256,192,58205,1,8,0:0:0:0:
256,192,58335,1,8,0:0:0:0:
256,192,58401,1,8,0:0:0:0:
256,192,58466,1,0,0:0:0:0:
256,192,58727,1,8,0:0:0:0:
256,192,58857,1,8,0:0:0:0:
256,192,58988,1,0,0:0:0:0:
256,192,59118,1,0,0:0:0:0:
256,192,59248,1,8,0:0:0:0:
256,192,59509,1,0,0:0:0:0:
256,192,59640,1,8,0:0:0:0:
256,192,59770,1,8,0:0:0:0:
256,192,59901,1,0,0:0:0:0:
256,192,60031,1,0,0:0:0:0:
256,192,60161,1,8,0:0:0:0:
256,192,60292,1,0,0:0:0:0:
256,192,60422,1,8,0:0:0:0:
256,192,60553,1,0,0:0:0:0:
256,192,60683,1,0,0:0:0:0:
256,192,60814,1,8,0:0:0:0:
256,192,60944,1,8,0:0:0:0:
256,192,61009,1,8,0:0:0:0:
256,192,61074,1,0,0:0:0:0:
256,192,61205,1,0,0:0:0:0:
256,192,61335,1,8,0:0:0:0:
256,192,61466,1,8,0:0:0:0:
256,192,61531,1,8,0:0:0:0:
256,192,61596,1,0,0:0:0:0:
256,192,61727,1,0,0:0:0:0:
256,192,61792,1,0,0:0:0:0:
256,192,61857,1,8,0:0:0:0:
256,192,61988,1,8,0:0:0:0:
256,192,62053,1,8,0:0:0:0:
256,192,62118,1,0,0:0:0:0:
256,192,62248,1,0,0:0:0:0:
256,192,62314,1,0,0:0:0:0:
256,192,62379,1,8,0:0:0:0:
256,192,62509,1,8,0:0:0:0:
256,192,62640,1,0,0:0:0:0:
256,192,62770,1,8,0:0:0:0:
256,192,62901,1,0,0:0:0:0:
256,192,63031,1,8,0:0:0:0:
256,192,63161,1,0,0:0:0:0:
256,192,63292,1,0,0:0:0:0:
256,192,63422,1,8,0:0:0:0:
256,192,63553,1,8,0:0:0:0:
256,192,63683,1,0,0:0:0:0:
256,192,63814,1,12,0:0:0:0:
256,192,63944,1,0,0:0:0:0:
256,192,64074,1,12,0:0:0:0:
256,192,64335,1,0,0:0:0:0:
256,192,64401,1,0,0:0:0:0:
256,192,64466,1,8,0:0:0:0:
256,192,64531,1,8,0:0:0:0:
256,192,64596,1,8,0:0:0:0:
256,192,64661,1,8,0:0:0:0:
256,192,64727,1,0,0:0:0:0:
256,192,64857,1,0,0:0:0:0:
256,192,64988,1,8,0:0:0:0:
256,192,65118,1,0,0:0:0:0:
256,192,65183,1,8,0:0:0:0:
256,192,65248,1,0,0:0:0:0:
256,192,65379,1,0,0:0:0:0:
256,192,65509,1,8,0:0:0:0:
256,192,65574,1,8,0:0:0:0:
256,192,65640,1,0,0:0:0:0:
256,192,65770,1,0,0:0:0:0:
256,192,65835,1,0,0:0:0:0:
256,192,65901,1,0,0:0:0:0:
256,192,66031,1,8,0:0:0:0:
256,192,66096,1,0,0:0:0:0:
256,192,66161,1,0,0:0:0:0:
256,192,66292,1,8,0:0:0:0:
256,192,66357,1,8,0:0:0:0:
256,192,66422,1,0,0:0:0:0:
256,192,66553,1,8,0:0:0:0:
256,192,66683,1,0,0:0:0:0:
256,192,66748,1,0,0:0:0:0:
256,192,66814,1,8,0:0:0:0:
256,192,67074,1,8,0:0:0:0:
256,192,67335,1,0,0:0:0:0:
256,192,67466,1,0,0:0:0:0:
256,192,67596,1,8,0:0:0:0:
256,192,67857,1,0,0:0:0:0:
256,192,67988,1,0,0:0:0:0:
256,192,68118,1,8,0:0:0:0:
256,192,68248,1,0,0:0:0:0:
256,192,68379,1,0,0:0:0:0:
256,192,68509,1,0,0:0:0:0:
256,192,68640,1,8,0:0:0:0:
256,192,68770,1,0,0:0:0:0:
256,192,68901,1,0,0:0:0:0:
256,192,69031,1,0,0:0:0:0:
256,192,69161,1,8,0:0:0:0:
256,192,69292,1,8,0:0:0:0:
256,192,69357,1,8,0:0:0:0:
256,192,69422,1,0,0:0:0:0:
256,192,69553,1,0,0:0:0:0:
256,192,69683,1,8,0:0:0:0:
256,192,69748,1,0,0:0:0:0:
256,192,69814,1,0,0:0:0:0:
256,192,69944,1,8,0:0:0:0:
256,192,70009,1,8,0:0:0:0:
256,192,70074,1,0,0:0:0:0:
256,192,70205,1,8,0:0:0:0:
256,192,70270,1,0,0:0:0:0:
256,192,70335,1,0,0:0:0:0:
256,192,70466,1,0,0:0:0:0:
256,192,70531,1,0,0:0:0:0:
256,192,70596,1,0,0:0:0:0:
256,192,70727,1,8,0:0:0:0:
256,192,70857,1,0,0:0:0:0:
256,192,70988,1,8,0:0:0:0:
256,192,71053,1,8,0:0:0:0:
256,192,71118,1,8,0:0:0:0:
256,192,71248,1,0,0:0:0:0:
256,192,71379,1,8,0:0:0:0:
256,192,71444,1,8,0:0:0:0:
256,192,71509,1,8,0:0:0:0:
256,192,71640,1,0,0:0:0:0:
256,192,71770,1,8,0:0:0:0:
256,192,71835,1,8,0:0:0:0:
256,192,71901,1,8,0:0:0:0:
256,192,72031,1,0,0:0:0:0:
256,192,72096,1,0,0:0:0:0:
256,192,72161,1,8,0:0:0:0:
256,192,72292,1,8,0:0:0:0:
256,192,72422,1,0,0:0:0:0:
256,192,72553,1,8,0:0:0:0:
256,192,72618,1,8,0:0:0:0:
256,192,72683,1,8,0:0:0:0:
256,192,72748,1,8,0:0:0:0:
256,192,72814,1,0,0:0:0:0:
256,192,72879,1,0,0:0:0:0:
256,192,72944,1,0,0:0:0:0:
256,192,73009,1,0,0:0:0:0:
256,192,73074,1,8,0:0:0:0:
256,192,73466,1,0,0:0:0:0:
256,192,73531,1,0,0:0:0:0:
256,192,73596,1,8,0:0:0:0:
256,192,73857,1,0,0:0:0:0:
256,192,73988,1,0,0:0:0:0:
256,192,74248,1,0,0:0:0:0:
256,192,74379,1,0,0:0:0:0:
256,192,74509,1,0,0:0:0:0:
256,192,74640,1,8,0:0:0:0:
256,192,74770,1,0,0:0:0:0:
256,192,74901,1,0,0:0:0:0:
256,192,74966,1,0,0:0:0:0:
256,192,75031,1,0,0:0:0:0:
256,192,75096,1,0,0:0:0:0:
256,192,75161,1,8,0:0:0:0:
256,192,75292,1,0,0:0:0:0:
256,192,75553,1,0,0:0:0:0:
256,192,75618,1,0,0:0:0:0:
256,192,75683,1,8,0:0:0:0:
256,192,75944,1,0,0:0:0:0:
256,192,76074,1,12,0:0:0:0:
256,192,76335,1,0,0:0:0:0:
256,192,76401,1,0,0:0:0:0:
256,192,76466,1,0,0:0:0:0:
256,192,76596,1,0,0:0:0:0:
256,192,76727,1,8,0:0:0:0:
256,192,76792,1,8,0:0:0:0:
256,192,76857,1,0,0:0:0:0:
256,192,76922,1,0,0:0:0:0:
256,192,76988,1,8,0:0:0:0:
256,192,77053,1,8,0:0:0:0:
256,192,77118,1,8,0:0:0:0:
256,192,77183,1,8,0:0:0:0:
256,192,77248,1,0,0:0:0:0:
256,192,77379,1,0,0:0:0:0:
256,192,77509,1,0,0:0:0:0:
256,192,77640,1,0,0:0:0:0:
256,192,77705,1,0,0:0:0:0:
256,192,77770,1,8,0:0:0:0:
256,192,77901,1,0,0:0:0:0:
256,192,78031,1,0,0:0:0:0:
256,192,78161,1,8,0:0:0:0:
256,192,78292,1,0,0:0:0:0:
256,192,78422,1,8,0:0:0:0:
256,192,78553,1,0,0:0:0:0:
256,192,78683,1,0,0:0:0:0:
256,192,78814,1,8,0:0:0:0:
256,192,78879,1,0,0:0:0:0:
256,192,78944,1,0,0:0:0:0:
256,192,79009,1,0,0:0:0:0:
256,192,79074,1,0,0:0:0:0:
256,192,79140,1,0,0:0:0:0:
256,192,79205,1,0,0:0:0:0:
256,192,79270,1,0,0:0:0:0:
256,192,79335,1,8,0:0:0:0:
256,192,79466,1,0,0:0:0:0:
256,192,79596,1,0,0:0:0:0:
256,192,79727,1,0,0:0:0:0:
256,192,79792,1,0,0:0:0:0:
256,192,79857,1,8,0:0:0:0:
256,192,79988,1,0,0:0:0:0:
256,192,80118,1,0,0:0:0:0:
256,192,80248,1,12,0:0:0:0:
256,192,80509,1,0,0:0:0:0:
256,192,80574,1,0,0:0:0:0:
256,192,80640,1,8,0:0:0:0:
256,192,80770,1,0,0:0:0:0:
256,192,80901,1,12,0:0:0:0:
256,192,81161,1,0,0:0:0:0:
256,192,81227,1,0,0:0:0:0:
256,192,81292,1,0,0:0:0:0:
256,192,81357,1,0,0:0:0:0:
256,192,81422,1,8,0:0:0:0:
256,192,81683,1,0,0:0:0:0:
256,192,81814,1,0,0:0:0:0:
256,192,81879,1,0,0:0:0:0:
256,192,81944,1,8,0:0:0:0:
256,192,82074,1,0,0:0:0:0:
256,192,82205,1,8,0:0:0:0:
256,192,82270,1,8,0:0:0:0:
256,192,82335,1,0,0:0:0:0:
256,192,82466,1,8,0:0:0:0:
256,192,82596,1,0,0:0:0:0:
256,192,82727,1,8,0:0:0:0:
256,192,82792,1,8,0:0:0:0:
256,192,82857,1,0,0:0:0:0:
256,192,82988,1,8,0:0:0:0:
256,192,83118,1,0,0:0:0:0:
256,192,83183,1,0,0:0:0:0:
256,192,83248,1,8,0:0:0:0:
256,192,83314,1,8,0:0:0:0:
256,192,83444,1,8,0:0:0:0:
256,192,83509,1,0,0:0:0:0:
256,192,83640,1,0,0:0:0:0:
256,192,83770,1,8,0:0:0:0:
256,192,83835,1,8,0:0:0:0:
256,192,83901,1,0,0:0:0:0:
256,192,84031,1,8,0:0:0:0:
256,192,84161,1,0,0:0:0:0:
256,192,84292,1,0,0:0:0:0:
256,192,84422,1,12,0:0:0:0:
256,192,84683,1,0,0:0:0:0:
256,192,84814,1,8,0:0:0:0:
256,192,84944,1,0,0:0:0:0:
256,192,85074,1,8,0:0:0:0:
256,192,85205,1,0,0:0:0:0:
256,192,85270,1,0,0:0:0:0:
256,192,85335,1,8,0:0:0:0:
256,192,85401,1,8,0:0:0:0:
256,192,85466,1,8,0:0:0:0:
256,192,85531,1,8,0:0:0:0:
256,192,85596,1,0,0:0:0:0:
256,192,85857,1,0,0:0:0:0:
256,192,85988,1,0,0:0:0:0:
256,192,86053,1,0,0:0:0:0:
256,192,86118,1,8,0:0:0:0:
256,192,86248,1,0,0:0:0:0:
256,192,86379,1,8,0:0:0:0:
256,192,86444,1,8,0:0:0:0:
256,192,86509,1,0,0:0:0:0:
256,192,86640,1,8,0:0:0:0:
256,192,86770,1,0,0:0:0:0:
256,192,86901,1,8,0:0:0:0:
256,192,86966,1,8,0:0:0:0:
256,192,87031,1,0,0:0:0:0:
256,192,87161,1,8,0:0:0:0:
256,192,87292,1,0,0:0:0:0:
256,192,87357,1,0,0:0:0:0:
256,192,87422,1,8,0:0:0:0:
256,192,87488,1,8,0:0:0:0:
256,192,87618,1,8,0:0:0:0:
256,192,87683,1,0,0:0:0:0:
256,192,87814,1,0,0:0:0:0:
256,192,87944,1,8,0:0:0:0:
256,192,88074,1,0,0:0:0:0:
256,192,88205,1,0,0:0:0:0:
256,192,88335,1,0,0:0:0:0:
256,192,88466,1,8,0:0:0:0:
256,192,88596,1,0,0:0:0:0:
256,192,88857,1,0,0:0:0:0:
256,192,88922,1,0,0:0:0:0:
256,192,88988,1,8,0:0:0:0:
256,192,89118,1,0,0:0:0:0:
256,192,89183,1,0,0:0:0:0:
256,192,89248,1,8,0:0:0:0:
256,192,89314,1,8,0:0:0:0:
256,192,89379,1,0,0:0:0:0:
256,192,89444,1,0,0:0:0:0:
256,192,89509,1,8,0:0:0:0:
256,192,89574,1,8,0:0:0:0:
256,192,89640,1,0,0:0:0:0:
256,192,89705,1,0,0:0:0:0:
256,192,89770,1,8,0:0:0:0:
256,192,89901,1,0,0:0:0:0:
256,192,90031,1,8,0:0:0:0:
256,192,90096,1,0,0:0:0:0:
256,192,90161,1,0,0:0:0:0:
256,192,90227,1,0,0:0:0:0:
256,192,90292,1,8,0:0:0:0:
256,192,90357,1,8,0:0:0:0:
256,192,90422,1,0,0:0:0:0:
256,192,90488,1,0,0:0:0:0:
256,192,90553,1,8,0:0:0:0:
256,192,90618,1,0,0:0:0:0:
256,192,90683,1,0,0:0:0:0:
256,192,90748,1,0,0:0:0:0:
256,192,90814,1,8,0:0:0:0:
256,192,90879,1,8,0:0:0:0:
256,192,90944,1,0,0:0:0:0:
256,192,91009,1,0,0:0:0:0:
256,192,91074,1,8,0:0:0:0:
256,192,91140,1,0,0:0:0:0:
256,192,91205,1,0,0:0:0:0:
256,192,91270,1,0,0:0:0:0:
256,192,91335,1,8,0:0:0:0:
256,192,91401,1,8,0:0:0:0:
256,192,91466,1,0,0:0:0:0:
256,192,91531,1,0,0:0:0:0:
256,192,91596,1,8,0:0:0:0:
256,192,91661,1,0,0:0:0:0:
256,192,91727,1,0,0:0:0:0:
256,192,91792,1,0,0:0:0:0:
256,192,91857,1,8,0:0:0:0:
256,192,91988,1,0,0:0:0:0:
256,192,92118,1,8,0:0:0:0:
256,192,92183,1,0,0:0:0:0:
256,192,92248,1,0,0:0:0:0:
256,192,92314,1,0,0:0:0:0:
256,192,92379,1,8,0:0:0:0:
256,192,92444,1,0,0:0:0:0:
256,192,92509,1,8,0:0:0:0:
256,192,92574,1,0,0:0:0:0:
256,192,92640,1,8,0:0:0:0:
256,192,92705,1,8,0:0:0:0:
256,192,92770,1,0,0:0:0:0:
256,192,93031,1,0,0:0:0:0:
256,192,93161,1,8,0:0:0:0:
256,192,93227,1,8,0:0:0:0:
256,192,93292,1,0,0:0:0:0:
256,192,93357,1,0,0:0:0:0:
256,192,93422,1,8,0:0:0:0:
256,192,93488,1,0,0:0:0:0:
256,192,93553,1,8,0:0:0:0:
256,192,93618,1,0,0:0:0:0:
256,192,93683,1,8,0:0:0:0:
256,192,93748,1,8,0:0:0:0:
256,192,93814,1,0,0:0:0:0:
256,192,93879,1,0,0:0:0:0:
256,192,93944,1,8,0:0:0:0:
256,192,93988,1,8,0:0:0:0:
256,192,94031,1,8,0:0:0:0:
256,192,94074,1,0,0:0:0:0:
256,192,94140,1,0,0:0:0:0:
256,192,94205,1,8,0:0:0:0:
256,192,94270,1,0,0:0:0:0:
256,192,94335,1,8,0:0:0:0:
256,192,94401,1,8,0:0:0:0:
256,192,94466,1,0,0:0:0:0:
256,192,94531,1,0,0:0:0:0:
256,192,94596,1,8,0:0:0:0:
256,192,94661,1,0,0:0:0:0:
256,192,94727,1,8,0:0:0:0:
256,192,94792,1,8,0:0:0:0:
256,192,94857,1,0,0:0:0:0:
256,192,94922,1,0,0:0:0:0:
256,192,94988,1,8,0:0:0:0:
256,192,95053,1,0,0:0:0:0:
256,192,95118,1,8,0:0:0:0:
256,192,95161,1,8,0:0:0:0:
256,192,95205,1,8,0:0:0:0:
256,192,95248,1,0,0:0:0:0:
256,192,95314,1,0,0:0:0:0:
256,192,95379,1,8,0:0:0:0:
256,192,95444,1,0,0:0:0:0:
256,192,95509,1,8,0:0:0:0:
256,192,95574,1,8,0:0:0:0:
256,192,95640,1,0,0:0:0:0:
256,192,95705,1,0,0:0:0:0:
256,192,95770,1,8,0:0:0:0:
256,192,95814,1,8,0:0:0:0:
256,192,95857,1,8,0:0:0:0:
256,192,95901,1,8,0:0:0:0:
256,192,95966,1,8,0:0:0:0:
256,192,96031,1,0,0:0:0:0:
256,192,96161,1,0,0:0:0:0:
256,192,96227,1,0,0:0:0:0:
256,192,96292,1,8,0:0:0:0:
256,192,96422,1,0,0:0:0:0:
256,192,96488,1,0,0:0:0:0:
256,192,96553,1,8,0:0:0:0:
256,192,96596,1,8,0:0:0:0:
256,192,96640,1,8,0:0:0:0:
256,192,96683,1,0,0:0:0:0:
256,192,96748,1,0,0:0:0:0:
256,192,96814,1,8,0:0:0:0:
256,192,96879,1,0,0:0:0:0:
256,192,96944,1,8,0:0:0:0:
256,192,97335,1,8,0:0:0:0:
256,192,97596,1,8,0:0:0:0:
256,192,97857,1,0,0:0:0:0:
256,192,98118,1,8,0:0:0:0:
256,192,98183,1,8,0:0:0:0:
256,192,98248,1,0,0:0:0:0:
256,192,98379,1,8,0:0:0:0:
256,192,98509,1,0,0:0:0:0:
256,192,98640,1,8,0:0:0:0:
256,192,98705,1,0,0:0:0:0:
256,192,98770,1,0,0:0:0:0:
256,192,98901,1,0,0:0:0:0:
256,192,99031,1,0,0:0:0:0:
256,192,99161,1,8,0:0:0:0:
256,192,99227,1,0,0:0:0:0:
256,192,99292,1,0,0:0:0:0:
256,192,99422,1,0,0:0:0:0:
256,192,99553,1,0,0:0:0:0:
256,192,99683,1,0,0:0:0:0:
256,192,99814,1,8,0:0:0:0:
256,192,100205,1,8,0:0:0:0:
256,192,100270,1,8,0:0:0:0:
256,192,100335,1,0,0:0:0:0:
256,192,100466,1,0,0:0:0:0:
256,192,100596,1,0,0:0:0:0:
256,192,100727,1,8,0:0:0:0:
256,192,100792,1,0,0:0:0:0:
256,192,100857,1,0,0:0:0:0:
256,192,100988,1,0,0:0:0:0:
256,192,101118,1,8,0:0:0:0:
256,192,101248,1,0,0:0:0:0:
256,192,101379,1,12,0:0:0:0:
256,192,101509,1,12,0:0:0:0:
256,192,101640,1,0,0:0:0:0:
256,192,101770,1,12,0:0:0:0:
256,192,101901,1,12,0:0:0:0:
256,192,102031,1,0,0:0:0:0:
256,192,102161,1,12,0:0:0:0:
256,192,102292,1,8,0:0:0:0:
256,192,102357,1,8,0:0:0:0:
256,192,102422,1,0,0:0:0:0:
256,192,102553,1,0,0:0:0:0:
256,192,102683,1,0,0:0:0:0:
256,192,102814,1,8,0:0:0:0:
256,192,102879,1,0,0:0:0:0:
256,192,102944,1,0,0:0:0:0:
256,192,103074,1,0,0:0:0:0:
256,192,103205,1,0,0:0:0:0:
256,192,103335,1,8,0:0:0:0:
256,192,103401,1,0,0:0:0:0:
256,192,103466,1,0,0:0:0:0:
256,192,103596,1,0,0:0:0:0:
256,192,103727,1,0,0:0:0:0:
256,192,103857,1,0,0:0:0:0:
256,192,103988,1,8,0:0:0:0:
256,192,104379,1,8,0:0:0:0:
256,192,104444,1,8,0:0:0:0:
256,192,104509,1,0,0:0:0:0:
256,192,104640,1,0,0:0:0:0:
256,192,104770,1,0,0:0:0:0:
256,192,104901,1,8,0:0:0:0:
256,192,104966,1,0,0:0:0:0:
256,192,105031,1,0,0:0:0:0:
256,192,105161,1,0,0:0:0:0:
256,192,105292,1,0,0:0:0:0:
256,192,105422,1,0,0:0:0:0:
256,192,105553,1,12,0:0:0:0:
256,192,105683,1,12,0:0:0:0:
256,192,105814,1,0,0:0:0:0:
256,192,105944,1,12,0:0:0:0:
256,192,106074,1,12,0:0:0:0:
256,192,106205,1,0,0:0:0:0:
256,192,106335,1,12,0:0:0:0:
256,192,106466,1,0,0:0:0:0:
256,192,106596,1,0,0:0:0:0:
256,192,107509,1,8,0:0:0:0:
256,192,108422,1,0,0:0:0:0:
256,192,108553,1,0,0:0:0:0:
256,192,108683,1,0,0:0:0:0:
256,192,109335,1,0,0:0:0:0:
256,192,109401,1,0,0:0:0:0:
256,192,109466,1,0,0:0:0:0:
256,192,109531,1,0,0:0:0:0:
256,192,109596,1,8,0:0:0:0:
256,192,109727,1,0,0:0:0:0:
256,192,109988,1,0,0:0:0:0:
256,192,110118,1,0,0:0:0:0:
256,192,110379,1,0,0:0:0:0:
256,192,110509,1,0,0:0:0:0:
256,192,110640,1,8,0:0:0:0:
256,192,110770,1,0,0:0:0:0:
256,192,111683,1,8,0:0:0:0:
256,192,112596,1,0,0:0:0:0:
256,192,112727,1,0,0:0:0:0:
256,192,112857,1,0,0:0:0:0:
256,192,113509,1,0,0:0:0:0:
256,192,113574,1,0,0:0:0:0:
256,192,113640,1,0,0:0:0:0:
256,192,113705,1,0,0:0:0:0:
256,192,113770,1,8,0:0:0:0:
256,192,113901,1,0,0:0:0:0:
256,192,114161,1,0,0:0:0:0:
256,192,114292,1,0,0:0:0:0:
256,192,114553,1,0,0:0:0:0:
256,192,114683,1,8,0:0:0:0:
256,192,114814,1,0,0:0:0:0:
256,192,115205,1,8,0:0:0:0:
256,192,115596,1,0,0:0:0:0:
256,192,115857,1,8,0:0:0:0:
256,192,116118,1,8,0:0:0:0:
256,192,116379,1,0,0:0:0:0:
256,192,116640,1,8,0:0:0:0:
256,192,116901,1,0,0:0:0:0:
256,192,117292,1,8,0:0:0:0:
256,192,117683,1,0,0:0:0:0:
256,192,118074,1,8,0:0:0:0:
256,192,118466,1,0,0:0:0:0:
256,192,118727,1,0,0:0:0:0:
256,192,118988,1,0,0:0:0:0:
256,192,119379,1,8,0:0:0:0:
256,192,119770,1,0,0:0:0:0:
256,192,120031,1,8,0:0:0:0:
256,192,120292,1,8,0:0:0:0:
256,192,120553,1,0,0:0:0:0:
256,192,120814,1,8,0:0:0:0:
256,192,121074,1,8,0:0:0:0:
256,192,121205,1,0,0:0:0:0:
256,192,121335,1,0,0:0:0:0:
256,192,121466,1,8,0:0:0:0:
256,192,121596,1,8,0:0:0:0:
256,192,121727,1,0,0:0:0:0:
256,192,121857,1,0,0:0:0:0:
256,192,121988,1,8,0:0:0:0:
256,192,122248,1,12,0:0:0:0:
256,192,122379,1,12,0:0:0:0:
256,192,122509,1,0,0:0:0:0:
256,192,122640,1,12,0:0:0:0:
256,192,122770,1,12,0:0:0:0:
256,192,122901,1,0,0:0:0:0:
256,192,123031,1,12,0:0:0:0:
256,192,123161,1,0,0:0:0:0:
256,192,123292,1,0,0:0:0:0:
256,192,123422,1,8,0:0:0:0:
256,192,123553,1,0,0:0:0:0:
256,192,123618,1,0,0:0:0:0:
256,192,123683,1,8,0:0:0:0:
256,192,123814,1,0,0:0:0:0:
256,192,123944,1,8,0:0:0:0:
256,192,124009,1,8,0:0:0:0:
256,192,124074,1,0,0:0:0:0:
256,192,124205,1,8,0:0:0:0:
256,192,124270,1,0,0:0:0:0:
256,192,124335,1,0,0:0:0:0:
256,192,124466,1,8,0:0:0:0:
256,192,124531,1,8,0:0:0:0:
256,192,124596,1,0,0:0:0:0:
256,192,124727,1,8,0:0:0:0:
256,192,124792,1,8,0:0:0:0:
256,192,124857,1,8,0:0:0:0:
256,192,124988,1,0,0:0:0:0:
256,192,125118,1,0,0:0:0:0:
256,192,125183,1,0,0:0:0:0:
256,192,125248,1,8,0:0:0:0:
256,192,125379,1,0,0:0:0:0:
256,192,125509,1,8,0:0:0:0:
256,192,125640,1,8,0:0:0:0:
256,192,125770,1,0,0:0:0:0:
256,192,125901,1,0,0:0:0:0:
256,192,126031,1,8,0:0:0:0:
256,192,126161,1,0,0:0:0:0:
256,192,126292,1,0,0:0:0:0:
256,192,126422,1,8,0:0:0:0:
256,192,126553,1,8,0:0:0:0:
256,192,126683,1,0,0:0:0:0:
256,192,126814,1,8,0:0:0:0:
256,192,126879,1,8,0:0:0:0:
256,192,126944,1,0,0:0:0:0:
256,192,127009,1,0,0:0:0:0:
256,192,127074,1,8,0:0:0:0:
256,192,127140,1,8,0:0:0:0:
256,192,127205,1,0,0:0:0:0:
256,192,127270,1,0,0:0:0:0:
256,192,127335,1,8,0:0:0:0:
256,192,127379,1,8,0:0:0:0:
256,192,127422,1,8,0:0:0:0:
256,192,127466,1,0,0:0:0:0:
256,192,127531,1,0,0:0:0:0:
256,192,127596,1,8,0:0:0:0:
256,192,127661,1,0,0:0:0:0:
256,192,127727,1,8,0:0:0:0:
256,192,127792,1,0,0:0:0:0:
256,192,127857,1,8,0:0:0:0:
256,192,127922,1,8,0:0:0:0:
256,192,127988,1,8,0:0:0:0:
256,192,128053,1,8,0:0:0:0:
256,192,128118,1,0,0:0:0:0:
256,192,128183,1,0,0:0:0:0:
256,192,128248,1,8,0:0:0:0:
256,192,128314,1,0,0:0:0:0:
256,192,128379,1,8,0:0:0:0:
256,192,128444,1,8,0:0:0:0:
256,192,128509,1,0,0:0:0:0:
256,192,128574,1,0,0:0:0:0:
256,192,128640,1,8,0:0:0:0:
256,192,128705,1,0,0:0:0:0:
256,192,128770,1,0,0:0:0:0:
256,192,128835,1,0,0:0:0:0:
256,192,128901,1,8,0:0:0:0:
256,192,128966,1,8,0:0:0:0:
256,192,129031,1,0,0:0:0:0:
256,192,129096,1,0,0:0:0:0:
256,192,129161,1,8,0:0:0:0:
256,192,129227,1,0,0:0:0:0:
256,192,129292,1,0,0:0:0:0:
256,192,129357,1,0,0:0:0:0:
256,192,129422,1,8,0:0:0:0:
256,192,129488,1,0,0:0:0:0:
256,192,129553,1,8,0:0:0:0:
256,192,129596,1,8,0:0:0:0:
256,192,129640,1,8,0:0:0:0:
256,192,129683,1,0,0:0:0:0:
256,192,129748,1,0,0:0:0:0:
256,192,129814,1,8,0:0:0:0:
256,192,129944,1,8,0:0:0:0:
256,192,129988,1,8,0:0:0:0:
256,192,130031,1,8,0:0:0:0:
256,192,130074,1,0,0:0:0:0:
256,192,130140,1,0,0:0:0:0:
256,192,130205,1,8,0:0:0:0:
256,192,130335,1,0,0:0:0:0:
256,192,130401,1,0,0:0:0:0:
256,192,130466,1,8,0:0:0:0:
256,192,130509,1,8,0:0:0:0:
256,192,130553,1,8,0:0:0:0:
256,192,130596,1,0,0:0:0:0:
256,192,130661,1,8,0:0:0:0:
256,192,130727,1,0,0:0:0:0:
256,192,130857,1,0,0:0:0:0:
256,192,130922,1,0,0:0:0:0:
256,192,130988,1,0,0:0:0:0:
256,192,131118,1,0,0:0:0:0:
256,192,131183,1,0,0:0:0:0:
256,192,131248,1,8,0:0:0:0:
256,192,131509,1,4,0:0:0:0:
256,192,131640,1,4,0:0:0:0:
256,192,131770,1,8,0:0:0:0:
256,192,132031,1,0,0:0:0:0:
256,192,132161,1,8,0:0:0:0:
256,192,132227,1,8,0:0:0:0:
256,192,132292,1,0,0:0:0:0:
256,192,132422,1,4,0:0:0:0:
256,192,132683,1,0,0:0:0:0:
256,192,132814,1,8,0:0:0:0:
256,192,133074,1,0,0:0:0:0:
256,192,133205,1,8,0:0:0:0:
256,192,133270,1,8,0:0:0:0:
256,192,133335,1,0,0:0:0:0:
256,192,133596,1,4,0:0:0:0:
256,192,133727,1,4,0:0:0:0:
256,192,133857,1,8,0:0:0:0:
256,192,134118,1,0,0:0:0:0:
256,192,134248,1,8,0:0:0:0:
256,192,134314,1,8,0:0:0:0:
256,192,134379,1,0,0:0:0:0:
256,192,134509,1,4,0:0:0:0:
256,192,134770,1,0,0:0:0:0:
256,192,134901,1,8,0:0:0:0:
256,192,135031,1,4,0:0:0:0:
256,192,135292,1,0,0:0:0:0:
256,192,135422,1,8,0:0:0:0:
256,192,135683,1,4,0:0:0:0:
256,192,135814,1,4,0:0:0:0:
256,192,135944,1,8,0:0:0:0:
256,192,136205,1,0,0:0:0:0:
256,192,136335,1,0,0:0:0:0:
256,192,136401,1,0,0:0:0:0:
256,192,136466,1,8,0:0:0:0:
256,192,136596,1,4,0:0:0:0:
256,192,136857,1,0,0:0:0:0:
256,192,136988,1,8,0:0:0:0:
256,192,137248,1,0,0:0:0:0:
256,192,137379,1,0,0:0:0:0:
256,192,137444,1,0,0:0:0:0:
256,192,137509,1,8,0:0:0:0:
256,192,137770,1,4,0:0:0:0:
256,192,137901,1,4,0:0:0:0:
256,192,138031,1,8,0:0:0:0:
256,192,138292,1,0,0:0:0:0:
256,192,138422,1,0,0:0:0:0:
256,192,138488,1,0,0:0:0:0:
256,192,138553,1,8,0:0:0:0:
256,192,138683,1,4,0:0:0:0:
256,192,138944,1,0,0:0:0:0:
256,192,139074,1,8,0:0:0:0:
256,192,139205,1,4,0:0:0:0:
256,192,139466,1,0,0:0:0:0:
256,192,139531,1,0,0:0:0:0:
256,192,139596,1,8,0:0:0:0:
256,192,139857,1,4,0:0:0:0:
256,192,139988,1,4,0:0:0:0:
