osu file format v14

[General]
AudioFilename: audio.mp3
AudioLeadIn: 0
PreviewTime: 81417
Countdown: 0
SampleSet: None
StackLeniency: 0.3
Mode: 0
LetterboxInBreaks: 0
WidescreenStoryboard: 0

[Editor]
Bookmarks: 6288,10462,14506,18810,22854,27158,31332,35506,39680,43854,51156,55332,56375,73071,81419,98115,106462,114810
DistanceSpacing: 3.6
BeatDivisor: 4
GridSize: 32
TimelineZoom: 1.8

[Metadata]
Title:Perfect Neglect
TitleUnicode:Perfect Neglect
Artist:Kobaryo
ArtistUnicode:Kobaryo
Creator:Scarsnic
Version:Unknown
Source:
Tags:SUPER REUINION HITNEX TRAX SPEED SPEEDCORE POWER METAL FUN
BeatmapID:1288341
BeatmapSetID:610164

[Difficulty]
HPDrainRate:6
CircleSize:4.2
OverallDifficulty:9.3
ApproachRate:9.7
SliderMultiplier:1.9
SliderTickRate:1

[Events]
//Background and Video events
0,0,"M32432423Syt1od.jpg",0,0
//Break Periods
2,115009,121748
//Storyboard Layer 0 (Background)
//Storyboard Layer 1 (Fail)
//Storyboard Layer 2 (Pass)
//Storyboard Layer 3 (Foreground)
//Storyboard Sound Samples

[TimingPoints]
1070,260.869565217391,4,3,1,50,1,0
2113,-100,4,3,1,75,0,0
6222,-100,4,3,1,5,0,0
6287,-100,4,3,2,75,0,0
7396,-100,4,3,2,5,0,0
7461,-100,4,3,2,75,0,0
10396,-100,4,3,2,5,0,0
10461,-90.9090909090909,4,3,2,75,0,0
14504,-100,4,3,1,75,0,0
15743,-100,4,3,1,5,0,0
15809,-100,4,3,1,75,0,0
17830,-100,4,3,1,5,0,0
17896,-100,4,3,1,75,0,0
18352,-100,4,3,1,5,0,0
18417,-100,4,3,1,75,0,0
18743,-100,4,3,1,5,0,0
18809,-90.9090909090909,4,3,2,75,0,0
22852,-100,4,3,1,75,0,0
24091,-100,4,3,1,5,0,0
24156,-100,4,3,1,75,0,0
26178,-100,4,3,1,5,0,0
26243,-100,4,3,1,75,0,0
26699,-100,4,3,1,5,0,0
26765,-100,4,3,1,75,0,0
27091,-100,4,3,1,5,0,0
27417,-125,4,3,1,55,0,0
31330,-100,4,3,1,65,0,0
35765,-125,4,3,1,55,0,0
39678,-100,4,3,1,65,0,0
43852,-83.3333333333333,4,3,2,85,0,1
55330,-166.666666666667,4,3,2,65,0,0
55526,-166.666666666667,4,3,2,5,0,0
55591,-125,4,3,2,65,0,0
55787,-125,4,3,2,5,0,0
55852,-100,4,3,2,65,0,0
56048,-100,4,3,2,5,0,0
56113,-83.3333333333333,4,3,2,65,0,0
56374,-83.3333333333333,4,3,2,85,0,1
73069,-111.111111111111,4,3,1,65,0,0
81417,-83.3333333333333,4,3,2,85,0,1
96939,-100,4,3,1,65,0,0
98113,-83.3333333333333,4,3,2,85,0,1
106461,-100,4,3,2,75,0,0
123156,-76.9230769230769,4,3,2,85,0,1
131504,-83.3333333333333,4,3,2,85,0,0

[Colours]
Combo1 : 114,216,1
Combo2 : 0,0,174
Combo3 : 1,254,185

[HitObjects]
135,208,1070,5,0,0:0:0:0:
70,180,1330,1,0,0:0:0:0:
101,115,1591,1,0,0:0:0:0:
166,144,1852,1,0,0:0:0:0:
104,272,2113,5,4,0:0:0:0:
5,152,2243,1,4,0:0:0:0:
231,173,2374,2,0,P|236:212|220:264,1,95,8|0,0:0|0:0,0:0:0:0:
73,336,2635,1,4,0:0:0:0:
135,208,2765,1,0,0:0:0:0:
135,208,2830,1,0,0:0:0:0:
135,208,2896,1,8,0:0:0:0:
180,365,3026,6,0,B|202:381|202:381|270:381,1,95,4|0,0:0|0:0,0:0:0:0:
383,268,3287,1,4,0:0:0:0:
302,218,3417,2,0,P|288:263|298:309,1,95,8|0,0:0|0:0,0:0:0:0:
405,384,3678,1,4,0:0:0:0:
451,203,3809,1,4,0:0:0:0:
451,203,3874,1,0,0:0:0:0:
451,203,3939,2,0,P|411:178|364:175,1,95,8|0,0:0|0:0,0:0:0:0:
220,264,4200,5,4,0:0:0:0:
383,268,4330,1,4,0:0:0:0:
150,330,4461,2,0,B|134:308|134:308|134:240,1,95,8|0,0:0|0:0,0:0:0:0:
195,95,4722,1,4,0:0:0:0:
302,218,4852,1,0,0:0:0:0:
302,218,4917,1,0,0:0:0:0:
302,218,4983,1,8,0:0:0:0:
85,90,5113,6,0,B|107:74|107:74|175:74,1,95,4|0,0:0|0:0,0:0:0:0:
309,125,5374,1,4,0:0:0:0:
134,240,5504,1,8,0:0:0:0:
10,55,5635,6,0,B|32:39|32:39|100:39,1,95,4|0,0:0|0:0,0:0:0:0:
288,104,5896,1,4,0:0:0:0:
134,240,6026,2,0,P|72:219|123:172,1,142.5,8|0,0:0|0:0,0:0:0:0:
205,180,6287,5,4,0:0:0:0:
120,384,6417,1,4,0:0:0:0:
289,257,6548,2,0,B|317:257|317:257|350:268|350:268|382:268,1,95,8|0,0:0|0:0,0:0:0:0:
500,310,6809,1,0,0:0:0:0:
295,360,6939,1,0,0:0:0:0:
295,360,7004,1,0,0:0:0:0:
295,360,7070,1,8,0:0:0:0:
225,165,7200,6,0,B|261:152|261:152|364:170,1,142.5,4|0,0:0|0:0,0:0:0:0:
410,178,7461,1,4,0:0:0:0:
145,225,7591,2,0,P|126:181|130:134,1,95
214,33,7852,1,0,0:0:0:0:
310,133,7983,1,0,0:0:0:0:
310,133,8048,1,0,0:0:0:0:
310,133,8113,2,0,B|292:153|292:153|225:165,1,95,8|0,0:0|0:0,0:0:0:0:
47,116,8374,5,4,0:0:0:0:
231,266,8504,1,4,0:0:0:0:
195,56,8635,2,0,B|171:42|171:42|104:54,1,95,8|0,0:0|0:0,0:0:0:0:
0,230,8896,1,0,0:0:0:0:
130,134,9026,1,0,0:0:0:0:
130,134,9091,1,0,0:0:0:0:
130,134,9157,1,8,0:0:0:0:
185,330,9287,6,0,B|215:343|215:343|276:335,1,95,4|0,0:0|0:0,0:0:0:0:
382,268,9548,1,4,0:0:0:0:
205,170,9678,1,8,0:0:0:0:
145,345,9809,2,0,B|206:372|206:372|327:355,1,190,4|0,0:0|0:0,0:0:0:0:
382,268,10135,1,0,0:0:0:0:
412,255,10200,2,0,P|461:301|428:358,1,142.5,8|0,0:0|0:0,0:0:0:0:
304,265,10461,6,0,B|281:230|281:230|281:167,1,104.500003189087,12|0,0:0|0:0,0:0:0:0:
315,30,10722,1,0,0:0:0:0:
400,155,10852,1,0,0:0:0:0:
225,90,10983,1,8,0:0:0:0:
180,245,11113,1,0,0:0:0:0:
60,54,11243,2,0,P|109:38|159:50,1,104.500003189087
111,298,11504,6,0,B|91:273|91:273|91:200,1,104.500003189087,8|0,0:0|0:0,0:0:0:0:
279,242,11765,2,0,B|250:257|250:257|179:244,1,104.500003189087
3,156,12026,1,8,0:0:0:0:
43,351,12156,1,0,0:0:0:0:
43,351,12222,1,0,0:0:0:0:
43,351,12287,1,8,0:0:0:0:
330,324,12417,6,0,P|376:236|320:153,1,209.000006378174,8|0,0:0|0:0,0:0:0:0:
147,143,12809,1,0,0:0:0:0:
279,242,12939,1,0,0:0:0:0:
270,55,13069,2,0,B|240:35|240:35|172:35,1,104.500003189087,8|0,0:0|0:0,0:0:0:0:
60,138,13330,1,0,0:0:0:0:
234,148,13461,1,0,0:0:0:0:
80,40,13591,6,0,B|60:70|60:70|60:137,1,104.500003189087,8|0,0:0|0:0,0:0:0:0:
166,318,13852,2,0,B|186:288|186:288|186:220,1,104.500003189087
147,120,14113,1,8,0:0:0:0:
270,320,14243,1,0,0:0:0:0:
270,320,14309,1,0,0:0:0:0:
270,320,14374,1,8,0:0:0:0:
415,147,14504,6,0,B|373:122|373:122|233:147,1,190,8|4,0:0|0:0,0:0:0:0:
404,320,14896,2,0,B|428:301|428:301|439:238,1,95,8|0,0:0|0:0,0:0:0:0:
405,55,15156,2,0,B|384:42|384:42|314:55,1,95,4|4,0:0|0:0,0:0:0:0:
267,63,15352,1,0,0:0:0:0:
267,63,15417,1,8,0:0:0:0:
172,255,15548,6,0,B|172:209|172:209|147:168|147:168|147:119,1,142.5,4|0,0:0|0:0,0:0:0:0:
147,71,15809,1,0,0:0:0:0:
5,200,15939,2,0,B|23:224|23:224|86:235,1,95,8|0,0:0|0:0,0:0:0:0:
315,183,16200,2,0,B|296:158|296:158|233:147,1,95,4|0,0:0|0:0,0:0:0:0:
172,255,16396,1,0,0:0:0:0:
190,280,16461,2,0,B|213:299|213:299|278:293,1,95,8|0,0:0|0:0,0:0:0:0:
425,160,16722,5,4,0:0:0:0:
365,350,16852,1,4,0:0:0:0:
355,94,16983,2,0,P|394:69|441:65,1,95,8|0,0:0|0:0,0:0:0:0:
495,226,17243,1,4,0:0:0:0:
275,65,17374,1,0,0:0:0:0:
275,65,17439,1,0,0:0:0:0:
275,65,17504,1,8,0:0:0:0:
189,279,17635,6,0,P|123:292|87:235,1,142.5,4|0,0:0|0:0,0:0:0:0:
89,184,17896,1,4,0:0:0:0:
14,364,18026,1,8,0:0:0:0:
30,90,18156,2,0,B|65:76|65:76|168:94,1,142.5,4|0,0:0|0:0,0:0:0:0:
214,102,18417,2,0,L|222:148,1,47.5,4|4,0:0|0:0,0:0:0:0:
260,315,18548,2,0,P|305:265|368:290,1,142.5,8|0,0:0|0:0,0:0:0:0:
293,383,18809,6,0,P|242:388|200:360,1,104.500003189087,8|0,0:0|0:0,0:0:0:0:
147,237,19069,1,0,0:0:0:0:
353,189,19200,1,0,0:0:0:0:
214,102,19330,1,8,0:0:0:0:
260,315,19461,1,0,0:0:0:0:
409,114,19591,2,0,P|362:95|311:104,1,104.500003189087
368,290,19852,6,0,P|415:309|466:300,1,104.500003189087,8|0,0:0|0:0,0:0:0:0:
508,125,20113,2,0,P|460:105|409:114,1,104.500003189087
250,215,20374,1,8,0:0:0:0:
265,19,20504,1,0,0:0:0:0:
265,19,20569,1,0,0:0:0:0:
265,19,20635,1,8,0:0:0:0:
160,270,20765,6,0,P|246:321|335:276,1,209.000006378174,8|0,0:0|0:0,0:0:0:0:
312,105,21157,1,0,0:0:0:0:
250,215,21287,1,0,0:0:0:0:
152,101,21417,1,8,0:0:0:0:
78,231,21548,1,0,0:0:0:0:
0,80,21678,1,0,0:0:0:0:
0,339,21809,6,0,B|41:348|76:331|76:331|107:348|107:348|153:324|200:337,1,209.000006378174,12|4,0:0|0:0,0:0:0:0:
336,276,22200,2,0,B|361:256|361:256|374:185,1,104.500003189087
371,24,22461,1,8,0:0:0:0:
512,140,22591,1,0,0:0:0:0:
512,140,22657,1,0,0:0:0:0:
512,140,22722,1,8,0:0:0:0:
279,190,22852,6,0,P|188:185|143:106,1,190,8|0,0:0|0:0,0:0:0:0:
220,15,23243,2,0,B|239:39|239:39|239:104,1,95,8|0,0:0|0:0,0:0:0:0:
60,190,23504,2,0,B|41:166|41:166|41:101,1,95,4|0,0:0|0:0,0:0:0:0:
41,53,23700,1,0,0:0:0:0:
41,54,23765,1,8,0:0:0:0:
160,270,23896,6,0,B|207:270|207:270|252:286|252:286|299:286,1,142.5,4|0,0:0|0:0,0:0:0:0:
346,286,24156,1,4,0:0:0:0:
330,107,24287,2,0,B|303:92|303:92|239:103,1,95,8|0,0:0|0:0,0:0:0:0:
409,213,24548,2,0,B|423:186|423:186|412:122,1,95,4|0,0:0|0:0,0:0:0:0:
370,35,24743,1,0,0:0:0:0:
345,20,24809,2,0,B|318:5|318:5|254:16,1,95,8|0,0:0|0:0,0:0:0:0:
164,169,25069,5,4,0:0:0:0:
95,25,25199,1,4,0:0:0:0:
0,215,25330,2,0,P|41:237|88:234,1,95,8|0,0:0|0:0,0:0:0:0:
240,104,25590,1,4,0:0:0:0:
212,332,25721,1,0,0:0:0:0:
212,332,25786,1,0,0:0:0:0:
212,332,25851,1,8,0:0:0:0:
409,213,25982,6,0,B|372:192|372:192|273:210,1,142.5,4|0,0:0|0:0,0:0:0:0:
226,218,26243,1,4,0:0:0:0:
363,315,26374,1,8,0:0:0:0:
423,99,26504,2,0,B|386:78|386:78|287:96,1,142.5,4|0,0:0|0:0,0:0:0:0:
240,104,26764,2,0,L|231:150,1,47.5,4|4,0:0|0:0,0:0:0:0:
211,332,26895,2,0,P|254:279|226:218,1,142.5
121,263,27156,5,4,0:0:0:0:
102,151,27417,1,8,0:0:0:0:
85,40,27678,1,0,0:0:0:0:
190,80,27939,1,8,0:0:0:0:
190,80,28069,6,0,B|258:86|258:86|345:71|345:71|416:77,1,228,0|8,0:0|0:0,0:0:0:0:
490,175,28722,1,0,0:0:0:0:
368,190,28983,1,8,0:0:0:0:
387,356,29504,5,8,0:0:0:0:
313,257,29765,1,0,0:0:0:0:
190,271,30026,1,8,0:0:0:0:
190,271,30156,5,0,0:0:0:0:
55,115,30548,1,8,0:0:0:0:
38,226,30809,1,0,0:0:0:0:
19,338,31070,1,8,0:0:0:0:
240,158,31330,5,4,0:0:0:0:
142,185,31461,1,0,0:0:0:0:
213,255,31591,2,0,P|261:256|303:236,1,95,4|0,0:0|0:0,0:0:0:0:
427,111,31852,2,0,P|379:110|337:130,1,95,4|0,0:0|0:0,0:0:0:0:
401,209,32113,1,4,0:0:0:0:
498,182,32243,1,0,0:0:0:0:
376,307,32374,5,4,0:0:0:0:
473,279,32504,1,0,0:0:0:0:
279,335,32635,1,4,0:0:0:0:
456,376,32765,1,0,0:0:0:0:
304,237,32896,2,0,P|256:236|214:256,1,95,4|0,0:0|0:0,0:0:0:0:
88,370,33156,2,0,P|135:370|177:350,1,95,4|0,0:0|0:0,0:0:0:0:
113,272,33417,5,4,0:0:0:0:
15,299,33548,1,0,0:0:0:0:
138,174,33678,2,0,P|90:173|48:193,1,95,4|0,0:0|0:0,0:0:0:0:
214,256,33939,2,0,P|241:217|249:171,1,95,4|0,0:0|0:0,0:0:0:0:
191,76,34200,1,4,0:0:0:0:
138,174,34330,1,0,0:0:0:0:
303,71,34461,5,4,0:0:0:0:
365,167,34591,1,0,0:0:0:0:
418,68,34722,1,4,0:0:0:0:
312,266,34852,1,0,0:0:0:0:
442,248,34983,2,0,P|469:210|477:163,1,95,4|0,0:0|0:0,0:0:0:0:
303,71,35243,1,4,0:0:0:0:
298,94,35308,1,0,0:0:0:0:
294,117,35373,1,0,0:0:0:0:
290,141,35438,1,0,0:0:0:0:
286,164,35503,5,4,0:0:0:0:
139,268,35765,1,8,0:0:0:0:
161,148,36026,1,0,0:0:0:0:
265,290,36287,1,8,0:0:0:0:
265,290,36417,6,0,B|312:294|312:294|375:315|375:315|440:305|440:305|488:309,1,228,0|8,0:0|0:0,0:0:0:0:
498,187,37069,1,0,0:0:0:0:
383,225,37330,1,8,0:0:0:0:
161,148,37852,5,8,0:0:0:0:
286,164,38113,1,0,0:0:0:0:
209,264,38374,1,8,0:0:0:0:
209,264,38504,5,0,0:0:0:0:
36,132,38896,1,8,0:0:0:0:
84,248,39157,1,0,0:0:0:0:
113,32,39418,1,8,0:0:0:0:
227,199,39678,5,4,0:0:0:0:
231,74,39809,1,0,0:0:0:0:
337,139,39939,2,0,P|351:185|347:232,1,95,4|0,0:0|0:0,0:0:0:0:
223,324,40200,2,0,P|176:314|137:287,1,95,4|0,0:0|0:0,0:0:0:0:
120,133,40461,1,4,0:0:0:0:
227,199,40591,1,0,0:0:0:0:
342,15,40722,5,4,0:0:0:0:
338,140,40852,1,0,0:0:0:0:
449,81,40983,1,4,0:0:0:0:
445,206,41113,1,0,0:0:0:0:
322,231,41243,2,0,P|321:183|338:139,1,95,4|0,0:0|0:0,0:0:0:0:
500,320,41504,2,0,P|454:332|407:326,1,95,4|0,0:0|0:0,0:0:0:0:
227,199,41765,5,4,0:0:0:0:
223,324,41896,1,0,0:0:0:0:
120,133,42026,2,0,P|151:97|194:77,1,95,4|0,0:0|0:0,0:0:0:0:
223,324,42287,2,0,P|176:314|137:287,1,95,4|0,0:0|0:0,0:0:0:0:
338,140,42548,2,0,P|352:184|349:231,1,95,4|0,0:0|0:0,0:0:0:0:
227,199,42809,5,4,0:0:0:0:
296,36,42939,1,0,0:0:0:0:
438,159,43070,1,6,0:0:0:0:
193,77,43200,1,2,0:0:0:0:
261,323,43330,1,6,0:0:0:0:
338,140,43461,1,2,0:0:0:0:
110,205,43591,6,0,L|62:213,1,47.5,6|0,0:0|0:0,0:0:0:0:
0,66,43722,2,0,L|47:74,1,47.5,6|0,0:0|0:0,0:0:0:0:
227,199,43852,5,4,0:0:0:0:
227,199,43917,1,4,0:0:0:0:
227,199,43983,1,4,0:0:0:0:
40,335,44113,1,4,0:0:0:0:
5,150,44243,1,4,0:0:0:0:
235,330,44374,1,8,0:0:0:0:
220,70,44504,1,4,0:0:0:0:
110,205,44635,1,4,0:0:0:0:
344,193,44765,1,4,0:0:0:0:
150,5,44896,6,0,B|128:34|128:34|128:111,1,113.999996520996,8|4,0:0|0:0,0:0:0:0:
300,384,45156,2,0,B|322:355|322:355|322:277,1,113.999996520996,4|4,0:0|0:0,0:0:0:0:
110,205,45417,1,4,0:0:0:0:
406,254,45548,2,0,P|420:149|323:106,1,227.999993041992,4|0,0:0|0:0,0:0:0:0:
205,225,45939,5,8,0:0:0:0:
205,225,46004,1,4,0:0:0:0:
205,225,46070,1,4,0:0:0:0:
270,25,46200,1,4,0:0:0:0:
344,193,46330,1,4,0:0:0:0:
110,125,46461,1,8,0:0:0:0:
173,325,46591,1,4,0:0:0:0:
237,125,46722,1,4,0:0:0:0:
60,290,46852,1,4,0:0:0:0:
25,140,46983,6,0,L|81:130,1,56.9999982604981,2|2,0:0|0:0,0:0:0:0:
230,110,47114,1,8,0:0:0:0:
166,310,47244,1,8,0:0:0:0:
37,100,47374,6,0,L|94:100,1,56.9999982604981,2|2,0:0|0:0,0:0:0:0:
244,106,47505,1,8,0:0:0:0:
146,292,47635,1,8,0:0:0:0:
56,64,47765,6,0,L|112:74,1,56.9999982604981,2|2,0:0|0:0,0:0:0:0:
259,106,47896,1,8,0:0:0:0:
131,272,48026,5,12,0:0:0:0:
131,272,48091,1,4,0:0:0:0:
131,272,48156,1,4,0:0:0:0:
340,320,48287,1,4,0:0:0:0:
375,130,48417,1,4,0:0:0:0:
235,296,48548,5,8,0:0:0:0:
145,81,48678,1,4,0:0:0:0:
357,225,48809,1,4,0:0:0:0:
138,176,48939,1,4,0:0:0:0:
430,287,49069,6,0,B|456:255|456:255|456:182,1,113.999996520996,8|4,0:0|0:0,0:0:0:0:
285,1,49330,2,0,B|259:33|259:33|259:105,1,113.999996520996,4|4,0:0|0:0,0:0:0:0:
340,320,49591,1,0,0:0:0:0:
375,130,49722,2,8,B|367:103|332:84|332:84|216:84|216:84|258:105,1,227.999993041992,8|0,0:0|0:0,0:0:0:0:
430,287,50113,5,4,0:0:0:0:
430,287,50178,1,4,0:0:0:0:
430,287,50243,1,4,0:0:0:0:
451,89,50374,1,4,0:0:0:0:
305,185,50504,1,4,0:0:0:0:
505,219,50635,1,8,0:0:0:0:
355,355,50765,1,4,0:0:0:0:
258,105,50896,1,4,0:0:0:0:
190,384,51026,1,4,0:0:0:0:
55,215,51156,6,0,L|111:205,1,56.9999982604981,2|2,0:0|0:0,0:0:0:0:
215,185,51287,1,8,0:0:0:0:
140,315,51417,1,8,0:0:0:0:
26,104,51548,6,0,L|82:94,1,56.9999982604981,2|2,0:0|0:0,0:0:0:0:
186,74,51679,1,8,0:0:0:0:
111,204,51809,1,8,0:0:0:0:
338,139,51939,6,8,L|328:195,1,56.9999982604981,10|10,0:0|0:0,0:0:0:0:
312,299,52070,1,8,0:0:0:0:
205,241,52200,5,4,0:0:0:0:
205,241,52265,1,4,0:0:0:0:
205,241,52330,2,8,L|214:184,1,56.9999982604981,10|10,0:0|0:0,0:0:0:0:
320,76,52461,2,8,L|283:119,1,56.9999982604981,10|10,0:0|0:0,0:0:0:0:
130,276,52591,5,4,0:0:0:0:
130,276,52656,1,4,0:0:0:0:
130,276,52721,2,8,L|166:232,1,56.9999982604981,10|10,0:0|0:0,0:0:0:0:
402,83,52852,2,8,L|348:102,1,56.9999982604981,10|10,0:0|0:0,0:0:0:0:
47,268,52983,5,4,0:0:0:0:
47,268,53047,1,4,0:0:0:0:
47,268,53113,2,8,L|100:248,1,56.9999982604981,10|10,0:0|0:0,0:0:0:0:
469,130,53243,5,4,0:0:0:0:
469,130,53309,1,4,0:0:0:0:
469,130,53374,2,8,L|412:120,1,56.9999982604981,10|10,0:0|0:0,0:0:0:0:
312,299,53504,2,8,L|365:279,1,56.9999982604981,10|10,0:0|0:0,0:0:0:0:
320,76,53635,5,4,0:0:0:0:
320,76,53700,1,4,0:0:0:0:
320,76,53765,2,8,L|283:119,1,56.9999982604981,10|10,0:0|0:0,0:0:0:0:
190,330,53896,2,8,L|199:273,1,56.9999982604981,10|10,0:0|0:0,0:0:0:0:
166,20,54026,5,4,0:0:0:0:
166,20,54091,1,4,0:0:0:0:
166,20,54156,2,8,L|185:73,1,56.9999982604981,10|10,0:0|0:0,0:0:0:0:
305,384,54287,5,4,0:0:0:0:
412,120,54417,1,4,0:0:0:0:
100,247,54548,1,8,0:0:0:0:
470,311,54678,2,0,B|494:276|494:276|494:204,1,113.999996520996,12|0,0:0|0:0,0:0:0:0:
430,30,54939,6,0,L|420:86,1,56.9999982604981,2|0,0:0|0:0,0:0:0:0:
273,178,55069,2,0,L|282:121,1,56.9999982604981,10|0,0:0|0:0,0:0:0:0:
155,0,55200,2,0,L|145:56,1,56.9999982604981,2|0,0:0|0:0,0:0:0:0:
89,304,55330,6,0,P|131:297|156:264,1,85.4999973907472,4|0,0:0|0:0,0:0:0:0:
90,335,55591,6,0,P|144:324|178:280,1,114,4|0,0:0|0:0,0:0:0:0:
89,366,55852,6,0,P|158:355|205:303,1,142.5,4|0,0:0|0:0,0:0:0:0:
104,209,56113,6,0,P|77:216|64:240,3,56.9999982604981,6|2|2|2,0:0|0:0|0:0|0:0,0:0:0:0:
0,274,56374,6,0,P|-2:218|24:170,1,113.999996520996,4|0,0:0|0:0,0:0:0:0:
230,57,56635,1,8,0:0:0:0:
265,262,56765,2,0,B|234:277|234:277|156:264,1,113.999996520996,4|0,0:0|0:0,0:0:0:0:
127,112,57026,1,8,0:0:0:0:
340,210,57156,2,0,B|355:240|355:240|342:318,1,113.999996520996,12|0,0:0|0:0,0:0:0:0:
248,160,57417,5,2,0:0:0:0:
429,281,57548,1,0,0:0:0:0:
255,356,57678,1,2,0:0:0:0:
335,104,57809,1,0,0:0:0:0:
342,318,57939,5,2,0:0:0:0:
422,48,58070,1,0,0:0:0:0:
244,57,58200,1,2,0:0:0:0:
512,245,58330,1,0,0:0:0:0:
156,264,58461,6,0,B|140:233|140:233|153:155,1,113.999996520996,4|0,0:0|0:0,0:0:0:0:
35,325,58722,2,0,B|19:294|19:294|32:216,1,113.999996520996,4|0,0:0|0:0,0:0:0:0:
60,95,58983,1,4,0:0:0:0:
265,262,59113,1,4,0:0:0:0:
244,57,59243,2,0,B|213:41|213:41|135:54,1,113.999996520996,4|0,0:0|0:0,0:0:0:0:
156,264,59504,5,4,0:0:0:0:
300,260,59635,1,4,0:0:0:0:
154,156,59765,1,4,0:0:0:0:
158,372,59896,1,4,0:0:0:0:
359,184,60026,2,0,P|307:164|252:175,1,113.999996520996,4|0,0:0|0:0,0:0:0:0:
285,355,60287,2,0,P|340:346|382:309,1,113.999996520996,4|0,0:0|0:0,0:0:0:0:
480,95,60548,6,0,B|454:117|454:117|440:196,1,113.999996520996,12|0,0:0|0:0,0:0:0:0:
509,303,60809,1,8,0:0:0:0:
370,65,60939,2,0,L|257:84,1,113.999996520996,4|0,0:0|0:0,0:0:0:0:
175,345,61200,1,8,0:0:0:0:
138,156,61330,2,0,L|251:175,1,113.999996520996,4|0,0:0|0:0,0:0:0:0:
382,308,61591,5,2,0:0:0:0:
155,255,61722,1,0,0:0:0:0:
258,84,61852,1,2,0:0:0:0:
280,327,61983,1,0,0:0:0:0:
351,118,62113,5,2,0:0:0:0:
60,225,62244,1,0,0:0:0:0:
165,50,62374,1,2,0:0:0:0:
180,365,62504,1,0,0:0:0:0:
387,235,62635,6,0,P|333:216|279:231,1,113.999996520996,4|0,0:0|0:0,0:0:0:0:
491,100,62896,2,0,P|437:81|383:96,1,113.999996520996,4|0,0:0|0:0,0:0:0:0:
331,315,63156,1,4,0:0:0:0:
205,155,63287,1,4,0:0:0:0:
434,179,63417,1,8,0:0:0:0:
163,332,63548,1,4,0:0:0:0:
120,100,63678,5,4,0:0:0:0:
45,345,63809,1,4,0:0:0:0:
0,40,63939,1,4,0:0:0:0:
120,250,64069,6,0,B|90:266|90:266|11:253,1,113.999996520996,4|0,0:0|0:0,0:0:0:0:
202,46,64330,1,4,0:0:0:0:
202,46,64396,1,4,0:0:0:0:
202,46,64461,2,0,B|218:75|218:75|205:154,1,113.999996520996,4|0,0:0|0:0,0:0:0:0:
163,332,64722,6,0,B|192:315|192:315|271:328,1,113.999996520996,12|0,0:0|0:0,0:0:0:0:
407,384,64983,1,8,0:0:0:0:
415,165,65113,2,0,B|385:148|385:148|306:161,1,113.999996520996,4|0,0:0|0:0,0:0:0:0:
205,240,65374,1,8,0:0:0:0:
475,234,65504,2,0,P|504:186|499:131,1,113.999996520996,4|0,0:0|0:0,0:0:0:0:
320,5,65765,6,0,B|328:61|328:61|320:117,1,113.999996520996,6|0,0:0|0:0,0:0:0:0:
204,352,66026,2,0,B|196:296|196:296|204:240,1,113.999996520996,6|0,0:0|0:0,0:0:0:0:
406,4,66287,2,0,B|414:60|414:60|406:116,1,113.999996520996,6|0,0:0|0:0,0:0:0:0:
125,359,66548,2,0,B|117:303|117:303|125:247,1,113.999996520996,6|0,0:0|0:0,0:0:0:0:
240,20,66809,6,0,B|210:37|210:37|131:24,1,113.999996520996,4|0,0:0|0:0,0:0:0:0:
110,145,67069,2,0,B|80:162|80:162|1:149,1,113.999996520996,4|0,0:0|0:0,0:0:0:0:
100,15,67330,1,4,0:0:0:0:
125,246,67461,1,4,0:0:0:0:
292,117,67591,2,0,B|322:100|322:100|401:113,1,113.999996520996,4|0,0:0|0:0,0:0:0:0:
443,235,67852,5,4,0:0:0:0:
336,195,67983,1,4,0:0:0:0:
512,155,68113,1,4,0:0:0:0:
457,327,68244,1,4,0:0:0:0:
268,246,68374,2,0,P|252:192|271:140,1,113.999996520996,4|0,0:0|0:0,0:0:0:0:
396,6,68635,2,0,P|415:58|400:112,1,113.999996520996,4|0,0:0|0:0,0:0:0:0:
155,115,68896,6,0,B|185:98|185:98|264:111,1,113.999996520996,12|0,0:0|0:0,0:0:0:0:
420,250,69157,1,8,0:0:0:0:
115,315,69287,2,0,B|88:292|88:292|73:213,1,113.999996520996,4|0,0:0|0:0,0:0:0:0:
70,25,69548,1,8,0:0:0:0:
268,246,69678,2,0,B|236:260|236:260|158:242,1,113.999996520996,4|0,0:0|0:0,0:0:0:0:
0,115,69939,5,2,0:0:0:0:
245,27,70070,1,0,0:0:0:0:
115,315,70200,1,2,0:0:0:0:
70,25,70331,1,0,0:0:0:0:
330,135,70461,5,2,0:0:0:0:
219,384,70592,1,0,0:0:0:0:
155,115,70722,1,2,0:0:0:0:
505,155,70852,1,0,0:0:0:0:
162,243,70983,5,4,0:0:0:0:
162,243,71048,1,4,0:0:0:0:
162,243,71113,1,4,0:0:0:0:
269,9,71243,1,8,0:0:0:0:
335,245,71374,1,4,0:0:0:0:
335,245,71439,1,4,0:0:0:0:
335,245,71504,1,4,0:0:0:0:
442,11,71635,1,8,0:0:0:0:
508,247,71765,1,4,0:0:0:0:
508,247,71830,1,4,0:0:0:0:
508,247,71896,1,4,0:0:0:0:
302,127,72026,5,4,0:0:0:0:
302,127,72091,1,4,0:0:0:0:
302,127,72156,1,4,0:0:0:0:
236,384,72287,1,0,0:0:0:0:
155,115,72418,1,0,0:0:0:0:
335,245,72548,2,0,B|361:251|361:251|390:245,3,56.9999982604981,2|2|2|2,0:0|0:0|0:0|0:0,0:0:0:0:
302,127,72809,2,0,B|276:121|276:121|247:127,3,56.9999982604981,2|2|2|2,0:0|0:0|0:0|0:0,0:0:0:0:
263,314,73069,6,0,B|304:309|304:309|361:323|361:323|430:309,1,170.999994781494,4|0,0:0|0:0,0:0:0:0:
496,198,73461,1,0,0:0:0:0:
496,198,73526,1,0,0:0:0:0:
496,198,73591,2,0,L|411:212,1,85.4999973907472,8|0,0:0|0:0,0:0:0:0:
255,221,73852,1,0,0:0:0:0:
360,64,73983,2,0,B|376:87|376:87|376:144,1,85.4999973907472
175,270,74243,5,0,0:0:0:0:
106,134,74374,1,0,0:0:0:0:
246,127,74504,1,0,0:0:0:0:
70,136,74635,1,8,0:0:0:0:
237,33,74765,1,0,0:0:0:0:
255,221,74896,5,0,0:0:0:0:
278,217,74961,1,0,0:0:0:0:
299,207,75026,1,0,0:0:0:0:
316,191,75091,1,0,0:0:0:0:
330,172,75156,6,0,L|344:256,2,85.4999973907472
460,45,75548,1,0,0:0:0:0:
460,45,75613,1,0,0:0:0:0:
460,45,75678,2,0,L|446:130,1,85.4999973907472,8|0,0:0|0:0,0:0:0:0:
425,240,75939,1,0,0:0:0:0:
246,126,76069,2,0,P|273:94|312:78,1,85.4999973907472
280,295,76330,5,0,0:0:0:0:
280,295,76396,1,0,0:0:0:0:
280,295,76461,1,0,0:0:0:0:
135,205,76591,1,0,0:0:0:0:
330,230,76722,5,8,0:0:0:0:
350,252,76787,1,0,0:0:0:0:
361,280,76852,1,0,0:0:0:0:
362,310,76917,1,0,0:0:0:0:
351,338,76983,1,0,0:0:0:0:
332,361,77048,1,0,0:0:0:0:
305,375,77113,1,0,0:0:0:0:
275,378,77178,1,0,0:0:0:0:
246,371,77243,6,0,B|216:356|216:356|164:356,1,85.4999973907472
50,384,77504,1,0,0:0:0:0:
115,225,77635,1,0,0:0:0:0:
115,225,77700,1,0,0:0:0:0:
115,225,77765,1,8,0:0:0:0:
280,295,77896,1,0,0:0:0:0:
50,270,78026,2,0,P|35:230|44:188,2,85.4999973907472
164,356,78417,5,0,0:0:0:0:
110,140,78548,1,0,0:0:0:0:
50,384,78678,1,0,0:0:0:0:
225,213,78809,5,8,0:0:0:0:
238,186,78874,1,0,0:0:0:0:
245,157,78939,1,0,0:0:0:0:
246,127,79004,1,0,0:0:0:0:
239,98,79069,1,0,0:0:0:0:
227,70,79135,1,0,0:0:0:0:
208,47,79200,1,0,0:0:0:0:
184,29,79265,1,0,0:0:0:0:
158,14,79330,6,0,L|73:28,1,85.4999973907472
0,135,79591,1,0,0:0:0:0:
141,228,79722,1,0,0:0:0:0:
141,228,79787,1,0,0:0:0:0:
141,228,79852,2,0,L|225:213,1,85.4999973907472,8|0,0:0|0:0,0:0:0:0:
359,166,80113,1,0,0:0:0:0:
270,370,80243,2,0,B|251:348|251:348|246:291,1,85.4999973907472,8|0,0:0|0:0,0:0:0:0:
269,110,80504,5,0,0:0:0:0:
269,110,80570,1,0,0:0:0:0:
269,110,80635,1,8,0:0:0:0:
325,303,80765,1,8,0:0:0:0:
141,226,80896,5,2,0:0:0:0:
159,215,80961,1,2,0:0:0:0:
180,210,81026,2,0,B|157:214|141:226,1,42.7499986953736,2|0,0:0|0:0,0:0:0:0:
25,340,81156,1,2,0:0:0:0:
28,362,81221,1,2,0:0:0:0:
35,381,81286,2,0,B|25:362|25:340,1,42.7499986953736,2|0,0:0|0:0,0:0:0:0:
23,88,81417,6,0,B|65:70|65:70|243:101,1,227.999993041992,4|0,0:0|0:0,0:0:0:0:
381,181,81809,1,8,0:0:0:0:
110,325,81939,1,0,0:0:0:0:
180,0,82069,1,0,0:0:0:0:
250,222,82200,6,0,B|220:239|220:239|141:226,2,113.999996520996,8|0|0,0:0|0:0|0:0,0:0:0:0:
324,30,82591,1,8,0:0:0:0:
325,303,82722,1,8,0:0:0:0:
195,140,82852,1,8,0:0:0:0:
484,237,82983,1,8,0:0:0:0:
353,106,83113,5,8,0:0:0:0:
395,100,83178,1,0,0:0:0:0:
437,94,83243,1,8,0:0:0:0:
479,88,83309,1,0,0:0:0:0:
434,299,83439,1,0,0:0:0:0:
434,299,83504,6,0,B|404:316|404:316|325:303,1,113.999996520996,4|0,0:0|0:0,0:0:0:0:
142,226,83765,1,0,0:0:0:0:
262,87,83896,2,0,P|279:140|260:193,1,113.999996520996,8|0,0:0|0:0,0:0:0:0:
55,315,84156,1,0,0:0:0:0:
106,115,84287,1,8,0:0:0:0:
192,383,84417,1,0,0:0:0:0:
170,384,84678,5,8,0:0:0:0:
325,303,84809,1,8,0:0:0:0:
195,140,84939,1,8,0:0:0:0:
330,25,85069,1,8,0:0:0:0:
216,266,85200,5,8,0:0:0:0:
176,266,85265,1,0,0:0:0:0:
138,255,85330,1,8,0:0:0:0:
105,232,85396,1,0,0:0:0:0:
83,199,85461,1,0,0:0:0:0:
71,161,85526,1,0,0:0:0:0:
70,121,85591,6,0,B|100:105|100:105|179:118,1,113.999996520996,4|0,0:0|0:0,0:0:0:0:
400,160,85852,1,0,0:0:0:0:
218,372,85983,2,0,P|199:319|216:265,1,113.999996520996,8|0,0:0|0:0,0:0:0:0:
305,110,86243,1,0,0:0:0:0:
396,315,86374,2,0,B|366:331|366:331|287:318,2,113.999996520996,8|0|0,0:0|0:0|0:0,0:0:0:0:
495,210,86765,5,8,0:0:0:0:
395,52,86896,1,8,0:0:0:0:
340,245,87026,1,8,0:0:0:0:
512,90,87156,1,8,0:0:0:0:
280,42,87287,5,8,0:0:0:0:
274,84,87352,1,0,0:0:0:0:
268,126,87417,1,8,0:0:0:0:
262,168,87483,1,0,0:0:0:0:
75,65,87613,1,0,0:0:0:0:
75,65,87678,6,0,B|105:49|105:49|184:62,1,113.999996520996,4|0,0:0|0:0,0:0:0:0:
368,149,87939,1,0,0:0:0:0:
132,263,88069,2,0,B|116:233|116:233|129:154,1,113.999996520996,8|0,0:0|0:0,0:0:0:0:
286,0,88330,1,0,0:0:0:0:
256,210,88461,1,8,0:0:0:0:
447,183,88591,2,0,P|451:127|420:80,1,113.999996520996
320,320,88852,5,8,0:0:0:0:
320,320,88917,1,0,0:0:0:0:
320,320,88983,1,8,0:0:0:0:
132,263,89113,1,8,0:0:0:0:
100,231,89178,1,0,0:0:0:0:
92,187,89243,1,8,0:0:0:0:
107,143,89309,1,0,0:0:0:0:
143,115,89374,1,8,0:0:0:0:
188,110,89439,1,0,0:0:0:0:
230,127,89504,1,8,0:0:0:0:
256,164,89569,1,0,0:0:0:0:
255,210,89635,6,0,P|246:236|228:258,1,56.9999982604981,4|0,0:0|0:0,0:0:0:0:
67,334,89765,1,0,0:0:0:0:
30,75,89896,1,0,0:0:0:0:
253,30,90026,6,0,L|310:40,3,56.9999982604981
501,82,90287,2,0,L|445:92,3,56.9999982604981
332,202,90548,2,0,L|389:212,3,56.9999982604981
512,311,90809,2,0,L|456:321,3,56.9999982604981
315,377,91070,5,2,0:0:0:0:
271,366,91135,1,0,0:0:0:0:
238,335,91200,1,2,0:0:0:0:
223,292,91265,1,0,0:0:0:0:
204,251,91330,1,2,0:0:0:0:
166,224,91396,1,0,0:0:0:0:
120,224,91461,1,2,0:0:0:0:
79,248,91526,1,0,0:0:0:0:
60,289,91591,1,2,0:0:0:0:
64,334,91656,1,0,0:0:0:0:
93,369,91722,6,0,P|118:381|146:384,1,56.9999982604981,2|0,0:0|0:0,0:0:0:0:
430,330,91852,1,10,0:0:0:0:
141,303,91983,1,10,0:0:0:0:
445,92,92113,6,0,L|430:147,1,56.9999982604981,10|0,0:0|0:0,0:0:0:0:
315,285,92243,2,0,L|355:244,1,56.9999982604981,10|0,0:0|0:0,0:0:0:0:
349,61,92374,2,0,L|334:116,1,56.9999982604981,10|0,0:0|0:0,0:0:0:0:
204,251,92504,2,0,L|244:210,1,56.9999982604981,10|0,0:0|0:0,0:0:0:0:
254,30,92635,2,0,L|239:85,1,56.9999982604981,10|0,0:0|0:0,0:0:0:0:
60,289,92765,6,0,P|15:187|37:77,1,227.999993041992,10|0,0:0|0:0,0:0:0:0:
254,30,93157,1,2,0:0:0:0:
247,55,93222,1,0,0:0:0:0:
240,80,93287,1,2,0:0:0:0:
233,105,93352,1,0,0:0:0:0:
226,130,93417,1,2,0:0:0:0:
220,155,93483,1,0,0:0:0:0:
213,180,93548,1,2,0:0:0:0:
206,205,93613,1,0,0:0:0:0:
199,230,93678,1,2,0:0:0:0:
192,255,93743,1,0,0:0:0:0:
186,280,93809,1,2,0:0:0:0:
179,305,93874,1,0,0:0:0:0:
172,330,93939,6,0,L|226:345,5,56.9999982604981,10|0|0|0|0|0,0:0|0:0|0:0|0:0|0:0|0:0,0:0:0:0:
325,343,94330,1,10,0:0:0:0:
343,324,94396,1,0,0:0:0:0:
354,301,94461,1,0,0:0:0:0:
358,276,94526,1,0,0:0:0:0:
353,251,94591,1,0,0:0:0:0:
342,228,94656,1,0,0:0:0:0:
323,210,94722,6,0,P|299:198|268:194,5,56.9999982604981,10|0|0|0|0|0,0:0|0:0|0:0|0:0|0:0|0:0,0:0:0:0:
192,257,95113,1,10,0:0:0:0:
173,238,95179,1,0,0:0:0:0:
160,216,95244,1,0,0:0:0:0:
154,192,95309,1,0,0:0:0:0:
157,166,95374,1,0,0:0:0:0:
165,142,95439,1,0,0:0:0:0:
183,123,95505,6,0,P|205:108|236:102,3,56.9999982604981,10|0|0|0,0:0|0:0|0:0|0:0,0:0:0:0:
247,17,95765,2,0,P|275:23|300:37,3,56.9999982604981,10|0|0|0,0:0|0:0|0:0|0:0,0:0:0:0:
385,171,96026,6,0,P|434:144|454:92,1,113.999996520996,10|0,0:0|0:0,0:0:0:0:
392,38,96222,1,0,0:0:0:0:
392,38,96287,2,0,P|377:62|371:90,1,56.9999982604981,2|0,0:0|0:0,0:0:0:0:
420,310,96417,2,0,P|429:283|428:254,1,56.9999982604981,2|0,0:0|0:0,0:0:0:0:
234,102,96548,2,0,B|213:128|213:128|213:208,1,113.999996520996,10|0,0:0|0:0,0:0:0:0:
250,285,96743,1,0,0:0:0:0:
250,285,96809,2,0,P|273:268|289:245,1,56.9999982604981,2|0,0:0|0:0,0:0:0:0:
160,40,96939,5,6,0:0:0:0:
104,203,97330,1,0,0:0:0:0:
10,170,97591,1,0,0:0:0:0:
84,105,97852,1,0,0:0:0:0:
124,301,98113,5,4,0:0:0:0:
124,301,98178,1,4,0:0:0:0:
124,301,98243,1,4,0:0:0:0:
304,160,98374,1,8,0:0:0:0:
320,365,98504,1,8,0:0:0:0:
200,146,98635,5,8,0:0:0:0:
190,384,98765,1,8,0:0:0:0:
365,235,98896,1,8,0:0:0:0:
104,203,99026,1,8,0:0:0:0:
290,75,99156,6,0,L|299:131,2,56.9999982604981,2|2|2,0:0|0:0|0:0,0:0:0:0:
195,35,99417,1,4,0:0:0:0:
390,20,99548,1,4,0:0:0:0:
335,205,99678,2,0,P|307:211|279:208,3,56.9999982604981,2|2|2|2,0:0|0:0|0:0|0:0,0:0:0:0:
435,120,99939,2,0,P|462:113|490:116,3,56.9999982604981,2|2|2|2,0:0|0:0|0:0|0:0,0:0:0:0:
470,205,100200,5,4,0:0:0:0:
470,205,100265,1,4,0:0:0:0:
470,205,100330,1,4,0:0:0:0:
340,320,100461,6,0,B|304:299|304:299|294:286,3,56.9999982604981,2|2|2|2,0:0|0:0|0:0|0:0,0:0:0:0:
215,330,100722,2,0,B|204:290|204:290|206:274,3,56.9999982604981,2|2|2|2,0:0|0:0|0:0|0:0,0:0:0:0:
119,248,100983,2,0,B|139:212|139:212|152:202,3,56.9999982604981,2|2|2|2,0:0|0:0|0:0|0:0,0:0:0:0:
216,43,101243,6,0,L|225:99,1,56.9999982604981,2|2,0:0|0:0,0:0:0:0:
255,195,101374,1,8,0:0:0:0:
125,130,101504,1,8,0:0:0:0:
337,39,101635,6,0,L|332:95,1,56.9999982604981,2|2,0:0|0:0,0:0:0:0:
335,195,101766,1,8,0:0:0:0:
226,99,101896,1,8,0:0:0:0:
455,67,102026,6,0,L|435:120,1,56.9999982604981,2|2,0:0|0:0,0:0:0:0:
412,217,102157,1,8,0:0:0:0:
332,96,102287,5,4,0:0:0:0:
332,96,102352,1,4,0:0:0:0:
332,96,102418,1,4,0:0:0:0:
340,320,102548,1,4,0:0:0:0:
152,202,102678,1,4,0:0:0:0:
511,214,102809,5,8,0:0:0:0:
215,330,102939,1,4,0:0:0:0:
435,120,103069,1,4,0:0:0:0:
125,130,103200,1,4,0:0:0:0:
160,375,103330,6,0,B|187:386|187:386|270:371,1,113.999996520996,4|4,0:0|0:0,0:0:0:0:
337,39,103591,2,0,B|309:27|309:27|226:42,1,113.999996520996,4|4,0:0|0:0,0:0:0:0:
70,195,103852,1,4,0:0:0:0:
415,216,103983,2,0,B|415:139|415:139|395:96|395:96|433:55|410:0,1,227.999993041992,4|0,0:0|0:0,0:0:0:0:
227,42,104374,5,4,0:0:0:0:
227,42,104439,1,4,0:0:0:0:
227,42,104504,1,4,0:0:0:0:
485,105,104635,1,4,0:0:0:0:
215,255,104765,1,4,0:0:0:0:
337,39,104896,5,8,0:0:0:0:
340,320,105026,1,4,0:0:0:0:
160,140,105156,1,4,0:0:0:0:
415,216,105287,1,4,0:0:0:0:
110,300,105417,6,0,L|119:243,1,56.9999982604981,2|2,0:0|0:0,0:0:0:0:
145,55,105548,1,8,0:0:0:0:
215,255,105678,1,8,0:0:0:0:
305,75,105809,6,0,L|314:131,1,56.9999982604981,2|2,0:0|0:0,0:0:0:0:
340,320,105940,1,8,0:0:0:0:
410,120,106070,1,8,0:0:0:0:
460,350,106200,6,0,L|469:293,1,56.9999982604981,2|2,0:0|0:0,0:0:0:0:
512,80,106330,1,8,0:0:0:0:
245,360,106461,5,12,0:0:0:0:
230,20,106591,1,12,0:0:0:0:
130,192,107504,5,8,0:0:0:0:
183,365,108417,1,4,0:0:0:0:
70,305,108548,1,4,0:0:0:0:
243,252,108678,1,4,0:0:0:0:
356,312,109330,5,0,0:0:0:0:
356,312,109396,1,0,0:0:0:0:
356,312,109461,2,0,L|364:265,1,47.5
385,95,109591,5,4,0:0:0:0:
243,252,109722,1,4,0:0:0:0:
264,0,109983,5,4,0:0:0:0:
308,206,110114,1,4,0:0:0:0:
140,70,110374,5,4,0:0:0:0:
178,298,110504,1,4,0:0:0:0:
30,205,110635,1,12,0:0:0:0:
235,170,110765,1,4,0:0:0:0:
430,295,111678,5,8,0:0:0:0:
390,85,112591,1,4,0:0:0:0:
410,190,112722,1,4,0:0:0:0:
295,40,112852,1,4,0:0:0:0:
240,265,113504,5,0,0:0:0:0:
240,265,113569,1,0,0:0:0:0:
240,265,113635,2,0,L|231:218,1,47.5
195,80,113765,5,4,0:0:0:0:
130,260,113896,1,4,0:0:0:0:
60,130,114156,5,4,0:0:0:0:
185,345,114287,1,4,0:0:0:0:
5,270,114548,5,4,0:0:0:0:
290,145,114678,1,4,0:0:0:0:
300,355,114809,5,2,0:0:0:0:
70,191,122243,6,0,L|86:284,1,95,4|4,0:0|0:0,0:0:0:0:
187,133,122504,1,0,0:0:0:0:
187,133,122569,1,0,0:0:0:0:
187,133,122635,2,0,L|203:226,1,95,4|4,0:0|0:0,0:0:0:0:
305,75,122896,1,0,0:0:0:0:
305,75,122961,1,0,0:0:0:0:
305,75,123026,2,0,L|313:121,1,47.5,4|0,0:0|0:0,0:0:0:0:
387,323,123156,5,8,0:0:0:0:
124,60,123287,1,8,0:0:0:0:
441,192,123417,1,8,0:0:0:0:
70,191,123548,1,8,0:0:0:0:
387,60,123678,5,8,0:0:0:0:
124,323,123809,1,8,0:0:0:0:
256,6,123939,1,8,0:0:0:0:
255,377,124069,1,8,0:0:0:0:
70,191,124200,6,0,B|132:183|132:183|192:191,1,123.499994346619,2|0,0:0|0:0,0:0:0:0:
441,192,124461,2,0,B|378:184|378:184|318:192,1,123.499994346619,2|0,0:0|0:0,0:0:0:0:
2,60,124722,2,0,B|64:52|64:52|124:60,1,123.499994346619,2|0,0:0|0:0,0:0:0:0:
510,60,124983,2,0,B|447:52|447:52|387:60,1,123.499994346619,2|0,0:0|0:0,0:0:0:0:
95,360,125243,5,10,0:0:0:0:
417,360,125374,1,2,0:0:0:0:
65,245,125504,5,2,0:0:0:0:
447,245,125635,1,10,0:0:0:0:
35,130,125766,5,2,0:0:0:0:
477,130,125896,1,2,0:0:0:0:
5,15,126027,5,10,0:0:0:0:
507,15,126156,1,2,0:0:0:0:
258,363,126287,5,2,0:0:0:0:
120,48,126417,1,10,0:0:0:0:
95,360,126548,1,2,0:0:0:0:
392,46,126678,1,2,0:0:0:0:
179,276,126809,5,8,0:0:0:0:
147,223,126874,1,0,0:0:0:0:
146,161,126939,1,0,0:0:0:0:
178,108,127004,1,0,0:0:0:0:
233,80,127069,1,8,0:0:0:0:
296,84,127135,1,0,0:0:0:0:
344,121,127200,2,0,P|360:148|367:178,1,61.7499971733095
319,374,127330,6,0,L|258:363,5,61.7499971733095,8|0|0|0|0|0,0:0|0:0|0:0|0:0|0:0|0:0,0:0:0:0:
452,256,127722,2,0,L|512:245,5,61.7499971733095,8|0|0|0|0|0,0:0|0:0|0:0|0:0|0:0|0:0,0:0:0:0:
356,62,128113,1,8,0:0:0:0:
356,62,128178,1,0,0:0:0:0:
356,62,128243,2,0,L|345:122,1,61.7499971733095
179,276,128374,5,8,0:0:0:0:
179,276,128439,1,0,0:0:0:0:
179,276,128504,2,0,L|239:265,1,61.7499971733095
233,80,128635,1,8,0:0:0:0:
233,80,128700,1,0,0:0:0:0:
233,80,128765,2,0,L|185:119,1,61.7499971733095
10,290,128896,5,8,0:0:0:0:
10,290,128961,1,0,0:0:0:0:
10,290,129026,2,0,L|31:231,1,61.7499971733095
50,30,129156,1,8,0:0:0:0:
50,30,129221,1,0,0:0:0:0:
50,30,129287,2,0,L|60:90,1,61.7499971733095
139,323,129417,6,0,L|178:275,1,61.7499971733095,2|0,0:0|0:0,0:0:0:0:
334,61,129548,1,8,0:0:0:0:
334,61,129613,1,0,0:0:0:0:
334,61,129679,2,0,L|344:121,1,61.7499971733095
380,320,129809,6,0,L|340:272,1,61.7499971733095,2|0,0:0|0:0,0:0:0:0:
195,15,129939,1,8,0:0:0:0:
195,15,130004,1,0,0:0:0:0:
195,15,130070,2,0,L|184:75,1,61.7499971733095
78,333,130200,6,0,L|138:322,1,61.7499971733095,2|0,0:0|0:0,0:0:0:0:
409,216,130330,1,2,0:0:0:0:
448,167,130396,1,2,0:0:0:0:
458,106,130461,1,2,0:0:0:0:
434,50,130526,1,2,0:0:0:0:
383,15,130591,1,2,0:0:0:0:
321,12,130656,1,2,0:0:0:0:
266,43,130722,1,2,0:0:0:0:
144,248,130852,5,8,0:0:0:0:
203,266,130917,1,8,0:0:0:0:
262,284,130983,1,8,0:0:0:0:
321,302,131048,1,8,0:0:0:0:
379,319,131113,6,0,P|410:323|441:318,1,61.7499971733095,4|0,0:0|0:0,0:0:0:0:
345,122,131243,2,0,P|314:118|283:123,1,61.7499971733095,10|0,0:0|0:0,0:0:0:0:
175,384,131374,2,0,P|198:364|217:339,1,61.7499971733095,10|0,0:0|0:0,0:0:0:0:
185,76,131504,5,12,0:0:0:0:
0,384,131635,1,12,0:0:0:0:
300,250,132417,2,0,B|284:202|284:202|300:162|300:162|284:122|284:122|300:82|300:82|286:35,1,227.999993041992,4|4,0:0|0:0,0:0:0:0:
128,177,133591,5,4,0:0:0:0:
374,120,133722,1,4,0:0:0:0:
155,275,134504,6,0,B|185:291|185:291|264:278,1,113.999996520996,4|0,0:0|0:0,0:0:0:0:
415,240,134765,1,8,0:0:0:0:
251,148,134896,1,8,0:0:0:0:
145,360,135026,2,0,B|175:376|175:376|254:363,1,113.999996520996,4|0,0:0|0:0,0:0:0:0:
426,325,135287,1,8,0:0:0:0:
189,90,135417,2,0,P|167:141|181:195,1,113.999996520996,4|0,0:0|0:0,0:0:0:0:
295,270,135678,5,4,0:0:0:0:
315,35,135809,1,4,0:0:0:0:
470,175,135939,2,0,B|440:191|440:191|361:178,1,113.999996520996,8|0,0:0|0:0,0:0:0:0:
190,91,136200,1,0,0:0:0:0:
425,85,136330,1,0,0:0:0:0:
425,85,136396,1,0,0:0:0:0:
425,85,136461,1,8,0:0:0:0:
120,250,136591,6,0,B|126:176|126:176|105:109|105:109|112:26,1,227.999993041992,4|4,0:0|0:0,0:0:0:0:
291,51,136983,2,0,B|268:76|268:76|189:91,1,113.999996520996,8|0,0:0|0:0,0:0:0:0:
10,166,137243,1,0,0:0:0:0:
170,320,137374,1,0,0:0:0:0:
170,320,137439,1,0,0:0:0:0:
170,320,137504,2,0,B|193:295|193:295|200:215,1,113.999996520996,8|0,0:0|0:0,0:0:0:0:
112,25,137765,5,4,0:0:0:0:
55,286,137896,1,4,0:0:0:0:
285,155,138026,2,0,B|313:136|313:136|393:143,1,113.999996520996,8|0,0:0|0:0,0:0:0:0:
512,220,138287,1,0,0:0:0:0:
290,270,138417,1,0,0:0:0:0:
290,270,138483,1,0,0:0:0:0:
290,270,138548,1,8,0:0:0:0:
245,90,138678,6,0,B|294:57|294:57|405:67,1,170.999994781494,4|0,0:0|0:0,0:0:0:0:
461,71,138939,1,4,0:0:0:0:
401,245,139069,1,12,0:0:0:0:
175,138,139200,2,4,P|160:83|182:32,1,113.999996520996
234,211,139461,1,4,0:0:0:0:
234,211,139526,1,4,0:0:0:0:
234,211,139591,2,0,P|182:233|128:218,1,113.999996520996,8|0,0:0|0:0,0:0:0:0:
5,110,139852,5,12,0:0:0:0:
55,370,139983,1,12,0:0:0:0:
