osu file format v14

[General]
AudioFilename: audio.mp3
AudioLeadIn: 0
PreviewTime: 177412
Countdown: 0
SampleSet: Normal
StackLeniency: 0.7
Mode: 1
LetterboxInBreaks: 0
WidescreenStoryboard: 0

[Editor]
Bookmarks: 47749,56398,65046,73695,82344,90992,99641,108290,116938,125587,134236,142884,151533,160182,168830,177479,186128,194776,203425,212073,220722,229371,238019,246668,255317,263965,272614,281263,289911,298560,298830,307209,315857,316128,324506
DistanceSpacing: 0.6
BeatDivisor: 4
GridSize: 32
TimelineZoom: 2.799999

[Metadata]
Title:Outer Occult Occupation
TitleUnicode:Outer Occult Occupation
Artist:Kobaryo
ArtistUnicode:Kobaryo
Creator:D3kuu
Version:Paranormal Oni
Source:東方Project
Tags:少女秘封倶楽部 Night Trip to Rendaino ~ Rendaino Yakou ZUN soft Team Shangai Alice 上海アリス幻樂団 Shanhai Arisu Gengakudan Whereabouts of Sealed Boundary music albums 蓮台野夜行 ~ Ghostly Field Club 宇佐見 蓮子 renko usami マエリベリー・ハーン maribel hearn touhou th electronic instrumental Girls' Secret Sealing Club
BeatmapID:3626457
BeatmapSetID:1771472

[Difficulty]
HPDrainRate:4
CircleSize:5
OverallDifficulty:7
ApproachRate:5
SliderMultiplier:1.4
SliderTickRate:1

[Events]
//Background and Video events
0,0,"ok.jpg",0,40
//Break Periods
2,34777,35739
//Storyboard Layer 0 (Background)
//Storyboard Layer 1 (Fail)
//Storyboard Layer 2 (Pass)
//Storyboard Layer 3 (Foreground)
//Storyboard Layer 4 (Overlay)
//Storyboard Sound Samples

[TimingPoints]
183,270.27027027027,4,1,0,50,1,0
183,-142.857142857143,4,1,0,50,0,0
36804,-142.857142857143,4,1,0,20,0,0
36939,-142.857142857143,4,1,0,20,0,0
38966,-111.111111111111,4,1,0,70,0,0
39101,-96.1538461538461,4,1,0,70,0,0
39236,-100,4,1,0,70,0,0
47749,-96.1538461538461,4,1,0,70,0,0
47884,-100,4,1,0,70,0,0
56398,-96.1538461538461,4,1,0,70,0,0
56533,-100,4,1,0,70,0,0
65046,-96.1538461538461,4,1,0,70,0,0
65181,-100,4,1,0,70,0,0
73695,-96.1538461538461,4,1,0,70,0,0
73830,-100,4,1,0,70,0,0
82344,-96.1538461538461,4,1,0,70,0,0
82479,-100,4,1,0,70,0,0
90992,-96.1538461538461,4,1,0,70,0,0
91127,-100,4,1,0,70,0,0
99641,-96.1538461538461,4,1,0,70,0,0
99776,-100,4,1,0,70,0,0
107209,-96.1538461538461,4,1,0,70,0,0
107344,-102.040816326531,4,1,0,70,0,0
107411,-103.092783505155,4,1,0,70,0,0
107479,-104.166666666667,4,1,0,70,0,0
107614,-106.382978723404,4,1,0,70,0,0
107749,-108.695652173913,4,1,0,70,0,0
107884,-111.111111111111,4,1,0,70,0,0
108019,-113.636363636364,4,1,0,70,0,0
108087,-114.942528735632,4,1,0,70,0,0
108155,-116.279069767442,4,1,0,70,0,0
108290,-96.1538461538461,4,1,0,70,0,0
108425,-100,4,1,0,70,0,0
116938,-96.1538461538461,4,1,0,70,0,0
117073,-100,4,1,0,70,0,0
125587,-96.1538461538461,4,1,0,70,0,0
125722,-100,4,1,0,70,0,0
134236,-96.1538461538461,4,1,0,70,0,0
134371,-100,4,1,0,70,0,0
141803,-96.1538461538461,4,1,0,70,0,0
141938,-102.040816326531,4,1,0,70,0,0
142073,-104.166666666667,4,1,0,70,0,0
142209,-106.382978723404,4,1,0,70,0,0
142344,-108.695652173913,4,1,0,70,0,0
142411,-109.89010989011,4,1,0,70,0,0
142479,-111.111111111111,4,1,0,70,0,0
142614,-113.636363636364,4,1,0,70,0,0
142749,-116.279069767442,4,1,0,70,0,0
142884,-96.1538461538461,4,1,0,70,0,0
143087,-133.333333333333,4,1,0,50,0,0
143155,-133.333333333333,4,1,0,70,0,0
151533,-96.1538461538461,4,1,0,70,0,0
151668,-125,4,1,0,70,0,0
160182,-96.1538461538461,4,1,0,70,0,0
160317,-117.647058823529,4,1,0,70,0,0
168830,-96.1538461538461,4,1,0,70,0,0
168965,-111.111111111111,4,1,0,70,0,0
177479,-96.1538461538461,4,1,0,70,0,0
177614,-100,4,1,0,70,0,0
186128,-96.1538461538461,4,1,0,70,0,0
186263,-100,4,1,0,70,0,0
194776,-96.1538461538461,4,1,0,70,0,0
194911,-100,4,1,0,70,0,0
203425,-96.1538461538461,4,1,0,70,0,0
203560,-100,4,1,0,70,0,0
210046,-102.040816326531,4,1,0,70,0,0
210182,-104.166666666667,4,1,0,70,0,0
210317,-106.382978723404,4,1,0,70,0,0
210452,-108.695652173913,4,1,0,70,0,0
210587,-111.111111111111,4,1,0,70,0,0
210722,-113.636363636364,4,1,0,70,0,0
210790,-114.942528735632,4,1,0,70,0,0
210857,-116.279069767442,4,1,0,70,0,0
210992,-119.047619047619,4,1,0,70,0,0
211398,-128.205128205128,4,1,0,70,0,0
211533,-131.578947368421,4,1,0,70,0,0
211600,-133.333333333333,4,1,0,70,0,0
211668,-135.135135135135,4,1,0,70,0,0
211803,-138.888888888889,4,1,0,70,0,0
212073,-96.1538461538461,4,1,0,70,0,0
212141,-142.857142857143,4,1,0,40,0,0
213155,-142.857142857143,4,1,0,40,0,0
220655,-96.1538461538461,4,1,0,70,0,0
220992,-125,4,1,0,70,0,0
229371,-96.1538461538461,4,1,0,70,0,0
229641,-111.111111111111,4,1,0,70,0,0
233695,-96.1538461538461,4,1,0,70,0,0
233965,-111.111111111111,4,1,0,70,0,0
234776,-96.1538461538461,4,1,0,70,0,0
235046,-111.111111111111,4,1,0,70,0,0
235857,-96.1538461538461,4,1,0,70,0,0
235992,-111.111111111111,4,1,0,70,0,0
236398,-96.1538461538461,4,1,0,70,0,0
237952,-96.1538461538461,4,1,0,80,0,0
238020,-96.1538461538461,4,1,0,80,0,1
238155,-100,4,1,0,80,0,1
246668,-96.1538461538461,4,1,0,80,0,1
246803,-100,4,1,0,80,0,1
255317,-96.1538461538461,4,1,0,80,0,1
255452,-100,4,1,0,80,0,1
263965,-96.1538461538461,4,1,0,80,0,1
264100,-100,4,1,0,80,0,1
272614,-96.1538461538461,4,1,0,80,0,1
272749,-100,4,1,0,80,0,1
281263,-96.1538461538461,4,1,0,80,0,1
281398,-100,4,1,0,80,0,1
285722,-99.009900990099,4,1,0,80,0,1
285857,-98.0392156862745,4,1,0,80,0,1
285992,-97.0873786407767,4,1,0,80,0,1
286128,-96.1538461538461,4,1,0,80,0,1
286263,-95.2380952380952,4,1,0,80,0,1
286398,-94.3396226415094,4,1,0,80,0,1
286533,-93.4579439252336,4,1,0,80,0,1
286668,-92.5925925925926,4,1,0,80,0,1
286803,-91.743119266055,4,1,0,80,0,1
286938,-90.9090909090909,4,1,0,80,0,1
287073,-90.0900900900901,4,1,0,80,0,1
287209,-89.2857142857143,4,1,0,80,0,1
287344,-88.4955752212389,4,1,0,80,0,1
287479,-87.719298245614,4,1,0,80,0,1
287614,-86.9565217391304,4,1,0,80,0,1
287749,-86.2068965517241,4,1,0,80,0,1
287817,-85.4700854700855,4,1,0,80,0,1
287884,-84.7457627118644,4,1,0,80,0,1
287952,-84.0336134453781,4,1,0,80,0,1
288019,-83.3333333333333,4,1,0,80,0,1
288087,-82.6446280991736,4,1,0,80,0,1
288155,-81.9672131147541,4,1,0,80,0,1
288222,-81.3008130081301,4,1,0,80,0,1
288290,-80.6451612903226,4,1,0,80,0,1
288335,-80,4,1,0,80,0,1
288380,-79.3650793650794,4,1,0,80,0,1
288425,-78.7401574803149,4,1,0,80,0,1
288560,-78.125,4,1,0,80,0,1
288605,-77.5193798449612,4,1,0,80,0,1
288650,-76.9230769230769,4,1,0,80,0,1
288695,-76.3358778625954,4,1,0,80,0,1
288830,-71.4285714285714,4,1,0,80,0,1
289821,-71.4285714285714,4,1,0,70,0,1
289912,-96.1538461538461,4,1,0,70,0,0
290001,-100,4,1,0,70,0,0
298425,-99.009900990099,4,1,0,70,0,0
298470,-98.0392156862745,4,1,0,70,0,0
298515,-97.0873786407767,4,1,0,70,0,0
298560,-96.1538461538461,4,1,0,70,0,0
298605,-100,4,1,0,70,0,0
307073,-99.009900990099,4,1,0,70,0,0
307118,-98.0392156862745,4,1,0,70,0,0
307163,-97.0873786407767,4,1,0,70,0,0
307208,-96.1538461538461,4,1,0,70,0,0
307253,-100,4,1,0,70,0,0
315722,-99.009900990099,4,1,0,70,0,0
315767,-98.0392156862745,4,1,0,70,0,0
315812,-97.0873786407767,4,1,0,70,0,0
315857,-96.1538461538461,4,1,0,70,0,0
315902,-100,4,1,0,70,0,0
316128,-111.111111111111,4,1,0,70,0,0
323560,-109.89010989011,4,1,0,70,0,0
323695,-108.695652173913,4,1,0,70,0,0
323830,-107.52688172043,4,1,0,70,0,0
323965,-106.382978723404,4,1,0,70,0,0
324033,-105.263157894737,4,1,0,70,0,0
324100,-104.166666666667,4,1,0,70,0,0
324146,-103.092783505155,4,1,0,70,0,0
324191,-102.040816326531,4,1,0,70,0,0
324236,-101.010101010101,4,1,0,70,0,0
324303,-100,4,1,0,70,0,0
324371,-99.009900990099,4,1,0,70,0,0
324416,-98.0392156862745,4,1,0,70,0,0
324461,-97.0873786407767,4,1,0,70,0,0
324506,-96.1538461538461,4,1,0,70,0,0
324776,-125,4,1,0,70,0,0

[HitObjects]
256,192,15318,12,0,17210,0:0:0:0:
274,138,17480,5,0,0:0:0:0:
116,161,17750,1,0,0:0:0:0:
389,216,18291,1,0,0:0:0:0:
420,163,18561,1,8,0:0:0:0:
422,157,19101,1,0,0:0:0:0:
229,206,19372,1,8,0:0:0:0:
391,111,19642,1,0,0:0:0:0:
391,111,19912,1,0,0:0:0:0:
165,138,20182,1,8,0:0:0:0:
391,111,20453,1,0,0:0:0:0:
401,158,20723,1,8,0:0:0:0:
358,161,21264,1,8,0:0:0:0:
261,237,21804,1,0,0:0:0:0:
261,237,22074,1,0,0:0:0:0:
261,237,22615,1,0,0:0:0:0:
382,151,22885,1,8,0:0:0:0:
445,155,23426,1,0,0:0:0:0:
416,158,23696,1,8,0:0:0:0:
484,167,23966,1,0,0:0:0:0:
484,167,24237,1,8,0:0:0:0:
405,168,24507,1,8,0:0:0:0:
447,171,24777,1,0,0:0:0:0:
358,139,25047,1,8,0:0:0:0:
355,107,25588,1,8,0:0:0:0:
471,153,26128,1,0,0:0:0:0:
471,153,26399,1,0,0:0:0:0:
425,169,26939,1,0,0:0:0:0:
323,125,27210,1,8,0:0:0:0:
206,82,27750,1,0,0:0:0:0:
421,163,28020,1,8,0:0:0:0:
467,158,28291,1,0,0:0:0:0:
467,158,28561,1,0,0:0:0:0:
475,153,28831,1,8,0:0:0:0:
401,150,29101,1,0,0:0:0:0:
407,157,29372,1,8,0:0:0:0:
277,153,29912,1,8,0:0:0:0:
437,186,30453,1,0,0:0:0:0:
437,186,30723,1,0,0:0:0:0:
385,150,31264,1,0,0:0:0:0:
345,173,31534,1,8,0:0:0:0:
423,175,32075,1,0,0:0:0:0:
416,192,32345,1,8,0:0:0:0:
480,192,32615,1,0,0:0:0:0:
480,192,32885,1,8,0:0:0:0:
416,160,33156,1,8,0:0:0:0:
448,160,33426,1,0,0:0:0:0:
416,160,33696,1,8,0:0:0:0:
384,160,34237,1,8,0:0:0:0:
256,192,36939,12,0,38831,0:0:0:0:
326,151,39101,5,4,0:0:0:0:
417,154,39236,1,8,0:0:0:0:
224,128,39371,1,0,0:0:0:0:
421,149,39506,1,8,0:0:0:0:
320,192,39573,1,8,0:0:0:0:
328,137,39641,1,0,0:0:0:0:
399,142,39776,1,0,0:0:0:0:
395,158,39911,1,8,0:0:0:0:
399,142,40046,1,0,0:0:0:0:
288,160,40114,1,0,0:0:0:0:
281,122,40182,1,8,0:0:0:0:
378,183,40317,1,0,0:0:0:0:
433,145,40452,1,8,0:0:0:0:
447,158,40519,1,0,0:0:0:0:
446,157,40587,1,0,0:0:0:0:
446,157,40655,1,0,0:0:0:0:
384,145,40722,1,8,0:0:0:0:
414,193,40857,1,0,0:0:0:0:
448,160,40992,1,8,0:0:0:0:
448,160,41060,1,0,0:0:0:0:
384,160,41128,1,8,0:0:0:0:
384,160,41195,1,0,0:0:0:0:
288,160,41263,1,8,0:0:0:0:
352,128,41398,1,0,0:0:0:0:
320,128,41533,1,8,0:0:0:0:
320,128,41668,1,8,0:0:0:0:
384,160,41803,1,0,0:0:0:0:
448,128,41871,1,0,0:0:0:0:
352,160,41938,1,8,0:0:0:0:
384,128,42006,1,8,0:0:0:0:
352,160,42073,1,0,0:0:0:0:
416,160,42209,1,0,0:0:0:0:
448,160,42344,1,8,0:0:0:0:
320,160,42479,1,0,0:0:0:0:
288,96,42546,1,0,0:0:0:0:
480,128,42614,1,8,0:0:0:0:
512,160,42749,1,8,0:0:0:0:
224,160,42884,1,0,0:0:0:0:
224,160,42952,1,0,0:0:0:0:
512,192,43019,1,8,0:0:0:0:
448,160,43155,1,0,0:0:0:0:
448,160,43222,1,0,0:0:0:0:
480,128,43290,1,8,0:0:0:0:
448,128,43357,1,8,0:0:0:0:
448,128,43425,1,8,0:0:0:0:
384,224,43560,1,0,0:0:0:0:
352,160,43695,1,0,0:0:0:0:
416,192,43830,1,8,0:0:0:0:
416,192,43898,1,8,0:0:0:0:
416,192,43965,1,0,0:0:0:0:
448,160,44100,1,8,0:0:0:0:
448,160,44168,1,8,0:0:0:0:
384,160,44236,1,8,0:0:0:0:
256,128,44303,1,0,0:0:0:0:
320,160,44371,1,8,0:0:0:0:
320,160,44438,1,8,0:0:0:0:
352,160,44506,1,0,0:0:0:0:
352,192,44641,1,8,0:0:0:0:
352,192,44709,1,0,0:0:0:0:
416,160,44776,1,0,0:0:0:0:
384,160,44911,1,8,0:0:0:0:
384,160,45046,1,8,0:0:0:0:
416,96,45182,1,0,0:0:0:0:
416,96,45249,1,0,0:0:0:0:
352,96,45317,1,8,0:0:0:0:
352,96,45384,1,8,0:0:0:0:
352,96,45452,1,0,0:0:0:0:
384,160,45587,1,0,0:0:0:0:
384,160,45722,1,8,0:0:0:0:
384,160,45790,1,8,0:0:0:0:
384,160,45857,1,0,0:0:0:0:
320,160,45992,1,0,0:0:0:0:
384,160,46128,1,8,0:0:0:0:
320,160,46263,1,0,0:0:0:0:
384,160,46398,1,8,0:0:0:0:
480,128,46465,1,0,0:0:0:0:
448,128,46533,1,8,0:0:0:0:
448,192,46668,1,0,0:0:0:0:
448,192,46736,1,0,0:0:0:0:
448,160,46803,1,8,0:0:0:0:
448,160,46871,1,8,0:0:0:0:
361,168,46938,1,0,0:0:0:0:
429,167,47073,1,8,0:0:0:0:
434,168,47209,1,0,0:0:0:0:
428,168,47344,1,0,0:0:0:0:
450,154,47479,1,8,0:0:0:0:
441,154,47614,1,8,0:0:0:0:
462,140,47749,1,4,0:0:0:0:
447,168,47884,1,8,0:0:0:0:
450,154,48019,1,0,0:0:0:0:
459,158,48155,1,8,0:0:0:0:
459,158,48222,1,8,0:0:0:0:
334,145,48290,1,0,0:0:0:0:
410,203,48425,1,0,0:0:0:0:
437,163,48560,1,8,0:0:0:0:
384,146,48628,1,0,0:0:0:0:
384,146,48695,1,8,0:0:0:0:
435,128,48830,1,0,0:0:0:0:
435,128,48965,1,0,0:0:0:0:
457,168,49100,1,8,0:0:0:0:
416,160,49168,1,0,0:0:0:0:
411,153,49236,1,8,0:0:0:0:
291,160,49303,1,8,0:0:0:0:
364,141,49371,1,0,0:0:0:0:
412,163,49506,1,0,0:0:0:0:
398,136,49641,1,8,0:0:0:0:
397,136,49776,1,8,0:0:0:0:
376,143,49911,1,0,0:0:0:0:
376,143,49979,1,0,0:0:0:0:
402,144,50046,1,8,0:0:0:0:
256,107,50182,1,0,0:0:0:0:
446,166,50317,1,8,0:0:0:0:
269,148,50384,1,0,0:0:0:0:
269,148,50452,1,0,0:0:0:0:
395,145,50519,1,8,0:0:0:0:
396,148,50587,1,0,0:0:0:0:
194,20,50655,1,0,0:0:0:0:
405,161,50722,1,8,0:0:0:0:
301,158,50790,1,8,0:0:0:0:
331,158,50857,1,0,0:0:0:0:
408,176,50992,1,0,0:0:0:0:
377,158,51128,1,8,0:0:0:0:
442,198,51263,1,0,0:0:0:0:
442,198,51330,1,0,0:0:0:0:
388,158,51398,1,8,0:0:0:0:
388,158,51465,1,8,0:0:0:0:
344,168,51533,1,0,0:0:0:0:
426,164,51668,1,8,0:0:0:0:
425,145,51736,1,0,0:0:0:0:
463,153,51803,1,8,0:0:0:0:
401,153,51938,1,0,0:0:0:0:
341,153,52073,1,8,0:0:0:0:
429,143,52141,1,0,0:0:0:0:
466,148,52209,1,8,0:0:0:0:
466,148,52276,1,8,0:0:0:0:
481,161,52344,1,0,0:0:0:0:
344,168,52479,1,8,0:0:0:0:
436,179,52614,1,0,0:0:0:0:
476,163,52682,1,0,0:0:0:0:
447,173,52749,1,8,0:0:0:0:
447,173,52817,1,0,0:0:0:0:
389,130,52884,1,8,0:0:0:0:
336,115,53019,1,8,0:0:0:0:
351,168,53155,1,0,0:0:0:0:
471,148,53290,1,8,0:0:0:0:
442,147,53425,1,0,0:0:0:0:
463,154,53560,1,8,0:0:0:0:
463,154,53628,1,8,0:0:0:0:
395,129,53695,1,0,0:0:0:0:
394,143,53830,1,8,0:0:0:0:
362,145,53898,1,0,0:0:0:0:
432,176,53965,1,8,0:0:0:0:
428,151,54033,1,0,0:0:0:0:
391,148,54100,1,8,0:0:0:0:
381,140,54168,1,8,0:0:0:0:
399,142,54236,1,0,0:0:0:0:
473,154,54371,1,8,0:0:0:0:
466,150,54506,1,0,0:0:0:0:
236,212,54573,1,0,0:0:0:0:
466,150,54641,1,0,0:0:0:0:
502,158,54776,1,8,0:0:0:0:
480,157,54911,1,0,0:0:0:0:
479,146,55046,1,8,0:0:0:0:
396,106,55182,1,0,0:0:0:0:
396,106,55249,1,0,0:0:0:0:
246,183,55317,1,8,0:0:0:0:
321,123,55452,1,0,0:0:0:0:
321,123,55519,1,0,0:0:0:0:
376,143,55587,1,8,0:0:0:0:
376,143,55722,1,8,0:0:0:0:
441,148,55857,1,0,0:0:0:0:
446,157,55925,1,8,0:0:0:0:
497,149,55992,1,0,0:0:0:0:
494,149,56060,1,0,0:0:0:0:
457,143,56128,1,8,0:0:0:0:
486,160,56195,1,0,0:0:0:0:
409,154,56263,1,8,0:0:0:0:
326,127,56398,1,4,0:0:0:0:
420,259,56533,1,8,0:0:0:0:
466,177,56668,1,0,0:0:0:0:
436,77,56736,1,0,0:0:0:0:
466,177,56803,1,0,0:0:0:0:
451,143,56938,1,8,0:0:0:0:
496,166,57073,1,0,0:0:0:0:
356,171,57209,1,8,0:0:0:0:
356,171,57276,1,8,0:0:0:0:
308,176,57344,1,0,0:0:0:0:
424,198,57479,1,0,0:0:0:0:
444,166,57614,1,8,0:0:0:0:
473,166,57749,1,0,0:0:0:0:
473,166,57817,1,0,0:0:0:0:
349,158,57884,1,8,0:0:0:0:
260,67,57952,1,0,0:0:0:0:
374,149,58019,1,8,0:0:0:0:
374,149,58087,1,8,0:0:0:0:
434,152,58155,1,0,0:0:0:0:
371,188,58290,1,8,0:0:0:0:
371,188,58357,1,0,0:0:0:0:
316,150,58425,1,0,0:0:0:0:
435,160,58560,1,8,0:0:0:0:
497,159,58695,1,8,0:0:0:0:
473,159,58830,1,0,0:0:0:0:
478,158,58898,1,0,0:0:0:0:
478,158,58965,1,8,0:0:0:0:
260,210,59100,1,0,0:0:0:0:
260,210,59236,1,8,0:0:0:0:
469,180,59371,1,0,0:0:0:0:
444,165,59438,1,8,0:0:0:0:
435,160,59506,1,0,0:0:0:0:
435,160,59573,1,0,0:0:0:0:
352,176,59641,1,8,0:0:0:0:
456,115,59776,1,8,0:0:0:0:
463,155,59911,1,0,0:0:0:0:
460,152,59979,1,0,0:0:0:0:
376,144,60046,1,8,0:0:0:0:
440,160,60182,1,8,0:0:0:0:
448,173,60317,1,0,0:0:0:0:
478,178,60452,1,8,0:0:0:0:
478,178,60519,1,8,0:0:0:0:
426,183,60587,1,0,0:0:0:0:
450,155,60722,1,0,0:0:0:0:
450,155,60790,1,0,0:0:0:0:
463,155,60857,1,8,0:0:0:0:
377,153,60925,1,0,0:0:0:0:
468,154,60992,1,8,0:0:0:0:
445,153,61060,1,0,0:0:0:0:
507,157,61128,1,8,0:0:0:0:
463,150,61195,1,8,0:0:0:0:
456,133,61263,1,0,0:0:0:0:
374,162,61398,1,0,0:0:0:0:
386,184,61533,1,8,0:0:0:0:
367,157,61600,1,8,0:0:0:0:
467,150,61668,1,0,0:0:0:0:
491,170,61803,1,8,0:0:0:0:
424,123,61938,1,0,0:0:0:0:
446,148,62006,1,8,0:0:0:0:
434,135,62073,1,0,0:0:0:0:
438,161,62209,1,0,0:0:0:0:
281,190,62344,1,8,0:0:0:0:
286,189,62411,1,8,0:0:0:0:
444,165,62479,1,0,0:0:0:0:
449,184,62614,1,8,0:0:0:0:
456,161,62682,1,0,0:0:0:0:
444,157,62749,1,8,0:0:0:0:
251,115,62884,5,0,0:0:0:0:
374,158,63019,1,0,0:0:0:0:
158,210,63155,1,8,0:0:0:0:
158,210,63222,1,8,0:0:0:0:
300,156,63290,1,0,0:0:0:0:
352,153,63425,1,8,0:0:0:0:
422,151,63492,1,0,0:0:0:0:
374,158,63560,1,8,0:0:0:0:
120,138,63628,1,8,0:0:0:0:
413,164,63695,1,0,0:0:0:0:
413,164,63763,1,0,0:0:0:0:
346,62,63830,1,8,0:0:0:0:
481,167,63965,1,0,0:0:0:0:
459,157,64033,1,0,0:0:0:0:
460,156,64100,1,8,0:0:0:0:
464,158,64168,1,8,0:0:0:0:
454,166,64236,1,0,0:0:0:0:
451,155,64303,1,0,0:0:0:0:
485,171,64371,1,8,0:0:0:0:
467,163,64438,1,0,0:0:0:0:
319,171,64506,1,8,0:0:0:0:
396,135,64641,1,0,0:0:0:0:
396,135,64709,1,8,0:0:0:0:
324,140,64776,1,0,0:0:0:0:
443,208,64911,1,8,0:0:0:0:
371,72,65046,1,4,0:0:0:0:
405,148,65182,1,8,0:0:0:0:
402,143,65249,1,8,0:0:0:0:
443,167,65317,1,0,0:0:0:0:
328,251,65384,1,0,0:0:0:0:
439,162,65452,1,8,0:0:0:0:
378,86,65519,1,0,0:0:0:0:
495,162,65587,5,8,0:0:0:0:
491,173,65655,1,0,0:0:0:0:
402,161,65722,1,8,0:0:0:0:
495,147,65790,1,8,0:0:0:0:
462,149,65857,1,0,0:0:0:0:
434,159,65992,1,8,0:0:0:0:
370,136,66128,1,0,0:0:0:0:
431,173,66263,1,8,0:0:0:0:
361,147,66330,1,0,0:0:0:0:
361,149,66398,1,0,0:0:0:0:
476,146,66533,1,8,0:0:0:0:
447,151,66668,1,0,0:0:0:0:
461,142,66736,1,8,0:0:0:0:
456,138,66803,1,8,0:0:0:0:
456,138,66871,1,8,0:0:0:0:
419,148,66938,1,0,0:0:0:0:
396,133,67073,1,8,0:0:0:0:
396,133,67141,1,8,0:0:0:0:
428,163,67209,1,0,0:0:0:0:
479,138,67344,1,8,0:0:0:0:
432,133,67411,1,0,0:0:0:0:
420,135,67479,1,8,0:0:0:0:
469,172,67614,1,8,0:0:0:0:
469,133,67749,1,0,0:0:0:0:
318,139,67884,1,8,0:0:0:0:
318,139,67952,1,8,0:0:0:0:
432,133,68019,1,8,0:0:0:0:
504,154,68155,1,0,0:0:0:0:
491,148,68290,1,0,0:0:0:0:
465,175,68425,1,8,0:0:0:0:
464,175,68492,1,8,0:0:0:0:
501,143,68560,1,0,0:0:0:0:
422,160,68695,1,8,0:0:0:0:
488,170,68830,1,0,0:0:0:0:
487,170,68898,1,0,0:0:0:0:
488,163,68965,1,8,0:0:0:0:
416,142,69033,1,8,0:0:0:0:
489,153,69100,1,0,0:0:0:0:
459,144,69168,1,0,0:0:0:0:
406,143,69236,1,8,0:0:0:0:
410,142,69303,1,8,0:0:0:0:
481,155,69371,1,0,0:0:0:0:
436,163,69506,1,8,0:0:0:0:
368,133,69641,1,0,0:0:0:0:
267,82,69776,1,0,0:0:0:0:
441,143,69911,1,8,0:0:0:0:
477,165,69979,1,0,0:0:0:0:
477,165,70046,1,0,0:0:0:0:
467,150,70114,1,8,0:0:0:0:
468,154,70182,1,0,0:0:0:0:
411,146,70249,1,8,0:0:0:0:
413,133,70317,1,0,0:0:0:0:
419,132,70384,1,0,0:0:0:0:
418,144,70452,1,8,0:0:0:0:
396,162,70519,1,0,0:0:0:0:
363,158,70587,1,8,0:0:0:0:
363,158,70655,1,8,0:0:0:0:
349,163,70722,1,0,0:0:0:0:
401,134,70857,1,8,0:0:0:0:
381,141,70992,1,0,0:0:0:0:
468,143,71128,1,8,0:0:0:0:
468,143,71195,1,8,0:0:0:0:
391,160,71263,1,0,0:0:0:0:
417,148,71398,1,8,0:0:0:0:
415,146,71533,1,0,0:0:0:0:
415,146,71600,1,0,0:0:0:0:
444,153,71668,1,8,0:0:0:0:
444,153,71736,1,8,0:0:0:0:
369,137,71803,1,0,0:0:0:0:
432,143,71938,1,8,0:0:0:0:
449,150,72073,1,0,0:0:0:0:
466,163,72141,1,8,0:0:0:0:
475,158,72209,1,8,0:0:0:0:
406,164,72344,1,0,0:0:0:0:
320,160,72479,1,8,0:0:0:0:
320,160,72546,1,8,0:0:0:0:
361,122,72614,1,0,0:0:0:0:
351,205,72749,1,8,0:0:0:0:
385,147,72884,1,0,0:0:0:0:
385,147,73019,1,8,0:0:0:0:
192,128,73087,1,0,0:0:0:0:
289,155,73155,1,8,0:0:0:0:
406,164,73222,1,8,0:0:0:0:
352,160,73290,1,0,0:0:0:0:
352,160,73425,1,0,0:0:0:0:
352,160,73560,1,8,0:0:0:0:
224,64,73695,1,4,0:0:0:0:
384,160,73830,1,8,0:0:0:0:
384,160,73898,1,8,0:0:0:0:
416,160,73965,1,0,0:0:0:0:
448,160,74100,1,8,0:0:0:0:
448,128,74236,1,0,0:0:0:0:
480,160,74371,1,8,0:0:0:0:
480,160,74438,1,8,0:0:0:0:
448,160,74573,1,0,0:0:0:0:
448,160,74641,1,8,0:0:0:0:
448,160,74776,1,8,0:0:0:0:
384,160,74911,1,0,0:0:0:0:
384,160,74979,1,0,0:0:0:0:
288,128,75046,1,8,0:0:0:0:
352,192,75182,1,8,0:0:0:0:
448,160,75317,1,0,0:0:0:0:
448,160,75384,1,0,0:0:0:0:
448,160,75452,1,8,0:0:0:0:
448,160,75519,1,8,0:0:0:0:
416,192,75587,1,0,0:0:0:0:
256,160,75655,1,0,0:0:0:0:
416,160,75722,1,8,0:0:0:0:
416,160,75790,1,8,0:0:0:0:
256,160,75857,1,0,0:0:0:0:
352,160,75992,1,0,0:0:0:0:
416,128,76128,1,8,0:0:0:0:
384,160,76263,1,0,0:0:0:0:
448,160,76330,1,8,0:0:0:0:
416,128,76398,1,0,0:0:0:0:
352,128,76533,1,8,0:0:0:0:
416,192,76668,1,0,0:0:0:0:
416,192,76736,1,0,0:0:0:0:
448,160,76803,1,8,0:0:0:0:
448,160,76871,1,8,0:0:0:0:
320,128,76938,1,0,0:0:0:0:
448,160,77073,1,8,0:0:0:0:
448,160,77209,1,0,0:0:0:0:
448,160,77344,1,0,0:0:0:0:
448,160,77479,1,8,0:0:0:0:
512,160,77546,1,0,0:0:0:0:
448,128,77614,1,8,0:0:0:0:
448,128,77682,1,8,0:0:0:0:
480,160,77749,1,0,0:0:0:0:
448,128,77884,1,8,0:0:0:0:
416,128,78019,1,0,0:0:0:0:
192,96,78155,1,8,0:0:0:0:
192,96,78222,1,8,0:0:0:0:
192,96,78290,1,8,0:0:0:0:
416,128,78425,1,0,0:0:0:0:
448,192,78560,1,8,0:0:0:0:
448,192,78695,1,8,0:0:0:0:
306,121,78830,1,0,0:0:0:0:
472,164,78898,1,0,0:0:0:0:
416,135,78965,1,8,0:0:0:0:
382,133,79033,1,8,0:0:0:0:
416,135,79100,1,0,0:0:0:0:
449,143,79236,1,8,0:0:0:0:
301,95,79371,1,0,0:0:0:0:
427,143,79438,1,8,0:0:0:0:
427,143,79506,1,0,0:0:0:0:
426,142,79573,1,0,0:0:0:0:
306,78,79641,1,8,0:0:0:0:
455,184,79776,1,0,0:0:0:0:
486,164,79844,1,8,0:0:0:0:
345,135,79979,1,0,0:0:0:0:
395,137,80046,1,8,0:0:0:0:
394,136,80114,1,8,0:0:0:0:
292,155,80182,1,0,0:0:0:0:
391,178,80249,1,8,0:0:0:0:
373,153,80317,1,0,0:0:0:0:
373,153,80384,1,0,0:0:0:0:
423,155,80452,1,8,0:0:0:0:
377,191,80587,1,0,0:0:0:0:
452,138,80722,1,8,0:0:0:0:
395,156,80790,1,8,0:0:0:0:
463,173,80857,1,0,0:0:0:0:
346,78,80925,1,0,0:0:0:0:
478,171,80992,1,8,0:0:0:0:
476,171,81060,1,8,0:0:0:0:
381,126,81128,1,0,0:0:0:0:
369,139,81263,1,0,0:0:0:0:
413,146,81398,1,8,0:0:0:0:
413,146,81465,1,8,0:0:0:0:
413,146,81533,1,8,0:0:0:0:
413,146,81668,1,0,0:0:0:0:
413,146,81803,1,8,0:0:0:0:
297,228,81938,1,0,0:0:0:0:
335,274,82006,1,0,0:0:0:0:
401,155,82073,1,8,0:0:0:0:
321,138,82209,1,8,0:0:0:0:
490,117,82344,1,4,0:0:0:0:
384,160,82479,1,8,0:0:0:0:
384,160,82546,1,8,0:0:0:0:
416,160,82614,1,0,0:0:0:0:
448,160,82749,1,8,0:0:0:0:
448,128,82884,1,0,0:0:0:0:
480,160,83019,1,8,0:0:0:0:
480,160,83087,1,8,0:0:0:0:
448,160,83222,1,0,0:0:0:0:
448,160,83290,1,8,0:0:0:0:
448,160,83425,1,8,0:0:0:0:
384,160,83560,1,0,0:0:0:0:
384,160,83628,1,0,0:0:0:0:
288,128,83695,1,8,0:0:0:0:
352,192,83830,1,8,0:0:0:0:
448,160,83965,1,0,0:0:0:0:
448,160,84033,1,0,0:0:0:0:
448,160,84100,1,8,0:0:0:0:
448,160,84168,1,8,0:0:0:0:
416,192,84236,1,0,0:0:0:0:
256,160,84303,1,0,0:0:0:0:
416,160,84371,1,8,0:0:0:0:
416,160,84438,1,8,0:0:0:0:
256,160,84506,1,0,0:0:0:0:
352,160,84641,1,0,0:0:0:0:
416,128,84776,1,8,0:0:0:0:
384,160,84911,1,0,0:0:0:0:
448,160,84979,1,8,0:0:0:0:
416,128,85046,1,0,0:0:0:0:
352,128,85182,1,8,0:0:0:0:
416,192,85317,1,0,0:0:0:0:
416,192,85384,1,0,0:0:0:0:
448,160,85452,1,8,0:0:0:0:
448,160,85519,1,8,0:0:0:0:
320,128,85587,1,0,0:0:0:0:
448,160,85722,1,8,0:0:0:0:
295,148,85790,1,0,0:0:0:0:
448,160,85857,1,0,0:0:0:0:
451,163,85925,1,8,0:0:0:0:
448,160,85992,1,0,0:0:0:0:
349,165,86060,1,0,0:0:0:0:
448,160,86128,1,8,0:0:0:0:
448,128,86263,1,0,0:0:0:0:
448,128,86330,1,8,0:0:0:0:
480,160,86398,1,0,0:0:0:0:
448,128,86533,1,8,0:0:0:0:
416,128,86668,1,0,0:0:0:0:
192,96,86803,1,8,0:0:0:0:
192,96,86871,1,8,0:0:0:0:
192,96,86938,1,8,0:0:0:0:
416,128,87073,1,0,0:0:0:0:
448,192,87209,1,8,0:0:0:0:
375,75,87276,1,0,0:0:0:0:
448,192,87344,1,8,0:0:0:0:
157,140,87411,1,8,0:0:0:0:
219,168,87479,1,0,0:0:0:0:
241,172,87546,1,0,0:0:0:0:
428,163,87614,1,8,0:0:0:0:
486,153,87682,1,8,0:0:0:0:
354,125,87749,1,0,0:0:0:0:
449,143,87884,1,8,0:0:0:0:
301,95,88019,1,0,0:0:0:0:
476,180,88155,1,8,0:0:0:0:
251,119,88222,1,8,0:0:0:0:
257,139,88290,1,8,0:0:0:0:
455,184,88425,1,0,0:0:0:0:
486,164,88492,1,8,0:0:0:0:
345,135,88628,1,0,0:0:0:0:
395,137,88695,1,8,0:0:0:0:
394,136,88763,1,8,0:0:0:0:
229,193,88830,1,0,0:0:0:0:
229,193,88898,1,8,0:0:0:0:
353,122,88965,1,0,0:0:0:0:
474,128,89033,1,0,0:0:0:0:
423,155,89100,1,8,0:0:0:0:
377,191,89236,1,0,0:0:0:0:
452,138,89371,1,8,0:0:0:0:
128,128,89438,1,8,0:0:0:0:
454,160,89506,1,0,0:0:0:0:
454,160,89573,1,0,0:0:0:0:
482,146,89641,1,8,0:0:0:0:
320,128,89709,1,8,0:0:0:0:
482,146,89776,1,0,0:0:0:0:
352,64,89844,5,8,0:0:0:0:
369,139,89911,1,0,0:0:0:0:
288,160,90046,5,8,0:0:0:0:
288,160,90114,1,0,0:0:0:0:
384,160,90182,1,8,0:0:0:0:
210,137,90249,1,0,0:0:0:0:
384,160,90317,5,0,0:0:0:0:
352,96,90384,1,0,0:0:0:0:
352,128,90452,1,8,0:0:0:0:
413,146,90587,1,8,0:0:0:0:
369,160,90722,1,0,0:0:0:0:
365,156,90790,1,0,0:0:0:0:
499,160,90857,1,8,0:0:0:0:
490,117,90992,1,4,0:0:0:0:
384,160,91128,1,8,0:0:0:0:
384,160,91195,1,8,0:0:0:0:
416,160,91263,1,0,0:0:0:0:
448,160,91398,1,8,0:0:0:0:
448,128,91533,1,0,0:0:0:0:
480,160,91668,1,8,0:0:0:0:
480,160,91736,1,8,0:0:0:0:
448,160,91871,1,0,0:0:0:0:
448,160,91938,1,8,0:0:0:0:
448,160,92073,1,8,0:0:0:0:
384,160,92209,1,0,0:0:0:0:
384,160,92276,1,0,0:0:0:0:
288,128,92344,1,8,0:0:0:0:
352,192,92479,1,8,0:0:0:0:
448,160,92614,1,0,0:0:0:0:
448,160,92682,1,0,0:0:0:0:
448,160,92749,1,8,0:0:0:0:
448,160,92817,1,8,0:0:0:0:
416,192,92884,1,0,0:0:0:0:
256,160,92952,1,0,0:0:0:0:
416,160,93019,1,8,0:0:0:0:
416,160,93087,1,8,0:0:0:0:
256,160,93155,1,0,0:0:0:0:
352,160,93290,1,0,0:0:0:0:
416,128,93425,1,8,0:0:0:0:
384,160,93560,1,0,0:0:0:0:
448,160,93628,1,8,0:0:0:0:
416,128,93695,1,0,0:0:0:0:
308,70,93763,1,0,0:0:0:0:
352,128,93830,1,8,0:0:0:0:
509,142,93898,1,8,0:0:0:0:
416,192,93965,1,8,0:0:0:0:
416,192,94033,1,0,0:0:0:0:
448,160,94100,1,8,0:0:0:0:
448,160,94168,1,8,0:0:0:0:
320,128,94236,1,0,0:0:0:0:
448,160,94371,1,8,0:0:0:0:
448,160,94506,1,0,0:0:0:0:
448,160,94641,1,0,0:0:0:0:
448,160,94776,1,8,0:0:0:0:
512,160,94844,1,0,0:0:0:0:
448,128,94911,1,8,0:0:0:0:
448,128,94979,1,8,0:0:0:0:
480,160,95046,1,0,0:0:0:0:
448,128,95182,1,8,0:0:0:0:
416,128,95317,1,0,0:0:0:0:
192,96,95452,1,8,0:0:0:0:
192,96,95519,1,0,0:0:0:0:
192,96,95587,1,8,0:0:0:0:
190,128,95655,1,0,0:0:0:0:
416,128,95790,1,8,0:0:0:0:
448,192,95857,1,0,0:0:0:0:
275,169,95925,1,0,0:0:0:0:
448,192,95992,1,8,0:0:0:0:
306,121,96128,1,0,0:0:0:0:
472,164,96195,1,0,0:0:0:0:
416,135,96263,1,8,0:0:0:0:
416,135,96330,1,0,0:0:0:0:
416,135,96398,1,8,0:0:0:0:
421,184,96465,1,0,0:0:0:0:
449,143,96533,1,8,0:0:0:0:
380,187,96600,1,8,0:0:0:0:
301,95,96668,1,0,0:0:0:0:
476,180,96803,1,8,0:0:0:0:
251,119,96871,1,8,0:0:0:0:
257,139,96938,1,8,0:0:0:0:
455,184,97073,1,0,0:0:0:0:
486,164,97141,1,8,0:0:0:0:
345,135,97276,1,0,0:0:0:0:
395,137,97344,1,8,0:0:0:0:
394,136,97411,1,8,0:0:0:0:
292,155,97479,1,0,0:0:0:0:
391,178,97546,1,8,0:0:0:0:
373,153,97614,1,0,0:0:0:0:
373,153,97682,1,0,0:0:0:0:
423,155,97749,1,8,0:0:0:0:
377,191,97884,1,0,0:0:0:0:
452,138,98019,1,8,0:0:0:0:
454,160,98155,1,0,0:0:0:0:
454,160,98222,1,0,0:0:0:0:
482,146,98290,1,8,0:0:0:0:
472,148,98357,1,8,0:0:0:0:
256,130,98425,1,0,0:0:0:0:
282,138,98492,1,8,0:0:0:0:
369,139,98560,1,0,0:0:0:0:
413,146,98695,1,8,0:0:0:0:
279,117,98763,1,0,0:0:0:0:
294,149,98830,1,8,0:0:0:0:
431,102,98898,1,8,0:0:0:0:
413,146,98965,1,0,0:0:0:0:
431,102,99033,1,0,0:0:0:0:
413,146,99100,1,8,0:0:0:0:
279,117,99168,1,0,0:0:0:0:
413,146,99236,1,8,0:0:0:0:
279,117,99303,1,8,0:0:0:0:
369,160,99371,1,0,0:0:0:0:
499,160,99506,1,8,0:0:0:0:
490,117,99641,1,4,0:0:0:0:
384,160,99776,1,8,0:0:0:0:
384,160,99844,1,8,0:0:0:0:
416,160,99911,1,0,0:0:0:0:
336,74,99979,1,0,0:0:0:0:
448,160,100046,1,8,0:0:0:0:
448,128,100182,1,0,0:0:0:0:
480,160,100317,1,8,0:0:0:0:
480,160,100384,1,8,0:0:0:0:
448,160,100519,1,0,0:0:0:0:
448,160,100587,1,8,0:0:0:0:
177,71,100655,1,0,0:0:0:0:
448,160,100722,1,8,0:0:0:0:
429,142,100790,1,8,0:0:0:0:
429,142,100857,1,0,0:0:0:0:
429,142,100925,1,0,0:0:0:0:
288,128,100992,1,8,0:0:0:0:
352,192,101128,1,8,0:0:0:0:
448,160,101263,1,0,0:0:0:0:
448,160,101330,1,0,0:0:0:0:
448,160,101398,1,8,0:0:0:0:
448,160,101465,1,8,0:0:0:0:
416,192,101533,1,0,0:0:0:0:
256,160,101600,1,0,0:0:0:0:
416,160,101668,1,8,0:0:0:0:
416,160,101736,1,8,0:0:0:0:
256,160,101803,1,0,0:0:0:0:
352,160,101938,1,8,0:0:0:0:
416,128,102073,1,8,0:0:0:0:
384,160,102209,1,0,0:0:0:0:
448,160,102276,1,8,0:0:0:0:
416,128,102344,1,0,0:0:0:0:
352,128,102479,1,8,0:0:0:0:
64,192,102546,1,8,0:0:0:0:
416,192,102614,1,0,0:0:0:0:
416,192,102682,1,0,0:0:0:0:
448,160,102749,1,8,0:0:0:0:
448,160,102817,1,8,0:0:0:0:
320,128,102884,1,0,0:0:0:0:
448,160,103019,1,8,0:0:0:0:
448,160,103155,1,0,0:0:0:0:
448,160,103290,1,0,0:0:0:0:
448,160,103425,1,8,0:0:0:0:
512,160,103492,1,0,0:0:0:0:
448,128,103560,1,8,0:0:0:0:
448,128,103628,1,8,0:0:0:0:
480,160,103695,1,0,0:0:0:0:
448,128,103830,1,8,0:0:0:0:
416,128,103965,1,0,0:0:0:0:
192,96,104100,1,8,0:0:0:0:
192,96,104168,1,8,0:0:0:0:
192,96,104236,1,8,0:0:0:0:
352,192,104303,1,0,0:0:0:0:
416,128,104371,1,0,0:0:0:0:
352,192,104438,1,0,0:0:0:0:
448,192,104506,1,8,0:0:0:0:
448,192,104641,1,8,0:0:0:0:
306,121,104776,1,0,0:0:0:0:
472,164,104844,1,0,0:0:0:0:
416,135,104911,1,8,0:0:0:0:
416,135,104979,1,0,0:0:0:0:
416,135,105046,1,8,0:0:0:0:
384,160,105182,1,8,0:0:0:0:
384,192,105317,1,0,0:0:0:0:
384,160,105384,1,0,0:0:0:0:
476,180,105452,1,8,0:0:0:0:
251,119,105519,1,0,0:0:0:0:
257,139,105587,1,8,0:0:0:0:
320,128,105655,1,8,0:0:0:0:
416,160,105722,1,0,0:0:0:0:
416,160,105790,1,0,0:0:0:0:
352,128,105857,1,8,0:0:0:0:
320,160,105925,1,0,0:0:0:0:
384,64,105992,1,8,0:0:0:0:
292,155,106128,1,0,0:0:0:0:
391,178,106195,1,8,0:0:0:0:
373,153,106263,1,0,0:0:0:0:
373,153,106330,1,0,0:0:0:0:
423,155,106398,1,8,0:0:0:0:
377,191,106533,1,0,0:0:0:0:
452,138,106668,1,8,0:0:0:0:
454,160,106803,1,0,0:0:0:0:
454,160,106871,1,0,0:0:0:0:
482,146,106938,1,8,0:0:0:0:
288,128,107006,1,0,0:0:0:0:
482,146,107073,1,8,0:0:0:0:
369,139,107209,1,4,0:0:0:0:
413,146,107344,1,8,0:0:0:0:
413,146,107411,1,8,0:0:0:0:
413,146,107479,1,8,0:0:0:0:
413,146,107614,1,0,0:0:0:0:
413,146,107749,1,8,0:0:0:0:
413,146,107884,1,8,0:0:0:0:
369,160,108019,1,0,0:0:0:0:
365,156,108087,1,0,0:0:0:0:
499,160,108155,1,8,0:0:0:0:
490,117,108290,1,4,0:0:0:0:
512,160,108425,1,8,0:0:0:0:
512,160,108492,1,8,0:0:0:0:
480,160,108560,1,0,0:0:0:0:
384,160,108695,1,8,0:0:0:0:
448,160,108830,1,0,0:0:0:0:
320,160,108965,1,8,0:0:0:0:
480,160,109100,1,0,0:0:0:0:
384,64,109168,1,0,0:0:0:0:
320,160,109236,1,8,0:0:0:0:
448,128,109371,1,0,0:0:0:0:
448,128,109438,1,0,0:0:0:0:
448,128,109506,1,0,0:0:0:0:
416,160,109641,1,8,0:0:0:0:
416,160,109776,1,8,0:0:0:0:
288,160,109911,1,0,0:0:0:0:
416,160,110046,1,8,0:0:0:0:
416,160,110114,1,8,0:0:0:0:
384,160,110249,1,0,0:0:0:0:
384,160,110317,1,8,0:0:0:0:
288,128,110452,1,0,0:0:0:0:
416,160,110519,1,0,0:0:0:0:
384,160,110587,1,0,0:0:0:0:
288,160,110722,1,8,0:0:0:0:
384,160,110857,1,0,0:0:0:0:
384,128,110992,1,8,0:0:0:0:
416,160,111060,1,8,0:0:0:0:
320,160,111128,1,0,0:0:0:0:
320,160,111195,1,0,0:0:0:0:
320,96,111263,1,8,0:0:0:0:
416,128,111330,1,8,0:0:0:0:
384,128,111398,1,0,0:0:0:0:
448,160,111533,1,8,0:0:0:0:
448,128,111600,1,0,0:0:0:0:
448,128,111668,1,0,0:0:0:0:
416,128,111803,1,8,0:0:0:0:
320,160,111938,1,0,0:0:0:0:
416,160,112073,1,8,0:0:0:0:
448,160,112209,1,0,0:0:0:0:
384,128,112276,1,8,0:0:0:0:
480,160,112344,1,0,0:0:0:0:
128,160,112411,1,0,0:0:0:0:
480,160,112479,1,8,0:0:0:0:
448,160,112614,1,0,0:0:0:0:
512,160,112749,1,8,0:0:0:0:
512,160,112817,1,8,0:0:0:0:
480,160,112884,1,0,0:0:0:0:
384,160,113019,1,8,0:0:0:0:
448,160,113155,1,0,0:0:0:0:
320,160,113290,1,8,0:0:0:0:
480,160,113425,1,0,0:0:0:0:
384,64,113492,1,0,0:0:0:0:
320,160,113560,1,8,0:0:0:0:
448,128,113695,1,0,0:0:0:0:
448,128,113763,1,0,0:0:0:0:
448,128,113830,1,0,0:0:0:0:
416,160,113965,1,8,0:0:0:0:
416,160,114100,1,8,0:0:0:0:
288,160,114236,1,0,0:0:0:0:
416,160,114371,1,8,0:0:0:0:
416,160,114438,1,8,0:0:0:0:
384,160,114573,1,0,0:0:0:0:
384,160,114641,1,8,0:0:0:0:
288,128,114776,1,0,0:0:0:0:
416,160,114844,1,0,0:0:0:0:
384,160,114911,1,0,0:0:0:0:
288,160,115046,1,8,0:0:0:0:
384,160,115182,1,0,0:0:0:0:
384,128,115317,1,8,0:0:0:0:
256,160,115384,1,0,0:0:0:0:
320,160,115452,1,0,0:0:0:0:
320,160,115519,1,0,0:0:0:0:
256,160,115587,1,8,0:0:0:0:
416,160,115655,1,8,0:0:0:0:
384,128,115722,1,0,0:0:0:0:
448,160,115857,1,8,0:0:0:0:
448,128,115925,1,0,0:0:0:0:
448,128,115992,1,0,0:0:0:0:
416,128,116128,1,8,0:0:0:0:
320,160,116263,1,0,0:0:0:0:
416,160,116398,1,8,0:0:0:0:
448,160,116533,1,0,0:0:0:0:
384,128,116600,1,8,0:0:0:0:
480,160,116668,1,0,0:0:0:0:
128,160,116736,1,0,0:0:0:0:
480,160,116803,1,8,0:0:0:0:
448,160,116938,1,4,0:0:0:0:
512,160,117073,1,8,0:0:0:0:
512,160,117141,1,8,0:0:0:0:
480,160,117209,1,0,0:0:0:0:
384,160,117344,1,8,0:0:0:0:
448,160,117479,1,0,0:0:0:0:
320,160,117614,1,8,0:0:0:0:
480,160,117749,1,0,0:0:0:0:
384,64,117817,1,0,0:0:0:0:
320,160,117884,1,8,0:0:0:0:
448,128,118019,1,0,0:0:0:0:
448,128,118087,1,0,0:0:0:0:
448,128,118155,1,0,0:0:0:0:
416,160,118290,1,8,0:0:0:0:
416,160,118425,1,8,0:0:0:0:
288,160,118560,1,0,0:0:0:0:
416,160,118695,1,8,0:0:0:0:
416,160,118763,1,8,0:0:0:0:
384,160,118898,1,0,0:0:0:0:
384,160,118965,1,8,0:0:0:0:
288,128,119100,1,0,0:0:0:0:
416,160,119168,1,0,0:0:0:0:
384,160,119236,1,0,0:0:0:0:
288,160,119371,1,8,0:0:0:0:
384,160,119506,1,0,0:0:0:0:
384,128,119641,1,8,0:0:0:0:
416,160,119709,1,8,0:0:0:0:
320,160,119776,1,0,0:0:0:0:
320,160,119844,1,0,0:0:0:0:
320,96,119911,1,8,0:0:0:0:
416,128,119979,1,8,0:0:0:0:
384,128,120046,1,0,0:0:0:0:
448,160,120182,1,8,0:0:0:0:
448,128,120249,1,0,0:0:0:0:
448,128,120317,1,0,0:0:0:0:
416,128,120452,1,8,0:0:0:0:
320,160,120587,1,0,0:0:0:0:
416,160,120722,1,8,0:0:0:0:
448,160,120857,1,0,0:0:0:0:
384,128,120925,1,8,0:0:0:0:
480,160,120992,1,0,0:0:0:0:
128,160,121060,1,0,0:0:0:0:
480,160,121128,1,8,0:0:0:0:
448,160,121263,1,0,0:0:0:0:
288,192,121330,1,0,0:0:0:0:
512,160,121398,1,8,0:0:0:0:
512,160,121465,1,8,0:0:0:0:
480,160,121533,1,0,0:0:0:0:
384,160,121668,1,8,0:0:0:0:
448,160,121803,1,0,0:0:0:0:
320,160,121938,1,8,0:0:0:0:
480,160,122073,1,0,0:0:0:0:
384,64,122141,1,0,0:0:0:0:
320,160,122209,1,8,0:0:0:0:
448,128,122344,1,0,0:0:0:0:
448,128,122411,1,0,0:0:0:0:
448,128,122479,1,0,0:0:0:0:
320,256,122546,1,0,0:0:0:0:
416,160,122614,1,8,0:0:0:0:
416,160,122749,1,8,0:0:0:0:
288,160,122884,1,0,0:0:0:0:
320,224,122952,1,0,0:0:0:0:
416,160,123019,1,8,0:0:0:0:
416,160,123087,1,0,0:0:0:0:
352,128,123155,1,0,0:0:0:0:
384,160,123222,1,0,0:0:0:0:
384,160,123290,1,8,0:0:0:0:
288,128,123425,1,0,0:0:0:0:
416,160,123492,1,0,0:0:0:0:
384,160,123560,1,0,0:0:0:0:
288,160,123695,1,8,0:0:0:0:
384,160,123830,1,0,0:0:0:0:
384,128,123965,1,8,0:0:0:0:
256,160,124033,1,0,0:0:0:0:
320,160,124100,1,0,0:0:0:0:
320,160,124168,1,0,0:0:0:0:
256,160,124236,1,8,0:0:0:0:
416,160,124303,1,8,0:0:0:0:
384,128,124371,1,0,0:0:0:0:
448,160,124506,1,8,0:0:0:0:
448,128,124573,1,0,0:0:0:0:
448,128,124641,1,0,0:0:0:0:
416,128,124776,1,8,0:0:0:0:
320,160,124911,1,0,0:0:0:0:
416,160,125046,1,8,0:0:0:0:
448,160,125182,1,0,0:0:0:0:
384,128,125249,1,8,0:0:0:0:
480,160,125317,1,0,0:0:0:0:
128,160,125384,1,0,0:0:0:0:
480,160,125452,1,8,0:0:0:0:
448,160,125587,1,4,0:0:0:0:
512,160,125722,1,8,0:0:0:0:
512,160,125790,1,8,0:0:0:0:
480,160,125857,1,0,0:0:0:0:
320,160,125925,1,0,0:0:0:0:
384,160,125992,1,8,0:0:0:0:
448,160,126128,1,0,0:0:0:0:
320,160,126263,1,8,0:0:0:0:
416,192,126330,1,0,0:0:0:0:
480,160,126398,1,0,0:0:0:0:
384,64,126465,1,0,0:0:0:0:
320,160,126533,1,8,0:0:0:0:
448,128,126668,1,0,0:0:0:0:
448,128,126736,1,0,0:0:0:0:
448,128,126803,1,0,0:0:0:0:
320,224,126871,1,0,0:0:0:0:
416,160,126938,1,8,0:0:0:0:
416,160,127073,1,8,0:0:0:0:
288,160,127209,1,0,0:0:0:0:
416,160,127344,1,8,0:0:0:0:
416,160,127411,1,8,0:0:0:0:
192,32,127479,1,0,0:0:0:0:
192,32,127546,1,0,0:0:0:0:
384,160,127614,1,8,0:0:0:0:
288,128,127749,1,0,0:0:0:0:
416,160,127817,1,0,0:0:0:0:
384,160,127884,1,0,0:0:0:0:
288,160,128019,1,8,0:0:0:0:
384,160,128155,1,0,0:0:0:0:
384,128,128290,1,8,0:0:0:0:
416,160,128357,1,8,0:0:0:0:
320,160,128425,1,0,0:0:0:0:
320,160,128492,1,0,0:0:0:0:
320,96,128560,1,8,0:0:0:0:
416,128,128628,1,8,0:0:0:0:
384,128,128695,1,0,0:0:0:0:
448,160,128830,1,8,0:0:0:0:
448,128,128898,1,0,0:0:0:0:
448,128,128965,1,0,0:0:0:0:
320,128,129033,1,0,0:0:0:0:
416,128,129100,1,8,0:0:0:0:
320,160,129236,1,0,0:0:0:0:
416,160,129371,1,8,0:0:0:0:
352,128,129438,1,8,0:0:0:0:
384,160,129506,1,0,0:0:0:0:
384,160,129573,1,0,0:0:0:0:
128,160,129641,1,8,0:0:0:0:
128,160,129709,1,0,0:0:0:0:
480,160,129776,1,8,0:0:0:0:
448,160,129911,1,0,0:0:0:0:
512,160,130046,1,8,0:0:0:0:
512,160,130114,1,8,0:0:0:0:
480,160,130182,1,0,0:0:0:0:
320,96,130249,1,0,0:0:0:0:
384,160,130317,1,8,0:0:0:0:
448,160,130452,1,0,0:0:0:0:
320,160,130587,1,8,0:0:0:0:
384,160,130655,1,0,0:0:0:0:
480,160,130722,1,0,0:0:0:0:
384,64,130790,1,0,0:0:0:0:
320,160,130857,1,8,0:0:0:0:
448,128,130992,1,0,0:0:0:0:
448,128,131060,1,0,0:0:0:0:
448,128,131128,1,0,0:0:0:0:
256,96,131195,1,0,0:0:0:0:
416,160,131263,1,8,0:0:0:0:
416,160,131398,1,8,0:0:0:0:
288,160,131533,1,0,0:0:0:0:
416,160,131668,1,8,0:0:0:0:
416,160,131736,1,8,0:0:0:0:
320,160,131803,1,0,0:0:0:0:
384,160,131871,1,0,0:0:0:0:
384,160,131938,1,8,0:0:0:0:
288,128,132073,1,0,0:0:0:0:
416,160,132141,1,0,0:0:0:0:
384,160,132209,1,0,0:0:0:0:
288,160,132344,1,8,0:0:0:0:
384,160,132479,1,0,0:0:0:0:
384,128,132614,1,8,0:0:0:0:
256,160,132682,1,0,0:0:0:0:
320,160,132749,1,0,0:0:0:0:
320,160,132817,1,0,0:0:0:0:
256,160,132884,1,8,0:0:0:0:
416,160,132952,1,8,0:0:0:0:
384,128,133019,1,0,0:0:0:0:
448,160,133155,1,8,0:0:0:0:
448,128,133222,1,0,0:0:0:0:
448,128,133290,1,0,0:0:0:0:
416,128,133425,1,8,0:0:0:0:
320,160,133560,1,0,0:0:0:0:
416,160,133695,1,8,0:0:0:0:
480,224,133763,1,0,0:0:0:0:
256,160,133830,1,8,0:0:0:0:
416,160,133898,1,0,0:0:0:0:
256,128,133965,1,8,0:0:0:0:
128,160,134033,1,0,0:0:0:0:
480,160,134100,1,8,0:0:0:0:
448,160,134236,1,4,0:0:0:0:
512,160,134371,1,8,0:0:0:0:
512,160,134438,1,8,0:0:0:0:
480,160,134506,1,0,0:0:0:0:
352,160,134573,1,0,0:0:0:0:
384,160,134641,1,8,0:0:0:0:
448,160,134776,1,0,0:0:0:0:
320,160,134911,1,8,0:0:0:0:
256,160,134979,1,0,0:0:0:0:
480,160,135046,1,0,0:0:0:0:
384,64,135114,1,0,0:0:0:0:
320,160,135182,1,8,0:0:0:0:
448,128,135317,1,0,0:0:0:0:
448,128,135384,1,0,0:0:0:0:
448,128,135452,1,0,0:0:0:0:
192,32,135519,1,0,0:0:0:0:
416,160,135587,1,8,0:0:0:0:
416,160,135722,1,8,0:0:0:0:
288,160,135857,1,0,0:0:0:0:
416,160,135992,1,8,0:0:0:0:
416,160,136060,1,8,0:0:0:0:
224,128,136128,1,0,0:0:0:0:
384,160,136195,1,0,0:0:0:0:
384,160,136263,1,8,0:0:0:0:
288,128,136398,1,0,0:0:0:0:
416,160,136465,1,0,0:0:0:0:
384,160,136533,1,0,0:0:0:0:
288,160,136668,1,8,0:0:0:0:
384,160,136803,1,0,0:0:0:0:
384,128,136938,1,8,0:0:0:0:
416,160,137006,1,8,0:0:0:0:
320,160,137073,1,0,0:0:0:0:
320,160,137141,1,0,0:0:0:0:
320,96,137209,1,8,0:0:0:0:
416,128,137276,1,8,0:0:0:0:
384,128,137344,1,0,0:0:0:0:
448,160,137479,1,8,0:0:0:0:
448,128,137546,1,0,0:0:0:0:
448,128,137614,1,0,0:0:0:0:
416,128,137749,1,8,0:0:0:0:
384,160,137884,1,8,0:0:0:0:
320,160,138019,1,0,0:0:0:0:
384,192,138087,1,0,0:0:0:0:
416,160,138155,1,8,0:0:0:0:
480,160,138222,1,8,0:0:0:0:
448,160,138290,1,0,0:0:0:0:
384,128,138357,1,0,0:0:0:0:
480,160,138425,1,8,0:0:0:0:
448,160,138560,1,0,0:0:0:0:
512,160,138695,1,8,0:0:0:0:
512,160,138763,1,8,0:0:0:0:
480,160,138830,1,0,0:0:0:0:
448,256,138898,1,0,0:0:0:0:
384,160,138965,1,8,0:0:0:0:
448,160,139100,1,0,0:0:0:0:
320,160,139236,1,8,0:0:0:0:
288,160,139303,1,0,0:0:0:0:
480,160,139371,1,0,0:0:0:0:
384,64,139438,1,0,0:0:0:0:
320,160,139506,1,8,0:0:0:0:
448,128,139641,1,0,0:0:0:0:
448,128,139709,1,0,0:0:0:0:
448,128,139776,1,0,0:0:0:0:
320,256,139844,1,0,0:0:0:0:
416,160,139911,1,8,0:0:0:0:
224,128,140046,1,0,0:0:0:0:
224,128,140114,1,0,0:0:0:0:
288,160,140182,5,8,0:0:0:0:
320,224,140249,1,8,0:0:0:0:
207,160,140317,1,8,0:0:0:0:
320,224,140384,1,8,0:0:0:0:
352,128,140452,1,0,0:0:0:0:
384,160,140587,1,8,0:0:0:0:
320,128,140655,1,8,0:0:0:0:
288,128,140722,1,0,0:0:0:0:
288,128,140857,1,8,0:0:0:0:
288,128,140925,1,0,0:0:0:0:
320,160,141060,1,8,0:0:0:0:
384,160,141128,1,0,0:0:0:0:
384,128,141263,1,8,0:0:0:0:
256,160,141330,1,0,0:0:0:0:
320,160,141398,1,0,0:0:0:0:
320,160,141465,1,0,0:0:0:0:
256,160,141533,1,8,0:0:0:0:
192,96,141668,1,8,0:0:0:0:
448,160,141803,1,4,0:0:0:0:
288,192,141938,1,8,0:0:0:0:
288,192,142073,1,8,0:0:0:0:
384,160,142209,1,0,0:0:0:0:
256,64,142344,1,8,0:0:0:0:
480,160,142411,1,0,0:0:0:0:
448,160,142479,1,8,0:0:0:0:
384,160,142614,1,0,0:0:0:0:
256,160,142749,1,8,0:0:0:0:
384,128,142884,1,4,0:0:0:0:
416,160,143155,1,8,0:0:0:0:
384,160,143290,1,0,0:0:0:0:
320,128,143425,1,8,0:0:0:0:
352,128,143695,1,0,0:0:0:0:
352,128,143830,1,0,0:0:0:0:
448,160,143965,1,8,0:0:0:0:
448,160,144100,1,0,0:0:0:0:
448,128,144236,1,8,0:0:0:0:
416,128,144371,1,8,0:0:0:0:
448,160,144506,1,0,0:0:0:0:
256,128,144776,5,0,0:0:0:0:
384,160,145046,1,8,0:0:0:0:
448,160,145317,1,0,0:0:0:0:
416,160,145587,1,8,0:0:0:0:
416,160,145857,1,8,0:0:0:0:
416,160,146128,1,0,0:0:0:0:
416,160,146398,1,8,0:0:0:0:
512,192,146533,1,0,0:0:0:0:
384,160,146668,1,8,0:0:0:0:
384,192,146803,1,0,0:0:0:0:
416,160,146938,1,8,0:0:0:0:
480,160,147209,1,0,0:0:0:0:
320,128,147479,1,8,0:0:0:0:
320,128,147614,1,8,0:0:0:0:
320,128,147749,1,8,0:0:0:0:
352,160,148019,1,0,0:0:0:0:
320,128,148155,1,8,0:0:0:0:
320,128,148290,1,8,0:0:0:0:
448,160,148425,1,0,0:0:0:0:
416,160,148560,1,8,0:0:0:0:
416,160,148695,1,8,0:0:0:0:
480,160,148830,1,0,0:0:0:0:
480,160,149100,1,0,0:0:0:0:
448,128,149371,1,8,0:0:0:0:
448,128,149641,1,0,0:0:0:0:
448,128,149911,1,8,0:0:0:0:
448,128,150182,1,8,0:0:0:0:
480,160,150452,1,0,0:0:0:0:
448,128,150722,1,8,0:0:0:0:
448,128,150857,1,8,0:0:0:0:
448,128,150992,1,8,0:0:0:0:
448,128,151128,1,8,0:0:0:0:
288,160,151263,5,8,0:0:0:0:
448,128,151533,1,4,0:0:0:0:
288,160,151803,1,8,0:0:0:0:
416,160,151938,1,0,0:0:0:0:
384,160,152073,1,8,0:0:0:0:
384,160,152209,1,8,0:0:0:0:
320,128,152344,1,0,0:0:0:0:
320,128,152479,1,0,0:0:0:0:
384,160,152614,1,8,0:0:0:0:
416,160,152749,1,0,0:0:0:0:
448,160,152884,1,8,0:0:0:0:
448,160,153019,1,8,0:0:0:0:
448,160,153155,1,0,0:0:0:0:
416,160,153425,1,0,0:0:0:0:
448,160,153695,1,8,0:0:0:0:
480,160,153965,1,0,0:0:0:0:
480,160,154100,1,0,0:0:0:0:
416,160,154236,1,8,0:0:0:0:
320,160,154506,1,8,0:0:0:0:
352,160,154776,1,0,0:0:0:0:
384,224,154911,1,0,0:0:0:0:
448,160,155046,1,8,0:0:0:0:
448,128,155182,1,0,0:0:0:0:
448,160,155317,1,8,0:0:0:0:
448,128,155452,1,0,0:0:0:0:
480,160,155587,1,8,0:0:0:0:
192,160,155857,1,0,0:0:0:0:
288,160,156128,1,8,0:0:0:0:
416,160,156263,1,8,0:0:0:0:
384,160,156398,1,8,0:0:0:0:
384,160,156533,1,8,0:0:0:0:
320,128,156668,1,0,0:0:0:0:
320,128,156803,1,0,0:0:0:0:
384,160,156938,1,8,0:0:0:0:
416,160,157073,1,0,0:0:0:0:
448,160,157209,1,8,0:0:0:0:
448,160,157344,1,8,0:0:0:0:
448,160,157479,1,0,0:0:0:0:
416,160,157749,1,0,0:0:0:0:
448,160,158019,1,8,0:0:0:0:
480,160,158290,1,0,0:0:0:0:
480,160,158425,1,0,0:0:0:0:
416,160,158560,1,8,0:0:0:0:
320,160,158830,1,8,0:0:0:0:
352,160,159100,1,0,0:0:0:0:
384,224,159236,1,0,0:0:0:0:
448,160,159371,1,8,0:0:0:0:
448,128,159506,1,8,0:0:0:0:
448,160,159641,1,8,0:0:0:0:
448,128,159776,1,8,0:0:0:0:
480,160,159911,1,8,0:0:0:0:
480,128,160182,1,4,0:0:0:0:
288,160,160452,1,8,0:0:0:0:
416,160,160587,1,0,0:0:0:0:
256,128,160655,1,0,0:0:0:0:
384,160,160722,1,8,0:0:0:0:
384,160,160857,1,8,0:0:0:0:
320,128,160992,1,0,0:0:0:0:
352,96,161060,1,0,0:0:0:0:
320,128,161128,1,0,0:0:0:0:
384,160,161263,1,8,0:0:0:0:
416,160,161398,1,0,0:0:0:0:
448,160,161533,1,8,0:0:0:0:
288,192,161600,1,0,0:0:0:0:
448,160,161668,1,8,0:0:0:0:
448,160,161803,1,0,0:0:0:0:
352,160,161938,1,8,0:0:0:0:
352,160,162006,1,8,0:0:0:0:
416,160,162073,1,0,0:0:0:0:
288,64,162209,1,0,0:0:0:0:
448,160,162344,1,8,0:0:0:0:
416,64,162479,1,0,0:0:0:0:
416,64,162546,1,0,0:0:0:0:
480,160,162614,1,0,0:0:0:0:
480,160,162749,1,0,0:0:0:0:
416,160,162884,1,8,0:0:0:0:
320,160,163019,1,0,0:0:0:0:
320,160,163087,1,0,0:0:0:0:
320,160,163155,1,8,0:0:0:0:
192,160,163290,1,8,0:0:0:0:
352,160,163425,1,0,0:0:0:0:
256,160,163560,1,8,0:0:0:0:
320,160,163695,1,0,0:0:0:0:
416,160,163763,1,8,0:0:0:0:
448,128,163830,1,0,0:0:0:0:
448,160,163965,1,8,0:0:0:0:
448,128,164100,1,0,0:0:0:0:
480,160,164236,1,8,0:0:0:0:
320,160,164303,1,8,0:0:0:0:
320,160,164371,1,8,0:0:0:0:
320,160,164438,1,8,0:0:0:0:
192,160,164506,1,0,0:0:0:0:
224,128,164641,1,0,0:0:0:0:
288,160,164776,1,8,0:0:0:0:
416,160,164911,1,0,0:0:0:0:
256,128,164979,1,0,0:0:0:0:
384,160,165046,1,8,0:0:0:0:
384,160,165182,1,8,0:0:0:0:
320,128,165317,1,0,0:0:0:0:
352,96,165384,1,8,0:0:0:0:
320,128,165452,1,0,0:0:0:0:
384,160,165587,1,8,0:0:0:0:
416,160,165722,1,0,0:0:0:0:
448,160,165857,1,8,0:0:0:0:
288,192,165925,1,8,0:0:0:0:
448,160,165992,1,8,0:0:0:0:
448,160,166128,1,0,0:0:0:0:
352,160,166263,1,8,0:0:0:0:
352,160,166330,1,8,0:0:0:0:
416,160,166398,1,0,0:0:0:0:
288,64,166533,1,0,0:0:0:0:
448,160,166668,1,8,0:0:0:0:
416,64,166803,1,0,0:0:0:0:
416,64,166871,1,8,0:0:0:0:
480,160,166938,1,0,0:0:0:0:
480,160,167073,1,0,0:0:0:0:
416,160,167209,1,8,0:0:0:0:
320,160,167344,1,0,0:0:0:0:
320,160,167411,1,0,0:0:0:0:
320,160,167479,1,8,0:0:0:0:
192,160,167614,1,8,0:0:0:0:
352,160,167749,1,0,0:0:0:0:
256,160,167884,1,8,0:0:0:0:
320,160,168019,1,0,0:0:0:0:
416,160,168087,1,0,0:0:0:0:
448,128,168155,1,0,0:0:0:0:
448,160,168290,1,8,0:0:0:0:
448,128,168425,1,0,0:0:0:0:
480,160,168560,1,8,0:0:0:0:
192,160,168830,1,4,0:0:0:0:
288,160,169100,1,8,0:0:0:0:
416,160,169236,1,0,0:0:0:0:
256,128,169303,1,0,0:0:0:0:
384,160,169371,1,8,0:0:0:0:
384,160,169506,1,8,0:0:0:0:
320,128,169641,1,0,0:0:0:0:
352,96,169709,1,0,0:0:0:0:
320,128,169776,1,0,0:0:0:0:
384,160,169911,1,8,0:0:0:0:
416,160,170046,1,0,0:0:0:0:
448,160,170182,1,8,0:0:0:0:
288,192,170249,1,0,0:0:0:0:
448,160,170317,1,8,0:0:0:0:
448,160,170452,1,0,0:0:0:0:
352,160,170587,1,8,0:0:0:0:
352,160,170655,1,8,0:0:0:0:
416,160,170722,1,0,0:0:0:0:
288,64,170857,1,0,0:0:0:0:
448,160,170992,1,8,0:0:0:0:
416,64,171128,1,0,0:0:0:0:
416,64,171195,1,0,0:0:0:0:
480,160,171263,1,0,0:0:0:0:
480,160,171398,1,0,0:0:0:0:
416,160,171533,1,8,0:0:0:0:
320,160,171668,1,0,0:0:0:0:
320,160,171736,1,0,0:0:0:0:
320,160,171803,1,8,0:0:0:0:
192,160,171938,1,8,0:0:0:0:
352,160,172073,1,0,0:0:0:0:
256,160,172209,1,8,0:0:0:0:
320,160,172344,1,0,0:0:0:0:
416,160,172411,1,8,0:0:0:0:
448,128,172479,1,0,0:0:0:0:
448,160,172614,1,8,0:0:0:0:
448,128,172749,1,0,0:0:0:0:
480,160,172884,1,8,0:0:0:0:
320,160,172952,1,8,0:0:0:0:
320,160,173019,1,8,0:0:0:0:
320,160,173087,1,8,0:0:0:0:
192,160,173155,1,0,0:0:0:0:
288,128,173290,1,0,0:0:0:0:
288,160,173425,1,8,0:0:0:0:
416,160,173560,1,0,0:0:0:0:
256,128,173628,1,0,0:0:0:0:
384,160,173695,1,8,0:0:0:0:
384,160,173830,1,8,0:0:0:0:
320,128,173965,1,0,0:0:0:0:
352,96,174033,1,8,0:0:0:0:
320,128,174100,1,0,0:0:0:0:
384,160,174236,1,8,0:0:0:0:
416,160,174371,1,0,0:0:0:0:
448,160,174506,1,8,0:0:0:0:
288,192,174573,1,8,0:0:0:0:
448,160,174641,1,8,0:0:0:0:
448,160,174776,1,0,0:0:0:0:
352,160,174911,1,8,0:0:0:0:
352,160,174979,1,8,0:0:0:0:
416,160,175046,1,0,0:0:0:0:
288,64,175182,1,0,0:0:0:0:
448,160,175317,1,8,0:0:0:0:
416,64,175452,1,0,0:0:0:0:
416,64,175519,1,8,0:0:0:0:
480,160,175587,1,0,0:0:0:0:
480,160,175722,1,0,0:0:0:0:
416,160,175857,1,8,0:0:0:0:
320,160,175992,1,0,0:0:0:0:
320,160,176060,1,0,0:0:0:0:
320,160,176128,1,8,0:0:0:0:
192,160,176263,1,8,0:0:0:0:
352,160,176398,1,0,0:0:0:0:
256,160,176533,1,8,0:0:0:0:
320,160,176668,1,0,0:0:0:0:
416,160,176736,1,0,0:0:0:0:
448,128,176803,1,0,0:0:0:0:
448,160,176938,1,8,0:0:0:0:
448,128,177073,1,0,0:0:0:0:
480,160,177209,1,8,0:0:0:0:
192,160,177479,1,4,0:0:0:0:
288,160,177749,1,8,0:0:0:0:
416,160,177884,1,0,0:0:0:0:
256,128,177952,1,0,0:0:0:0:
384,160,178019,1,8,0:0:0:0:
384,160,178155,1,8,0:0:0:0:
320,128,178290,1,0,0:0:0:0:
352,96,178357,1,0,0:0:0:0:
320,128,178425,1,0,0:0:0:0:
192,32,178492,1,0,0:0:0:0:
384,160,178560,1,8,0:0:0:0:
416,160,178695,1,0,0:0:0:0:
448,160,178830,1,8,0:0:0:0:
288,192,178898,1,0,0:0:0:0:
448,160,178965,1,8,0:0:0:0:
448,160,179100,1,0,0:0:0:0:
288,256,179168,1,0,0:0:0:0:
352,160,179236,1,8,0:0:0:0:
352,160,179303,1,8,0:0:0:0:
416,160,179371,1,0,0:0:0:0:
288,64,179506,1,0,0:0:0:0:
448,160,179641,1,8,0:0:0:0:
224,128,179709,1,8,0:0:0:0:
416,64,179776,1,0,0:0:0:0:
416,64,179844,1,0,0:0:0:0:
480,160,179911,1,0,0:0:0:0:
320,128,179979,1,8,0:0:0:0:
480,160,180046,1,0,0:0:0:0:
192,128,180114,1,0,0:0:0:0:
416,160,180182,1,8,0:0:0:0:
320,160,180317,1,0,0:0:0:0:
320,160,180452,1,8,0:0:0:0:
352,192,180519,1,0,0:0:0:0:
192,160,180587,1,8,0:0:0:0:
96,96,180655,1,8,0:0:0:0:
352,160,180722,1,0,0:0:0:0:
256,160,180857,1,8,0:0:0:0:
320,160,180992,1,0,0:0:0:0:
416,160,181060,1,8,0:0:0:0:
448,128,181128,1,0,0:0:0:0:
448,160,181263,1,8,0:0:0:0:
448,128,181330,1,0,0:0:0:0:
256,32,181398,1,0,0:0:0:0:
384,128,181465,1,0,0:0:0:0:
480,160,181533,1,8,0:0:0:0:
224,160,181600,1,8,0:0:0:0:
224,160,181668,1,8,0:0:0:0:
224,160,181736,1,8,0:0:0:0:
192,160,181803,1,0,0:0:0:0:
320,128,181938,1,0,0:0:0:0:
288,160,182073,1,8,0:0:0:0:
416,160,182209,1,0,0:0:0:0:
256,128,182276,1,0,0:0:0:0:
384,160,182344,1,8,0:0:0:0:
384,160,182479,1,8,0:0:0:0:
320,128,182614,1,0,0:0:0:0:
352,96,182682,1,8,0:0:0:0:
320,128,182749,1,0,0:0:0:0:
480,128,182817,1,0,0:0:0:0:
384,160,182884,1,8,0:0:0:0:
416,160,183019,1,0,0:0:0:0:
448,160,183155,1,8,0:0:0:0:
288,192,183222,1,8,0:0:0:0:
448,160,183290,1,8,0:0:0:0:
448,160,183425,1,0,0:0:0:0:
256,128,183492,1,0,0:0:0:0:
352,160,183560,1,8,0:0:0:0:
352,160,183628,1,8,0:0:0:0:
416,160,183695,1,0,0:0:0:0:
288,64,183830,1,0,0:0:0:0:
448,160,183965,1,8,0:0:0:0:
288,64,184033,1,0,0:0:0:0:
416,64,184100,1,0,0:0:0:0:
416,64,184168,1,8,0:0:0:0:
480,160,184236,1,0,0:0:0:0:
320,64,184303,1,0,0:0:0:0:
480,160,184371,1,0,0:0:0:0:
320,64,184438,1,0,0:0:0:0:
416,160,184506,1,8,0:0:0:0:
320,160,184641,1,0,0:0:0:0:
320,160,184709,1,0,0:0:0:0:
320,160,184776,1,8,0:0:0:0:
352,128,184844,1,0,0:0:0:0:
192,160,184911,1,8,0:0:0:0:
352,160,185046,1,0,0:0:0:0:
256,160,185182,1,8,0:0:0:0:
320,160,185317,1,0,0:0:0:0:
416,160,185384,1,0,0:0:0:0:
448,128,185452,1,0,0:0:0:0:
448,160,185587,1,8,0:0:0:0:
416,128,185655,1,0,0:0:0:0:
448,128,185722,1,8,0:0:0:0:
480,160,185790,1,0,0:0:0:0:
480,160,185857,1,8,0:0:0:0:
192,160,186128,1,4,0:0:0:0:
288,160,186398,1,8,0:0:0:0:
416,160,186533,1,0,0:0:0:0:
256,128,186600,1,0,0:0:0:0:
384,160,186668,1,8,0:0:0:0:
384,160,186803,1,8,0:0:0:0:
320,128,186938,1,0,0:0:0:0:
352,96,187006,1,0,0:0:0:0:
320,128,187073,1,8,0:0:0:0:
192,32,187141,1,0,0:0:0:0:
384,160,187209,1,8,0:0:0:0:
416,160,187344,1,0,0:0:0:0:
448,160,187479,1,8,0:0:0:0:
288,192,187546,1,8,0:0:0:0:
448,160,187614,1,8,0:0:0:0:
448,160,187749,1,0,0:0:0:0:
288,256,187817,1,0,0:0:0:0:
352,160,187884,1,8,0:0:0:0:
352,160,187952,1,8,0:0:0:0:
416,160,188019,1,0,0:0:0:0:
288,64,188155,1,0,0:0:0:0:
448,160,188290,1,8,0:0:0:0:
224,128,188357,1,8,0:0:0:0:
416,64,188425,1,0,0:0:0:0:
416,64,188492,1,8,0:0:0:0:
480,160,188560,1,0,0:0:0:0:
320,128,188628,1,0,0:0:0:0:
480,160,188695,1,8,0:0:0:0:
192,128,188763,1,0,0:0:0:0:
416,160,188830,1,8,0:0:0:0:
320,160,188965,1,0,0:0:0:0:
320,160,189100,1,8,0:0:0:0:
352,192,189168,1,0,0:0:0:0:
192,160,189236,1,0,0:0:0:0:
96,96,189303,1,8,0:0:0:0:
352,160,189371,1,0,0:0:0:0:
256,160,189506,1,8,0:0:0:0:
320,160,189641,1,0,0:0:0:0:
416,160,189709,1,0,0:0:0:0:
448,128,189776,1,0,0:0:0:0:
448,160,189911,1,8,0:0:0:0:
256,32,189979,1,0,0:0:0:0:
384,160,190046,1,0,0:0:0:0:
384,128,190114,1,0,0:0:0:0:
480,160,190182,1,8,0:0:0:0:
352,128,190249,1,8,0:0:0:0:
352,128,190317,1,8,0:0:0:0:
352,128,190384,1,8,0:0:0:0:
192,160,190452,1,0,0:0:0:0:
256,160,190587,1,0,0:0:0:0:
288,160,190722,1,8,0:0:0:0:
416,160,190857,1,0,0:0:0:0:
256,128,190925,1,0,0:0:0:0:
384,160,190992,1,8,0:0:0:0:
384,160,191128,1,8,0:0:0:0:
320,128,191263,1,0,0:0:0:0:
352,96,191330,1,8,0:0:0:0:
320,128,191398,1,0,0:0:0:0:
480,128,191465,1,0,0:0:0:0:
384,160,191533,1,8,0:0:0:0:
416,160,191668,1,0,0:0:0:0:
448,160,191803,1,8,0:0:0:0:
288,192,191871,1,8,0:0:0:0:
448,160,191938,1,8,0:0:0:0:
448,160,192073,1,0,0:0:0:0:
256,128,192141,1,0,0:0:0:0:
352,160,192209,1,8,0:0:0:0:
352,160,192276,1,8,0:0:0:0:
416,160,192344,1,0,0:0:0:0:
288,64,192479,1,8,0:0:0:0:
12,233,192546,1,8,0:0:0:0:
448,160,192614,1,0,0:0:0:0:
416,64,192749,1,8,0:0:0:0:
416,64,192817,1,0,0:0:0:0:
320,64,192952,1,8,0:0:0:0:
480,160,193019,1,0,0:0:0:0:
416,160,193155,1,8,0:0:0:0:
320,160,193290,1,0,0:0:0:0:
320,160,193357,1,8,0:0:0:0:
352,128,193492,1,0,0:0:0:0:
192,160,193560,1,8,0:0:0:0:
288,160,193695,1,0,0:0:0:0:
288,160,193763,1,0,0:0:0:0:
256,160,193830,1,8,0:0:0:0:
288,128,193898,1,8,0:0:0:0:
320,160,193965,1,0,0:0:0:0:
448,128,194100,1,0,0:0:0:0:
448,160,194236,1,8,0:0:0:0:
416,128,194303,1,0,0:0:0:0:
448,128,194371,1,8,0:0:0:0:
384,128,194438,1,0,0:0:0:0:
480,160,194506,1,8,0:0:0:0:
288,160,194776,1,4,0:0:0:0:
288,160,195046,1,8,0:0:0:0:
416,160,195182,1,0,0:0:0:0:
256,128,195249,1,0,0:0:0:0:
384,160,195317,1,8,0:0:0:0:
384,160,195452,1,8,0:0:0:0:
320,128,195587,1,0,0:0:0:0:
352,96,195655,1,0,0:0:0:0:
320,128,195722,1,0,0:0:0:0:
192,32,195790,1,0,0:0:0:0:
384,160,195857,1,8,0:0:0:0:
416,160,195992,1,0,0:0:0:0:
448,160,196128,1,8,0:0:0:0:
288,192,196195,1,0,0:0:0:0:
448,160,196263,1,8,0:0:0:0:
448,160,196398,1,0,0:0:0:0:
288,256,196465,1,0,0:0:0:0:
352,160,196533,1,8,0:0:0:0:
352,160,196600,1,8,0:0:0:0:
416,160,196668,1,0,0:0:0:0:
288,64,196803,1,0,0:0:0:0:
448,160,196938,1,8,0:0:0:0:
224,128,197006,1,8,0:0:0:0:
416,64,197073,1,0,0:0:0:0:
416,64,197141,1,0,0:0:0:0:
480,160,197209,1,0,0:0:0:0:
320,128,197276,1,8,0:0:0:0:
480,160,197344,1,0,0:0:0:0:
192,128,197411,1,0,0:0:0:0:
416,160,197479,1,8,0:0:0:0:
320,160,197614,1,0,0:0:0:0:
320,160,197749,1,8,0:0:0:0:
352,192,197817,1,0,0:0:0:0:
192,160,197884,1,8,0:0:0:0:
96,96,197952,1,8,0:0:0:0:
352,160,198019,1,0,0:0:0:0:
256,160,198155,1,8,0:0:0:0:
320,160,198290,1,0,0:0:0:0:
416,160,198357,1,8,0:0:0:0:
448,128,198425,1,0,0:0:0:0:
448,160,198560,1,8,0:0:0:0:
256,32,198628,1,0,0:0:0:0:
448,128,198695,1,0,0:0:0:0:
384,160,198763,1,0,0:0:0:0:
480,160,198830,1,8,0:0:0:0:
384,160,198898,1,8,0:0:0:0:
384,160,198965,1,8,0:0:0:0:
384,160,199033,1,8,0:0:0:0:
192,160,199100,1,0,0:0:0:0:
352,160,199236,1,0,0:0:0:0:
288,160,199371,1,8,0:0:0:0:
416,160,199506,1,0,0:0:0:0:
256,128,199573,1,0,0:0:0:0:
384,160,199641,1,8,0:0:0:0:
384,160,199776,1,8,0:0:0:0:
320,128,199911,1,0,0:0:0:0:
352,96,199979,1,8,0:0:0:0:
320,128,200046,1,0,0:0:0:0:
480,128,200114,1,8,0:0:0:0:
384,160,200182,1,8,0:0:0:0:
416,160,200317,1,0,0:0:0:0:
448,160,200452,1,8,0:0:0:0:
288,192,200519,1,0,0:0:0:0:
448,160,200587,1,8,0:0:0:0:
448,160,200722,1,0,0:0:0:0:
256,128,200790,1,0,0:0:0:0:
352,160,200857,1,8,0:0:0:0:
352,160,200925,1,8,0:0:0:0:
416,160,200992,1,0,0:0:0:0:
288,64,201128,1,0,0:0:0:0:
448,160,201263,1,8,0:0:0:0:
288,64,201330,1,0,0:0:0:0:
416,64,201398,1,0,0:0:0:0:
416,64,201465,1,8,0:0:0:0:
480,160,201533,1,0,0:0:0:0:
320,64,201600,1,8,0:0:0:0:
480,160,201668,1,0,0:0:0:0:
320,64,201736,1,0,0:0:0:0:
416,160,201803,1,8,0:0:0:0:
320,160,201938,1,0,0:0:0:0:
320,160,202006,1,0,0:0:0:0:
320,160,202073,1,8,0:0:0:0:
352,128,202141,1,0,0:0:0:0:
192,160,202209,1,8,0:0:0:0:
352,160,202344,1,0,0:0:0:0:
256,160,202479,1,8,0:0:0:0:
320,160,202614,1,0,0:0:0:0:
416,160,202682,1,8,0:0:0:0:
448,128,202749,1,0,0:0:0:0:
448,160,202884,1,8,0:0:0:0:
416,128,202952,1,0,0:0:0:0:
448,128,203019,1,8,0:0:0:0:
480,160,203087,1,0,0:0:0:0:
480,160,203155,1,8,0:0:0:0:
384,224,203425,1,4,0:0:0:0:
288,160,203695,1,8,0:0:0:0:
416,160,203830,1,0,0:0:0:0:
256,128,203898,1,0,0:0:0:0:
384,160,203965,1,8,0:0:0:0:
384,160,204100,1,8,0:0:0:0:
320,128,204236,1,0,0:0:0:0:
352,96,204303,1,0,0:0:0:0:
320,128,204371,1,8,0:0:0:0:
192,32,204438,1,0,0:0:0:0:
384,160,204506,1,8,0:0:0:0:
416,160,204641,1,0,0:0:0:0:
448,160,204776,1,8,0:0:0:0:
288,192,204844,1,8,0:0:0:0:
448,160,204911,1,8,0:0:0:0:
448,160,205046,1,0,0:0:0:0:
288,256,205114,1,0,0:0:0:0:
352,160,205182,1,8,0:0:0:0:
352,160,205249,1,8,0:0:0:0:
416,160,205317,1,0,0:0:0:0:
288,64,205452,1,0,0:0:0:0:
448,160,205587,1,8,0:0:0:0:
224,128,205655,1,8,0:0:0:0:
416,64,205722,1,0,0:0:0:0:
416,64,205790,1,8,0:0:0:0:
480,160,205857,1,0,0:0:0:0:
320,128,205925,1,0,0:0:0:0:
480,160,205992,1,8,0:0:0:0:
192,128,206060,1,0,0:0:0:0:
416,160,206128,1,8,0:0:0:0:
320,160,206263,1,0,0:0:0:0:
320,160,206398,1,8,0:0:0:0:
352,192,206465,1,0,0:0:0:0:
192,160,206533,1,0,0:0:0:0:
96,96,206600,1,8,0:0:0:0:
352,160,206668,1,0,0:0:0:0:
256,160,206803,1,8,0:0:0:0:
320,160,206938,1,0,0:0:0:0:
416,160,207006,1,0,0:0:0:0:
448,128,207073,1,0,0:0:0:0:
448,160,207209,1,8,0:0:0:0:
448,128,207276,1,0,0:0:0:0:
384,160,207344,1,0,0:0:0:0:
384,128,207411,1,0,0:0:0:0:
480,160,207479,1,8,0:0:0:0:
288,224,207546,1,8,0:0:0:0:
288,224,207614,1,8,0:0:0:0:
288,224,207682,1,8,0:0:0:0:
192,160,207749,1,0,0:0:0:0:
192,160,207884,1,0,0:0:0:0:
288,160,208019,1,8,0:0:0:0:
416,160,208155,1,0,0:0:0:0:
256,128,208222,1,0,0:0:0:0:
384,160,208290,1,8,0:0:0:0:
384,160,208425,1,8,0:0:0:0:
320,128,208560,1,0,0:0:0:0:
352,96,208628,1,8,0:0:0:0:
320,128,208695,1,0,0:0:0:0:
480,128,208763,1,0,0:0:0:0:
384,160,208830,1,8,0:0:0:0:
416,160,208965,1,0,0:0:0:0:
448,160,209100,1,8,0:0:0:0:
288,192,209168,1,8,0:0:0:0:
448,160,209236,1,8,0:0:0:0:
448,160,209371,1,0,0:0:0:0:
256,128,209438,1,0,0:0:0:0:
352,160,209506,1,8,0:0:0:0:
352,160,209573,1,8,0:0:0:0:
416,160,209641,1,0,0:0:0:0:
288,64,209776,1,8,0:0:0:0:
155,205,209844,1,8,0:0:0:0:
448,160,209911,1,0,0:0:0:0:
416,64,210046,1,8,0:0:0:0:
320,64,210182,1,0,0:0:0:0:
480,160,210317,1,0,0:0:0:0:
416,160,210452,1,8,0:0:0:0:
320,160,210587,1,0,0:0:0:0:
311,123,210722,1,8,0:0:0:0:
311,123,210790,1,8,0:0:0:0:
166,166,210857,1,0,0:0:0:0:
288,160,210992,1,0,0:0:0:0:
321,178,211398,1,0,0:0:0:0:
448,160,211533,1,8,0:0:0:0:
416,128,211600,1,0,0:0:0:0:
448,128,211668,1,8,0:0:0:0:
480,160,211803,1,0,0:0:0:0:
288,160,212073,1,4,0:0:0:0:
352,256,212615,1,0,0:0:0:0:
398,158,212885,1,8,0:0:0:0:
291,135,213966,1,0,0:0:0:0:
275,164,214237,1,8,0:0:0:0:
401,152,214507,1,0,0:0:0:0:
401,152,214777,1,0,0:0:0:0:
236,157,215047,5,8,0:0:0:0:
296,152,215318,1,0,0:0:0:0:
439,152,216399,1,0,0:0:0:0:
438,165,216939,1,8,0:0:0:0:
438,165,217210,1,8,0:0:0:0:
432,213,217480,1,0,0:0:0:0:
417,149,218561,5,0,0:0:0:0:
480,165,219101,5,8,0:0:0:0:
391,213,219372,5,0,0:0:0:0:
431,133,219642,5,0,0:0:0:0:
436,134,220722,5,4,0:0:0:0:
487,171,220992,1,8,0:0:0:0:
481,168,221128,1,0,0:0:0:0:
477,168,221398,1,0,0:0:0:0:
418,148,221533,1,8,0:0:0:0:
429,164,221803,1,0,0:0:0:0:
483,139,221938,1,8,0:0:0:0:
486,157,222073,1,8,0:0:0:0:
491,161,222209,1,0,0:0:0:0:
420,162,222344,1,8,0:0:0:0:
160,96,222479,1,0,0:0:0:0:
391,244,223019,1,0,0:0:0:0:
430,167,223155,1,0,0:0:0:0:
256,192,223290,1,8,0:0:0:0:
256,192,223425,1,0,0:0:0:0:
256,192,223560,1,8,0:0:0:0:
166,149,223830,1,0,0:0:0:0:
244,139,223965,1,8,0:0:0:0:
412,197,224100,1,8,0:0:0:0:
478,181,224236,1,0,0:0:0:0:
441,203,224371,1,0,0:0:0:0:
497,163,224506,1,8,0:0:0:0:
487,161,224641,1,0,0:0:0:0:
450,155,225182,1,0,0:0:0:0:
508,180,225452,1,8,0:0:0:0:
436,164,225587,1,0,0:0:0:0:
469,177,225857,1,8,0:0:0:0:
469,177,225992,1,8,0:0:0:0:
458,170,226128,1,0,0:0:0:0:
311,158,226263,1,8,0:0:0:0:
320,96,226533,1,0,0:0:0:0:
404,181,226668,1,8,0:0:0:0:
463,146,227209,1,8,0:0:0:0:
401,166,227344,1,0,0:0:0:0:
401,166,227479,1,0,0:0:0:0:
359,157,227614,1,8,0:0:0:0:
472,147,227749,1,0,0:0:0:0:
472,147,227884,1,0,0:0:0:0:
343,169,228019,1,8,0:0:0:0:
425,173,228290,5,0,0:0:0:0:
425,173,228357,1,0,0:0:0:0:
478,161,228425,1,8,0:0:0:0:
486,178,228560,1,0,0:0:0:0:
471,162,228695,1,8,0:0:0:0:
425,167,228830,1,0,0:0:0:0:
165,162,228965,1,0,0:0:0:0:
432,161,229100,1,8,0:0:0:0:
431,134,229371,5,4,0:0:0:0:
495,167,229641,1,8,0:0:0:0:
495,167,229776,1,0,0:0:0:0:
495,167,229911,1,0,0:0:0:0:
495,167,230046,1,8,0:0:0:0:
499,162,230182,1,8,0:0:0:0:
393,176,230317,1,0,0:0:0:0:
320,198,230587,1,8,0:0:0:0:
108,213,230722,1,0,0:0:0:0:
320,198,230857,1,8,0:0:0:0:
456,168,231128,1,0,0:0:0:0:
283,176,231263,1,8,0:0:0:0:
361,168,231398,1,8,0:0:0:0:
425,176,231533,1,0,0:0:0:0:
447,178,231668,1,8,0:0:0:0:
442,177,231736,1,8,0:0:0:0:
442,153,231803,1,0,0:0:0:0:
447,163,231938,1,8,0:0:0:0:
454,160,232073,1,0,0:0:0:0:
332,122,232141,1,0,0:0:0:0:
452,160,232209,1,0,0:0:0:0:
455,167,232344,1,8,0:0:0:0:
460,162,232479,1,0,0:0:0:0:
243,175,232749,1,8,0:0:0:0:
461,166,232884,1,0,0:0:0:0:
447,158,233019,1,8,0:0:0:0:
425,139,233155,1,0,0:0:0:0:
510,161,233222,1,8,0:0:0:0:
466,158,233290,1,0,0:0:0:0:
163,193,233425,1,8,0:0:0:0:
472,137,233695,1,4,0:0:0:0:
327,143,233965,1,8,0:0:0:0:
452,163,234100,1,0,0:0:0:0:
447,163,234236,1,0,0:0:0:0:
416,160,234371,1,0,0:0:0:0:
416,160,234506,1,8,0:0:0:0:
429,133,234776,1,4,0:0:0:0:
440,193,235046,1,8,0:0:0:0:
363,155,235182,1,0,0:0:0:0:
363,155,235317,1,0,0:0:0:0:
363,155,235452,1,8,0:0:0:0:
432,159,235587,1,8,0:0:0:0:
481,126,235857,1,4,0:0:0:0:
348,97,235992,1,8,0:0:0:0:
348,97,236037,1,8,0:0:0:0:
347,92,236082,1,8,0:0:0:0:
347,92,236128,1,8,0:0:0:0:
419,123,236263,1,8,0:0:0:0:
263,124,236398,1,4,0:0:0:0:
263,124,236578,1,4,0:0:0:0:
263,124,236758,1,4,0:0:0:0:
497,123,236938,1,4,0:0:0:0:
263,158,238019,5,4,0:0:0:0:
370,158,238155,1,8,0:0:0:0:
429,258,238222,1,8,0:0:0:0:
451,163,238290,1,0,0:0:0:0:
381,158,238425,1,8,0:0:0:0:
370,158,238560,1,0,0:0:0:0:
199,168,238628,1,0,0:0:0:0:
488,176,238695,1,8,0:0:0:0:
467,177,238830,1,0,0:0:0:0:
369,188,238965,1,8,0:0:0:0:
238,182,239100,1,0,0:0:0:0:
293,197,239236,1,8,0:0:0:0:
388,151,239303,1,8,0:0:0:0:
388,151,239371,1,8,0:0:0:0:
448,147,239506,1,0,0:0:0:0:
426,133,239641,1,8,0:0:0:0:
426,133,239776,1,0,0:0:0:0:
373,142,239911,1,8,0:0:0:0:
301,188,240046,1,0,0:0:0:0:
511,166,240182,1,8,0:0:0:0:
137,50,240249,1,8,0:0:0:0:
240,168,240317,1,0,0:0:0:0:
495,168,240452,1,0,0:0:0:0:
469,163,240587,1,8,0:0:0:0:
494,172,240722,1,0,0:0:0:0:
494,172,240790,1,0,0:0:0:0:
482,163,240857,1,8,0:0:0:0:
483,164,240992,1,8,0:0:0:0:
226,118,241128,1,0,0:0:0:0:
411,146,241263,1,8,0:0:0:0:
379,149,241330,1,0,0:0:0:0:
379,149,241398,1,0,0:0:0:0:
403,157,241533,1,8,0:0:0:0:
369,189,241668,1,8,0:0:0:0:
406,177,241803,1,0,0:0:0:0:
419,176,241871,1,8,0:0:0:0:
420,178,241938,1,8,0:0:0:0:
323,190,242073,1,0,0:0:0:0:
485,184,242209,1,0,0:0:0:0:
226,110,242344,1,8,0:0:0:0:
226,110,242411,1,0,0:0:0:0:
370,158,242479,1,8,0:0:0:0:
177,76,242546,1,8,0:0:0:0:
451,163,242614,1,0,0:0:0:0:
381,158,242749,1,8,0:0:0:0:
370,158,242884,1,0,0:0:0:0:
488,176,242952,1,8,0:0:0:0:
199,168,243019,1,0,0:0:0:0:
467,177,243155,1,0,0:0:0:0:
369,188,243290,1,8,0:0:0:0:
238,182,243425,1,8,0:0:0:0:
293,197,243560,1,0,0:0:0:0:
388,151,243628,1,0,0:0:0:0:
180,153,243695,1,0,0:0:0:0:
370,158,243830,1,8,0:0:0:0:
426,133,243965,1,0,0:0:0:0:
426,133,244100,1,8,0:0:0:0:
373,142,244236,1,0,0:0:0:0:
301,188,244371,1,8,0:0:0:0:
511,166,244506,1,0,0:0:0:0:
511,166,244573,1,0,0:0:0:0:
240,168,244641,1,8,0:0:0:0:
495,168,244776,1,8,0:0:0:0:
469,163,244911,1,0,0:0:0:0:
494,172,245046,1,8,0:0:0:0:
494,172,245114,1,8,0:0:0:0:
482,163,245182,1,0,0:0:0:0:
296,156,245317,1,0,0:0:0:0:
226,118,245452,1,8,0:0:0:0:
411,146,245587,5,0,0:0:0:0:
379,149,245655,1,8,0:0:0:0:
379,149,245722,1,8,0:0:0:0:
403,157,245857,1,0,0:0:0:0:
369,189,245992,1,0,0:0:0:0:
406,177,246128,1,8,0:0:0:0:
419,176,246195,1,0,0:0:0:0:
420,178,246263,1,0,0:0:0:0:
323,190,246398,1,8,0:0:0:0:
485,184,246533,1,8,0:0:0:0:
276,77,246668,1,4,0:0:0:0:
370,158,246803,1,8,0:0:0:0:
429,258,246871,1,0,0:0:0:0:
451,163,246938,1,0,0:0:0:0:
366,164,247006,1,0,0:0:0:0:
381,158,247073,1,8,0:0:0:0:
370,158,247209,1,0,0:0:0:0:
199,168,247276,1,0,0:0:0:0:
488,176,247344,1,8,0:0:0:0:
221,48,247411,1,8,0:0:0:0:
467,177,247479,1,0,0:0:0:0:
369,188,247614,1,8,0:0:0:0:
238,182,247749,1,0,0:0:0:0:
293,197,247884,1,8,0:0:0:0:
388,151,247952,1,8,0:0:0:0:
388,151,248019,1,8,0:0:0:0:
448,147,248155,1,0,0:0:0:0:
426,133,248290,1,8,0:0:0:0:
426,133,248425,1,0,0:0:0:0:
343,168,248560,1,8,0:0:0:0:
301,188,248695,1,0,0:0:0:0:
511,166,248830,1,8,0:0:0:0:
137,50,248898,1,8,0:0:0:0:
240,168,248965,1,0,0:0:0:0:
495,168,249100,1,0,0:0:0:0:
469,163,249236,1,8,0:0:0:0:
494,172,249371,1,0,0:0:0:0:
494,172,249438,1,0,0:0:0:0:
482,163,249506,1,8,0:0:0:0:
483,164,249641,1,8,0:0:0:0:
226,118,249776,1,0,0:0:0:0:
411,146,249911,1,8,0:0:0:0:
379,149,249979,1,0,0:0:0:0:
379,149,250046,1,0,0:0:0:0:
403,157,250182,1,8,0:0:0:0:
369,189,250317,1,8,0:0:0:0:
406,177,250452,1,0,0:0:0:0:
419,176,250519,1,8,0:0:0:0:
420,178,250587,1,8,0:0:0:0:
323,190,250722,1,0,0:0:0:0:
485,184,250857,1,0,0:0:0:0:
226,110,250992,1,8,0:0:0:0:
226,110,251060,1,0,0:0:0:0:
370,158,251128,1,8,0:0:0:0:
177,76,251195,1,8,0:0:0:0:
451,163,251263,1,0,0:0:0:0:
381,158,251398,1,8,0:0:0:0:
370,158,251533,1,0,0:0:0:0:
488,176,251600,1,8,0:0:0:0:
199,168,251668,1,0,0:0:0:0:
355,170,251736,1,8,0:0:0:0:
467,177,251803,1,0,0:0:0:0:
369,188,251938,1,8,0:0:0:0:
238,182,252073,1,8,0:0:0:0:
293,197,252209,1,0,0:0:0:0:
388,151,252276,1,0,0:0:0:0:
180,153,252344,1,0,0:0:0:0:
370,158,252479,1,8,0:0:0:0:
426,133,252614,1,0,0:0:0:0:
426,133,252749,1,8,0:0:0:0:
373,142,252884,1,0,0:0:0:0:
301,188,253019,1,8,0:0:0:0:
511,166,253155,1,0,0:0:0:0:
511,166,253222,1,0,0:0:0:0:
240,168,253290,1,8,0:0:0:0:
495,168,253425,1,8,0:0:0:0:
469,163,253560,1,0,0:0:0:0:
494,172,253695,1,8,0:0:0:0:
494,172,253763,1,8,0:0:0:0:
482,163,253830,1,0,0:0:0:0:
296,156,253965,1,0,0:0:0:0:
226,118,254100,1,8,0:0:0:0:
411,146,254236,5,0,0:0:0:0:
379,149,254303,1,8,0:0:0:0:
379,149,254371,1,8,0:0:0:0:
403,157,254506,1,0,0:0:0:0:
369,189,254641,1,0,0:0:0:0:
406,177,254776,1,8,0:0:0:0:
419,176,254844,1,0,0:0:0:0:
420,178,254911,1,0,0:0:0:0:
323,190,255046,1,8,0:0:0:0:
485,184,255182,1,8,0:0:0:0:
263,158,255317,5,4,0:0:0:0:
370,158,255452,1,8,0:0:0:0:
173,25,255519,1,0,0:0:0:0:
451,163,255587,1,0,0:0:0:0:
173,25,255655,1,0,0:0:0:0:
381,158,255722,1,8,0:0:0:0:
370,158,255857,1,0,0:0:0:0:
199,168,255925,1,0,0:0:0:0:
488,176,255992,1,8,0:0:0:0:
439,155,256060,1,8,0:0:0:0:
467,177,256128,1,0,0:0:0:0:
263,179,256195,1,0,0:0:0:0:
369,188,256263,1,8,0:0:0:0:
238,182,256398,1,0,0:0:0:0:
293,197,256533,1,8,0:0:0:0:
388,151,256600,1,8,0:0:0:0:
388,151,256668,1,8,0:0:0:0:
448,147,256803,1,0,0:0:0:0:
426,133,256938,1,8,0:0:0:0:
426,133,257073,1,0,0:0:0:0:
373,142,257209,1,8,0:0:0:0:
301,188,257344,1,0,0:0:0:0:
511,166,257479,1,8,0:0:0:0:
137,50,257546,1,8,0:0:0:0:
240,168,257614,1,0,0:0:0:0:
459,222,257682,1,8,0:0:0:0:
495,168,257749,1,0,0:0:0:0:
469,163,257884,1,8,0:0:0:0:
494,172,258019,1,0,0:0:0:0:
494,172,258087,1,0,0:0:0:0:
482,163,258155,1,8,0:0:0:0:
196,119,258222,1,0,0:0:0:0:
483,164,258290,1,8,0:0:0:0:
226,118,258425,1,0,0:0:0:0:
411,146,258560,1,8,0:0:0:0:
379,149,258628,1,0,0:0:0:0:
379,149,258695,1,0,0:0:0:0:
293,141,258763,1,0,0:0:0:0:
403,157,258830,1,8,0:0:0:0:
369,189,258965,1,8,0:0:0:0:
406,177,259100,1,0,0:0:0:0:
419,176,259168,1,8,0:0:0:0:
420,178,259236,1,8,0:0:0:0:
266,139,259303,1,8,0:0:0:0:
323,190,259371,1,0,0:0:0:0:
485,184,259506,1,0,0:0:0:0:
226,110,259641,1,8,0:0:0:0:
226,110,259709,1,0,0:0:0:0:
370,158,259776,1,8,0:0:0:0:
177,76,259844,1,8,0:0:0:0:
451,163,259911,1,0,0:0:0:0:
381,158,260046,1,8,0:0:0:0:
293,197,260114,5,8,0:0:0:0:
370,158,260182,1,0,0:0:0:0:
488,176,260249,1,8,0:0:0:0:
199,168,260317,1,0,0:0:0:0:
235,200,260384,1,8,0:0:0:0:
467,177,260452,1,0,0:0:0:0:
369,188,260587,1,8,0:0:0:0:
238,182,260722,1,8,0:0:0:0:
293,197,260857,1,0,0:0:0:0:
388,151,260925,1,0,0:0:0:0:
180,153,260992,1,0,0:0:0:0:
370,158,261128,1,8,0:0:0:0:
426,133,261263,1,0,0:0:0:0:
426,133,261398,1,8,0:0:0:0:
373,142,261533,1,0,0:0:0:0:
301,188,261668,1,8,0:0:0:0:
511,166,261803,1,0,0:0:0:0:
511,166,261871,1,0,0:0:0:0:
240,168,261938,1,8,0:0:0:0:
469,163,262006,1,0,0:0:0:0:
495,168,262073,1,8,0:0:0:0:
469,163,262209,1,0,0:0:0:0:
494,172,262344,1,8,0:0:0:0:
494,172,262411,1,8,0:0:0:0:
482,163,262479,1,0,0:0:0:0:
222,168,262546,1,8,0:0:0:0:
296,156,262614,1,0,0:0:0:0:
226,118,262749,1,8,0:0:0:0:
411,146,262884,1,0,0:0:0:0:
379,149,262952,1,8,0:0:0:0:
302,137,263019,1,8,0:0:0:0:
281,152,263087,1,8,0:0:0:0:
403,157,263155,1,0,0:0:0:0:
369,189,263290,1,0,0:0:0:0:
406,177,263425,1,8,0:0:0:0:
419,176,263492,1,0,0:0:0:0:
420,178,263560,1,0,0:0:0:0:
93,195,263628,1,0,0:0:0:0:
323,190,263695,1,8,0:0:0:0:
485,184,263830,1,8,0:0:0:0:
443,112,263965,1,4,0:0:0:0:
370,158,264100,1,8,0:0:0:0:
429,258,264168,1,0,0:0:0:0:
451,163,264236,1,0,0:0:0:0:
296,160,264303,1,0,0:0:0:0:
381,158,264371,1,8,0:0:0:0:
370,158,264506,1,0,0:0:0:0:
199,168,264573,1,0,0:0:0:0:
488,176,264641,1,8,0:0:0:0:
233,146,264709,1,8,0:0:0:0:
467,177,264776,1,0,0:0:0:0:
233,146,264844,1,0,0:0:0:0:
369,188,264911,1,8,0:0:0:0:
149,171,264979,1,8,0:0:0:0:
238,182,265046,1,0,0:0:0:0:
292,197,265182,1,8,0:0:0:0:
388,151,265249,1,8,0:0:0:0:
388,151,265317,1,8,0:0:0:0:
245,113,265384,1,8,0:0:0:0:
448,147,265452,1,0,0:0:0:0:
426,133,265587,1,8,0:0:0:0:
426,133,265722,1,0,0:0:0:0:
129,152,265790,1,0,0:0:0:0:
373,142,265857,1,8,0:0:0:0:
301,188,265992,1,0,0:0:0:0:
511,166,266128,1,8,0:0:0:0:
511,166,266195,1,8,0:0:0:0:
240,168,266263,1,0,0:0:0:0:
491,158,266330,1,8,0:0:0:0:
495,168,266398,1,0,0:0:0:0:
231,151,266465,1,0,0:0:0:0:
469,163,266533,1,8,0:0:0:0:
494,172,266668,1,0,0:0:0:0:
494,172,266736,1,0,0:0:0:0:
482,163,266803,1,8,0:0:0:0:
296,156,266871,1,0,0:0:0:0:
483,164,266938,1,8,0:0:0:0:
239,102,267006,1,8,0:0:0:0:
226,118,267073,1,0,0:0:0:0:
411,146,267209,1,8,0:0:0:0:
379,149,267276,1,0,0:0:0:0:
379,149,267344,1,0,0:0:0:0:
261,190,267411,1,0,0:0:0:0:
403,157,267479,1,8,0:0:0:0:
269,135,267546,1,0,0:0:0:0:
369,189,267614,1,8,0:0:0:0:
406,177,267749,1,0,0:0:0:0:
419,176,267817,1,8,0:0:0:0:
420,178,267884,1,8,0:0:0:0:
425,176,267952,1,8,0:0:0:0:
323,190,268019,1,0,0:0:0:0:
204,171,268087,1,8,0:0:0:0:
485,184,268155,1,0,0:0:0:0:
443,155,268290,1,8,0:0:0:0:
443,155,268357,1,8,0:0:0:0:
370,158,268425,1,0,0:0:0:0:
429,258,268492,1,8,0:0:0:0:
451,163,268560,1,0,0:0:0:0:
401,164,268695,1,8,0:0:0:0:
133,59,268763,1,8,0:0:0:0:
381,158,268830,1,0,0:0:0:0:
217,90,268898,1,8,0:0:0:0:
370,158,268965,1,0,0:0:0:0:
143,36,269033,1,8,0:0:0:0:
359,138,269100,1,0,0:0:0:0:
359,138,269168,1,0,0:0:0:0:
393,140,269236,1,8,0:0:0:0:
324,153,269303,1,0,0:0:0:0:
369,188,269371,1,8,0:0:0:0:
496,173,269506,1,0,0:0:0:0:
496,173,269573,1,0,0:0:0:0:
496,173,269641,1,0,0:0:0:0:
230,92,269709,1,0,0:0:0:0:
496,173,269776,1,8,0:0:0:0:
426,133,269911,1,0,0:0:0:0:
426,133,270046,1,8,0:0:0:0:
216,133,270114,1,8,0:0:0:0:
373,142,270182,1,0,0:0:0:0:
301,188,270317,1,8,0:0:0:0:
511,166,270452,1,0,0:0:0:0:
511,166,270519,1,0,0:0:0:0:
240,168,270587,1,8,0:0:0:0:
311,185,270655,1,0,0:0:0:0:
495,168,270722,1,8,0:0:0:0:
450,148,270790,1,8,0:0:0:0:
469,163,270857,1,0,0:0:0:0:
494,172,270992,1,8,0:0:0:0:
494,172,271060,1,8,0:0:0:0:
482,163,271128,1,0,0:0:0:0:
54,122,271195,1,8,0:0:0:0:
296,156,271263,1,0,0:0:0:0:
216,153,271330,1,0,0:0:0:0:
226,118,271398,1,8,0:0:0:0:
411,146,271533,1,0,0:0:0:0:
379,149,271600,1,8,0:0:0:0:
379,149,271668,1,8,0:0:0:0:
246,120,271736,1,8,0:0:0:0:
403,157,271803,1,0,0:0:0:0:
211,128,271871,1,8,0:0:0:0:
369,189,271938,1,0,0:0:0:0:
406,177,272073,1,8,0:0:0:0:
419,176,272141,1,0,0:0:0:0:
420,178,272209,1,0,0:0:0:0:
425,176,272276,1,0,0:0:0:0:
323,190,272344,1,8,0:0:0:0:
242,153,272411,1,0,0:0:0:0:
485,184,272479,1,8,0:0:0:0:
340,168,272614,1,4,0:0:0:0:
370,158,272749,1,8,0:0:0:0:
429,258,272817,1,8,0:0:0:0:
451,163,272884,1,0,0:0:0:0:
296,160,272952,1,0,0:0:0:0:
381,158,273019,1,8,0:0:0:0:
402,139,273087,1,0,0:0:0:0:
370,158,273155,1,0,0:0:0:0:
199,168,273222,1,0,0:0:0:0:
488,176,273290,1,8,0:0:0:0:
167,170,273357,1,0,0:0:0:0:
467,177,273425,1,0,0:0:0:0:
167,170,273492,1,0,0:0:0:0:
369,188,273560,1,8,0:0:0:0:
451,158,273628,1,8,0:0:0:0:
238,182,273695,1,0,0:0:0:0:
293,197,273830,1,8,0:0:0:0:
388,151,273898,1,8,0:0:0:0:
388,151,273965,1,8,0:0:0:0:
245,113,274033,1,8,0:0:0:0:
448,147,274100,1,0,0:0:0:0:
334,112,274168,1,0,0:0:0:0:
426,133,274236,1,8,0:0:0:0:
316,165,274303,1,0,0:0:0:0:
426,133,274371,1,0,0:0:0:0:
316,165,274438,1,0,0:0:0:0:
373,142,274506,1,8,0:0:0:0:
301,188,274641,1,0,0:0:0:0:
511,166,274776,1,8,0:0:0:0:
511,166,274844,1,8,0:0:0:0:
240,168,274911,1,0,0:0:0:0:
491,158,274979,1,8,0:0:0:0:
495,168,275046,1,0,0:0:0:0:
158,159,275114,1,0,0:0:0:0:
469,163,275182,1,8,0:0:0:0:
213,196,275249,1,8,0:0:0:0:
494,172,275317,1,0,0:0:0:0:
494,172,275384,1,0,0:0:0:0:
482,163,275452,1,8,0:0:0:0:
296,156,275519,1,0,0:0:0:0:
483,164,275587,1,8,0:0:0:0:
317,130,275655,1,8,0:0:0:0:
306,127,275722,1,0,0:0:0:0:
476,168,275857,1,8,0:0:0:0:
455,159,275925,1,0,0:0:0:0:
456,158,275992,1,0,0:0:0:0:
458,155,276060,1,0,0:0:0:0:
495,162,276128,1,8,0:0:0:0:
471,168,276195,1,0,0:0:0:0:
425,155,276263,1,8,0:0:0:0:
179,91,276330,1,8,0:0:0:0:
216,12,276398,1,0,0:0:0:0:
329,164,276465,1,8,0:0:0:0:
329,164,276533,1,8,0:0:0:0:
329,164,276600,1,8,0:0:0:0:
430,176,276668,1,0,0:0:0:0:
417,168,276736,1,8,0:0:0:0:
418,164,276803,1,0,0:0:0:0:
439,154,276938,1,8,0:0:0:0:
439,154,277006,1,8,0:0:0:0:
478,160,277073,1,0,0:0:0:0:
461,149,277141,1,8,0:0:0:0:
469,149,277209,1,0,0:0:0:0:
136,127,277276,1,0,0:0:0:0:
453,163,277344,1,8,0:0:0:0:
415,153,277411,1,0,0:0:0:0:
381,158,277479,1,8,0:0:0:0:
217,90,277546,1,8,0:0:0:0:
370,158,277614,1,0,0:0:0:0:
321,38,277682,1,0,0:0:0:0:
199,168,277749,1,8,0:0:0:0:
321,38,277817,1,0,0:0:0:0:
467,177,277884,1,0,0:0:0:0:
321,38,277952,1,0,0:0:0:0:
369,188,278019,1,8,0:0:0:0:
496,173,278155,1,0,0:0:0:0:
496,173,278222,1,0,0:0:0:0:
496,173,278290,1,0,0:0:0:0:
230,92,278357,1,0,0:0:0:0:
496,173,278425,1,8,0:0:0:0:
355,176,278492,1,8,0:0:0:0:
426,133,278560,1,0,0:0:0:0:
440,166,278628,1,8,0:0:0:0:
426,133,278695,1,8,0:0:0:0:
440,166,278763,1,8,0:0:0:0:
373,142,278830,1,0,0:0:0:0:
301,188,278965,1,8,0:0:0:0:
511,166,279100,1,0,0:0:0:0:
511,166,279168,1,0,0:0:0:0:
240,168,279236,1,8,0:0:0:0:
311,185,279303,1,0,0:0:0:0:
495,168,279371,1,8,0:0:0:0:
306,86,279438,1,8,0:0:0:0:
469,163,279506,1,0,0:0:0:0:
224,169,279573,1,0,0:0:0:0:
494,172,279641,1,8,0:0:0:0:
494,172,279709,1,8,0:0:0:0:
482,163,279776,1,0,0:0:0:0:
54,122,279844,1,8,0:0:0:0:
296,156,279911,1,0,0:0:0:0:
284,121,279979,1,0,0:0:0:0:
226,118,280046,1,8,0:0:0:0:
411,146,280182,1,0,0:0:0:0:
379,149,280249,1,8,0:0:0:0:
379,149,280317,1,8,0:0:0:0:
246,120,280384,1,8,0:0:0:0:
403,157,280452,1,0,0:0:0:0:
388,121,280519,1,8,0:0:0:0:
369,189,280587,1,0,0:0:0:0:
398,144,280655,1,0,0:0:0:0:
406,177,280722,1,8,0:0:0:0:
419,176,280790,1,0,0:0:0:0:
420,178,280857,1,0,0:0:0:0:
425,176,280925,1,0,0:0:0:0:
323,190,280992,1,8,0:0:0:0:
360,124,281060,1,0,0:0:0:0:
485,184,281128,1,8,0:0:0:0:
340,168,281263,1,4,0:0:0:0:
370,158,281398,1,8,0:0:0:0:
429,258,281465,1,8,0:0:0:0:
451,163,281533,1,0,0:0:0:0:
296,160,281600,1,0,0:0:0:0:
381,158,281668,1,8,0:0:0:0:
402,139,281736,1,0,0:0:0:0:
370,158,281803,1,0,0:0:0:0:
199,168,281871,1,0,0:0:0:0:
488,176,281938,1,8,0:0:0:0:
404,130,282006,1,8,0:0:0:0:
467,177,282073,1,0,0:0:0:0:
437,152,282141,1,0,0:0:0:0:
369,188,282209,1,8,0:0:0:0:
288,128,282276,1,0,0:0:0:0:
238,182,282344,1,0,0:0:0:0:
288,128,282411,1,0,0:0:0:0:
293,197,282479,1,8,0:0:0:0:
388,151,282546,1,8,0:0:0:0:
388,151,282614,1,8,0:0:0:0:
245,113,282682,1,8,0:0:0:0:
448,147,282749,1,0,0:0:0:0:
426,87,282817,1,0,0:0:0:0:
426,133,282884,1,8,0:0:0:0:
316,165,282952,1,0,0:0:0:0:
426,133,283019,1,0,0:0:0:0:
316,165,283087,1,0,0:0:0:0:
373,142,283155,1,8,0:0:0:0:
384,160,283222,1,8,0:0:0:0:
301,188,283290,1,0,0:0:0:0:
511,166,283425,1,8,0:0:0:0:
511,166,283492,1,8,0:0:0:0:
240,168,283560,1,0,0:0:0:0:
491,158,283628,1,8,0:0:0:0:
495,168,283695,1,0,0:0:0:0:
158,159,283763,1,0,0:0:0:0:
469,163,283830,1,8,0:0:0:0:
209,175,283898,1,8,0:0:0:0:
494,172,283965,1,0,0:0:0:0:
494,172,284033,1,0,0:0:0:0:
482,163,284100,1,8,0:0:0:0:
296,156,284168,1,0,0:0:0:0:
483,164,284236,1,8,0:0:0:0:
317,130,284303,1,8,0:0:0:0:
306,127,284371,1,0,0:0:0:0:
319,108,284438,1,0,0:0:0:0:
476,168,284506,1,8,0:0:0:0:
455,159,284573,1,0,0:0:0:0:
456,158,284641,1,0,0:0:0:0:
458,155,284709,1,0,0:0:0:0:
495,162,284776,1,8,0:0:0:0:
471,168,284844,1,0,0:0:0:0:
425,155,284911,1,8,0:0:0:0:
412,162,284979,1,8,0:0:0:0:
258,256,285046,1,0,0:0:0:0:
329,164,285114,1,8,0:0:0:0:
329,164,285182,1,8,0:0:0:0:
329,164,285249,1,8,0:0:0:0:
430,176,285317,1,0,0:0:0:0:
417,168,285384,1,8,0:0:0:0:
418,164,285452,1,0,0:0:0:0:
439,154,285587,1,8,0:0:0:0:
478,160,285722,1,0,0:0:0:0:
469,149,285857,1,0,0:0:0:0:
453,163,285992,1,8,0:0:0:0:
381,158,286128,1,8,0:0:0:0:
370,158,286263,1,0,0:0:0:0:
199,168,286398,1,8,0:0:0:0:
467,177,286533,1,0,0:0:0:0:
369,188,286668,1,8,0:0:0:0:
496,173,286803,1,0,0:0:0:0:
496,173,286938,1,0,0:0:0:0:
496,173,287073,1,8,0:0:0:0:
426,133,287209,1,0,0:0:0:0:
426,133,287344,1,8,0:0:0:0:
373,142,287479,1,0,0:0:0:0:
301,188,287614,1,8,0:0:0:0:
511,166,287749,1,0,0:0:0:0:
511,166,287817,1,0,0:0:0:0:
240,168,287884,1,8,0:0:0:0:
311,185,287952,1,0,0:0:0:0:
495,168,288019,1,8,0:0:0:0:
306,86,288087,1,8,0:0:0:0:
469,163,288155,1,0,0:0:0:0:
331,198,288222,1,0,0:0:0:0:
494,172,288290,1,8,0:0:0:0:
448,160,288335,1,8,0:0:0:0:
448,160,288380,1,8,0:0:0:0:
480,160,288425,1,0,0:0:0:0:
416,96,288492,1,0,0:0:0:0:
512,160,288560,1,8,0:0:0:0:
512,160,288605,1,8,0:0:0:0:
512,160,288650,1,8,0:0:0:0:
352,128,288695,1,0,0:0:0:0:
416,128,288830,1,12,0:0:0:0:
340,168,289912,1,4,0:0:0:0:
288,160,290182,1,8,0:0:0:0:
416,160,290317,1,0,0:0:0:0:
288,192,290384,1,0,0:0:0:0:
384,160,290452,1,8,0:0:0:0:
384,160,290587,1,8,0:0:0:0:
320,128,290722,1,0,0:0:0:0:
288,64,290790,1,0,0:0:0:0:
320,128,290857,1,0,0:0:0:0:
384,160,290992,1,8,0:0:0:0:
416,160,291128,1,0,0:0:0:0:
448,160,291263,1,8,0:0:0:0:
288,96,291330,1,8,0:0:0:0:
448,160,291398,1,8,0:0:0:0:
288,96,291465,1,8,0:0:0:0:
448,160,291533,1,0,0:0:0:0:
384,128,291668,1,8,0:0:0:0:
416,160,291803,1,0,0:0:0:0:
224,0,291871,5,0,0:0:0:0:
384,160,291938,1,8,0:0:0:0:
448,160,292073,1,8,0:0:0:0:
133,158,292209,1,0,0:0:0:0:
498,175,292276,1,8,0:0:0:0:
480,160,292344,1,0,0:0:0:0:
480,160,292479,1,0,0:0:0:0:
416,160,292614,1,8,0:0:0:0:
278,134,292682,1,0,0:0:0:0:
278,134,292749,1,0,0:0:0:0:
278,134,292817,1,0,0:0:0:0:
320,160,292884,1,8,0:0:0:0:
256,127,293019,1,8,0:0:0:0:
352,160,293155,1,0,0:0:0:0:
232,47,293222,1,0,0:0:0:0:
401,135,293290,1,0,0:0:0:0:
448,160,293425,1,8,0:0:0:0:
448,128,293560,1,0,0:0:0:0:
448,160,293695,1,8,0:0:0:0:
261,171,293763,1,8,0:0:0:0:
448,128,293830,1,0,0:0:0:0:
480,160,293965,1,8,0:0:0:0:
352,128,294033,1,8,0:0:0:0:
352,128,294100,1,8,0:0:0:0:
352,128,294168,1,8,0:0:0:0:
192,160,294236,1,0,0:0:0:0:
256,128,294371,1,0,0:0:0:0:
288,160,294506,1,8,0:0:0:0:
312,139,294641,1,0,0:0:0:0:
312,139,294709,1,0,0:0:0:0:
384,160,294776,1,0,0:0:0:0:
384,160,294911,1,8,0:0:0:0:
320,128,295046,1,0,0:0:0:0:
297,110,295114,1,0,0:0:0:0:
320,128,295182,1,8,0:0:0:0:
384,160,295317,1,8,0:0:0:0:
416,160,295452,1,0,0:0:0:0:
448,160,295587,1,8,0:0:0:0:
362,173,295655,1,8,0:0:0:0:
448,160,295722,1,8,0:0:0:0:
362,173,295790,1,8,0:0:0:0:
448,160,295857,1,0,0:0:0:0:
423,144,295992,1,8,0:0:0:0:
416,160,296128,1,0,0:0:0:0:
381,111,296195,1,0,0:0:0:0:
281,173,296263,1,0,0:0:0:0:
448,160,296398,1,8,0:0:0:0:
381,111,296533,1,0,0:0:0:0:
390,174,296600,1,8,0:0:0:0:
480,160,296668,1,0,0:0:0:0:
480,160,296803,1,0,0:0:0:0:
416,160,296938,1,8,0:0:0:0:
401,105,297006,1,8,0:0:0:0:
385,145,297073,1,0,0:0:0:0:
385,145,297141,1,0,0:0:0:0:
320,160,297209,1,8,0:0:0:0:
328,159,297344,1,8,0:0:0:0:
352,160,297479,1,0,0:0:0:0:
234,97,297546,1,8,0:0:0:0:
384,224,297614,1,0,0:0:0:0:
448,160,297749,1,8,0:0:0:0:
446,148,297884,5,0,0:0:0:0:
448,160,298019,1,8,0:0:0:0:
448,128,298155,1,0,0:0:0:0:
461,168,298290,1,0,0:0:0:0:
352,160,298425,1,8,0:0:0:0:
352,160,298470,1,8,0:0:0:0:
352,160,298515,1,8,0:0:0:0:
480,128,298560,1,4,0:0:0:0:
288,160,298830,1,8,0:0:0:0:
416,160,298965,1,0,0:0:0:0:
288,192,299033,1,0,0:0:0:0:
384,160,299100,1,8,0:0:0:0:
384,160,299236,1,8,0:0:0:0:
320,128,299371,1,0,0:0:0:0:
288,64,299438,1,0,0:0:0:0:
320,128,299506,1,8,0:0:0:0:
128,160,299573,1,0,0:0:0:0:
384,160,299641,1,8,0:0:0:0:
416,160,299776,1,0,0:0:0:0:
448,160,299911,1,8,0:0:0:0:
288,96,299979,1,8,0:0:0:0:
448,160,300046,1,8,0:0:0:0:
288,96,300114,1,8,0:0:0:0:
448,160,300182,1,0,0:0:0:0:
384,128,300317,1,8,0:0:0:0:
416,160,300452,1,0,0:0:0:0:
224,0,300519,5,0,0:0:0:0:
384,160,300587,1,8,0:0:0:0:
448,160,300722,1,8,0:0:0:0:
133,158,300857,1,0,0:0:0:0:
498,175,300925,1,8,0:0:0:0:
480,160,300992,1,0,0:0:0:0:
256,160,301060,1,8,0:0:0:0:
480,160,301128,1,0,0:0:0:0:
416,160,301263,1,8,0:0:0:0:
278,134,301330,1,0,0:0:0:0:
278,134,301398,1,0,0:0:0:0:
278,134,301465,1,0,0:0:0:0:
320,160,301533,1,8,0:0:0:0:
256,127,301668,1,8,0:0:0:0:
352,160,301803,1,0,0:0:0:0:
232,47,301871,1,0,0:0:0:0:
401,135,301938,1,0,0:0:0:0:
192,64,302006,1,0,0:0:0:0:
448,160,302073,1,8,0:0:0:0:
448,128,302209,1,0,0:0:0:0:
448,160,302344,1,8,0:0:0:0:
261,171,302411,1,8,0:0:0:0:
448,128,302479,1,0,0:0:0:0:
480,160,302614,1,8,0:0:0:0:
448,128,302682,1,8,0:0:0:0:
448,128,302749,1,8,0:0:0:0:
448,128,302817,1,8,0:0:0:0:
192,160,302884,1,0,0:0:0:0:
416,160,303019,1,0,0:0:0:0:
288,160,303155,1,8,0:0:0:0:
312,139,303290,1,0,0:0:0:0:
312,139,303357,1,0,0:0:0:0:
384,160,303425,1,0,0:0:0:0:
384,160,303560,1,8,0:0:0:0:
320,128,303695,1,0,0:0:0:0:
297,110,303763,1,0,0:0:0:0:
320,128,303830,1,8,0:0:0:0:
224,96,303898,1,0,0:0:0:0:
384,160,303965,1,8,0:0:0:0:
416,160,304100,1,0,0:0:0:0:
448,160,304236,1,8,0:0:0:0:
362,173,304303,1,8,0:0:0:0:
448,160,304371,1,8,0:0:0:0:
362,173,304438,1,8,0:0:0:0:
448,160,304506,1,0,0:0:0:0:
423,144,304641,1,8,0:0:0:0:
416,160,304776,1,0,0:0:0:0:
381,111,304844,1,0,0:0:0:0:
281,173,304911,1,0,0:0:0:0:
448,160,305046,1,8,0:0:0:0:
381,111,305182,1,0,0:0:0:0:
390,174,305249,1,8,0:0:0:0:
480,160,305317,1,0,0:0:0:0:
384,160,305384,1,8,0:0:0:0:
480,160,305452,1,0,0:0:0:0:
416,160,305587,1,8,0:0:0:0:
401,105,305655,1,8,0:0:0:0:
385,145,305722,1,0,0:0:0:0:
385,145,305790,1,0,0:0:0:0:
320,160,305857,1,8,0:0:0:0:
328,159,305992,1,8,0:0:0:0:
352,160,306128,1,0,0:0:0:0:
234,97,306195,1,8,0:0:0:0:
384,224,306263,1,0,0:0:0:0:
384,160,306330,1,0,0:0:0:0:
448,160,306398,1,8,0:0:0:0:
352,96,306465,1,0,0:0:0:0:
446,148,306533,5,0,0:0:0:0:
352,96,306600,1,0,0:0:0:0:
448,160,306668,1,8,0:0:0:0:
448,128,306803,1,0,0:0:0:0:
461,168,306938,1,0,0:0:0:0:
288,128,307073,1,8,0:0:0:0:
256,32,307119,1,8,0:0:0:0:
256,32,307164,1,8,0:0:0:0:
352,96,307209,1,4,0:0:0:0:
288,160,307479,1,8,0:0:0:0:
416,160,307614,1,0,0:0:0:0:
384,160,307749,1,8,0:0:0:0:
384,160,307884,1,8,0:0:0:0:
320,128,308019,1,0,0:0:0:0:
288,64,308087,1,0,0:0:0:0:
320,128,308155,1,0,0:0:0:0:
384,160,308290,1,8,0:0:0:0:
416,160,308425,1,0,0:0:0:0:
448,160,308560,1,8,0:0:0:0:
288,96,308628,1,8,0:0:0:0:
448,160,308695,1,8,0:0:0:0:
448,160,308830,1,0,0:0:0:0:
384,128,308965,1,8,0:0:0:0:
416,160,309100,1,0,0:0:0:0:
224,0,309168,5,0,0:0:0:0:
384,160,309236,1,8,0:0:0:0:
448,160,309371,1,8,0:0:0:0:
133,158,309506,1,0,0:0:0:0:
498,175,309573,1,8,0:0:0:0:
480,160,309641,1,0,0:0:0:0:
480,160,309776,1,0,0:0:0:0:
416,160,309911,1,8,0:0:0:0:
278,134,310046,1,0,0:0:0:0:
278,134,310114,1,0,0:0:0:0:
320,160,310182,1,8,0:0:0:0:
256,127,310317,1,8,0:0:0:0:
352,160,310452,1,0,0:0:0:0:
232,47,310519,1,0,0:0:0:0:
401,135,310587,1,0,0:0:0:0:
448,160,310722,1,8,0:0:0:0:
448,128,310857,1,0,0:0:0:0:
448,160,310992,1,8,0:0:0:0:
261,171,311060,1,8,0:0:0:0:
448,128,311128,1,0,0:0:0:0:
480,160,311263,1,8,0:0:0:0:
480,160,311330,1,8,0:0:0:0:
480,160,311398,1,8,0:0:0:0:
480,160,311465,1,8,0:0:0:0:
192,160,311533,1,0,0:0:0:0:
448,160,311668,1,0,0:0:0:0:
288,160,311803,1,8,0:0:0:0:
312,139,311938,1,0,0:0:0:0:
312,139,312006,1,0,0:0:0:0:
384,160,312073,1,0,0:0:0:0:
384,160,312209,1,8,0:0:0:0:
320,128,312344,1,0,0:0:0:0:
297,110,312411,1,0,0:0:0:0:
320,128,312479,1,8,0:0:0:0:
384,160,312614,1,8,0:0:0:0:
416,160,312749,1,0,0:0:0:0:
448,160,312884,1,8,0:0:0:0:
362,173,312952,1,8,0:0:0:0:
448,160,313019,1,8,0:0:0:0:
448,160,313155,1,0,0:0:0:0:
423,144,313290,1,8,0:0:0:0:
416,160,313425,1,0,0:0:0:0:
381,111,313492,1,0,0:0:0:0:
281,173,313560,1,0,0:0:0:0:
448,160,313695,1,8,0:0:0:0:
381,111,313830,1,0,0:0:0:0:
390,174,313898,1,8,0:0:0:0:
480,160,313965,1,0,0:0:0:0:
480,160,314100,1,0,0:0:0:0:
416,160,314236,1,8,0:0:0:0:
385,145,314371,1,0,0:0:0:0:
385,145,314438,1,0,0:0:0:0:
320,160,314506,1,8,0:0:0:0:
328,159,314641,1,8,0:0:0:0:
352,160,314776,1,0,0:0:0:0:
234,97,314844,1,8,0:0:0:0:
384,224,314911,1,0,0:0:0:0:
448,160,315046,1,8,0:0:0:0:
446,148,315182,5,0,0:0:0:0:
448,160,315317,1,8,0:0:0:0:
448,128,315452,1,0,0:0:0:0:
461,168,315587,1,0,0:0:0:0:
256,96,315722,1,8,0:0:0:0:
256,96,315767,1,8,0:0:0:0:
256,96,315812,1,8,0:0:0:0:
416,128,315857,1,4,0:0:0:0:
288,160,316128,1,8,0:0:0:0:
416,160,316263,1,0,0:0:0:0:
384,160,316398,1,8,0:0:0:0:
384,160,316533,1,8,0:0:0:0:
320,128,316668,1,0,0:0:0:0:
320,128,316803,1,0,0:0:0:0:
384,160,316938,1,8,0:0:0:0:
416,160,317073,1,0,0:0:0:0:
448,160,317209,1,8,0:0:0:0:
448,160,317344,1,8,0:0:0:0:
448,160,317479,1,0,0:0:0:0:
416,160,317749,1,0,0:0:0:0:
448,160,318019,1,8,0:0:0:0:
480,160,318290,1,0,0:0:0:0:
480,160,318425,1,0,0:0:0:0:
416,160,318560,1,8,0:0:0:0:
320,160,318830,1,8,0:0:0:0:
352,160,319100,1,0,0:0:0:0:
384,224,319236,1,0,0:0:0:0:
448,160,319371,1,8,0:0:0:0:
448,128,319506,1,0,0:0:0:0:
448,160,319641,1,8,0:0:0:0:
448,128,319776,1,0,0:0:0:0:
480,160,319911,1,8,0:0:0:0:
192,160,320182,1,0,0:0:0:0:
288,160,320452,1,8,0:0:0:0:
416,160,320587,1,8,0:0:0:0:
384,160,320722,1,8,0:0:0:0:
384,160,320857,1,8,0:0:0:0:
320,128,320992,1,0,0:0:0:0:
320,128,321128,1,0,0:0:0:0:
384,160,321263,1,8,0:0:0:0:
416,160,321398,1,0,0:0:0:0:
448,160,321533,1,8,0:0:0:0:
448,160,321668,1,8,0:0:0:0:
448,160,321803,1,0,0:0:0:0:
416,160,322073,1,0,0:0:0:0:
448,160,322344,1,8,0:0:0:0:
480,160,322614,1,0,0:0:0:0:
480,160,322749,1,0,0:0:0:0:
416,160,322884,1,8,0:0:0:0:
320,160,323155,1,8,0:0:0:0:
352,160,323425,1,0,0:0:0:0:
384,224,323560,1,0,0:0:0:0:
448,160,323695,1,8,0:0:0:0:
448,128,323830,1,8,0:0:0:0:
256,160,323965,1,0,0:0:0:0:
160,160,324033,1,0,0:0:0:0:
352,128,324100,1,8,0:0:0:0:
352,128,324146,1,8,0:0:0:0:
352,128,324191,1,8,0:0:0:0:
352,160,324236,1,0,0:0:0:0:
160,192,324303,1,0,0:0:0:0:
320,160,324371,1,8,0:0:0:0:
320,160,324416,1,8,0:0:0:0:
320,160,324461,1,8,0:0:0:0:
416,128,324506,1,4,0:0:0:0:
416,160,324776,1,8,0:0:0:0:
384,160,324911,1,0,0:0:0:0:
320,128,325046,1,8,0:0:0:0:
352,128,325317,1,0,0:0:0:0:
352,128,325452,1,0,0:0:0:0:
448,160,325587,1,8,0:0:0:0:
448,160,325722,1,0,0:0:0:0:
448,128,325857,1,8,0:0:0:0:
416,128,325992,1,8,0:0:0:0:
448,160,326128,1,0,0:0:0:0:
256,128,326398,5,0,0:0:0:0:
384,160,326668,1,8,0:0:0:0:
448,160,326938,1,0,0:0:0:0:
416,160,327209,1,8,0:0:0:0:
416,160,327479,1,8,0:0:0:0:
416,160,327749,1,0,0:0:0:0:
416,160,328019,1,8,0:0:0:0:
512,192,328155,1,0,0:0:0:0:
384,160,328290,1,8,0:0:0:0:
384,192,328425,1,0,0:0:0:0:
416,160,328560,1,8,0:0:0:0:
480,160,328830,1,0,0:0:0:0:
320,128,329100,1,8,0:0:0:0:
320,128,329236,1,8,0:0:0:0:
320,128,329371,1,8,0:0:0:0:
352,160,329641,1,0,0:0:0:0:
320,128,329776,1,8,0:0:0:0:
320,128,329911,1,8,0:0:0:0:
448,160,330046,1,0,0:0:0:0:
416,160,330182,1,8,0:0:0:0:
416,160,330317,1,8,0:0:0:0:
480,160,330452,1,0,0:0:0:0:
480,160,330722,1,0,0:0:0:0:
448,128,330992,1,8,0:0:0:0:
448,128,331263,1,0,0:0:0:0:
448,128,331533,1,8,0:0:0:0:
448,128,331803,1,8,0:0:0:0:
480,160,332073,1,0,0:0:0:0:
448,128,332344,1,8,0:0:0:0:
448,128,332479,1,8,0:0:0:0:
448,128,332614,1,8,0:0:0:0:
448,128,332749,1,8,0:0:0:0:
288,160,332884,5,8,0:0:0:0:
