osu file format v14

[General]
AudioFilename: audio.mp3
AudioLeadIn: 0
PreviewTime: 80636
Countdown: 0
SampleSet: Normal
StackLeniency: 0.7
Mode: 1
LetterboxInBreaks: 0
WidescreenStoryboard: 1

[Editor]
Bookmarks: 13436,18236,23036,27836,32636,71036,80636,90228,119036
DistanceSpacing: 1
BeatDivisor: 4
GridSize: 32
TimelineZoom: 3.499998

[Metadata]
Title:New Game Plus
TitleUnicode:New Game Plus
Artist:Kobaryo
ArtistUnicode:Kobaryo
Creator:Vulkin
Version:Inner Oni
Source:osu!
Tags:PFEX010 Psycho Filth Records PFR BPM 700 OVER!! NG+ J-Core Speedcore Gabba Gabber Hardcore Electronic Instrumental FA Featured Artist MG Mappers' Guild Cynplytholowazy -GN Junior Hivie komasy Capu Genjuro
BeatmapID:2662647
BeatmapSetID:860197

[Difficulty]
HPDrainRate:5.5
CircleSize:7
OverallDifficulty:6.5
ApproachRate:10
SliderMultiplier:1.4
SliderTickRate:1

[Events]
//Background and Video events
0,0,"StockSnap_2XJHTOIOP1 (1).jpg",0,0
//Break Periods
2,72228,79428
//Storyboard Layer 0 (Background)
//Storyboard Layer 1 (Fail)
//Storyboard Layer 2 (Pass)
//Storyboard Layer 3 (Foreground)
//Storyboard Layer 4 (Overlay)
//Storyboard Sound Samples

[TimingPoints]
238,300,4,1,0,20,1,0
2483,-100,4,1,0,100,0,0
7433,-100,4,1,0,100,0,0
7733,-97.5634503899611,4,1,0,100,0,0
7883,-96.3891654722443,4,1,0,100,0,0
7958,-95.8126058729295,4,1,0,100,0,0
8033,-95.2428120249765,4,1,0,100,0,0
8183,-94.1234051965532,4,1,0,100,0,0
8333,-93.0300058981024,4,1,0,100,0,0
8408,-92.4928202448285,4,1,0,100,0,0
8483,-91.9617181759577,4,1,0,100,0,0
8633,-90.9176867631121,4,1,0,100,0,0
8933,-88.8991616809054,4,1,0,100,0,0
9083,-87.9231411069699,4,1,0,100,0,0
9158,-87.4431619447359,4,1,0,100,0,0
9233,-86.9683191806889,4,1,0,100,0,0
9383,-86.0340126865755,4,1,0,100,0,0
9533,-85.119567456406,4,1,0,100,0,0
9833,-83.3477802819155,4,1,0,100,0,0
9983,-82.4892619603243,4,1,0,100,0,0
10133,-81.648249543178,4,1,0,100,0,0
10208,-81.2341745673671,4,1,0,100,0,0
10283,-80.824212994432,4,1,0,100,0,0
10358,-80.4184331915825,4,1,0,100,0,0
10433,-80.0166434618401,4,1,0,100,0,0
10583,-79.2250522291157,4,1,0,100,0,0
10733,-78.4489697296805,4,1,0,100,0,0
10808,-78.0666329939256,4,1,0,100,0,0
10883,-77.687944617818,4,1,0,100,0,0
11033,-76.9415428933713,4,1,0,100,0,0
11183,-76.2093470764189,4,1,0,100,0,0
11333,-75.4909554286301,4,1,0,100,0,0
11408,-75.1368429752687,4,1,0,100,0,0
11483,-74.7859812182487,4,1,0,100,0,0
11558,-74.4384364355304,4,1,0,100,0,0
11633,-74.0940520258796,4,1,0,100,0,0
11783,-73.4148090884597,4,1,0,100,0,0
11933,-72.7479066789853,4,1,0,100,0,0
12008,-72.419004774585,4,1,0,100,0,0
12083,-72.0930115197423,4,1,0,100,0,0
12233,-71.4498022269474,4,1,0,100,0,0
13133,-67.8193238955962,4,1,0,100,0,0
13208,-67.5333901964479,4,1,0,100,0,0
13283,-67.2498122048994,4,1,0,100,0,0
13438,150,4,1,0,100,1,1
13438,-133.333333333333,4,1,0,100,0,1
17938,-133.333333333333,4,1,0,100,0,0
18238,-133.333333333333,4,1,0,100,0,1
22438,-133.333333333333,4,1,0,100,0,0
23038,-133.333333333333,4,1,0,100,0,1
27538,-133.333333333333,4,1,0,100,0,0
27838,-133.333333333333,4,1,0,100,0,1
31438,-133.333333333333,4,1,0,100,0,0
32038,-133.333333333333,4,1,0,100,0,1
32186,-145.454545454545,4,1,0,100,0,1
32336,-160,4,1,0,100,0,1
32486,-177.777777777778,4,1,0,100,0,1
32619,-200,4,1,0,100,0,1
32638,-200,4,1,0,100,0,0
32786,-196.927148770584,4,1,0,100,0,0
32861,-195.425480355831,4,1,0,100,0,0
32936,-193.946916728891,4,1,0,100,0,0
33086,-191.05590869056,4,1,0,100,0,0
33161,-189.64248598542,4,1,0,100,0,0
33236,-188.249822574542,4,1,0,100,0,0
33386,-185.524626538927,4,1,0,100,0,0
33461,-184.191573972257,4,1,0,100,0,0
33536,-182.877541540634,4,1,0,100,0,0
33611,-181.58212505561,4,1,0,100,0,0
33686,-180.304931700492,4,1,0,100,0,0
33761,-179.045259060585,4,1,0,100,0,0
33836,-177.803381464709,4,1,0,100,0,0
33986,-175.370601924517,4,1,0,100,0,0
34061,-174.17900724933,4,1,0,100,0,0
34136,-173.003496400662,4,1,0,100,0,0
34286,-170.699149576837,4,1,0,100,0,0
34361,-169.569987468778,4,1,0,100,0,0
34436,-168.455665837865,4,1,0,100,0,0
34586,-166.27038890644,4,1,0,100,0,0
34736,-164.14081312076,4,1,0,100,0,0
35036,-200,4,1,0,100,0,0
35186,-195.925148756169,4,1,0,100,0,0
35261,-193.949549843095,4,1,0,100,0,0
35336,-192.013394854425,4,1,0,100,0,0
35486,-188.254429626729,4,1,0,100,0,0
35561,-186.429776563913,4,1,0,100,0,0
35636,-184.640154802306,4,1,0,100,0,0
35786,-181.161717630477,4,1,0,100,0,0
35861,-179.471349193815,4,1,0,100,0,0
35936,-177.81191766597,4,1,0,100,0,0
36011,-176.183202341122,4,1,0,100,0,0
36086,-174.584053492554,4,1,0,100,0,0
36161,-173.013373933805,4,1,0,100,0,0
36236,-171.470998252711,4,1,0,100,0,0
36386,-168.467017527309,4,1,0,100,0,0
36461,-167.004293680391,4,1,0,100,0,0
36536,-165.566751547221,4,1,0,100,0,0
36686,-162.764390406667,4,1,0,100,0,0
36761,-161.398615845471,4,1,0,100,0,0
36836,-160,4,1,0,100,0,0
36986,-168.375112811326,4,1,0,100,0,0
37136,-177.675436726223,4,1,0,100,0,0
37286,-188.063249432049,4,1,0,100,0,0
37436,-200,4,1,0,100,0,0
37586,-196.927148770584,4,1,0,100,0,0
37661,-195.425480355831,4,1,0,100,0,0
37736,-193.946916728891,4,1,0,100,0,0
37886,-191.05590869056,4,1,0,100,0,0
38036,-188.249822574542,4,1,0,100,0,0
38111,-186.877115215348,4,1,0,100,0,0
38186,-185.524626538927,4,1,0,100,0,0
38261,-184.191573972257,4,1,0,100,0,0
38336,-182.877541540634,4,1,0,100,0,0
38486,-180.304931700492,4,1,0,100,0,0
38636,-177.803381464709,4,1,0,100,0,0
38711,-176.578612798418,4,1,0,100,0,0
38786,-175.370601924517,4,1,0,100,0,0
38861,-174.17900724933,4,1,0,100,0,0
38936,-173.003496400662,4,1,0,100,0,0
39086,-170.699149576837,4,1,0,100,0,0
39161,-169.569987468778,4,1,0,100,0,0
39236,-168.455665837865,4,1,0,100,0,0
39311,-167.355894023554,4,1,0,100,0,0
39386,-166.27038890644,4,1,0,100,0,0
39461,-165.198601759035,4,1,0,100,0,0
39536,-164.14081312076,4,1,0,100,0,0
39836,-200,4,1,0,100,0,0
39986,-195.925148756169,4,1,0,100,0,0
40061,-193.949549843095,4,1,0,100,0,0
40098,-192.976429858857,4,1,0,100,0,0
40136,-192.013394854425,4,1,0,100,0,0
40211,-190.115152748019,4,1,0,100,0,0
40286,-188.254429626729,4,1,0,100,0,0
40436,-184.640154802306,4,1,0,100,0,0
40586,-181.161717630477,4,1,0,100,0,0
40661,-179.471349193815,4,1,0,100,0,0
40698,-178.637779746763,4,1,0,100,0,0
40736,-177.81191766597,4,1,0,100,0,0
40811,-176.183202341122,4,1,0,100,0,0
40886,-174.584053492554,4,1,0,100,0,0
41036,-171.470998252711,4,1,0,100,0,0
41073,-170.709931391679,4,1,0,100,0,0
41111,-169.955879453694,4,1,0,100,0,0
41186,-168.467017527309,4,1,0,100,0,0
41261,-167.004293680391,4,1,0,100,0,0
41336,-165.566751547221,4,1,0,100,0,0
41373,-164.857085392673,4,1,0,100,0,0
41411,-164.153746398877,4,1,0,100,0,0
41486,-162.764390406667,4,1,0,100,0,0
41561,-161.398615845471,4,1,0,100,0,0
41636,-160,4,1,0,100,0,0
41786,-168.375112811326,4,1,0,100,0,0
41936,-177.675436726223,4,1,0,100,0,0
42086,-188.063249432049,4,1,0,100,0,0
42219,-200,4,1,0,100,0,0
42238,300,4,1,0,100,1,0
42238,-99.8705677442035,4,1,0,100,0,0
51838,600,4,1,0,100,1,0
61363,-66.6666666666667,4,1,0,100,0,0
61438,300,4,1,0,100,1,0
61438,-133.333333333333,4,1,0,100,0,0
68636,-133.333333333333,4,1,0,100,0,0
68936,-128.013272416084,4,1,0,100,0,0
69086,-125.509411323208,4,1,0,100,0,0
69161,-124.293855533252,4,1,0,100,0,0
69236,-123.101467615697,4,1,0,100,0,0
69386,-120.784325093427,4,1,0,100,0,0
69536,-118.552802232586,4,1,0,100,0,0
69686,-116.402104084433,4,1,0,100,0,0
69836,-114.328179037928,4,1,0,100,0,0
69986,-112.326736009705,4,1,0,100,0,0
70061,-111.352126602914,4,1,0,100,0,0
70136,-110.39428422554,4,1,0,100,0,0
70286,-108.527081305233,4,1,0,100,0,0
70436,-106.722105242937,4,1,0,100,0,0
70511,-105.841946221707,4,1,0,100,0,0
70586,-104.976186152171,4,1,0,100,0,0
70623,-104.548486451562,4,1,0,100,0,0
70661,-104.124366142921,4,1,0,100,0,0
70736,-103.286365580025,4,1,0,100,0,0
70811,-102.461745907166,4,1,0,100,0,0
70886,-101.650189171002,4,1,0,100,0,0
71036,-100.064942147454,4,1,0,100,0,0
90236,-100,4,1,0,100,0,0
90536,-98.4634774346326,4,1,0,100,0,0
90686,-97.7128356558046,4,1,0,100,0,0
90761,-97.3417903880822,4,1,0,100,0,0
90836,-96.9735524030531,4,1,0,100,0,0
91136,-95.5279543452801,4,1,0,100,0,0
91211,-95.1732867618717,4,1,0,100,0,0
91286,-94.8212429927101,4,1,0,100,0,0
91436,-94.1248226923653,4,1,0,100,0,0
91736,-92.7623993180109,4,1,0,100,0,0
91886,-92.0957869861285,4,1,0,100,0,0
91961,-91.7661028863192,4,1,0,100,0,0
92036,-91.4387707703168,4,1,0,100,0,0
92336,-90.1523845756482,4,1,0,100,0,0
92411,-89.8364437704715,4,1,0,100,0,0
92486,-89.5227096733764,4,1,0,100,0,0
92636,-88.9017697675308,4,1,0,100,0,0
92936,-87.6853009622585,4,1,0,100,0,0
93086,-87.0895036246651,4,1,0,100,0,0
93161,-86.7945555511194,4,1,0,100,0,0
93236,-86.5016733748714,4,1,0,100,0,0
93536,-85.3496476339797,4,1,0,100,0,0
93611,-85.0663474977308,4,1,0,100,0,0
93686,-84.784993734389,4,1,0,100,0,0
93836,-84.2278329189324,4,1,0,100,0,0
94136,-83.1351253386717,4,1,0,100,0,0
94286,-82.5993691060188,4,1,0,100,0,0
94361,-82.3340721444074,4,1,0,100,0,0
94436,-82.07040656038,4,1,0,100,0,0
94736,-81.0326804800376,4,1,0,100,0,0
94811,-80.7773364642629,4,1,0,100,0,0
94886,-80.5235317943139,4,1,0,100,0,0
95036,-80.0208054094064,4,1,0,100,0,0
95336,-79.0135942888974,4,1,0,100,0,0
95486,-78.5294882154724,4,1,0,100,0,0
95561,-78.2896529263106,4,1,0,100,0,0
95636,-78.051278128705,4,1,0,100,0,0
95936,-77.1120607889798,4,1,0,100,0,0
96086,-76.6509072401381,4,1,0,100,0,0
96161,-76.422334274347,4,1,0,100,0,0
96236,-76.1951785214935,4,1,0,100,0,0
96536,-75.299900679431,4,1,0,100,0,0
96686,-74.8600491381363,4,1,0,100,0,0
96761,-74.6420726013583,4,1,0,100,0,0
96836,-74.4253617816836,4,1,0,100,0,0
97136,-73.5709035904808,4,1,0,100,0,0
97286,-73.1510166162534,4,1,0,100,0,0
97361,-72.9428653124581,4,1,0,100,0,0
97436,-72.7358952370354,4,1,0,100,0,0
97586,-72.3254064687844,4,1,0,100,0,0
97661,-72.1219206644448,4,1,0,100,0,0
97736,-71.919576652604,4,1,0,100,0,0
97886,-71.5182757801929,4,1,0,100,0,0
97961,-71.3192492079997,4,1,0,100,0,0
98036,-71.1213778771264,4,1,0,100,0,0
98186,-70.7289109374481,4,1,0,100,0,0
98261,-70.5342973020631,4,1,0,100,0,0
98336,-70.3407517034772,4,1,0,100,0,0
98486,-69.956780700883,4,1,0,100,0,0
98561,-69.7663872522857,4,1,0,100,0,0
98636,-69.5906107,4,1,0,100,0,0
99536,-67.3822663351459,4,1,0,100,0,0
99611,-67.2056108620396,4,1,0,100,0,0
99686,-67.0298343089526,4,1,0,100,0,0
99800,-66.6666666666667,4,1,0,100,0,0
99838,150,4,1,0,100,1,1
99838,-133.333333333333,4,1,0,100,0,1
104338,-133.333333333333,4,1,0,100,0,0
104638,-133.333333333333,4,1,0,100,0,1
108838,-133.333333333333,4,1,0,100,0,0
109438,-133.333333333333,4,1,0,100,0,1
113938,-133.333333333333,4,1,0,100,0,0
114238,-133.333333333333,4,1,0,100,0,1
117838,-133.333333333333,4,1,0,100,0,0
118438,-133.333333333333,4,1,0,100,0,1
118569,-145.454545454545,4,1,0,100,0,1
118719,-160,4,1,0,100,0,1
118869,-177.777777777778,4,1,0,100,0,1
119019,-200,4,1,0,100,0,1
119038,-200,4,1,0,100,0,0
119186,-196.927148770584,4,1,0,100,0,0
119261,-195.425480355831,4,1,0,100,0,0
119336,-193.946916728891,4,1,0,100,0,0
119486,-191.05590869056,4,1,0,100,0,0
119561,-189.64248598542,4,1,0,100,0,0
119636,-188.249822574542,4,1,0,100,0,0
119786,-185.524626538927,4,1,0,100,0,0
119861,-184.191573972257,4,1,0,100,0,0
119936,-182.877541540634,4,1,0,100,0,0
120086,-180.304931700492,4,1,0,100,0,0
120161,-179.045259060585,4,1,0,100,0,0
120236,-177.803381464709,4,1,0,100,0,0
120386,-175.370601924517,4,1,0,100,0,0
120461,-174.17900724933,4,1,0,100,0,0
120536,-173.003496400662,4,1,0,100,0,0
120686,-170.699149576837,4,1,0,100,0,0
120761,-169.569987468778,4,1,0,100,0,0
120836,-168.455665837865,4,1,0,100,0,0
120986,-166.27038890644,4,1,0,100,0,0
121061,-165.198601759035,4,1,0,100,0,0
121136,-164.14081312076,4,1,0,100,0,0
121436,-200,4,1,0,100,0,0
121586,-195.925148756169,4,1,0,100,0,0
121661,-193.949549843095,4,1,0,100,0,0
121736,-192.013394854425,4,1,0,100,0,0
121886,-188.254429626729,4,1,0,100,0,0
121961,-186.429776563913,4,1,0,100,0,0
122036,-184.640154802306,4,1,0,100,0,0
122186,-181.161717630477,4,1,0,100,0,0
122261,-179.471349193815,4,1,0,100,0,0
122336,-177.81191766597,4,1,0,100,0,0
122486,-174.584053492554,4,1,0,100,0,0
122561,-173.013373933805,4,1,0,100,0,0
122636,-171.470998252711,4,1,0,100,0,0
122786,-168.467017527309,4,1,0,100,0,0
122861,-167.004293680391,4,1,0,100,0,0
122936,-165.566751547221,4,1,0,100,0,0
123086,-162.764390406667,4,1,0,100,0,0
123161,-161.398615845471,4,1,0,100,0,0
123236,-160,4,1,0,100,0,0
123386,-168.375112811326,4,1,0,100,0,0
123536,-177.675436726223,4,1,0,100,0,0
123686,-188.063249432049,4,1,0,100,0,0
123836,-200,4,1,0,100,0,0
123873,-199.222633284922,4,1,0,100,0,0
123911,-198.451679992697,4,1,0,100,0,0
123986,-196.927148770584,4,1,0,100,0,0
124136,-193.946916728891,4,1,0,100,0,0
124211,-192.490558338114,4,1,0,100,0,0
124286,-191.05590869056,4,1,0,100,0,0
124361,-189.64248598542,4,1,0,100,0,0
124436,-188.249822574542,4,1,0,100,0,0
124511,-186.877115215348,4,1,0,100,0,0
124586,-185.524626538927,4,1,0,100,0,0
124736,-182.877541540634,4,1,0,100,0,0
124886,-180.304931700492,4,1,0,100,0,0
125036,-177.803381464709,4,1,0,100,0,0
125073,-177.189037668618,4,1,0,100,0,0
125111,-176.578612798418,4,1,0,100,0,0
125186,-175.370601924517,4,1,0,100,0,0
125336,-173.003496400662,4,1,0,100,0,0
125411,-171.843450616488,4,1,0,100,0,0
125486,-170.699149576837,4,1,0,100,0,0
125636,-168.455665837865,4,1,0,100,0,0
125673,-167.903838113835,4,1,0,100,0,0
125711,-167.355894023554,4,1,0,100,0,0
125786,-166.27038890644,4,1,0,100,0,0
125936,-164.14081312076,4,1,0,100,0,0
126236,-200,4,1,0,100,0,0
126311,-197.941801151625,4,1,0,100,0,0
126348,-196.928312186515,4,1,0,100,0,0
126386,-195.925148756169,4,1,0,100,0,0
126536,-192.013394854425,4,1,0,100,0,0
126611,-190.115152748019,4,1,0,100,0,0
126686,-188.254429626729,4,1,0,100,0,0
126836,-184.640154802306,4,1,0,100,0,0
126911,-182.88423062433,4,1,0,100,0,0
126948,-182.019064676834,4,1,0,100,0,0
126986,-181.161717630477,4,1,0,100,0,0
127136,-177.81191766597,4,1,0,100,0,0
127211,-176.183202341122,4,1,0,100,0,0
127286,-174.584053492554,4,1,0,100,0,0
127436,-171.470998252711,4,1,0,100,0,0
127473,-170.709931391679,4,1,0,100,0,0
127511,-169.955879453694,4,1,0,100,0,0
127586,-168.467017527309,4,1,0,100,0,0
127661,-167.004293680391,4,1,0,100,0,0
127736,-165.566751547221,4,1,0,100,0,0
127773,-164.857085392673,4,1,0,100,0,0
127811,-164.153746398877,4,1,0,100,0,0
127886,-162.764390406667,4,1,0,100,0,0
127961,-161.398615845471,4,1,0,100,0,0
128036,-160,4,1,0,100,0,0
128186,-168.375112811326,4,1,0,100,0,0
128336,-177.675436726223,4,1,0,100,0,0
128486,-188.063249432049,4,1,0,100,0,0
128638,300,4,1,0,100,1,0

[HitObjects]
256,192,2638,5,4,0:0:0:0:
256,192,2938,1,0,0:0:0:0:
256,192,3088,1,8,0:0:0:0:
256,192,3163,1,8,0:0:0:0:
256,192,3238,1,8,0:0:0:0:
256,192,3388,1,8,0:0:0:0:
256,192,3538,1,0,0:0:0:0:
256,192,3613,1,8,0:0:0:0:
256,192,3688,1,0,0:0:0:0:
256,192,3838,1,0,0:0:0:0:
256,192,4138,1,0,0:0:0:0:
256,192,4288,1,8,0:0:0:0:
256,192,4363,1,8,0:0:0:0:
256,192,4438,1,8,0:0:0:0:
256,192,4588,1,0,0:0:0:0:
256,192,4738,1,8,0:0:0:0:
256,192,5038,1,0,0:0:0:0:
256,192,5338,1,0,0:0:0:0:
256,192,5413,1,8,0:0:0:0:
256,192,5563,1,8,0:0:0:0:
256,192,5788,1,8,0:0:0:0:
256,192,5938,1,0,0:0:0:0:
256,192,6088,1,8,0:0:0:0:
256,192,6238,1,0,0:0:0:0:
256,192,6538,1,0,0:0:0:0:
256,192,6613,1,0,0:0:0:0:
256,192,6763,1,8,0:0:0:0:
256,192,6913,1,0,0:0:0:0:
256,192,6988,1,0,0:0:0:0:
256,192,7138,1,8,0:0:0:0:
256,192,7288,1,0,0:0:0:0:
256,192,7438,1,4,0:0:0:0:
256,192,7738,1,8,0:0:0:0:
256,192,7888,1,0,0:0:0:0:
256,192,7963,1,0,0:0:0:0:
256,192,8038,1,8,0:0:0:0:
256,192,8188,1,8,0:0:0:0:
256,192,8338,1,0,0:0:0:0:
256,192,8413,1,8,0:0:0:0:
256,192,8488,1,0,0:0:0:0:
256,192,8638,1,4,0:0:0:0:
256,192,8938,1,8,0:0:0:0:
256,192,9088,1,0,0:0:0:0:
256,192,9163,1,0,0:0:0:0:
256,192,9238,1,8,0:0:0:0:
256,192,9388,1,0,0:0:0:0:
256,192,9538,1,8,0:0:0:0:
256,192,9838,1,12,0:0:0:0:
256,192,9988,1,0,0:0:0:0:
256,192,10138,1,0,0:0:0:0:
256,192,10213,1,8,0:0:0:0:
256,192,10288,1,0,0:0:0:0:
256,192,10363,1,8,0:0:0:0:
256,192,10438,1,8,0:0:0:0:
256,192,10588,1,0,0:0:0:0:
256,192,10738,1,8,0:0:0:0:
256,192,10813,1,0,0:0:0:0:
256,192,10888,1,0,0:0:0:0:
256,192,11038,1,4,0:0:0:0:
256,192,11188,1,8,0:0:0:0:
256,192,11338,1,0,0:0:0:0:
256,192,11413,1,8,0:0:0:0:
256,192,11488,1,0,0:0:0:0:
256,192,11563,1,0,0:0:0:0:
256,192,11638,1,12,0:0:0:0:
256,192,11788,1,0,0:0:0:0:
256,192,11938,1,8,0:0:0:0:
256,192,12013,1,0,0:0:0:0:
256,192,12088,1,0,0:0:0:0:
256,192,12238,1,4,0:0:0:0:
256,192,13138,1,0,0:0:0:0:
256,192,13213,1,0,0:0:0:0:
256,192,13288,1,8,0:0:0:0:
256,192,13438,1,4,0:0:0:0:
256,192,13588,1,8,0:0:0:0:
256,192,13663,1,0,0:0:0:0:
256,192,13738,1,8,0:0:0:0:
256,192,13775,1,8,0:0:0:0:
256,192,13813,1,0,0:0:0:0:
256,192,13888,1,0,0:0:0:0:
256,192,14038,1,0,0:0:0:0:
256,192,14113,1,8,0:0:0:0:
256,192,14150,1,0,0:0:0:0:
256,192,14188,1,0,0:0:0:0:
256,192,14338,1,8,0:0:0:0:
256,192,14413,1,0,0:0:0:0:
256,192,14488,1,8,0:0:0:0:
256,192,14563,1,0,0:0:0:0:
256,192,14638,1,0,0:0:0:0:
256,192,14788,1,8,0:0:0:0:
256,192,14863,1,0,0:0:0:0:
256,192,14938,1,8,0:0:0:0:
256,192,14975,1,8,0:0:0:0:
256,192,15013,1,0,0:0:0:0:
256,192,15088,1,0,0:0:0:0:
256,192,15238,1,8,0:0:0:0:
256,192,15313,1,0,0:0:0:0:
256,192,15350,1,0,0:0:0:0:
256,192,15388,1,0,0:0:0:0:
256,192,15538,1,8,0:0:0:0:
256,192,15613,1,0,0:0:0:0:
256,192,15650,1,0,0:0:0:0:
256,192,15688,1,8,0:0:0:0:
256,192,15838,1,0,0:0:0:0:
256,192,15988,1,8,0:0:0:0:
256,192,16063,1,0,0:0:0:0:
256,192,16138,1,8,0:0:0:0:
256,192,16175,1,8,0:0:0:0:
256,192,16213,1,0,0:0:0:0:
256,192,16288,1,0,0:0:0:0:
256,192,16438,1,0,0:0:0:0:
256,192,16513,1,8,0:0:0:0:
256,192,16550,1,0,0:0:0:0:
256,192,16588,1,0,0:0:0:0:
256,192,16738,1,8,0:0:0:0:
256,192,16813,1,0,0:0:0:0:
256,192,16888,1,8,0:0:0:0:
256,192,16963,1,0,0:0:0:0:
256,192,17038,1,0,0:0:0:0:
256,192,17188,1,8,0:0:0:0:
256,192,17263,1,0,0:0:0:0:
256,192,17338,1,8,0:0:0:0:
256,192,17375,1,8,0:0:0:0:
256,192,17413,1,0,0:0:0:0:
256,192,17488,1,0,0:0:0:0:
256,192,17638,1,8,0:0:0:0:
256,192,17675,1,0,0:0:0:0:
256,192,17713,1,0,0:0:0:0:
256,192,17788,1,0,0:0:0:0:
256,192,17863,1,0,0:0:0:0:
256,192,17938,1,8,0:0:0:0:
256,192,18238,1,0,0:0:0:0:
256,192,18388,1,8,0:0:0:0:
256,192,18463,1,0,0:0:0:0:
256,192,18538,1,8,0:0:0:0:
256,192,18575,1,8,0:0:0:0:
256,192,18613,1,0,0:0:0:0:
256,192,18688,1,0,0:0:0:0:
256,192,18838,1,0,0:0:0:0:
256,192,18913,1,8,0:0:0:0:
256,192,18950,1,0,0:0:0:0:
256,192,18988,1,0,0:0:0:0:
256,192,19138,1,8,0:0:0:0:
256,192,19213,1,0,0:0:0:0:
256,192,19288,1,8,0:0:0:0:
256,192,19363,1,0,0:0:0:0:
256,192,19438,1,0,0:0:0:0:
256,192,19588,1,8,0:0:0:0:
256,192,19663,1,0,0:0:0:0:
256,192,19738,1,8,0:0:0:0:
256,192,19775,1,8,0:0:0:0:
256,192,19813,1,0,0:0:0:0:
256,192,19888,1,0,0:0:0:0:
256,192,20038,1,8,0:0:0:0:
256,192,20113,1,0,0:0:0:0:
256,192,20150,1,0,0:0:0:0:
256,192,20188,1,0,0:0:0:0:
256,192,20338,1,8,0:0:0:0:
256,192,20413,1,0,0:0:0:0:
256,192,20450,1,0,0:0:0:0:
256,192,20488,1,8,0:0:0:0:
256,192,20638,1,0,0:0:0:0:
256,192,20788,1,8,0:0:0:0:
256,192,20863,1,0,0:0:0:0:
256,192,20938,1,8,0:0:0:0:
256,192,20975,1,8,0:0:0:0:
256,192,21013,1,0,0:0:0:0:
256,192,21088,1,0,0:0:0:0:
256,192,21238,1,0,0:0:0:0:
256,192,21313,1,8,0:0:0:0:
256,192,21350,1,0,0:0:0:0:
256,192,21388,1,0,0:0:0:0:
256,192,21538,1,8,0:0:0:0:
256,192,21613,1,0,0:0:0:0:
256,192,21688,1,8,0:0:0:0:
256,192,21763,1,0,0:0:0:0:
256,192,21838,1,0,0:0:0:0:
256,192,21988,1,8,0:0:0:0:
256,192,22063,1,0,0:0:0:0:
256,192,22138,1,8,0:0:0:0:
256,192,22213,1,0,0:0:0:0:
256,192,22288,1,0,0:0:0:0:
256,192,22363,1,0,0:0:0:0:
256,192,22438,1,8,0:0:0:0:
256,192,22738,1,8,0:0:0:0:
256,192,23038,1,0,0:0:0:0:
256,192,23113,1,8,0:0:0:0:
256,192,23188,1,0,0:0:0:0:
256,192,23263,1,8,0:0:0:0:
256,192,23338,1,0,0:0:0:0:
256,192,23488,1,8,0:0:0:0:
256,192,23563,1,8,0:0:0:0:
256,192,23638,1,0,0:0:0:0:
256,192,23675,1,0,0:0:0:0:
256,192,23713,1,0,0:0:0:0:
256,192,23788,1,8,0:0:0:0:
256,192,23938,1,0,0:0:0:0:
256,192,24088,1,8,0:0:0:0:
256,192,24163,1,8,0:0:0:0:
256,192,24238,1,0,0:0:0:0:
256,192,24388,1,0,0:0:0:0:
256,192,24463,1,8,0:0:0:0:
256,192,24538,1,0,0:0:0:0:
256,192,24613,1,0,0:0:0:0:
256,192,24688,1,8,0:0:0:0:
256,192,24838,1,0,0:0:0:0:
256,192,24875,1,0,0:0:0:0:
256,192,24913,1,0,0:0:0:0:
256,192,24988,1,8,0:0:0:0:
256,192,25063,1,8,0:0:0:0:
256,192,25138,1,0,0:0:0:0:
256,192,25288,1,8,0:0:0:0:
256,192,25438,1,0,0:0:0:0:
256,192,25513,1,8,0:0:0:0:
256,192,25588,1,0,0:0:0:0:
256,192,25663,1,8,0:0:0:0:
256,192,25738,1,0,0:0:0:0:
256,192,25888,1,8,0:0:0:0:
256,192,25963,1,8,0:0:0:0:
256,192,26038,1,0,0:0:0:0:
256,192,26075,1,0,0:0:0:0:
256,192,26113,1,0,0:0:0:0:
256,192,26188,1,8,0:0:0:0:
256,192,26338,1,0,0:0:0:0:
256,192,26488,1,8,0:0:0:0:
256,192,26563,1,0,0:0:0:0:
256,192,26638,1,0,0:0:0:0:
256,192,26675,1,0,0:0:0:0:
256,192,26713,1,8,0:0:0:0:
256,192,26788,1,0,0:0:0:0:
256,192,26863,1,0,0:0:0:0:
256,192,26938,1,8,0:0:0:0:
256,192,27013,1,0,0:0:0:0:
256,192,27088,1,0,0:0:0:0:
256,192,27238,1,0,0:0:0:0:
256,192,27275,1,0,0:0:0:0:
256,192,27313,1,8,0:0:0:0:
256,192,27388,1,8,0:0:0:0:
256,192,27463,1,8,0:0:0:0:
256,192,27538,1,0,0:0:0:0:
256,192,27838,1,0,0:0:0:0:
256,192,27988,1,8,0:0:0:0:
256,192,28063,1,0,0:0:0:0:
256,192,28100,1,0,0:0:0:0:
256,192,28138,1,8,0:0:0:0:
256,192,28213,1,0,0:0:0:0:
256,192,28288,1,0,0:0:0:0:
256,192,28363,1,8,0:0:0:0:
256,192,28438,1,0,0:0:0:0:
256,192,28588,1,8,0:0:0:0:
256,192,28663,1,0,0:0:0:0:
256,192,28738,1,8,0:0:0:0:
256,192,28813,1,0,0:0:0:0:
256,192,28888,1,0,0:0:0:0:
256,192,29038,1,0,0:0:0:0:
256,192,29188,1,8,0:0:0:0:
256,192,29263,1,0,0:0:0:0:
256,192,29300,1,0,0:0:0:0:
256,192,29338,1,8,0:0:0:0:
256,192,29413,1,0,0:0:0:0:
256,192,29488,1,0,0:0:0:0:
256,192,29563,1,8,0:0:0:0:
256,192,29638,1,0,0:0:0:0:
256,192,29788,1,0,0:0:0:0:
256,192,29863,1,0,0:0:0:0:
256,192,29938,1,8,0:0:0:0:
256,192,30013,1,0,0:0:0:0:
256,192,30088,1,8,0:0:0:0:
256,192,30238,1,0,0:0:0:0:
256,192,30388,1,8,0:0:0:0:
256,192,30463,1,0,0:0:0:0:
256,192,30500,1,0,0:0:0:0:
256,192,30538,1,8,0:0:0:0:
256,192,30613,1,0,0:0:0:0:
256,192,30688,1,0,0:0:0:0:
256,192,30763,1,8,0:0:0:0:
256,192,30838,1,0,0:0:0:0:
256,192,30988,1,8,0:0:0:0:
256,192,31063,1,0,0:0:0:0:
256,192,31138,1,8,0:0:0:0:
256,192,31213,1,0,0:0:0:0:
256,192,31288,1,0,0:0:0:0:
256,192,31363,1,8,0:0:0:0:
256,192,31438,1,4,0:0:0:0:
256,192,32038,1,12,0:0:0:0:
256,192,32188,1,0,0:0:0:0:
256,192,32338,1,12,0:0:0:0:
256,192,32488,1,0,0:0:0:0:
256,192,32638,1,4,0:0:0:0:
256,192,32788,1,0,0:0:0:0:
256,192,32863,1,0,0:0:0:0:
256,192,32938,1,0,0:0:0:0:
256,192,33088,1,0,0:0:0:0:
256,192,33163,1,0,0:0:0:0:
256,192,33238,1,8,0:0:0:0:
256,192,33388,1,0,0:0:0:0:
256,192,33463,1,0,0:0:0:0:
256,192,33538,1,0,0:0:0:0:
256,192,33613,1,0,0:0:0:0:
256,192,33688,1,0,0:0:0:0:
256,192,33763,1,0,0:0:0:0:
256,192,33838,1,8,0:0:0:0:
256,192,33988,1,0,0:0:0:0:
256,192,34063,1,0,0:0:0:0:
256,192,34138,1,0,0:0:0:0:
256,192,34288,1,0,0:0:0:0:
256,192,34363,1,0,0:0:0:0:
256,192,34438,1,8,0:0:0:0:
256,192,34588,1,0,0:0:0:0:
256,192,34738,1,12,0:0:0:0:
256,192,35038,1,4,0:0:0:0:
256,192,35188,1,8,0:0:0:0:
256,192,35263,1,8,0:0:0:0:
256,192,35338,1,8,0:0:0:0:
256,192,35488,1,8,0:0:0:0:
256,192,35563,1,8,0:0:0:0:
256,192,35638,1,0,0:0:0:0:
256,192,35788,1,8,0:0:0:0:
256,192,35863,1,8,0:0:0:0:
256,192,35938,1,8,0:0:0:0:
256,192,36013,1,8,0:0:0:0:
256,192,36088,1,8,0:0:0:0:
256,192,36163,1,8,0:0:0:0:
256,192,36238,1,0,0:0:0:0:
256,192,36388,1,8,0:0:0:0:
256,192,36463,1,8,0:0:0:0:
256,192,36538,1,8,0:0:0:0:
256,192,36688,1,8,0:0:0:0:
256,192,36763,1,8,0:0:0:0:
256,192,36838,1,4,0:0:0:0:
256,192,36988,1,0,0:0:0:0:
256,192,37138,1,12,0:0:0:0:
256,192,37288,1,0,0:0:0:0:
256,192,37438,1,12,0:0:0:0:
256,192,37588,1,0,0:0:0:0:
256,192,37663,1,0,0:0:0:0:
256,192,37738,1,0,0:0:0:0:
256,192,37888,1,0,0:0:0:0:
256,192,38038,1,8,0:0:0:0:
256,192,38113,1,0,0:0:0:0:
256,192,38188,1,0,0:0:0:0:
256,192,38263,1,0,0:0:0:0:
256,192,38338,1,0,0:0:0:0:
256,192,38488,1,0,0:0:0:0:
256,192,38638,1,8,0:0:0:0:
256,192,38713,1,8,0:0:0:0:
256,192,38788,1,0,0:0:0:0:
256,192,38863,1,8,0:0:0:0:
256,192,38938,1,0,0:0:0:0:
256,192,39088,1,8,0:0:0:0:
256,192,39163,1,0,0:0:0:0:
256,192,39238,1,0,0:0:0:0:
256,192,39313,1,8,0:0:0:0:
256,192,39388,1,0,0:0:0:0:
256,192,39463,1,0,0:0:0:0:
256,192,39538,1,12,0:0:0:0:
256,192,39838,1,4,0:0:0:0:
256,192,39988,1,8,0:0:0:0:
256,192,40063,1,0,0:0:0:0:
256,192,40100,1,0,0:0:0:0:
256,192,40138,1,8,0:0:0:0:
256,192,40213,1,8,0:0:0:0:
256,192,40288,1,0,0:0:0:0:
256,192,40438,1,0,0:0:0:0:
256,192,40588,1,8,0:0:0:0:
256,192,40663,1,0,0:0:0:0:
256,192,40700,1,0,0:0:0:0:
256,192,40738,1,8,0:0:0:0:
256,192,40813,1,8,0:0:0:0:
256,192,40888,1,0,0:0:0:0:
256,192,41038,1,8,0:0:0:0:
256,192,41075,1,8,0:0:0:0:
256,192,41113,1,0,0:0:0:0:
256,192,41188,1,8,0:0:0:0:
256,192,41263,1,0,0:0:0:0:
256,192,41338,1,8,0:0:0:0:
256,192,41375,1,8,0:0:0:0:
256,192,41413,1,0,0:0:0:0:
256,192,41488,1,8,0:0:0:0:
256,192,41563,1,0,0:0:0:0:
256,192,41638,1,12,0:0:0:0:
256,192,41788,1,0,0:0:0:0:
256,192,41938,1,12,0:0:0:0:
256,192,42088,1,0,0:0:0:0:
256,192,42238,1,4,0:0:0:0:
256,192,42538,1,8,0:0:0:0:
256,192,42838,1,8,0:0:0:0:
256,192,43138,1,8,0:0:0:0:
256,192,43438,1,8,0:0:0:0:
256,192,43738,1,8,0:0:0:0:
256,192,43888,1,0,0:0:0:0:
256,192,44038,1,8,0:0:0:0:
256,192,44188,1,0,0:0:0:0:
256,192,44338,1,8,0:0:0:0:
256,192,44488,1,0,0:0:0:0:
256,192,44638,1,8,0:0:0:0:
256,192,44938,1,8,0:0:0:0:
256,192,45238,1,8,0:0:0:0:
256,192,45538,1,8,0:0:0:0:
256,192,45838,1,8,0:0:0:0:
256,192,46138,1,8,0:0:0:0:
256,192,46288,1,0,0:0:0:0:
256,192,46438,1,8,0:0:0:0:
256,192,46588,1,0,0:0:0:0:
256,192,46738,1,8,0:0:0:0:
256,192,46888,1,0,0:0:0:0:
256,192,47038,1,0,0:0:0:0:
256,192,47338,1,8,0:0:0:0:
256,192,47488,1,0,0:0:0:0:
256,192,47638,1,0,0:0:0:0:
256,192,47938,1,0,0:0:0:0:
256,192,48238,1,8,0:0:0:0:
256,192,48388,1,0,0:0:0:0:
256,192,48538,1,0,0:0:0:0:
256,192,48838,1,0,0:0:0:0:
256,192,49138,1,0,0:0:0:0:
256,192,49438,1,8,0:0:0:0:
256,192,49588,1,0,0:0:0:0:
256,192,49663,1,0,0:0:0:0:
256,192,49738,1,0,0:0:0:0:
256,192,49888,1,0,0:0:0:0:
256,192,50038,1,8,0:0:0:0:
256,192,50113,1,8,0:0:0:0:
256,192,50188,1,0,0:0:0:0:
256,192,50263,1,8,0:0:0:0:
256,192,50338,1,0,0:0:0:0:
256,192,50413,1,0,0:0:0:0:
256,192,50488,1,8,0:0:0:0:
256,192,50563,1,8,0:0:0:0:
256,192,51838,1,4,0:0:0:0:
256,192,52288,1,0,0:0:0:0:
256,192,52438,1,8,0:0:0:0:
256,192,52588,1,0,0:0:0:0:
256,192,53338,1,0,0:0:0:0:
256,192,53638,1,8,0:0:0:0:
256,192,53938,1,0,0:0:0:0:
256,192,54238,1,0,0:0:0:0:
256,192,54688,1,0,0:0:0:0:
256,192,54838,1,8,0:0:0:0:
256,192,54988,1,0,0:0:0:0:
256,192,55738,1,0,0:0:0:0:
256,192,56038,1,8,0:0:0:0:
256,192,56638,1,0,0:0:0:0:
256,192,57088,1,0,0:0:0:0:
256,192,57238,1,8,0:0:0:0:
256,192,57388,1,0,0:0:0:0:
256,192,58138,1,0,0:0:0:0:
256,192,58438,1,8,0:0:0:0:
256,192,59038,1,0,0:0:0:0:
256,192,59488,1,0,0:0:0:0:
256,192,59638,1,8,0:0:0:0:
256,192,59788,1,0,0:0:0:0:
256,192,60238,1,8,0:0:0:0:
256,192,61438,1,0,0:0:0:0:
256,192,61738,1,8,0:0:0:0:
256,192,61888,1,0,0:0:0:0:
256,192,61963,1,0,0:0:0:0:
256,192,62038,1,8,0:0:0:0:
256,192,62188,1,0,0:0:0:0:
256,192,62338,1,0,0:0:0:0:
256,192,62488,1,8,0:0:0:0:
256,192,62638,1,0,0:0:0:0:
256,192,62788,1,8,0:0:0:0:
256,192,62938,1,0,0:0:0:0:
256,192,63238,1,8,0:0:0:0:
256,192,63388,1,0,0:0:0:0:
256,192,63538,1,8,0:0:0:0:
256,192,63613,1,8,0:0:0:0:
256,192,63688,1,8,0:0:0:0:
256,192,63838,1,0,0:0:0:0:
256,192,64138,1,8,0:0:0:0:
256,192,64288,1,0,0:0:0:0:
256,192,64363,1,0,0:0:0:0:
256,192,64438,1,8,0:0:0:0:
256,192,64588,1,0,0:0:0:0:
256,192,64738,1,0,0:0:0:0:
256,192,64888,1,8,0:0:0:0:
256,192,65038,1,0,0:0:0:0:
256,192,65188,1,8,0:0:0:0:
256,192,65338,1,0,0:0:0:0:
256,192,65638,1,8,0:0:0:0:
256,192,65738,1,0,0:0:0:0:
256,192,65838,1,0,0:0:0:0:
256,192,65938,1,8,0:0:0:0:
256,192,66238,1,0,0:0:0:0:
256,192,66538,1,8,0:0:0:0:
256,192,66688,1,0,0:0:0:0:
256,192,66763,1,0,0:0:0:0:
256,192,66838,1,8,0:0:0:0:
256,192,66988,1,0,0:0:0:0:
256,192,67138,1,0,0:0:0:0:
256,192,67288,1,8,0:0:0:0:
256,192,67438,1,0,0:0:0:0:
256,192,67588,1,8,0:0:0:0:
256,192,67738,1,0,0:0:0:0:
256,192,68038,1,8,0:0:0:0:
256,192,68188,1,0,0:0:0:0:
256,192,68338,1,0,0:0:0:0:
256,192,68388,1,8,0:0:0:0:
256,192,68438,1,8,0:0:0:0:
256,192,68488,1,8,0:0:0:0:
256,192,68638,1,0,0:0:0:0:
256,192,68938,1,8,0:0:0:0:
256,192,69088,1,0,0:0:0:0:
256,192,69163,1,0,0:0:0:0:
256,192,69238,1,8,0:0:0:0:
256,192,69388,1,0,0:0:0:0:
256,192,69538,1,0,0:0:0:0:
256,192,69688,1,8,0:0:0:0:
256,192,69838,1,0,0:0:0:0:
256,192,69988,1,0,0:0:0:0:
256,192,70063,1,0,0:0:0:0:
256,192,70138,1,0,0:0:0:0:
256,192,70288,1,8,0:0:0:0:
256,192,70438,1,8,0:0:0:0:
256,192,70513,1,0,0:0:0:0:
256,192,70588,1,8,0:0:0:0:
256,192,70625,1,8,0:0:0:0:
256,192,70663,1,0,0:0:0:0:
256,192,70738,1,8,0:0:0:0:
256,192,70813,1,8,0:0:0:0:
256,192,70888,1,8,0:0:0:0:
256,192,71038,1,4,0:0:0:0:
256,192,80113,5,8,0:0:0:0:
256,192,80188,1,0,0:0:0:0:
256,192,80338,1,8,0:0:0:0:
256,192,80488,1,0,0:0:0:0:
256,192,80638,1,0,0:0:0:0:
256,192,80938,1,0,0:0:0:0:
256,192,81088,1,8,0:0:0:0:
256,192,81163,1,0,0:0:0:0:
256,192,81238,1,8,0:0:0:0:
256,192,81388,1,8,0:0:0:0:
256,192,81538,1,0,0:0:0:0:
256,192,81613,1,8,0:0:0:0:
256,192,81688,1,0,0:0:0:0:
256,192,81763,1,0,0:0:0:0:
256,192,81838,1,8,0:0:0:0:
256,192,82138,1,0,0:0:0:0:
256,192,82288,1,8,0:0:0:0:
256,192,82363,1,8,0:0:0:0:
256,192,82438,1,8,0:0:0:0:
256,192,82588,1,0,0:0:0:0:
256,192,82738,1,8,0:0:0:0:
256,192,83038,1,0,0:0:0:0:
256,192,83188,1,8,0:0:0:0:
256,192,83338,1,0,0:0:0:0:
256,192,83413,1,8,0:0:0:0:
256,192,83488,1,0,0:0:0:0:
256,192,83563,1,8,0:0:0:0:
256,192,83713,1,8,0:0:0:0:
256,192,83788,1,0,0:0:0:0:
256,192,83938,1,8,0:0:0:0:
256,192,84088,1,8,0:0:0:0:
256,192,84238,1,0,0:0:0:0:
256,192,84388,1,8,0:0:0:0:
256,192,84538,1,0,0:0:0:0:
256,192,84613,1,0,0:0:0:0:
256,192,84688,1,0,0:0:0:0:
256,192,84763,1,8,0:0:0:0:
256,192,84913,1,8,0:0:0:0:
256,192,84988,1,0,0:0:0:0:
256,192,85138,1,8,0:0:0:0:
256,192,85288,1,0,0:0:0:0:
256,192,85438,1,0,0:0:0:0:
256,192,85738,1,0,0:0:0:0:
256,192,85888,1,8,0:0:0:0:
256,192,85963,1,0,0:0:0:0:
256,192,86038,1,8,0:0:0:0:
256,192,86188,1,8,0:0:0:0:
256,192,86338,1,0,0:0:0:0:
256,192,86413,1,8,0:0:0:0:
256,192,86488,1,0,0:0:0:0:
256,192,86563,1,0,0:0:0:0:
256,192,86638,1,8,0:0:0:0:
256,192,86938,1,0,0:0:0:0:
256,192,87088,1,8,0:0:0:0:
256,192,87163,1,8,0:0:0:0:
256,192,87238,1,8,0:0:0:0:
256,192,87388,1,0,0:0:0:0:
256,192,87538,1,8,0:0:0:0:
256,192,87838,1,0,0:0:0:0:
256,192,87988,1,8,0:0:0:0:
256,192,88138,1,0,0:0:0:0:
256,192,88213,1,8,0:0:0:0:
256,192,88288,1,0,0:0:0:0:
256,192,88363,1,8,0:0:0:0:
256,192,88513,1,8,0:0:0:0:
256,192,88588,1,0,0:0:0:0:
256,192,88738,1,8,0:0:0:0:
256,192,88888,1,8,0:0:0:0:
256,192,89038,1,0,0:0:0:0:
256,192,89188,1,8,0:0:0:0:
256,192,89338,1,0,0:0:0:0:
256,192,89413,1,0,0:0:0:0:
256,192,89488,1,0,0:0:0:0:
256,192,89563,1,8,0:0:0:0:
256,192,89713,1,8,0:0:0:0:
256,192,89788,1,0,0:0:0:0:
256,192,89938,1,8,0:0:0:0:
256,192,90088,1,0,0:0:0:0:
256,192,90238,1,12,0:0:0:0:
256,192,90538,1,0,0:0:0:0:
256,192,90688,1,0,0:0:0:0:
256,192,90763,1,0,0:0:0:0:
256,192,90838,1,8,0:0:0:0:
256,192,91138,1,0,0:0:0:0:
256,192,91213,1,0,0:0:0:0:
256,192,91288,1,0,0:0:0:0:
256,192,91438,1,12,0:0:0:0:
256,192,91738,1,0,0:0:0:0:
256,192,91888,1,0,0:0:0:0:
256,192,91963,1,0,0:0:0:0:
256,192,92038,1,8,0:0:0:0:
256,192,92338,1,0,0:0:0:0:
256,192,92413,1,0,0:0:0:0:
256,192,92488,1,0,0:0:0:0:
256,192,92638,1,12,0:0:0:0:
256,192,92938,1,0,0:0:0:0:
256,192,93088,1,0,0:0:0:0:
256,192,93163,1,0,0:0:0:0:
256,192,93238,1,8,0:0:0:0:
256,192,93538,1,0,0:0:0:0:
256,192,93613,1,0,0:0:0:0:
256,192,93688,1,0,0:0:0:0:
256,192,93838,1,12,0:0:0:0:
256,192,94138,1,0,0:0:0:0:
256,192,94288,1,0,0:0:0:0:
256,192,94363,1,0,0:0:0:0:
256,192,94438,1,8,0:0:0:0:
256,192,94738,1,0,0:0:0:0:
256,192,94813,1,0,0:0:0:0:
256,192,94888,1,0,0:0:0:0:
256,192,95038,1,12,0:0:0:0:
256,192,95338,1,0,0:0:0:0:
256,192,95488,1,0,0:0:0:0:
256,192,95563,1,0,0:0:0:0:
256,192,95638,1,12,0:0:0:0:
256,192,95938,1,0,0:0:0:0:
256,192,96088,1,0,0:0:0:0:
256,192,96163,1,0,0:0:0:0:
256,192,96238,1,12,0:0:0:0:
256,192,96538,1,0,0:0:0:0:
256,192,96688,1,0,0:0:0:0:
256,192,96763,1,0,0:0:0:0:
256,192,96838,1,12,0:0:0:0:
256,192,97138,1,0,0:0:0:0:
256,192,97288,1,0,0:0:0:0:
256,192,97363,1,0,0:0:0:0:
256,192,97438,1,12,0:0:0:0:
256,192,97588,1,0,0:0:0:0:
256,192,97663,1,0,0:0:0:0:
256,192,97738,1,12,0:0:0:0:
256,192,97888,1,0,0:0:0:0:
256,192,97963,1,0,0:0:0:0:
256,192,98038,1,12,0:0:0:0:
256,192,98188,1,0,0:0:0:0:
256,192,98263,1,0,0:0:0:0:
256,192,98338,1,12,0:0:0:0:
256,192,98488,1,0,0:0:0:0:
256,192,98563,1,0,0:0:0:0:
256,192,99538,1,0,0:0:0:0:
256,192,99613,1,0,0:0:0:0:
256,192,99688,1,8,0:0:0:0:
256,192,99838,1,4,0:0:0:0:
256,192,99988,1,8,0:0:0:0:
256,192,100063,1,0,0:0:0:0:
256,192,100138,1,8,0:0:0:0:
256,192,100175,1,8,0:0:0:0:
256,192,100213,1,0,0:0:0:0:
256,192,100288,1,0,0:0:0:0:
256,192,100438,1,0,0:0:0:0:
256,192,100513,1,8,0:0:0:0:
256,192,100550,1,0,0:0:0:0:
256,192,100588,1,0,0:0:0:0:
256,192,100738,1,8,0:0:0:0:
256,192,100813,1,0,0:0:0:0:
256,192,100888,1,8,0:0:0:0:
256,192,100963,1,0,0:0:0:0:
256,192,101038,1,0,0:0:0:0:
256,192,101188,1,8,0:0:0:0:
256,192,101263,1,0,0:0:0:0:
256,192,101338,1,8,0:0:0:0:
256,192,101375,1,8,0:0:0:0:
256,192,101413,1,0,0:0:0:0:
256,192,101488,1,0,0:0:0:0:
256,192,101638,1,8,0:0:0:0:
256,192,101713,1,0,0:0:0:0:
256,192,101750,1,0,0:0:0:0:
256,192,101788,1,0,0:0:0:0:
256,192,101938,1,8,0:0:0:0:
256,192,102013,1,0,0:0:0:0:
256,192,102050,1,0,0:0:0:0:
256,192,102088,1,8,0:0:0:0:
256,192,102238,1,0,0:0:0:0:
256,192,102388,1,8,0:0:0:0:
256,192,102463,1,0,0:0:0:0:
256,192,102538,1,8,0:0:0:0:
256,192,102575,1,8,0:0:0:0:
256,192,102613,1,0,0:0:0:0:
256,192,102688,1,0,0:0:0:0:
256,192,102838,1,0,0:0:0:0:
256,192,102913,1,8,0:0:0:0:
256,192,102950,1,0,0:0:0:0:
256,192,102988,1,0,0:0:0:0:
256,192,103138,1,8,0:0:0:0:
256,192,103213,1,0,0:0:0:0:
256,192,103288,1,8,0:0:0:0:
256,192,103363,1,0,0:0:0:0:
256,192,103438,1,0,0:0:0:0:
256,192,103588,1,8,0:0:0:0:
256,192,103663,1,0,0:0:0:0:
256,192,103738,1,8,0:0:0:0:
256,192,103775,1,8,0:0:0:0:
256,192,103813,1,0,0:0:0:0:
256,192,103888,1,0,0:0:0:0:
256,192,104038,1,8,0:0:0:0:
256,192,104075,1,0,0:0:0:0:
256,192,104113,1,0,0:0:0:0:
256,192,104188,1,0,0:0:0:0:
256,192,104263,1,0,0:0:0:0:
256,192,104338,1,8,0:0:0:0:
256,192,104638,1,0,0:0:0:0:
256,192,104788,1,8,0:0:0:0:
256,192,104863,1,0,0:0:0:0:
256,192,104938,1,8,0:0:0:0:
256,192,104975,1,8,0:0:0:0:
256,192,105013,1,0,0:0:0:0:
256,192,105088,1,0,0:0:0:0:
256,192,105238,1,0,0:0:0:0:
256,192,105313,1,8,0:0:0:0:
256,192,105350,1,0,0:0:0:0:
256,192,105388,1,0,0:0:0:0:
256,192,105538,1,8,0:0:0:0:
256,192,105613,1,0,0:0:0:0:
256,192,105688,1,8,0:0:0:0:
256,192,105763,1,0,0:0:0:0:
256,192,105838,1,0,0:0:0:0:
256,192,105988,1,8,0:0:0:0:
256,192,106063,1,0,0:0:0:0:
256,192,106138,1,8,0:0:0:0:
256,192,106175,1,8,0:0:0:0:
256,192,106213,1,0,0:0:0:0:
256,192,106288,1,0,0:0:0:0:
256,192,106438,1,8,0:0:0:0:
256,192,106513,1,0,0:0:0:0:
256,192,106550,1,0,0:0:0:0:
256,192,106588,1,0,0:0:0:0:
256,192,106738,1,8,0:0:0:0:
256,192,106813,1,0,0:0:0:0:
256,192,106850,1,0,0:0:0:0:
256,192,106888,1,8,0:0:0:0:
256,192,107038,1,0,0:0:0:0:
256,192,107188,1,8,0:0:0:0:
256,192,107263,1,0,0:0:0:0:
256,192,107338,1,8,0:0:0:0:
256,192,107375,1,8,0:0:0:0:
256,192,107413,1,0,0:0:0:0:
256,192,107488,1,0,0:0:0:0:
256,192,107638,1,0,0:0:0:0:
256,192,107713,1,8,0:0:0:0:
256,192,107750,1,0,0:0:0:0:
256,192,107788,1,0,0:0:0:0:
256,192,107938,1,8,0:0:0:0:
256,192,108013,1,0,0:0:0:0:
256,192,108088,1,8,0:0:0:0:
256,192,108163,1,0,0:0:0:0:
256,192,108238,1,0,0:0:0:0:
256,192,108388,1,8,0:0:0:0:
256,192,108463,1,0,0:0:0:0:
256,192,108538,1,8,0:0:0:0:
256,192,108613,1,0,0:0:0:0:
256,192,108688,1,0,0:0:0:0:
256,192,108763,1,0,0:0:0:0:
256,192,108838,1,8,0:0:0:0:
256,192,109138,1,8,0:0:0:0:
256,192,109438,1,0,0:0:0:0:
256,192,109513,1,8,0:0:0:0:
256,192,109588,1,0,0:0:0:0:
256,192,109663,1,8,0:0:0:0:
256,192,109738,1,0,0:0:0:0:
256,192,109888,1,8,0:0:0:0:
256,192,109963,1,8,0:0:0:0:
256,192,110038,1,0,0:0:0:0:
256,192,110075,1,0,0:0:0:0:
256,192,110113,1,0,0:0:0:0:
256,192,110188,1,8,0:0:0:0:
256,192,110338,1,0,0:0:0:0:
256,192,110488,1,8,0:0:0:0:
256,192,110563,1,8,0:0:0:0:
256,192,110638,1,0,0:0:0:0:
256,192,110788,1,0,0:0:0:0:
256,192,110863,1,8,0:0:0:0:
256,192,110938,1,0,0:0:0:0:
256,192,111013,1,0,0:0:0:0:
256,192,111088,1,8,0:0:0:0:
256,192,111238,1,0,0:0:0:0:
256,192,111275,1,0,0:0:0:0:
256,192,111313,1,0,0:0:0:0:
256,192,111388,1,8,0:0:0:0:
256,192,111463,1,8,0:0:0:0:
256,192,111538,1,0,0:0:0:0:
256,192,111688,1,8,0:0:0:0:
256,192,111838,1,0,0:0:0:0:
256,192,111913,1,8,0:0:0:0:
256,192,111988,1,0,0:0:0:0:
256,192,112063,1,8,0:0:0:0:
256,192,112138,1,0,0:0:0:0:
256,192,112288,1,8,0:0:0:0:
256,192,112363,1,8,0:0:0:0:
256,192,112438,1,0,0:0:0:0:
256,192,112475,1,0,0:0:0:0:
256,192,112513,1,0,0:0:0:0:
256,192,112588,1,8,0:0:0:0:
256,192,112738,1,0,0:0:0:0:
256,192,112888,1,8,0:0:0:0:
256,192,112963,1,0,0:0:0:0:
256,192,113038,1,0,0:0:0:0:
256,192,113075,1,0,0:0:0:0:
256,192,113113,1,8,0:0:0:0:
256,192,113188,1,0,0:0:0:0:
256,192,113263,1,0,0:0:0:0:
256,192,113338,1,8,0:0:0:0:
256,192,113413,1,0,0:0:0:0:
256,192,113488,1,0,0:0:0:0:
256,192,113638,1,0,0:0:0:0:
256,192,113675,1,0,0:0:0:0:
256,192,113713,1,8,0:0:0:0:
256,192,113788,1,8,0:0:0:0:
256,192,113863,1,8,0:0:0:0:
256,192,113938,1,0,0:0:0:0:
256,192,114238,1,0,0:0:0:0:
256,192,114388,1,8,0:0:0:0:
256,192,114463,1,0,0:0:0:0:
256,192,114500,1,0,0:0:0:0:
256,192,114538,1,8,0:0:0:0:
256,192,114613,1,0,0:0:0:0:
256,192,114688,1,0,0:0:0:0:
256,192,114763,1,8,0:0:0:0:
256,192,114838,1,0,0:0:0:0:
256,192,114988,1,8,0:0:0:0:
256,192,115063,1,0,0:0:0:0:
256,192,115138,1,8,0:0:0:0:
256,192,115213,1,0,0:0:0:0:
256,192,115288,1,0,0:0:0:0:
256,192,115438,1,0,0:0:0:0:
256,192,115588,1,8,0:0:0:0:
256,192,115663,1,0,0:0:0:0:
256,192,115700,1,0,0:0:0:0:
256,192,115738,1,8,0:0:0:0:
256,192,115813,1,0,0:0:0:0:
256,192,115888,1,0,0:0:0:0:
256,192,115963,1,8,0:0:0:0:
256,192,116038,1,0,0:0:0:0:
256,192,116188,1,0,0:0:0:0:
256,192,116263,1,0,0:0:0:0:
256,192,116338,1,8,0:0:0:0:
256,192,116413,1,0,0:0:0:0:
256,192,116488,1,8,0:0:0:0:
256,192,116638,1,0,0:0:0:0:
256,192,116788,1,8,0:0:0:0:
256,192,116863,1,0,0:0:0:0:
256,192,116900,1,0,0:0:0:0:
256,192,116938,1,8,0:0:0:0:
256,192,117013,1,0,0:0:0:0:
256,192,117088,1,0,0:0:0:0:
256,192,117163,1,8,0:0:0:0:
256,192,117238,1,0,0:0:0:0:
256,192,117388,1,8,0:0:0:0:
256,192,117463,1,0,0:0:0:0:
256,192,117538,1,8,0:0:0:0:
256,192,117613,1,0,0:0:0:0:
256,192,117688,1,0,0:0:0:0:
256,192,117763,1,8,0:0:0:0:
256,192,117838,1,4,0:0:0:0:
256,192,118438,1,12,0:0:0:0:
256,192,118588,1,0,0:0:0:0:
256,192,118738,1,12,0:0:0:0:
256,192,118888,1,0,0:0:0:0:
256,192,119038,1,4,0:0:0:0:
256,192,119188,1,0,0:0:0:0:
256,192,119263,1,0,0:0:0:0:
256,192,119338,1,0,0:0:0:0:
256,192,119488,1,0,0:0:0:0:
256,192,119563,1,0,0:0:0:0:
256,192,119638,1,0,0:0:0:0:
256,192,119788,1,0,0:0:0:0:
256,192,119863,1,0,0:0:0:0:
256,192,119938,1,8,0:0:0:0:
256,192,120088,1,0,0:0:0:0:
256,192,120163,1,0,0:0:0:0:
256,192,120238,1,0,0:0:0:0:
256,192,120388,1,0,0:0:0:0:
256,192,120463,1,0,0:0:0:0:
256,192,120538,1,0,0:0:0:0:
256,192,120688,1,0,0:0:0:0:
256,192,120763,1,0,0:0:0:0:
256,192,120838,1,0,0:0:0:0:
256,192,120988,1,0,0:0:0:0:
256,192,121063,1,0,0:0:0:0:
256,192,121138,1,12,0:0:0:0:
256,192,121438,1,12,0:0:0:0:
256,192,121588,1,8,0:0:0:0:
256,192,121663,1,8,0:0:0:0:
256,192,121738,1,8,0:0:0:0:
256,192,121888,1,8,0:0:0:0:
256,192,121963,1,8,0:0:0:0:
256,192,122038,1,8,0:0:0:0:
256,192,122188,1,8,0:0:0:0:
256,192,122263,1,8,0:0:0:0:
256,192,122338,1,0,0:0:0:0:
256,192,122488,1,8,0:0:0:0:
256,192,122563,1,8,0:0:0:0:
256,192,122638,1,8,0:0:0:0:
256,192,122788,1,8,0:0:0:0:
256,192,122863,1,8,0:0:0:0:
256,192,122938,1,8,0:0:0:0:
256,192,123088,1,8,0:0:0:0:
256,192,123163,1,0,0:0:0:0:
256,192,123238,1,12,0:0:0:0:
256,192,123388,1,0,0:0:0:0:
256,192,123538,1,12,0:0:0:0:
256,192,123688,1,0,0:0:0:0:
256,192,123838,1,8,0:0:0:0:
256,192,123875,1,0,0:0:0:0:
256,192,123913,1,0,0:0:0:0:
256,192,123988,1,0,0:0:0:0:
256,192,124138,1,8,0:0:0:0:
256,192,124213,1,0,0:0:0:0:
256,192,124288,1,0,0:0:0:0:
256,192,124363,1,0,0:0:0:0:
256,192,124438,1,8,0:0:0:0:
256,192,124475,1,0,0:0:0:0:
256,192,124513,1,0,0:0:0:0:
256,192,124588,1,0,0:0:0:0:
256,192,124738,1,8,0:0:0:0:
256,192,124888,1,0,0:0:0:0:
256,192,125038,1,8,0:0:0:0:
256,192,125075,1,8,0:0:0:0:
256,192,125113,1,0,0:0:0:0:
256,192,125188,1,0,0:0:0:0:
256,192,125338,1,8,0:0:0:0:
256,192,125413,1,0,0:0:0:0:
256,192,125488,1,0,0:0:0:0:
256,192,125638,1,8,0:0:0:0:
256,192,125675,1,8,0:0:0:0:
256,192,125713,1,0,0:0:0:0:
256,192,125788,1,0,0:0:0:0:
256,192,125938,1,12,0:0:0:0:
256,192,126238,1,0,0:0:0:0:
256,192,126313,1,8,0:0:0:0:
256,192,126350,1,8,0:0:0:0:
256,192,126388,1,0,0:0:0:0:
256,192,126538,1,0,0:0:0:0:
256,192,126613,1,8,0:0:0:0:
256,192,126688,1,0,0:0:0:0:
256,192,126838,1,0,0:0:0:0:
256,192,126913,1,8,0:0:0:0:
256,192,126950,1,8,0:0:0:0:
256,192,126988,1,0,0:0:0:0:
256,192,127138,1,0,0:0:0:0:
256,192,127213,1,8,0:0:0:0:
256,192,127288,1,0,0:0:0:0:
256,192,127438,1,8,0:0:0:0:
256,192,127475,1,8,0:0:0:0:
256,192,127513,1,0,0:0:0:0:
256,192,127588,1,8,0:0:0:0:
256,192,127663,1,0,0:0:0:0:
256,192,127738,1,8,0:0:0:0:
256,192,127775,1,8,0:0:0:0:
256,192,127813,1,0,0:0:0:0:
256,192,127888,1,8,0:0:0:0:
256,192,127963,1,0,0:0:0:0:
256,192,128038,1,12,0:0:0:0:
256,192,128188,1,0,0:0:0:0:
256,192,128338,1,12,0:0:0:0:
256,192,128488,1,0,0:0:0:0:
256,192,128638,1,4,0:0:0:0:
256,192,128938,1,8,0:0:0:0:
256,192,129238,1,8,0:0:0:0:
256,192,129538,1,8,0:0:0:0:
256,192,129838,1,8,0:0:0:0:
256,192,130138,1,8,0:0:0:0:
256,192,130438,1,8,0:0:0:0:
256,192,130738,1,8,0:0:0:0:
256,192,131038,1,0,0:0:0:0:
256,192,131338,1,8,0:0:0:0:
256,192,131638,1,8,0:0:0:0:
256,192,131938,1,8,0:0:0:0:
256,192,132238,1,8,0:0:0:0:
256,192,132538,1,8,0:0:0:0:
256,192,132838,1,8,0:0:0:0:
256,192,133138,1,8,0:0:0:0:
256,192,133438,1,0,0:0:0:0:
256,192,133738,1,8,0:0:0:0:
256,192,134038,1,8,0:0:0:0:
256,192,134338,1,8,0:0:0:0:
256,192,134638,1,8,0:0:0:0:
256,192,134938,1,8,0:0:0:0:
256,192,135238,1,8,0:0:0:0:
256,192,135538,1,8,0:0:0:0:
256,192,135838,1,0,0:0:0:0:
256,192,136138,1,8,0:0:0:0:
256,192,136438,1,8,0:0:0:0:
256,192,136738,1,8,0:0:0:0:
256,192,137038,1,8,0:0:0:0:
256,192,137338,1,8,0:0:0:0:
256,192,137638,1,8,0:0:0:0:
256,192,137938,1,8,0:0:0:0:
256,192,138238,1,4,0:0:0:0:
256,192,140638,1,0,0:0:0:0:
256,192,143038,1,0,0:0:0:0:
256,192,143338,1,8,0:0:0:0:
256,192,143488,1,0,0:0:0:0:
256,192,143638,1,0,0:0:0:0:
256,192,143938,1,0,0:0:0:0:
256,192,144238,1,8,0:0:0:0:
256,192,144388,1,0,0:0:0:0:
256,192,144538,1,0,0:0:0:0:
256,192,144838,1,0,0:0:0:0:
256,192,145138,1,0,0:0:0:0:
256,192,145438,1,8,0:0:0:0:
256,192,145588,1,0,0:0:0:0:
256,192,145663,1,0,0:0:0:0:
256,192,145738,1,0,0:0:0:0:
256,192,145888,1,0,0:0:0:0:
256,192,146038,1,8,0:0:0:0:
256,192,146113,1,8,0:0:0:0:
256,192,146188,1,0,0:0:0:0:
256,192,146263,1,8,0:0:0:0:
256,192,146338,1,0,0:0:0:0:
256,192,146413,1,0,0:0:0:0:
256,192,146488,1,8,0:0:0:0:
256,192,146563,1,8,0:0:0:0:
256,192,147538,1,8,0:0:0:0:
