osu file format v14

[General]
AudioFilename: audio.mp3
AudioLeadIn: 0
PreviewTime: 80636
Countdown: 0
SampleSet: Normal
StackLeniency: 0.7
Mode: 1
LetterboxInBreaks: 0
WidescreenStoryboard: 1

[Editor]
Bookmarks: 13436,18236,23036,27836,32636,71036,80636,119036
DistanceSpacing: 1
BeatDivisor: 1
GridSize: 32
TimelineZoom: 1.399999

[Metadata]
Title:New Game Plus
TitleUnicode:New Game Plus
Artist:Kobaryo
ArtistUnicode:Kobaryo
Creator:Vulkin
Version:Beginner
Source:osu!
Tags:PFEX010 Psycho Filth Records PFR BPM 700 OVER!! NG+ J-Core Speedcore Gabba Gabber Hardcore Electronic Instrumental FA Featured Artist MG Mappers' Guild Cynplytholowazy -GN Junior Hivie komasy Capu Genjuro
BeatmapID:2601103
BeatmapSetID:860197

[Difficulty]
HPDrainRate:8
CircleSize:7
OverallDifficulty:2
ApproachRate:10
SliderMultiplier:1.2
SliderTickRate:1

[Events]
//Background and Video events
0,0,"StockSnap_2XJHTOIOP1 (1).jpg",0,0
//Break Periods
2,72228,79428
//Storyboard Layer 0 (Background)
//Storyboard Layer 1 (Fail)
//Storyboard Layer 2 (Pass)
//Storyboard Layer 3 (Foreground)
//Storyboard Layer 4 (Overlay)
//Storyboard Sound Samples

[TimingPoints]
238,300,4,1,0,20,1,0
2488,-100,4,1,0,100,0,0
13438,150,4,1,0,100,1,1
13438,-200,4,1,0,100,0,1
17938,-200,4,1,0,100,0,0
18238,-200,4,1,0,100,0,1
22438,-200,4,1,0,100,0,0
23038,-200,4,1,0,100,0,1
27538,-200,4,1,0,100,0,0
27838,-200,4,1,0,100,0,1
31438,-200,4,1,0,100,0,0
32038,-200,4,1,0,100,0,1
32638,-200,4,1,0,100,0,0
42238,300,4,1,0,100,1,0
51838,600,4,1,0,100,1,0
51838,-50,4,1,0,100,0,0
61438,300,4,1,0,100,1,0
99838,150,4,1,0,100,1,1
99838,-200,4,1,0,100,0,1
104338,-200,4,1,0,100,0,0
104638,-200,4,1,0,100,0,1
108838,-200,4,1,0,100,0,0
109438,-200,4,1,0,100,0,1
113938,-200,4,1,0,100,0,0
114238,-200,4,1,0,100,0,1
117838,-200,4,1,0,100,0,0
118438,-200,4,1,0,100,0,1
119038,-200,4,1,0,100,0,0
128638,300,4,1,0,100,1,0

[HitObjects]
256,192,2638,5,4,0:0:0:0:
256,192,5038,1,0,0:0:0:0:
256,192,6238,1,8,0:0:0:0:
256,192,7438,1,4,0:0:0:0:
256,192,8638,1,4,0:0:0:0:
256,192,9838,1,12,0:0:0:0:
256,192,11038,1,4,0:0:0:0:
256,192,11638,1,12,0:0:0:0:
256,192,12238,1,4,0:0:0:0:
256,192,13438,1,4,0:0:0:0:
256,192,14038,1,0,0:0:0:0:
256,192,14638,1,0,0:0:0:0:
256,192,15838,1,0,0:0:0:0:
256,192,16438,1,0,0:0:0:0:
256,192,17038,1,0,0:0:0:0:
256,192,17638,1,8,0:0:0:0:
256,192,18238,1,0,0:0:0:0:
256,192,18838,1,0,0:0:0:0:
256,192,19438,1,0,0:0:0:0:
256,192,20638,1,0,0:0:0:0:
256,192,21238,1,0,0:0:0:0:
256,192,21838,1,0,0:0:0:0:
256,192,22438,1,8,0:0:0:0:
256,192,22738,1,8,0:0:0:0:
256,192,23038,1,0,0:0:0:0:
256,192,24238,1,0,0:0:0:0:
256,192,24838,1,0,0:0:0:0:
256,192,25138,1,0,0:0:0:0:
256,192,25438,1,0,0:0:0:0:
256,192,26638,1,0,0:0:0:0:
256,192,27238,1,8,0:0:0:0:
256,192,27838,1,0,0:0:0:0:
256,192,28738,1,0,0:0:0:0:
256,192,29038,1,0,0:0:0:0:
256,192,30238,1,0,0:0:0:0:
256,192,30838,1,8,0:0:0:0:
256,192,31438,1,4,0:0:0:0:
256,192,32638,1,12,0:0:0:0:
256,192,33238,1,8,0:0:0:0:
256,192,33838,1,8,0:0:0:0:
256,192,35038,1,4,0:0:0:0:
256,192,35638,1,0,0:0:0:0:
256,192,36238,1,0,0:0:0:0:
256,192,37438,1,12,0:0:0:0:
256,192,38038,1,0,0:0:0:0:
256,192,38638,1,8,0:0:0:0:
256,192,39838,1,4,0:0:0:0:
256,192,40438,1,8,0:0:0:0:
256,192,41038,1,0,0:0:0:0:
256,192,41638,1,0,0:0:0:0:
256,192,42238,1,12,0:0:0:0:
256,192,44638,1,8,0:0:0:0:
256,192,47038,1,0,0:0:0:0:
256,192,47938,1,0,0:0:0:0:
256,192,49438,1,8,0:0:0:0:
256,192,50038,1,8,0:0:0:0:
256,192,51838,1,4,0:0:0:0:
256,192,54238,1,0,0:0:0:0:
256,192,56038,1,8,0:0:0:0:
256,192,56638,1,0,0:0:0:0:
256,192,59038,1,0,0:0:0:0:
256,192,60238,1,8,0:0:0:0:
256,192,61438,1,0,0:0:0:0:
256,192,62488,1,8,0:0:0:0:
256,192,63838,1,0,0:0:0:0:
256,192,64888,1,8,0:0:0:0:
256,192,65638,1,8,0:0:0:0:
256,192,66238,1,0,0:0:0:0:
256,192,67288,1,8,0:0:0:0:
256,192,68638,1,0,0:0:0:0:
256,192,69688,1,8,0:0:0:0:
256,192,71038,1,4,0:0:0:0:
256,192,80638,5,0,0:0:0:0:
256,192,81838,1,0,0:0:0:0:
256,192,83038,1,8,0:0:0:0:
256,192,83638,1,0,0:0:0:0:
256,192,84238,1,8,0:0:0:0:
256,192,85438,1,0,0:0:0:0:
256,192,86638,1,0,0:0:0:0:
256,192,87838,1,8,0:0:0:0:
256,192,88438,1,0,0:0:0:0:
256,192,89038,1,8,0:0:0:0:
256,192,90238,1,12,0:0:0:0:
256,192,91438,1,12,0:0:0:0:
256,192,92638,1,12,0:0:0:0:
256,192,93838,1,12,0:0:0:0:
256,192,95038,1,12,0:0:0:0:
256,192,95638,1,12,0:0:0:0:
256,192,96238,1,12,0:0:0:0:
256,192,96838,1,12,0:0:0:0:
256,192,97438,12,0,98638,0:0:0:0:
256,192,99838,5,4,0:0:0:0:
256,192,100438,1,0,0:0:0:0:
256,192,101038,1,0,0:0:0:0:
256,192,102238,1,0,0:0:0:0:
256,192,102838,1,0,0:0:0:0:
256,192,103438,1,0,0:0:0:0:
256,192,104038,1,8,0:0:0:0:
256,192,104638,1,0,0:0:0:0:
256,192,105238,1,0,0:0:0:0:
256,192,105838,1,0,0:0:0:0:
256,192,107038,1,0,0:0:0:0:
256,192,107638,1,0,0:0:0:0:
256,192,108238,1,0,0:0:0:0:
256,192,108838,1,8,0:0:0:0:
256,192,109138,1,8,0:0:0:0:
256,192,109438,1,0,0:0:0:0:
256,192,110638,1,0,0:0:0:0:
256,192,111238,1,0,0:0:0:0:
256,192,111538,1,0,0:0:0:0:
256,192,111838,1,0,0:0:0:0:
256,192,113038,1,0,0:0:0:0:
256,192,113638,1,8,0:0:0:0:
256,192,114238,1,0,0:0:0:0:
256,192,115138,1,0,0:0:0:0:
256,192,115438,1,0,0:0:0:0:
256,192,116638,1,0,0:0:0:0:
256,192,117238,1,8,0:0:0:0:
256,192,117838,1,4,0:0:0:0:
256,192,119038,1,4,0:0:0:0:
256,192,119638,1,0,0:0:0:0:
256,192,120238,1,0,0:0:0:0:
256,192,121438,1,12,0:0:0:0:
256,192,122038,1,8,0:0:0:0:
256,192,122638,1,0,0:0:0:0:
256,192,123838,1,8,0:0:0:0:
256,192,124438,1,8,0:0:0:0:
256,192,124738,1,8,0:0:0:0:
256,192,125038,1,8,0:0:0:0:
256,192,126238,1,0,0:0:0:0:
256,192,126538,1,0,0:0:0:0:
256,192,127438,1,8,0:0:0:0:
256,192,128038,1,0,0:0:0:0:
256,192,128638,1,12,0:0:0:0:
256,192,131038,1,8,0:0:0:0:
256,192,133438,1,8,0:0:0:0:
256,192,135838,1,8,0:0:0:0:
256,192,138238,1,4,0:0:0:0:
256,192,140638,1,0,0:0:0:0:
256,192,143038,1,0,0:0:0:0:
256,192,143938,1,0,0:0:0:0:
256,192,145438,1,8,0:0:0:0:
256,192,146038,1,8,0:0:0:0:
256,192,147538,1,0,0:0:0:0:
