osu file format v14

[General]
AudioFilename: audio.mp3
AudioLeadIn: 0
PreviewTime: 80771
Countdown: 0
SampleSet: None
StackLeniency: 0.7
Mode: 1
LetterboxInBreaks: 0
SkinPreference:taiko
WidescreenStoryboard: 1

[Editor]
Bookmarks: 2771,13571,23171,32771,42371,51971,71171,80771,90371,99971,119171,128771,143171
DistanceSpacing: 1
BeatDivisor: 4
GridSize: 32
TimelineZoom: 3.100002

[Metadata]
Title:New Game Plus
TitleUnicode:New Game Plus
Artist:Kobaryo
ArtistUnicode:Kobaryo
Creator:OnosakiHito
Version:Ura Oni
Source:700 OVER!!
Tags:Psycho Filth Records electronic
BeatmapID:4264266
BeatmapSetID:823554

[Difficulty]
HPDrainRate:5
CircleSize:5
OverallDifficulty:6
ApproachRate:5
SliderMultiplier:1.4
SliderTickRate:1

[Events]
//Background and Video events
0,0,"BG.png",0,80
//Break Periods
2,138571,141971
//Storyboard Layer 0 (Background)
//Storyboard Layer 1 (Fail)
//Storyboard Layer 2 (Pass)
//Storyboard Layer 3 (Foreground)
//Storyboard Layer 4 (Overlay)
//Storyboard Sound Samples

[TimingPoints]
2771,300,4,1,0,80,1,0
13571,150,8,1,0,80,1,1
13571,-158.730158730159,4,1,0,80,0,1
32771,150,16,1,0,80,1,0
32771,-158.730158730159,7,1,0,80,0,0
34871,-50,4,1,0,80,0,0
35021,-158.730158730159,4,1,0,80,0,0
39671,-50,4,1,0,80,0,0
39821,-158.730158730159,4,1,0,80,0,0
42071,-100,7,1,0,80,0,0
42371,300,4,1,0,80,1,0
51671,-33.3333333333333,4,1,0,80,0,0
51971,600,4,1,0,80,1,1
60371,-50,4,1,0,100,0,1
71171,300,4,1,0,80,1,0
71171,-33.3333333333333,4,1,0,80,0,0
72371,-100,4,1,0,80,0,0
80171,-100,4,1,0,80,0,0
80771,-76.9230769230769,4,1,0,80,0,0
90521,-100,4,1,0,80,0,0
91571,-66.6666666666667,4,1,0,80,0,0
91721,-100,4,1,0,80,0,0
92771,-66.6666666666667,4,1,0,80,0,0
92921,-100,4,1,0,80,0,0
93971,-66.6666666666667,4,1,0,80,0,0
94121,-100,4,1,0,80,0,0
95321,-100,4,1,0,80,0,0
95396,-98.0392156862745,4,1,0,80,0,0
95471,-96.1538461538461,4,1,0,80,0,0
95546,-94.3396226415094,4,1,0,80,0,0
95621,-92.5925925925926,4,1,0,80,0,0
95696,-90.9090909090909,4,1,0,80,0,0
95771,-89.2857142857143,4,1,0,80,0,0
95846,-87.719298245614,4,1,0,80,0,0
95921,-86.2068965517241,4,1,0,80,0,0
95996,-84.7457627118644,4,1,0,80,0,0
96071,-83.3333333333333,4,1,0,80,0,0
96146,-81.9672131147541,4,1,0,80,0,0
96221,-80.6451612903226,4,1,0,80,0,0
96296,-79.3650793650794,4,1,0,80,0,0
96371,-78.125,4,1,0,80,0,0
96446,-76.9230769230769,4,1,0,80,0,0
96521,-75.7575757575758,4,1,0,80,0,0
96596,-74.6268656716418,4,1,0,80,0,0
96671,-73.5294117647059,4,1,0,80,0,0
96746,-72.463768115942,4,1,0,80,0,0
96821,-71.4285714285714,4,1,0,80,0,0
96896,-70.4225352112676,4,1,0,80,0,0
96971,-69.4444444444444,4,1,0,80,0,0
97046,-68.4931506849315,4,1,0,80,0,0
97121,-67.5675675675676,4,1,0,80,0,0
97196,-66.6666666666667,4,1,0,80,0,0
97271,-65.7894736842105,4,1,0,80,0,0
97346,-64.9350649350649,4,1,0,80,0,0
97421,-64.1025641025641,4,1,0,80,0,0
97496,-63.2911392405063,4,1,0,80,0,0
97571,-62.5,4,1,0,80,0,0
97646,-61.7283950617284,4,1,0,80,0,0
97721,-60.9756097560976,4,1,0,80,0,0
97796,-60.2409638554217,4,1,0,80,0,0
97871,-58.8235294117647,4,1,0,80,0,0
98171,-55.5555555555556,4,1,0,80,0,0
98471,-52.6315789473684,4,1,0,80,0,0
99671,-33.3333333333333,4,1,0,80,0,0
99971,150,8,1,0,80,1,1
99971,-158.730158730159,4,1,0,80,0,1
119171,150,16,1,0,80,1,0
119171,-158.730158730159,4,1,0,80,0,0
121271,-50,4,1,0,80,0,0
121421,-158.730158730159,4,1,0,80,0,0
126071,-50,4,1,0,80,0,0
126221,-158.730158730159,4,1,0,80,0,0
128471,-100,4,1,0,80,0,0
128771,300,4,1,0,80,1,0
147671,-25,4,1,0,80,0,0

[HitObjects]
256,192,2771,5,4,0:0:0:0:
256,192,3071,5,8,0:0:0:0:
256,192,3221,1,8,0:0:0:0:
256,192,3296,1,8,0:0:0:0:
256,192,3371,1,8,0:0:0:0:
256,192,3521,1,8,0:0:0:0:
256,192,3671,1,8,0:0:0:0:
256,192,3746,1,8,0:0:0:0:
256,192,3821,1,8,0:0:0:0:
256,192,3971,1,8,0:0:0:0:
256,192,4271,1,8,0:0:0:0:
256,192,4421,1,8,0:0:0:0:
256,192,4496,1,8,0:0:0:0:
256,192,4571,5,8,0:0:0:0:
256,192,4721,1,8,0:0:0:0:
256,192,4871,1,8,0:0:0:0:
256,192,5171,1,8,0:0:0:0:
256,192,5321,1,8,0:0:0:0:
256,192,5471,1,8,0:0:0:0:
256,192,5546,1,8,0:0:0:0:
256,192,5696,1,8,0:0:0:0:
256,192,5846,1,8,0:0:0:0:
256,192,5921,1,8,0:0:0:0:
256,192,6071,1,8,0:0:0:0:
256,192,6221,1,8,0:0:0:0:
256,192,6371,1,8,0:0:0:0:
256,192,6521,1,8,0:0:0:0:
256,192,6596,1,8,0:0:0:0:
256,192,6671,1,8,0:0:0:0:
256,192,6746,1,8,0:0:0:0:
256,192,6896,1,8,0:0:0:0:
256,192,7046,1,8,0:0:0:0:
256,192,7121,1,8,0:0:0:0:
256,192,7271,1,8,0:0:0:0:
256,192,7421,1,8,0:0:0:0:
256,192,7571,5,4,0:0:0:0:
256,192,7721,1,0,0:0:0:0:
256,192,7796,1,0,0:0:0:0:
256,192,7871,5,8,0:0:0:0:
256,192,8021,1,8,0:0:0:0:
256,192,8096,1,8,0:0:0:0:
256,192,8171,5,0,0:0:0:0:
256,192,8321,5,8,0:0:0:0:
256,192,8471,5,0,0:0:0:0:
256,192,8546,5,8,0:0:0:0:
256,192,8621,5,0,0:0:0:0:
256,192,8771,5,12,0:0:0:0:
256,192,8921,1,8,0:0:0:0:
256,192,8996,1,8,0:0:0:0:
256,192,9071,5,0,0:0:0:0:
256,192,9221,1,0,0:0:0:0:
256,192,9296,1,0,0:0:0:0:
256,192,9371,5,8,0:0:0:0:
256,192,9521,5,0,0:0:0:0:
256,192,9671,5,8,0:0:0:0:
256,192,9971,5,4,0:0:0:0:
256,192,10121,5,8,0:0:0:0:
256,192,10271,5,0,0:0:0:0:
256,192,10346,5,8,0:0:0:0:
256,192,10496,5,0,0:0:0:0:
256,192,10646,5,8,0:0:0:0:
256,192,10721,5,0,0:0:0:0:
256,192,10871,1,0,0:0:0:0:
256,192,11021,5,8,0:0:0:0:
256,192,11171,5,4,0:0:0:0:
256,192,11321,1,8,0:0:0:0:
256,192,11396,1,8,0:0:0:0:
256,192,11471,5,8,0:0:0:0:
256,192,11546,1,8,0:0:0:0:
256,192,11621,1,8,0:0:0:0:
256,192,11771,5,4,0:0:0:0:
256,192,11921,1,8,0:0:0:0:
256,192,11996,1,8,0:0:0:0:
256,192,12071,1,8,0:0:0:0:
256,192,12146,1,8,0:0:0:0:
256,192,12221,1,8,0:0:0:0:
256,192,12371,5,4,0:0:0:0:
256,192,13571,5,8,0:0:0:0:
256,192,13646,5,0,0:0:0:0:
256,192,13721,5,8,0:0:0:0:
256,192,13796,5,0,0:0:0:0:
256,192,13871,1,0,0:0:0:0:
256,192,13946,1,0,0:0:0:0:
256,192,14021,5,8,0:0:0:0:
256,192,14096,5,0,0:0:0:0:
256,192,14171,1,0,0:0:0:0:
256,192,14246,1,0,0:0:0:0:
256,192,14321,5,8,0:0:0:0:
256,192,14396,5,0,0:0:0:0:
256,192,14471,1,0,0:0:0:0:
256,192,14546,5,0,0:0:0:0:
256,192,14621,5,8,0:0:0:0:
256,192,14696,5,0,0:0:0:0:
256,192,14771,5,8,0:0:0:0:
256,192,14846,5,0,0:0:0:0:
256,192,14921,5,8,0:0:0:0:
256,192,14996,5,0,0:0:0:0:
256,192,15071,1,0,0:0:0:0:
256,192,15146,1,0,0:0:0:0:
256,192,15221,5,8,0:0:0:0:
256,192,15296,5,0,0:0:0:0:
256,192,15371,1,0,0:0:0:0:
256,192,15446,1,0,0:0:0:0:
256,192,15521,5,8,0:0:0:0:
256,192,15671,1,8,0:0:0:0:
256,192,15821,1,8,0:0:0:0:
256,192,15971,5,8,0:0:0:0:
256,192,16046,5,0,0:0:0:0:
256,192,16121,5,8,0:0:0:0:
256,192,16196,5,0,0:0:0:0:
256,192,16271,1,0,0:0:0:0:
256,192,16346,1,0,0:0:0:0:
256,192,16421,5,8,0:0:0:0:
256,192,16496,5,0,0:0:0:0:
256,192,16571,1,0,0:0:0:0:
256,192,16646,1,0,0:0:0:0:
256,192,16721,5,8,0:0:0:0:
256,192,16796,5,0,0:0:0:0:
256,192,16871,5,8,0:0:0:0:
256,192,16946,5,0,0:0:0:0:
256,192,17021,5,8,0:0:0:0:
256,192,17096,5,0,0:0:0:0:
256,192,17171,5,8,0:0:0:0:
256,192,17246,1,8,0:0:0:0:
256,192,17321,5,0,0:0:0:0:
256,192,17396,1,0,0:0:0:0:
256,192,17471,5,8,0:0:0:0:
256,192,17546,1,8,0:0:0:0:
256,192,17621,5,0,0:0:0:0:
256,192,17771,5,12,0:0:0:0:
256,192,18071,1,12,0:0:0:0:
256,192,18371,5,8,0:0:0:0:
256,192,18446,5,0,0:0:0:0:
256,192,18521,5,8,0:0:0:0:
256,192,18596,5,0,0:0:0:0:
256,192,18671,1,0,0:0:0:0:
256,192,18746,1,0,0:0:0:0:
256,192,18821,5,8,0:0:0:0:
256,192,18896,5,0,0:0:0:0:
256,192,18971,1,0,0:0:0:0:
256,192,19046,1,0,0:0:0:0:
256,192,19121,5,8,0:0:0:0:
256,192,19196,5,0,0:0:0:0:
256,192,19271,1,0,0:0:0:0:
256,192,19346,5,0,0:0:0:0:
256,192,19421,5,8,0:0:0:0:
256,192,19496,5,0,0:0:0:0:
256,192,19571,5,8,0:0:0:0:
256,192,19646,5,0,0:0:0:0:
256,192,19721,5,8,0:0:0:0:
256,192,19796,5,0,0:0:0:0:
256,192,19871,1,0,0:0:0:0:
256,192,19946,1,0,0:0:0:0:
256,192,20021,5,8,0:0:0:0:
256,192,20096,5,0,0:0:0:0:
256,192,20171,1,0,0:0:0:0:
256,192,20246,1,0,0:0:0:0:
256,192,20321,5,8,0:0:0:0:
256,192,20471,1,8,0:0:0:0:
256,192,20621,1,8,0:0:0:0:
256,192,20771,5,8,0:0:0:0:
256,192,20846,5,0,0:0:0:0:
256,192,20921,5,8,0:0:0:0:
256,192,20996,5,0,0:0:0:0:
256,192,21071,1,0,0:0:0:0:
256,192,21146,1,0,0:0:0:0:
256,192,21221,5,8,0:0:0:0:
256,192,21296,5,0,0:0:0:0:
256,192,21371,1,0,0:0:0:0:
256,192,21446,1,0,0:0:0:0:
256,192,21521,5,8,0:0:0:0:
256,192,21596,5,0,0:0:0:0:
256,192,21671,5,8,0:0:0:0:
256,192,21746,5,0,0:0:0:0:
256,192,21821,5,8,0:0:0:0:
256,192,21896,5,0,0:0:0:0:
256,192,21971,5,8,0:0:0:0:
256,192,22046,5,0,0:0:0:0:
256,192,22121,5,8,0:0:0:0:
256,192,22196,5,0,0:0:0:0:
256,192,22271,5,8,0:0:0:0:
256,192,22346,5,0,0:0:0:0:
256,192,22421,5,8,0:0:0:0:
256,192,22571,5,4,0:0:0:0:
256,192,22871,5,12,0:0:0:0:
256,192,23171,5,8,0:0:0:0:
256,192,23246,5,0,0:0:0:0:
256,192,23321,5,8,0:0:0:0:
256,192,23396,5,0,0:0:0:0:
256,192,23471,1,0,0:0:0:0:
256,192,23546,1,0,0:0:0:0:
256,192,23621,5,8,0:0:0:0:
256,192,23696,5,0,0:0:0:0:
256,192,23771,1,0,0:0:0:0:
256,192,23846,1,0,0:0:0:0:
256,192,23921,5,8,0:0:0:0:
256,192,23996,1,8,0:0:0:0:
256,192,24071,5,0,0:0:0:0:
256,192,24146,5,0,0:0:0:0:
256,192,24221,5,8,0:0:0:0:
256,192,24296,5,0,0:0:0:0:
256,192,24371,5,8,0:0:0:0:
256,192,24446,5,0,0:0:0:0:
256,192,24521,5,8,0:0:0:0:
256,192,24596,5,0,0:0:0:0:
256,192,24671,1,0,0:0:0:0:
256,192,24746,1,0,0:0:0:0:
256,192,24821,5,8,0:0:0:0:
256,192,24896,1,8,0:0:0:0:
256,192,24971,5,0,0:0:0:0:
256,192,25046,1,0,0:0:0:0:
256,192,25121,5,8,0:0:0:0:
256,192,25196,5,0,0:0:0:0:
256,192,25271,5,8,0:0:0:0:
256,192,25421,1,8,0:0:0:0:
256,192,25571,5,8,0:0:0:0:
256,192,25646,5,0,0:0:0:0:
256,192,25721,5,8,0:0:0:0:
256,192,25796,5,0,0:0:0:0:
256,192,25871,1,0,0:0:0:0:
256,192,25946,1,0,0:0:0:0:
256,192,26021,5,8,0:0:0:0:
256,192,26096,1,8,0:0:0:0:
256,192,26171,5,0,0:0:0:0:
256,192,26246,1,0,0:0:0:0:
256,192,26321,5,8,0:0:0:0:
256,192,26396,5,0,0:0:0:0:
256,192,26471,5,8,0:0:0:0:
256,192,26546,5,0,0:0:0:0:
256,192,26621,5,8,0:0:0:0:
256,192,26696,5,0,0:0:0:0:
256,192,26771,5,8,0:0:0:0:
256,192,26846,1,8,0:0:0:0:
256,192,26921,5,0,0:0:0:0:
256,192,26996,1,0,0:0:0:0:
256,192,27071,5,8,0:0:0:0:
256,192,27146,5,0,0:0:0:0:
256,192,27221,5,8,0:0:0:0:
256,192,27371,5,12,0:0:0:0:
256,192,27521,1,12,0:0:0:0:
256,192,27671,1,12,0:0:0:0:
256,192,27821,1,12,0:0:0:0:
256,192,27971,5,8,0:0:0:0:
256,192,28046,5,0,0:0:0:0:
256,192,28121,5,8,0:0:0:0:
256,192,28196,5,0,0:0:0:0:
256,192,28271,1,0,0:0:0:0:
256,192,28346,1,0,0:0:0:0:
256,192,28421,5,8,0:0:0:0:
256,192,28496,5,0,0:0:0:0:
256,192,28571,1,0,0:0:0:0:
256,192,28646,1,0,0:0:0:0:
256,192,28721,5,8,0:0:0:0:
256,192,28796,1,8,0:0:0:0:
256,192,28871,5,0,0:0:0:0:
256,192,28946,1,0,0:0:0:0:
256,192,29021,5,8,0:0:0:0:
256,192,29096,5,0,0:0:0:0:
256,192,29171,5,8,0:0:0:0:
256,192,29246,5,0,0:0:0:0:
256,192,29321,5,8,0:0:0:0:
256,192,29396,5,0,0:0:0:0:
256,192,29471,1,0,0:0:0:0:
256,192,29546,1,0,0:0:0:0:
256,192,29621,5,8,0:0:0:0:
256,192,29696,1,8,0:0:0:0:
256,192,29771,5,0,0:0:0:0:
256,192,29846,1,0,0:0:0:0:
256,192,29921,5,8,0:0:0:0:
256,192,29996,5,0,0:0:0:0:
256,192,30071,5,8,0:0:0:0:
256,192,30146,5,0,0:0:0:0:
256,192,30221,5,8,0:0:0:0:
256,192,30371,1,8,0:0:0:0:
256,192,30446,5,0,0:0:0:0:
256,192,30521,5,8,0:0:0:0:
256,192,30596,5,0,0:0:0:0:
256,192,30671,1,0,0:0:0:0:
256,192,30746,1,0,0:0:0:0:
256,192,30821,5,8,0:0:0:0:
256,192,30896,5,0,0:0:0:0:
256,192,30971,1,0,0:0:0:0:
256,192,31046,1,0,0:0:0:0:
256,192,31121,5,8,0:0:0:0:
256,192,31196,1,8,0:0:0:0:
256,192,31271,5,0,0:0:0:0:
256,192,31346,1,0,0:0:0:0:
256,192,31421,5,8,0:0:0:0:
256,192,31496,5,0,0:0:0:0:
256,192,31571,5,8,0:0:0:0:
256,192,31646,5,0,0:0:0:0:
256,192,31721,5,8,0:0:0:0:
256,192,31796,5,0,0:0:0:0:
256,192,31871,5,8,0:0:0:0:
256,192,31946,5,0,0:0:0:0:
256,192,32021,5,8,0:0:0:0:
256,192,32171,5,4,0:0:0:0:
256,192,32471,5,12,0:0:0:0:
256,192,32771,5,0,0:0:0:0:
256,192,32846,1,0,0:0:0:0:
256,192,32921,1,0,0:0:0:0:
256,192,32996,1,0,0:0:0:0:
256,192,33071,1,0,0:0:0:0:
256,192,33146,1,0,0:0:0:0:
256,192,33221,1,0,0:0:0:0:
256,192,33296,1,0,0:0:0:0:
256,192,33371,1,0,0:0:0:0:
256,192,33446,1,0,0:0:0:0:
256,192,33521,1,0,0:0:0:0:
256,192,33596,1,0,0:0:0:0:
256,192,33671,1,0,0:0:0:0:
256,192,33746,1,0,0:0:0:0:
256,192,33821,1,0,0:0:0:0:
256,192,33896,1,0,0:0:0:0:
256,192,33971,1,0,0:0:0:0:
256,192,34046,1,0,0:0:0:0:
256,192,34121,1,0,0:0:0:0:
256,192,34196,1,0,0:0:0:0:
256,192,34271,1,0,0:0:0:0:
256,192,34346,1,0,0:0:0:0:
256,192,34421,1,0,0:0:0:0:
256,192,34496,1,0,0:0:0:0:
256,192,34571,1,0,0:0:0:0:
256,192,34646,1,0,0:0:0:0:
256,192,34721,1,0,0:0:0:0:
256,192,34871,5,12,0:0:0:0:
256,192,35171,5,8,0:0:0:0:
256,192,35246,1,8,0:0:0:0:
256,192,35321,1,8,0:0:0:0:
256,192,35396,1,8,0:0:0:0:
256,192,35471,1,8,0:0:0:0:
256,192,35546,1,8,0:0:0:0:
256,192,35621,1,8,0:0:0:0:
256,192,35696,1,8,0:0:0:0:
256,192,35771,1,8,0:0:0:0:
256,192,35846,1,8,0:0:0:0:
256,192,35921,1,8,0:0:0:0:
256,192,35996,1,8,0:0:0:0:
256,192,36071,1,8,0:0:0:0:
256,192,36146,1,8,0:0:0:0:
256,192,36221,1,8,0:0:0:0:
256,192,36296,1,8,0:0:0:0:
256,192,36371,1,8,0:0:0:0:
256,192,36446,1,8,0:0:0:0:
256,192,36521,1,8,0:0:0:0:
256,192,36596,1,8,0:0:0:0:
256,192,36671,1,8,0:0:0:0:
256,192,36746,1,8,0:0:0:0:
256,192,36821,1,8,0:0:0:0:
256,192,36971,5,4,0:0:0:0:
256,192,37121,1,4,0:0:0:0:
256,192,37271,5,12,0:0:0:0:
256,192,37421,1,12,0:0:0:0:
256,192,37571,5,0,0:0:0:0:
256,192,37646,1,0,0:0:0:0:
256,192,37721,1,0,0:0:0:0:
256,192,37796,1,0,0:0:0:0:
256,192,37871,1,0,0:0:0:0:
256,192,37946,1,0,0:0:0:0:
256,192,38021,1,0,0:0:0:0:
256,192,38096,1,0,0:0:0:0:
256,192,38171,1,0,0:0:0:0:
256,192,38246,1,0,0:0:0:0:
256,192,38321,1,0,0:0:0:0:
256,192,38396,1,0,0:0:0:0:
256,192,38471,1,0,0:0:0:0:
256,192,38546,1,0,0:0:0:0:
256,192,38621,1,0,0:0:0:0:
256,192,38696,1,0,0:0:0:0:
256,192,38771,1,0,0:0:0:0:
256,192,38846,1,0,0:0:0:0:
256,192,38921,1,0,0:0:0:0:
256,192,38996,1,0,0:0:0:0:
256,192,39071,1,0,0:0:0:0:
256,192,39146,1,0,0:0:0:0:
256,192,39221,1,0,0:0:0:0:
256,192,39296,1,0,0:0:0:0:
256,192,39371,1,0,0:0:0:0:
256,192,39446,1,0,0:0:0:0:
256,192,39521,1,0,0:0:0:0:
256,192,39671,5,12,0:0:0:0:
256,192,39971,5,8,0:0:0:0:
256,192,40046,1,8,0:0:0:0:
256,192,40121,1,8,0:0:0:0:
256,192,40196,1,8,0:0:0:0:
256,192,40271,1,8,0:0:0:0:
256,192,40346,1,8,0:0:0:0:
256,192,40421,1,8,0:0:0:0:
256,192,40496,1,8,0:0:0:0:
256,192,40571,1,8,0:0:0:0:
256,192,40646,1,8,0:0:0:0:
256,192,40721,1,8,0:0:0:0:
256,192,40796,1,8,0:0:0:0:
256,192,40871,1,8,0:0:0:0:
256,192,40946,1,8,0:0:0:0:
256,192,41021,1,8,0:0:0:0:
256,192,41096,1,8,0:0:0:0:
256,192,41171,1,8,0:0:0:0:
256,192,41246,1,8,0:0:0:0:
256,192,41321,1,8,0:0:0:0:
256,192,41396,1,8,0:0:0:0:
256,192,41471,1,8,0:0:0:0:
256,192,41546,1,8,0:0:0:0:
256,192,41621,1,8,0:0:0:0:
256,192,41771,5,4,0:0:0:0:
256,192,42071,5,12,0:0:0:0:
256,192,42371,5,0,0:0:0:0:
256,192,42521,5,8,0:0:0:0:
256,192,42596,1,8,0:0:0:0:
256,192,42671,5,0,0:0:0:0:
256,192,42821,5,8,0:0:0:0:
256,192,42896,1,8,0:0:0:0:
256,192,42971,5,0,0:0:0:0:
256,192,43121,5,8,0:0:0:0:
256,192,43196,1,8,0:0:0:0:
256,192,43271,5,0,0:0:0:0:
256,192,43421,5,8,0:0:0:0:
256,192,43496,1,8,0:0:0:0:
256,192,43571,5,0,0:0:0:0:
256,192,43721,5,8,0:0:0:0:
256,192,43796,1,8,0:0:0:0:
256,192,43871,5,0,0:0:0:0:
256,192,44021,5,8,0:0:0:0:
256,192,44096,1,8,0:0:0:0:
256,192,44171,5,0,0:0:0:0:
256,192,44246,1,0,0:0:0:0:
256,192,44321,1,0,0:0:0:0:
256,192,44396,1,0,0:0:0:0:
256,192,44471,5,8,0:0:0:0:
256,192,44546,1,8,0:0:0:0:
256,192,44621,1,8,0:0:0:0:
256,192,44771,5,0,0:0:0:0:
256,192,44921,5,8,0:0:0:0:
256,192,44996,1,8,0:0:0:0:
256,192,45071,5,0,0:0:0:0:
256,192,45221,5,8,0:0:0:0:
256,192,45296,1,8,0:0:0:0:
256,192,45371,5,0,0:0:0:0:
256,192,45521,5,8,0:0:0:0:
256,192,45596,1,8,0:0:0:0:
256,192,45671,5,0,0:0:0:0:
256,192,45821,5,8,0:0:0:0:
256,192,45896,1,8,0:0:0:0:
256,192,45971,5,0,0:0:0:0:
256,192,46121,5,8,0:0:0:0:
256,192,46196,1,8,0:0:0:0:
256,192,46271,5,0,0:0:0:0:
256,192,46346,5,8,0:0:0:0:
256,192,46421,1,8,0:0:0:0:
256,192,46496,1,8,0:0:0:0:
256,192,46571,5,0,0:0:0:0:
256,192,46646,1,0,0:0:0:0:
256,192,46721,1,0,0:0:0:0:
256,192,46796,1,0,0:0:0:0:
256,192,46871,5,8,0:0:0:0:
256,192,46946,1,8,0:0:0:0:
256,192,47021,1,8,0:0:0:0:
256,192,47171,5,0,0:0:0:0:
256,192,47321,5,8,0:0:0:0:
256,192,47396,1,8,0:0:0:0:
256,192,47471,5,0,0:0:0:0:
256,192,47621,1,0,0:0:0:0:
256,192,47696,5,8,0:0:0:0:
256,192,47771,5,0,0:0:0:0:
256,192,47921,5,8,0:0:0:0:
256,192,47996,1,8,0:0:0:0:
256,192,48071,5,0,0:0:0:0:
256,192,48221,5,8,0:0:0:0:
256,192,48296,1,8,0:0:0:0:
256,192,48371,5,0,0:0:0:0:
256,192,48521,1,0,0:0:0:0:
256,192,48596,5,8,0:0:0:0:
256,192,48671,5,0,0:0:0:0:
256,192,48821,5,8,0:0:0:0:
256,192,48896,1,8,0:0:0:0:
256,192,48971,5,0,0:0:0:0:
256,192,49271,5,8,0:0:0:0:
256,192,49571,5,0,0:0:0:0:
256,192,49721,5,8,0:0:0:0:
256,192,49796,1,8,0:0:0:0:
256,192,49871,1,8,0:0:0:0:
256,192,50021,5,0,0:0:0:0:
256,192,50171,1,0,0:0:0:0:
256,192,50321,5,8,0:0:0:0:
256,192,50396,1,8,0:0:0:0:
256,192,50471,5,0,0:0:0:0:
256,192,50546,5,8,0:0:0:0:
256,192,50621,1,8,0:0:0:0:
256,192,51671,5,12,0:0:0:0:
256,192,51971,5,0,0:0:0:0:
256,192,52271,1,0,0:0:0:0:
256,192,52421,1,0,0:0:0:0:
256,192,52571,5,8,0:0:0:0:
256,192,52721,5,0,0:0:0:0:
256,192,53021,1,0,0:0:0:0:
256,192,53321,1,0,0:0:0:0:
256,192,53471,1,0,0:0:0:0:
256,192,53771,5,8,0:0:0:0:
256,192,54071,1,8,0:0:0:0:
256,192,54221,1,8,0:0:0:0:
256,192,54371,5,0,0:0:0:0:
256,192,54671,1,0,0:0:0:0:
256,192,54821,1,0,0:0:0:0:
256,192,54971,5,8,0:0:0:0:
256,192,55121,5,0,0:0:0:0:
256,192,55421,1,0,0:0:0:0:
256,192,55721,1,0,0:0:0:0:
256,192,55871,1,0,0:0:0:0:
256,192,56171,5,8,0:0:0:0:
256,192,56321,1,8,0:0:0:0:
256,192,56471,1,8,0:0:0:0:
256,192,56621,1,8,0:0:0:0:
256,192,56771,5,0,0:0:0:0:
256,192,57071,1,0,0:0:0:0:
256,192,57221,1,0,0:0:0:0:
256,192,57371,5,8,0:0:0:0:
256,192,57521,5,0,0:0:0:0:
256,192,57821,1,0,0:0:0:0:
256,192,58121,1,0,0:0:0:0:
256,192,58271,1,0,0:0:0:0:
256,192,58571,5,8,0:0:0:0:
256,192,58871,5,0,0:0:0:0:
256,192,59021,1,0,0:0:0:0:
256,192,59171,5,8,0:0:0:0:
256,192,59471,5,0,0:0:0:0:
256,192,59621,1,0,0:0:0:0:
256,192,59771,5,8,0:0:0:0:
256,192,59921,5,0,0:0:0:0:
256,192,60371,5,12,0:0:0:0:
256,192,61571,5,0,0:0:0:0:
256,192,61721,1,0,0:0:0:0:
256,192,61871,1,0,0:0:0:0:
256,192,62021,1,0,0:0:0:0:
256,192,62171,5,8,0:0:0:0:
256,192,62321,5,0,0:0:0:0:
256,192,62621,1,0,0:0:0:0:
256,192,62921,1,0,0:0:0:0:
256,192,63071,5,8,0:0:0:0:
256,192,63221,1,8,0:0:0:0:
256,192,63371,1,8,0:0:0:0:
256,192,63671,1,8,0:0:0:0:
256,192,63821,1,8,0:0:0:0:
256,192,63971,5,0,0:0:0:0:
256,192,64121,1,0,0:0:0:0:
256,192,64271,1,0,0:0:0:0:
256,192,64421,1,0,0:0:0:0:
256,192,64571,5,8,0:0:0:0:
256,192,64721,5,0,0:0:0:0:
256,192,65021,1,0,0:0:0:0:
256,192,65321,1,0,0:0:0:0:
256,192,65471,1,0,0:0:0:0:
256,192,65771,5,8,0:0:0:0:
256,192,65921,5,0,0:0:0:0:
256,192,66071,5,8,0:0:0:0:
256,192,66221,1,8,0:0:0:0:
256,192,66371,5,0,0:0:0:0:
256,192,66521,1,0,0:0:0:0:
256,192,66671,1,0,0:0:0:0:
256,192,66821,1,0,0:0:0:0:
256,192,66971,5,8,0:0:0:0:
256,192,67121,5,0,0:0:0:0:
256,192,67421,1,0,0:0:0:0:
256,192,67721,1,0,0:0:0:0:
256,192,67871,5,8,0:0:0:0:
256,192,68021,1,8,0:0:0:0:
256,192,68171,5,0,0:0:0:0:
256,192,68471,5,8,0:0:0:0:
256,192,68621,1,8,0:0:0:0:
256,192,68771,5,0,0:0:0:0:
256,192,68921,1,0,0:0:0:0:
256,192,69071,1,0,0:0:0:0:
256,192,69221,1,0,0:0:0:0:
256,192,69371,5,8,0:0:0:0:
256,192,69521,5,0,0:0:0:0:
256,192,69821,1,0,0:0:0:0:
256,192,69971,5,8,0:0:0:0:
256,192,70121,5,0,0:0:0:0:
256,192,70271,1,0,0:0:0:0:
256,192,70421,5,8,0:0:0:0:
256,192,70571,1,8,0:0:0:0:
256,192,70871,1,8,0:0:0:0:
256,192,71171,5,4,0:0:0:0:
256,192,75971,5,8,0:0:0:0:
256,192,76271,1,8,0:0:0:0:
256,192,76421,1,8,0:0:0:0:
256,192,76496,1,8,0:0:0:0:
256,192,76571,1,8,0:0:0:0:
256,192,76721,1,8,0:0:0:0:
256,192,76871,1,8,0:0:0:0:
256,192,77171,1,8,0:0:0:0:
256,192,77471,1,8,0:0:0:0:
256,192,77621,1,8,0:0:0:0:
256,192,77696,1,8,0:0:0:0:
256,192,77771,1,8,0:0:0:0:
256,192,77921,1,8,0:0:0:0:
256,192,78071,1,8,0:0:0:0:
256,192,78371,1,8,0:0:0:0:
256,192,78521,1,8,0:0:0:0:
256,192,78671,1,8,0:0:0:0:
256,192,78746,1,8,0:0:0:0:
256,192,78896,1,8,0:0:0:0:
256,192,79121,1,8,0:0:0:0:
256,192,79271,1,8,0:0:0:0:
256,192,79421,1,8,0:0:0:0:
256,192,80771,1,0,0:0:0:0:
256,192,80996,1,0,0:0:0:0:
256,192,81071,5,8,0:0:0:0:
256,192,81221,1,8,0:0:0:0:
256,192,81296,1,8,0:0:0:0:
256,192,81371,5,0,0:0:0:0:
256,192,81521,1,0,0:0:0:0:
256,192,81671,5,8,0:0:0:0:
256,192,81821,1,8,0:0:0:0:
256,192,81971,5,0,0:0:0:0:
256,192,82196,1,0,0:0:0:0:
256,192,82271,5,8,0:0:0:0:
256,192,82421,1,8,0:0:0:0:
256,192,82496,5,0,0:0:0:0:
256,192,82571,5,8,0:0:0:0:
256,192,82721,5,0,0:0:0:0:
256,192,82871,5,12,0:0:0:0:
256,192,83171,5,0,0:0:0:0:
256,192,83321,1,0,0:0:0:0:
256,192,83471,5,8,0:0:0:0:
256,192,83546,5,0,0:0:0:0:
256,192,83696,5,8,0:0:0:0:
256,192,83846,5,0,0:0:0:0:
256,192,83921,5,8,0:0:0:0:
256,192,84071,5,0,0:0:0:0:
256,192,84221,5,8,0:0:0:0:
256,192,84371,5,0,0:0:0:0:
256,192,84446,5,8,0:0:0:0:
256,192,84521,5,0,0:0:0:0:
256,192,84596,1,0,0:0:0:0:
256,192,84671,5,8,0:0:0:0:
256,192,84746,5,0,0:0:0:0:
256,192,84821,5,8,0:0:0:0:
256,192,84896,1,8,0:0:0:0:
256,192,84971,5,0,0:0:0:0:
256,192,85121,1,0,0:0:0:0:
256,192,85271,5,8,0:0:0:0:
256,192,85346,1,8,0:0:0:0:
256,192,85421,1,8,0:0:0:0:
256,192,85571,5,0,0:0:0:0:
256,192,85796,1,0,0:0:0:0:
256,192,85871,5,8,0:0:0:0:
256,192,86021,1,8,0:0:0:0:
256,192,86096,1,8,0:0:0:0:
256,192,86171,5,0,0:0:0:0:
256,192,86321,1,0,0:0:0:0:
256,192,86471,5,8,0:0:0:0:
256,192,86621,1,8,0:0:0:0:
256,192,86771,5,0,0:0:0:0:
256,192,86996,1,0,0:0:0:0:
256,192,87071,5,8,0:0:0:0:
256,192,87221,5,8,0:0:0:0:
256,192,87296,5,0,0:0:0:0:
256,192,87371,5,8,0:0:0:0:
256,192,87521,5,0,0:0:0:0:
256,192,87671,5,12,0:0:0:0:
256,192,87971,5,0,0:0:0:0:
256,192,88121,5,8,0:0:0:0:
256,192,88271,5,0,0:0:0:0:
256,192,88346,5,8,0:0:0:0:
256,192,88496,5,0,0:0:0:0:
256,192,88646,5,8,0:0:0:0:
256,192,88721,5,0,0:0:0:0:
256,192,88871,1,0,0:0:0:0:
256,192,89021,5,8,0:0:0:0:
256,192,89171,5,0,0:0:0:0:
256,192,89246,5,8,0:0:0:0:
256,192,89321,5,0,0:0:0:0:
256,192,89396,1,0,0:0:0:0:
256,192,89471,5,8,0:0:0:0:
256,192,89546,5,0,0:0:0:0:
256,192,89621,5,8,0:0:0:0:
256,192,89696,1,8,0:0:0:0:
256,192,89771,5,0,0:0:0:0:
256,192,89846,5,8,0:0:0:0:
256,192,89996,1,8,0:0:0:0:
256,192,90071,5,0,0:0:0:0:
256,192,90221,5,8,0:0:0:0:
256,192,90371,5,4,0:0:0:0:
256,192,90596,5,8,0:0:0:0:
256,192,90671,1,8,0:0:0:0:
256,192,90821,1,8,0:0:0:0:
256,192,90971,1,8,0:0:0:0:
256,192,91121,1,8,0:0:0:0:
256,192,91271,1,8,0:0:0:0:
256,192,91346,1,8,0:0:0:0:
256,192,91421,1,8,0:0:0:0:
256,192,91571,5,4,0:0:0:0:
256,192,91796,5,8,0:0:0:0:
256,192,91871,1,8,0:0:0:0:
256,192,92021,1,8,0:0:0:0:
256,192,92096,1,8,0:0:0:0:
256,192,92171,1,8,0:0:0:0:
256,192,92321,1,8,0:0:0:0:
256,192,92471,1,8,0:0:0:0:
256,192,92546,1,8,0:0:0:0:
256,192,92621,1,8,0:0:0:0:
256,192,92771,5,4,0:0:0:0:
256,192,92996,5,8,0:0:0:0:
256,192,93071,1,8,0:0:0:0:
256,192,93221,1,8,0:0:0:0:
256,192,93371,1,8,0:0:0:0:
256,192,93521,1,8,0:0:0:0:
256,192,93671,1,8,0:0:0:0:
256,192,93746,1,8,0:0:0:0:
256,192,93821,1,8,0:0:0:0:
256,192,93971,5,4,0:0:0:0:
256,192,94196,5,8,0:0:0:0:
256,192,94271,1,8,0:0:0:0:
256,192,94421,1,8,0:0:0:0:
256,192,94496,1,8,0:0:0:0:
256,192,94571,1,8,0:0:0:0:
256,192,94721,1,8,0:0:0:0:
256,192,94871,1,8,0:0:0:0:
256,192,94946,1,8,0:0:0:0:
256,192,95021,1,8,0:0:0:0:
256,192,95171,5,4,0:0:0:0:
256,192,95321,5,8,0:0:0:0:
256,192,95471,1,8,0:0:0:0:
256,192,95621,1,8,0:0:0:0:
256,192,95771,5,4,0:0:0:0:
256,192,95921,5,8,0:0:0:0:
256,192,95996,1,8,0:0:0:0:
256,192,96071,1,8,0:0:0:0:
256,192,96221,1,8,0:0:0:0:
256,192,96371,5,4,0:0:0:0:
256,192,96521,5,8,0:0:0:0:
256,192,96671,1,8,0:0:0:0:
256,192,96821,1,8,0:0:0:0:
256,192,96971,5,4,0:0:0:0:
256,192,97121,5,8,0:0:0:0:
256,192,97196,1,8,0:0:0:0:
256,192,97271,1,8,0:0:0:0:
256,192,97421,1,8,0:0:0:0:
256,192,97571,5,4,0:0:0:0:
256,192,97871,1,4,0:0:0:0:
256,192,98171,1,4,0:0:0:0:
256,192,98471,1,4,0:0:0:0:
256,192,99671,5,12,0:0:0:0:
256,192,99971,1,8,0:0:0:0:
256,192,100046,5,0,0:0:0:0:
256,192,100121,5,8,0:0:0:0:
256,192,100196,5,0,0:0:0:0:
256,192,100271,1,0,0:0:0:0:
256,192,100346,1,0,0:0:0:0:
256,192,100421,5,8,0:0:0:0:
256,192,100496,5,0,0:0:0:0:
256,192,100571,1,0,0:0:0:0:
256,192,100646,1,0,0:0:0:0:
256,192,100721,5,8,0:0:0:0:
256,192,100796,5,0,0:0:0:0:
256,192,100871,1,0,0:0:0:0:
256,192,100946,1,0,0:0:0:0:
256,192,101021,5,8,0:0:0:0:
256,192,101096,5,0,0:0:0:0:
256,192,101171,5,8,0:0:0:0:
256,192,101246,5,0,0:0:0:0:
256,192,101321,5,8,0:0:0:0:
256,192,101396,5,0,0:0:0:0:
256,192,101471,1,0,0:0:0:0:
256,192,101546,1,0,0:0:0:0:
256,192,101621,5,8,0:0:0:0:
256,192,101696,5,0,0:0:0:0:
256,192,101771,1,0,0:0:0:0:
256,192,101846,1,0,0:0:0:0:
256,192,101921,5,8,0:0:0:0:
256,192,102071,5,8,0:0:0:0:
256,192,102221,5,8,0:0:0:0:
256,192,102371,5,8,0:0:0:0:
256,192,102446,5,0,0:0:0:0:
256,192,102521,5,8,0:0:0:0:
256,192,102596,5,0,0:0:0:0:
256,192,102671,1,0,0:0:0:0:
256,192,102746,1,0,0:0:0:0:
256,192,102821,5,8,0:0:0:0:
256,192,102896,5,0,0:0:0:0:
256,192,102971,1,0,0:0:0:0:
256,192,103046,1,0,0:0:0:0:
256,192,103121,5,8,0:0:0:0:
256,192,103196,5,0,0:0:0:0:
256,192,103271,1,0,0:0:0:0:
256,192,103346,1,0,0:0:0:0:
256,192,103421,5,8,0:0:0:0:
256,192,103496,5,0,0:0:0:0:
256,192,103571,5,8,0:0:0:0:
256,192,103646,5,0,0:0:0:0:
256,192,103721,5,8,0:0:0:0:
256,192,103796,5,0,0:0:0:0:
256,192,103871,5,8,0:0:0:0:
256,192,103946,5,0,0:0:0:0:
256,192,104021,5,8,0:0:0:0:
256,192,104171,5,4,0:0:0:0:
256,192,104471,5,12,0:0:0:0:
256,192,104771,1,8,0:0:0:0:
256,192,104846,5,0,0:0:0:0:
256,192,104921,5,8,0:0:0:0:
256,192,104996,5,0,0:0:0:0:
256,192,105071,1,0,0:0:0:0:
256,192,105146,1,0,0:0:0:0:
256,192,105221,5,8,0:0:0:0:
256,192,105296,5,0,0:0:0:0:
256,192,105371,1,0,0:0:0:0:
256,192,105446,1,0,0:0:0:0:
256,192,105521,5,8,0:0:0:0:
256,192,105596,1,8,0:0:0:0:
256,192,105671,5,0,0:0:0:0:
256,192,105746,1,0,0:0:0:0:
256,192,105821,5,8,0:0:0:0:
256,192,105896,5,0,0:0:0:0:
256,192,105971,5,8,0:0:0:0:
256,192,106046,5,0,0:0:0:0:
256,192,106121,5,8,0:0:0:0:
256,192,106196,5,0,0:0:0:0:
256,192,106271,1,0,0:0:0:0:
256,192,106346,1,0,0:0:0:0:
256,192,106421,5,8,0:0:0:0:
256,192,106496,5,0,0:0:0:0:
256,192,106571,1,0,0:0:0:0:
256,192,106646,1,0,0:0:0:0:
256,192,106721,5,8,0:0:0:0:
256,192,106871,5,8,0:0:0:0:
256,192,107021,5,8,0:0:0:0:
256,192,107171,5,8,0:0:0:0:
256,192,107246,5,0,0:0:0:0:
256,192,107321,5,8,0:0:0:0:
256,192,107396,5,0,0:0:0:0:
256,192,107471,1,0,0:0:0:0:
256,192,107546,1,0,0:0:0:0:
256,192,107621,5,8,0:0:0:0:
256,192,107696,5,0,0:0:0:0:
256,192,107771,1,0,0:0:0:0:
256,192,107846,1,0,0:0:0:0:
256,192,107921,5,8,0:0:0:0:
256,192,107996,1,8,0:0:0:0:
256,192,108071,5,0,0:0:0:0:
256,192,108146,1,0,0:0:0:0:
256,192,108221,5,8,0:0:0:0:
256,192,108296,5,0,0:0:0:0:
256,192,108371,5,8,0:0:0:0:
256,192,108446,5,0,0:0:0:0:
256,192,108521,5,8,0:0:0:0:
256,192,108596,5,8,0:0:0:0:
256,192,108671,5,0,0:0:0:0:
256,192,108746,5,0,0:0:0:0:
256,192,108821,5,8,0:0:0:0:
256,192,108971,5,4,0:0:0:0:
256,192,109271,5,12,0:0:0:0:
256,192,109571,5,8,0:0:0:0:
256,192,109646,5,0,0:0:0:0:
256,192,109721,5,8,0:0:0:0:
256,192,109796,5,0,0:0:0:0:
256,192,109871,1,0,0:0:0:0:
256,192,109946,1,0,0:0:0:0:
256,192,110021,5,8,0:0:0:0:
256,192,110096,5,0,0:0:0:0:
256,192,110171,1,0,0:0:0:0:
256,192,110246,1,0,0:0:0:0:
256,192,110321,5,8,0:0:0:0:
256,192,110396,5,0,0:0:0:0:
256,192,110471,1,0,0:0:0:0:
256,192,110546,1,0,0:0:0:0:
256,192,110621,5,8,0:0:0:0:
256,192,110696,5,0,0:0:0:0:
256,192,110771,5,8,0:0:0:0:
256,192,110846,5,0,0:0:0:0:
256,192,110921,5,8,0:0:0:0:
256,192,110996,5,0,0:0:0:0:
256,192,111071,1,0,0:0:0:0:
256,192,111146,1,0,0:0:0:0:
256,192,111221,5,8,0:0:0:0:
256,192,111296,5,0,0:0:0:0:
256,192,111371,1,0,0:0:0:0:
256,192,111446,1,0,0:0:0:0:
256,192,111521,5,8,0:0:0:0:
256,192,111671,5,8,0:0:0:0:
256,192,111821,5,8,0:0:0:0:
256,192,111971,5,8,0:0:0:0:
256,192,112046,5,0,0:0:0:0:
256,192,112121,5,8,0:0:0:0:
256,192,112196,5,0,0:0:0:0:
256,192,112271,1,0,0:0:0:0:
256,192,112346,1,0,0:0:0:0:
256,192,112421,5,8,0:0:0:0:
256,192,112496,5,0,0:0:0:0:
256,192,112571,1,0,0:0:0:0:
256,192,112646,1,0,0:0:0:0:
256,192,112721,5,8,0:0:0:0:
256,192,112796,5,0,0:0:0:0:
256,192,112871,1,0,0:0:0:0:
256,192,112946,1,0,0:0:0:0:
256,192,113021,5,8,0:0:0:0:
256,192,113096,5,0,0:0:0:0:
256,192,113171,5,8,0:0:0:0:
256,192,113246,5,0,0:0:0:0:
256,192,113321,5,8,0:0:0:0:
256,192,113396,5,0,0:0:0:0:
256,192,113471,5,8,0:0:0:0:
256,192,113546,5,0,0:0:0:0:
256,192,113621,5,8,0:0:0:0:
256,192,113771,5,4,0:0:0:0:
256,192,114071,5,12,0:0:0:0:
256,192,114371,1,8,0:0:0:0:
256,192,114446,5,0,0:0:0:0:
256,192,114521,5,8,0:0:0:0:
256,192,114596,5,0,0:0:0:0:
256,192,114671,1,0,0:0:0:0:
256,192,114746,1,0,0:0:0:0:
256,192,114821,5,8,0:0:0:0:
256,192,114896,5,0,0:0:0:0:
256,192,114971,1,0,0:0:0:0:
256,192,115046,1,0,0:0:0:0:
256,192,115121,5,8,0:0:0:0:
256,192,115196,1,8,0:0:0:0:
256,192,115271,5,0,0:0:0:0:
256,192,115346,1,0,0:0:0:0:
256,192,115421,5,8,0:0:0:0:
256,192,115496,5,0,0:0:0:0:
256,192,115571,5,8,0:0:0:0:
256,192,115646,5,0,0:0:0:0:
256,192,115721,5,8,0:0:0:0:
256,192,115796,5,0,0:0:0:0:
256,192,115871,1,0,0:0:0:0:
256,192,115946,1,0,0:0:0:0:
256,192,116021,5,8,0:0:0:0:
256,192,116096,5,0,0:0:0:0:
256,192,116171,1,0,0:0:0:0:
256,192,116246,1,0,0:0:0:0:
256,192,116321,5,8,0:0:0:0:
256,192,116471,5,8,0:0:0:0:
256,192,116621,5,8,0:0:0:0:
256,192,116771,5,8,0:0:0:0:
256,192,116846,5,0,0:0:0:0:
256,192,116921,5,8,0:0:0:0:
256,192,116996,5,0,0:0:0:0:
256,192,117071,1,0,0:0:0:0:
256,192,117146,1,0,0:0:0:0:
256,192,117221,5,8,0:0:0:0:
256,192,117296,5,0,0:0:0:0:
256,192,117371,1,0,0:0:0:0:
256,192,117446,1,0,0:0:0:0:
256,192,117521,5,8,0:0:0:0:
256,192,117596,1,8,0:0:0:0:
256,192,117671,5,0,0:0:0:0:
256,192,117746,1,0,0:0:0:0:
256,192,117821,5,8,0:0:0:0:
256,192,117896,5,0,0:0:0:0:
256,192,117971,5,8,0:0:0:0:
256,192,118046,5,0,0:0:0:0:
256,192,118121,5,8,0:0:0:0:
256,192,118196,5,8,0:0:0:0:
256,192,118271,5,0,0:0:0:0:
256,192,118346,5,0,0:0:0:0:
256,192,118421,5,8,0:0:0:0:
256,192,118571,5,4,0:0:0:0:
256,192,118871,5,12,0:0:0:0:
256,192,119171,5,0,0:0:0:0:
256,192,119246,1,0,0:0:0:0:
256,192,119321,1,0,0:0:0:0:
256,192,119396,1,0,0:0:0:0:
256,192,119471,1,0,0:0:0:0:
256,192,119546,1,0,0:0:0:0:
256,192,119621,1,0,0:0:0:0:
256,192,119696,1,0,0:0:0:0:
256,192,119771,1,0,0:0:0:0:
256,192,119846,1,0,0:0:0:0:
256,192,119921,1,0,0:0:0:0:
256,192,119996,1,0,0:0:0:0:
256,192,120071,1,0,0:0:0:0:
256,192,120146,1,0,0:0:0:0:
256,192,120221,1,0,0:0:0:0:
256,192,120296,1,0,0:0:0:0:
256,192,120371,1,0,0:0:0:0:
256,192,120446,1,0,0:0:0:0:
256,192,120521,1,0,0:0:0:0:
256,192,120596,1,0,0:0:0:0:
256,192,120671,1,0,0:0:0:0:
256,192,120746,1,0,0:0:0:0:
256,192,120821,1,0,0:0:0:0:
256,192,120896,1,0,0:0:0:0:
256,192,120971,1,0,0:0:0:0:
256,192,121046,1,0,0:0:0:0:
256,192,121121,1,0,0:0:0:0:
256,192,121271,5,12,0:0:0:0:
256,192,121571,5,8,0:0:0:0:
256,192,121646,1,8,0:0:0:0:
256,192,121721,1,8,0:0:0:0:
256,192,121796,1,8,0:0:0:0:
256,192,121871,1,8,0:0:0:0:
256,192,121946,1,8,0:0:0:0:
256,192,122021,1,8,0:0:0:0:
256,192,122096,1,8,0:0:0:0:
256,192,122171,1,8,0:0:0:0:
256,192,122246,1,8,0:0:0:0:
256,192,122321,1,8,0:0:0:0:
256,192,122396,1,8,0:0:0:0:
256,192,122471,1,8,0:0:0:0:
256,192,122546,1,8,0:0:0:0:
256,192,122621,1,8,0:0:0:0:
256,192,122696,1,8,0:0:0:0:
256,192,122771,1,8,0:0:0:0:
256,192,122846,1,8,0:0:0:0:
256,192,122921,1,8,0:0:0:0:
256,192,122996,1,8,0:0:0:0:
256,192,123071,1,8,0:0:0:0:
256,192,123146,1,8,0:0:0:0:
256,192,123221,1,8,0:0:0:0:
256,192,123371,5,4,0:0:0:0:
256,192,123521,1,4,0:0:0:0:
256,192,123671,5,12,0:0:0:0:
256,192,123821,1,12,0:0:0:0:
256,192,123971,5,0,0:0:0:0:
256,192,124046,1,0,0:0:0:0:
256,192,124121,1,0,0:0:0:0:
256,192,124196,1,0,0:0:0:0:
256,192,124271,1,0,0:0:0:0:
256,192,124346,1,0,0:0:0:0:
256,192,124421,1,0,0:0:0:0:
256,192,124496,1,0,0:0:0:0:
256,192,124571,1,0,0:0:0:0:
256,192,124646,1,0,0:0:0:0:
256,192,124721,1,0,0:0:0:0:
256,192,124796,1,0,0:0:0:0:
256,192,124871,1,0,0:0:0:0:
256,192,124946,1,0,0:0:0:0:
256,192,125021,1,0,0:0:0:0:
256,192,125096,1,0,0:0:0:0:
256,192,125171,1,0,0:0:0:0:
256,192,125246,1,0,0:0:0:0:
256,192,125321,1,0,0:0:0:0:
256,192,125396,1,0,0:0:0:0:
256,192,125471,1,0,0:0:0:0:
256,192,125546,1,0,0:0:0:0:
256,192,125621,1,0,0:0:0:0:
256,192,125696,1,0,0:0:0:0:
256,192,125771,1,0,0:0:0:0:
256,192,125846,1,0,0:0:0:0:
256,192,125921,1,0,0:0:0:0:
256,192,126071,5,12,0:0:0:0:
256,192,126371,5,8,0:0:0:0:
256,192,126446,1,8,0:0:0:0:
256,192,126521,1,8,0:0:0:0:
256,192,126596,1,8,0:0:0:0:
256,192,126671,1,8,0:0:0:0:
256,192,126746,1,8,0:0:0:0:
256,192,126821,1,8,0:0:0:0:
256,192,126896,1,8,0:0:0:0:
256,192,126971,1,8,0:0:0:0:
256,192,127046,1,8,0:0:0:0:
256,192,127121,1,8,0:0:0:0:
256,192,127196,1,8,0:0:0:0:
256,192,127271,1,8,0:0:0:0:
256,192,127346,1,8,0:0:0:0:
256,192,127421,1,8,0:0:0:0:
256,192,127496,1,8,0:0:0:0:
256,192,127571,1,8,0:0:0:0:
256,192,127646,1,8,0:0:0:0:
256,192,127721,1,8,0:0:0:0:
256,192,127796,1,8,0:0:0:0:
256,192,127871,1,8,0:0:0:0:
256,192,127946,1,8,0:0:0:0:
256,192,128021,1,8,0:0:0:0:
256,192,128171,5,4,0:0:0:0:
256,192,128471,5,12,0:0:0:0:
256,192,128771,5,4,0:0:0:0:
256,192,129071,5,8,0:0:0:0:
256,192,129671,1,8,0:0:0:0:
256,192,130271,1,8,0:0:0:0:
256,192,130571,1,8,0:0:0:0:
256,192,130721,1,8,0:0:0:0:
256,192,130796,1,8,0:0:0:0:
256,192,130871,1,8,0:0:0:0:
256,192,131021,1,8,0:0:0:0:
256,192,131171,5,0,0:0:0:0:
256,192,131471,5,8,0:0:0:0:
256,192,132071,1,8,0:0:0:0:
256,192,132371,1,8,0:0:0:0:
256,192,132521,1,8,0:0:0:0:
256,192,132596,1,8,0:0:0:0:
256,192,132671,1,8,0:0:0:0:
256,192,132821,1,8,0:0:0:0:
256,192,132971,1,8,0:0:0:0:
256,192,133046,1,8,0:0:0:0:
256,192,133121,1,8,0:0:0:0:
256,192,133196,1,8,0:0:0:0:
256,192,133271,1,8,0:0:0:0:
256,192,133421,1,8,0:0:0:0:
256,192,133571,5,0,0:0:0:0:
256,192,133871,5,8,0:0:0:0:
256,192,134471,1,8,0:0:0:0:
256,192,135071,1,8,0:0:0:0:
256,192,135371,1,8,0:0:0:0:
256,192,135521,1,8,0:0:0:0:
256,192,135596,1,8,0:0:0:0:
256,192,135671,1,8,0:0:0:0:
256,192,135821,1,8,0:0:0:0:
256,192,135971,5,0,0:0:0:0:
256,192,136271,5,8,0:0:0:0:
256,192,136871,1,8,0:0:0:0:
256,192,137171,1,8,0:0:0:0:
256,192,137321,1,8,0:0:0:0:
256,192,137396,1,8,0:0:0:0:
256,192,137471,1,8,0:0:0:0:
256,192,137621,1,8,0:0:0:0:
256,192,137771,1,8,0:0:0:0:
256,192,137921,1,8,0:0:0:0:
256,192,138071,1,8,0:0:0:0:
256,192,138221,1,8,0:0:0:0:
256,192,138371,5,4,0:0:0:0:
256,192,143171,5,8,0:0:0:0:
256,192,143621,5,8,0:0:0:0:
256,192,143771,1,8,0:0:0:0:
256,192,144071,1,8,0:0:0:0:
256,192,144521,1,8,0:0:0:0:
256,192,144671,1,8,0:0:0:0:
256,192,144971,1,8,0:0:0:0:
256,192,145121,1,8,0:0:0:0:
256,192,145196,1,8,0:0:0:0:
256,192,145271,1,8,0:0:0:0:
256,192,145421,1,8,0:0:0:0:
256,192,145571,5,0,0:0:0:0:
256,192,145721,5,8,0:0:0:0:
256,192,145796,1,8,0:0:0:0:
256,192,145871,1,8,0:0:0:0:
256,192,146021,5,0,0:0:0:0:
256,192,146171,5,0,0:0:0:0:
256,192,146246,5,8,0:0:0:0:
256,192,146321,1,8,0:0:0:0:
256,192,146396,1,8,0:0:0:0:
256,192,146471,5,0,0:0:0:0:
256,192,146546,5,8,0:0:0:0:
256,192,146621,1,8,0:0:0:0:
256,192,146696,1,8,0:0:0:0:
256,192,147671,5,12,0:0:0:0:
