osu file format v14

[General]
AudioFilename: audio.mp3
AudioLeadIn: 0
PreviewTime: 80771
Countdown: 0
SampleSet: Normal
StackLeniency: 0.7
Mode: 1
LetterboxInBreaks: 0
SkinPreference:taiko
WidescreenStoryboard: 1

[Editor]
Bookmarks: 2771,13571,23171,32771,42371,51971,71171,80771,90371,99971,119171,128771,143171
DistanceSpacing: 0.5
BeatDivisor: 4
GridSize: 32
TimelineZoom: 3.200002

[Metadata]
Title:New Game Plus
TitleUnicode:New Game Plus
Artist:Kobaryo
ArtistUnicode:Kobaryo
Creator:OnosakiHito
Version:Taikosaki
Source:700 OVER!!
Tags:Psycho Filth Records electronic
BeatmapID:1725830
BeatmapSetID:823554

[Difficulty]
HPDrainRate:4
CircleSize:5
OverallDifficulty:7.5
ApproachRate:5
SliderMultiplier:1.4
SliderTickRate:1

[Events]
//Background and Video events
0,0,"BG.png",0,80
//Break Periods
2,71371,74771
2,138571,141971
//Storyboard Layer 0 (Background)
//Storyboard Layer 1 (Fail)
//Storyboard Layer 2 (Pass)
//Storyboard Layer 3 (Foreground)
//Storyboard Layer 4 (Overlay)
//Storyboard Sound Samples

[TimingPoints]
2771,300,4,1,0,80,1,0
13571,150,8,1,0,80,1,1
13571,-158.730158730159,4,1,0,80,0,1
32771,150,16,1,0,80,1,0
32771,-158.730158730159,7,1,0,80,0,0
34871,-50,4,1,0,80,0,0
35021,-158.730158730159,4,1,0,80,0,0
39671,-50,4,1,0,80,0,0
39821,-158.730158730159,4,1,0,80,0,0
42071,-100,7,1,0,80,0,0
42371,300,4,1,0,80,1,0
51671,-33.3333333333333,4,1,0,80,0,0
51971,600,4,1,0,80,1,1
60371,-50,4,1,0,100,0,1
71171,300,4,1,0,80,1,0
71171,-33.3333333333333,4,1,0,80,0,0
72371,-100,4,1,0,80,0,0
80771,-66.6666666666667,4,1,0,80,0,0
90521,-100,4,1,0,80,0,0
91571,-66.6666666666667,4,1,0,80,0,0
91721,-100,4,1,0,80,0,0
92771,-66.6666666666667,4,1,0,80,0,0
92921,-100,4,1,0,80,0,0
93971,-66.6666666666667,4,1,0,80,0,0
94121,-100,4,1,0,80,0,0
95171,-66.6666666666667,4,1,0,80,0,0
95321,-100,4,1,0,80,0,0
95396,-98.0392156862745,4,1,0,80,0,0
95471,-96.1538461538461,4,1,0,80,0,0
95546,-94.3396226415094,4,1,0,80,0,0
95621,-92.5925925925926,4,1,0,80,0,0
95696,-90.9090909090909,4,1,0,80,0,0
95771,-89.2857142857143,4,1,0,80,0,0
95846,-87.719298245614,4,1,0,80,0,0
95921,-86.2068965517241,4,1,0,80,0,0
95996,-84.7457627118644,4,1,0,80,0,0
96071,-83.3333333333333,4,1,0,80,0,0
96146,-81.9672131147541,4,1,0,80,0,0
96221,-80.6451612903226,4,1,0,80,0,0
96296,-79.3650793650794,4,1,0,80,0,0
96371,-78.125,4,1,0,80,0,0
96446,-76.9230769230769,4,1,0,80,0,0
96521,-75.7575757575758,4,1,0,80,0,0
96596,-74.6268656716418,4,1,0,80,0,0
96671,-73.5294117647059,4,1,0,80,0,0
96746,-72.463768115942,4,1,0,80,0,0
96821,-71.4285714285714,4,1,0,80,0,0
96896,-70.4225352112676,4,1,0,80,0,0
96971,-69.4444444444444,4,1,0,80,0,0
97046,-68.4931506849315,4,1,0,80,0,0
97121,-67.5675675675676,4,1,0,80,0,0
97196,-66.6666666666667,4,1,0,80,0,0
97271,-65.7894736842105,4,1,0,80,0,0
97346,-64.9350649350649,4,1,0,80,0,0
97421,-64.1025641025641,4,1,0,80,0,0
97496,-63.2911392405063,4,1,0,80,0,0
97571,-62.5,4,1,0,80,0,0
97646,-61.7283950617284,4,1,0,80,0,0
97721,-60.9756097560976,4,1,0,80,0,0
97796,-60.2409638554217,4,1,0,80,0,0
97871,-58.8235294117647,4,1,0,80,0,0
98171,-55.5555555555556,4,1,0,80,0,0
98471,-52.6315789473684,4,1,0,80,0,0
99671,-33.3333333333333,4,1,0,80,0,0
99971,150,8,1,0,80,1,1
99971,-158.730158730159,4,1,0,80,0,1
119171,150,16,1,0,80,1,0
119171,-158.730158730159,4,1,0,80,0,0
121271,-50,4,1,0,80,0,0
121421,-158.730158730159,4,1,0,80,0,0
126071,-50,4,1,0,80,0,0
126221,-158.730158730159,4,1,0,80,0,0
128471,-100,4,1,0,80,0,0
128771,300,4,1,0,80,1,0
147671,-25,4,1,0,80,0,0

[HitObjects]
256,192,2771,5,12,0:0:0:0:
256,192,3071,5,0,0:0:0:0:
256,192,3221,5,8,0:0:0:0:
256,192,3296,1,8,0:0:0:0:
256,192,3371,5,0,0:0:0:0:
256,192,3521,1,0,0:0:0:0:
256,192,3671,5,8,0:0:0:0:
256,192,3746,5,0,0:0:0:0:
256,192,3821,5,8,0:0:0:0:
256,192,3971,5,0,0:0:0:0:
256,192,4271,1,0,0:0:0:0:
256,192,4421,5,8,0:0:0:0:
256,192,4496,5,0,0:0:0:0:
256,192,4571,5,8,0:0:0:0:
256,192,4721,5,0,0:0:0:0:
256,192,4871,5,8,0:0:0:0:
256,192,5171,5,0,0:0:0:0:
256,192,5321,5,8,0:0:0:0:
256,192,5471,5,0,0:0:0:0:
256,192,5546,5,8,0:0:0:0:
256,192,5696,1,8,0:0:0:0:
256,192,5846,1,8,0:0:0:0:
256,192,5921,5,0,0:0:0:0:
256,192,6071,5,8,0:0:0:0:
256,192,6221,1,8,0:0:0:0:
256,192,6371,5,0,0:0:0:0:
256,192,6521,5,8,0:0:0:0:
256,192,6671,5,0,0:0:0:0:
256,192,6746,5,8,0:0:0:0:
256,192,6821,5,0,0:0:0:0:
256,192,6896,5,0,0:0:0:0:
256,192,6971,5,8,0:0:0:0:
256,192,7046,5,0,0:0:0:0:
256,192,7121,5,8,0:0:0:0:
256,192,7196,1,8,0:0:0:0:
256,192,7271,5,0,0:0:0:0:
256,192,7346,5,8,0:0:0:0:
256,192,7421,5,0,0:0:0:0:
256,192,7571,5,12,0:0:0:0:
256,192,7721,5,0,0:0:0:0:
256,192,7796,1,0,0:0:0:0:
256,192,7871,5,8,0:0:0:0:
256,192,7946,1,8,0:0:0:0:
256,192,8021,1,8,0:0:0:0:
256,192,8096,1,8,0:0:0:0:
256,192,8171,5,0,0:0:0:0:
256,192,8246,1,0,0:0:0:0:
256,192,8321,1,0,0:0:0:0:
256,192,8396,1,0,0:0:0:0:
256,192,8471,5,8,0:0:0:0:
256,192,8546,5,0,0:0:0:0:
256,192,8621,5,8,0:0:0:0:
256,192,8771,1,4,0:0:0:0:
256,192,8921,5,0,0:0:0:0:
256,192,8996,1,0,0:0:0:0:
256,192,9071,5,8,0:0:0:0:
256,192,9146,5,0,0:0:0:0:
256,192,9221,5,8,0:0:0:0:
256,192,9296,5,0,0:0:0:0:
256,192,9371,5,8,0:0:0:0:
256,192,9446,1,8,0:0:0:0:
256,192,9521,5,0,0:0:0:0:
256,192,9596,1,0,0:0:0:0:
256,192,9671,5,8,0:0:0:0:
256,192,9746,1,8,0:0:0:0:
256,192,9821,1,8,0:0:0:0:
256,192,9971,1,4,0:0:0:0:
256,192,10121,5,0,0:0:0:0:
256,192,10196,1,0,0:0:0:0:
256,192,10271,1,0,0:0:0:0:
256,192,10346,5,8,0:0:0:0:
256,192,10421,5,0,0:0:0:0:
256,192,10496,5,8,0:0:0:0:
256,192,10571,5,0,0:0:0:0:
256,192,10646,1,0,0:0:0:0:
256,192,10721,5,8,0:0:0:0:
256,192,10796,5,0,0:0:0:0:
256,192,10871,5,8,0:0:0:0:
256,192,10946,5,0,0:0:0:0:
256,192,11021,5,8,0:0:0:0:
256,192,11171,1,12,0:0:0:0:
256,192,11321,1,8,0:0:0:0:
256,192,11396,5,0,0:0:0:0:
256,192,11471,5,8,0:0:0:0:
256,192,11546,5,0,0:0:0:0:
256,192,11621,1,0,0:0:0:0:
256,192,11771,5,4,0:0:0:0:
256,192,11921,5,8,0:0:0:0:
256,192,11996,5,0,0:0:0:0:
256,192,12071,5,8,0:0:0:0:
256,192,12146,1,8,0:0:0:0:
256,192,12221,5,0,0:0:0:0:
256,192,12371,1,4,0:0:0:0:
256,192,13271,5,12,0:0:0:0:
256,192,13571,5,4,0:0:0:0:
256,192,13721,1,4,0:0:0:0:
256,192,13871,5,8,0:0:0:0:
256,192,13921,1,8,0:0:0:0:
256,192,13971,1,8,0:0:0:0:
256,192,14021,5,0,0:0:0:0:
256,192,14096,1,0,0:0:0:0:
256,192,14171,5,8,0:0:0:0:
256,192,14246,1,8,0:0:0:0:
256,192,14321,5,0,0:0:0:0:
256,192,14396,1,0,0:0:0:0:
256,192,14471,5,8,0:0:0:0:
256,192,14546,5,0,0:0:0:0:
256,192,14621,5,8,0:0:0:0:
256,192,14696,1,8,0:0:0:0:
256,192,14771,5,0,0:0:0:0:
256,192,14846,5,8,0:0:0:0:
256,192,14921,5,0,0:0:0:0:
256,192,14996,1,0,0:0:0:0:
256,192,15071,5,8,0:0:0:0:
256,192,15121,1,8,0:0:0:0:
256,192,15171,1,8,0:0:0:0:
256,192,15221,5,0,0:0:0:0:
256,192,15296,1,0,0:0:0:0:
256,192,15371,5,8,0:0:0:0:
256,192,15446,1,8,0:0:0:0:
256,192,15521,5,0,0:0:0:0:
256,192,15596,1,0,0:0:0:0:
256,192,15671,5,8,0:0:0:0:
256,192,15821,1,8,0:0:0:0:
256,192,15971,5,4,0:0:0:0:
256,192,16121,1,4,0:0:0:0:
256,192,16271,5,8,0:0:0:0:
256,192,16321,1,8,0:0:0:0:
256,192,16371,1,8,0:0:0:0:
256,192,16421,5,0,0:0:0:0:
256,192,16496,1,0,0:0:0:0:
256,192,16571,5,8,0:0:0:0:
256,192,16646,5,0,0:0:0:0:
256,192,16721,5,8,0:0:0:0:
256,192,16796,1,8,0:0:0:0:
256,192,16871,5,0,0:0:0:0:
256,192,16946,1,0,0:0:0:0:
256,192,17021,5,8,0:0:0:0:
256,192,17096,1,8,0:0:0:0:
256,192,17171,5,0,0:0:0:0:
256,192,17246,5,8,0:0:0:0:
256,192,17321,5,0,0:0:0:0:
256,192,17396,1,0,0:0:0:0:
256,192,17471,5,8,0:0:0:0:
256,192,17521,1,8,0:0:0:0:
256,192,17571,1,8,0:0:0:0:
256,192,17621,5,0,0:0:0:0:
256,192,17696,1,0,0:0:0:0:
256,192,17771,5,8,0:0:0:0:
256,192,17921,5,0,0:0:0:0:
256,192,18071,5,8,0:0:0:0:
256,192,18221,1,8,0:0:0:0:
256,192,18371,5,4,0:0:0:0:
256,192,18521,1,4,0:0:0:0:
256,192,18671,5,8,0:0:0:0:
256,192,18721,5,8,0:0:0:0:
256,192,18771,1,8,0:0:0:0:
256,192,18821,5,0,0:0:0:0:
256,192,18896,5,8,0:0:0:0:
256,192,18971,5,0,0:0:0:0:
256,192,19046,1,0,0:0:0:0:
256,192,19121,5,8,0:0:0:0:
256,192,19196,5,0,0:0:0:0:
256,192,19271,5,8,0:0:0:0:
256,192,19346,1,8,0:0:0:0:
256,192,19421,1,8,0:0:0:0:
256,192,19471,1,8,0:0:0:0:
256,192,19521,1,8,0:0:0:0:
256,192,19571,5,0,0:0:0:0:
256,192,19646,5,8,0:0:0:0:
256,192,19721,5,0,0:0:0:0:
256,192,19796,1,0,0:0:0:0:
256,192,19871,5,8,0:0:0:0:
256,192,19921,1,8,0:0:0:0:
256,192,19971,1,8,0:0:0:0:
256,192,20021,5,0,0:0:0:0:
256,192,20096,5,8,0:0:0:0:
256,192,20171,5,0,0:0:0:0:
256,192,20246,1,0,0:0:0:0:
256,192,20321,5,8,0:0:0:0:
256,192,20396,1,8,0:0:0:0:
256,192,20471,5,0,0:0:0:0:
256,192,20621,5,8,0:0:0:0:
256,192,20771,5,4,0:0:0:0:
256,192,20921,1,4,0:0:0:0:
256,192,21071,5,8,0:0:0:0:
256,192,21121,1,8,0:0:0:0:
256,192,21171,1,8,0:0:0:0:
256,192,21221,5,0,0:0:0:0:
256,192,21296,5,8,0:0:0:0:
256,192,21371,5,0,0:0:0:0:
256,192,21446,1,0,0:0:0:0:
256,192,21521,5,8,0:0:0:0:
256,192,21596,5,0,0:0:0:0:
256,192,21671,5,8,0:0:0:0:
256,192,21746,1,8,0:0:0:0:
256,192,21821,1,8,0:0:0:0:
256,192,21871,1,8,0:0:0:0:
256,192,21921,1,8,0:0:0:0:
256,192,21971,5,0,0:0:0:0:
256,192,22046,1,0,0:0:0:0:
256,192,22121,5,8,0:0:0:0:
256,192,22196,5,0,0:0:0:0:
256,192,22271,5,8,0:0:0:0:
256,192,22321,1,8,0:0:0:0:
256,192,22371,1,8,0:0:0:0:
256,192,22421,5,0,0:0:0:0:
256,192,22496,1,0,0:0:0:0:
256,192,22571,5,8,0:0:0:0:
256,192,22721,5,0,0:0:0:0:
256,192,22871,5,8,0:0:0:0:
256,192,23021,1,8,0:0:0:0:
256,192,23171,5,4,0:0:0:0:
256,192,23321,1,4,0:0:0:0:
256,192,23471,5,8,0:0:0:0:
256,192,23521,1,8,0:0:0:0:
256,192,23571,1,8,0:0:0:0:
256,192,23621,5,0,0:0:0:0:
256,192,23696,5,8,0:0:0:0:
256,192,23771,5,0,0:0:0:0:
256,192,23821,1,0,0:0:0:0:
256,192,23871,1,0,0:0:0:0:
256,192,23921,5,8,0:0:0:0:
256,192,23996,1,8,0:0:0:0:
256,192,24071,5,0,0:0:0:0:
256,192,24146,1,0,0:0:0:0:
256,192,24221,5,8,0:0:0:0:
256,192,24296,1,8,0:0:0:0:
256,192,24371,5,0,0:0:0:0:
256,192,24446,5,8,0:0:0:0:
256,192,24521,5,0,0:0:0:0:
256,192,24596,5,8,0:0:0:0:
256,192,24671,1,8,0:0:0:0:
256,192,24721,1,8,0:0:0:0:
256,192,24771,1,8,0:0:0:0:
256,192,24821,5,0,0:0:0:0:
256,192,24896,5,8,0:0:0:0:
256,192,24971,5,0,0:0:0:0:
256,192,25021,1,0,0:0:0:0:
256,192,25071,1,0,0:0:0:0:
256,192,25121,5,8,0:0:0:0:
256,192,25196,1,8,0:0:0:0:
256,192,25271,5,0,0:0:0:0:
256,192,25346,1,0,0:0:0:0:
256,192,25421,5,8,0:0:0:0:
256,192,25571,5,4,0:0:0:0:
256,192,25721,1,4,0:0:0:0:
256,192,25871,5,8,0:0:0:0:
256,192,25921,1,8,0:0:0:0:
256,192,25971,1,8,0:0:0:0:
256,192,26021,5,0,0:0:0:0:
256,192,26096,5,8,0:0:0:0:
256,192,26171,5,0,0:0:0:0:
256,192,26221,1,0,0:0:0:0:
256,192,26271,1,0,0:0:0:0:
256,192,26321,5,8,0:0:0:0:
256,192,26396,5,0,0:0:0:0:
256,192,26471,5,8,0:0:0:0:
256,192,26546,1,8,0:0:0:0:
256,192,26621,5,0,0:0:0:0:
256,192,26696,5,8,0:0:0:0:
256,192,26771,5,0,0:0:0:0:
256,192,26821,1,0,0:0:0:0:
256,192,26871,1,0,0:0:0:0:
256,192,26921,5,8,0:0:0:0:
256,192,26996,5,0,0:0:0:0:
256,192,27071,5,8,0:0:0:0:
256,192,27121,1,8,0:0:0:0:
256,192,27171,1,8,0:0:0:0:
256,192,27221,5,0,0:0:0:0:
256,192,27296,5,8,0:0:0:0:
256,192,27371,5,0,0:0:0:0:
256,192,27521,1,0,0:0:0:0:
256,192,27671,5,8,0:0:0:0:
256,192,27821,1,8,0:0:0:0:
256,192,27971,5,4,0:0:0:0:
256,192,28121,1,4,0:0:0:0:
256,192,28271,5,8,0:0:0:0:
256,192,28321,1,8,0:0:0:0:
256,192,28371,1,8,0:0:0:0:
256,192,28421,5,0,0:0:0:0:
256,192,28496,5,8,0:0:0:0:
256,192,28571,5,0,0:0:0:0:
256,192,28621,1,0,0:0:0:0:
256,192,28671,1,0,0:0:0:0:
256,192,28721,5,8,0:0:0:0:
256,192,28796,1,8,0:0:0:0:
256,192,28871,5,0,0:0:0:0:
256,192,28946,5,8,0:0:0:0:
256,192,29021,1,8,0:0:0:0:
256,192,29096,1,8,0:0:0:0:
256,192,29171,5,0,0:0:0:0:
256,192,29246,5,8,0:0:0:0:
256,192,29321,5,0,0:0:0:0:
256,192,29396,1,0,0:0:0:0:
256,192,29471,5,8,0:0:0:0:
256,192,29521,1,8,0:0:0:0:
256,192,29571,1,8,0:0:0:0:
256,192,29621,5,0,0:0:0:0:
256,192,29696,5,8,0:0:0:0:
256,192,29771,5,0,0:0:0:0:
256,192,29821,1,0,0:0:0:0:
256,192,29871,1,0,0:0:0:0:
256,192,29921,5,8,0:0:0:0:
256,192,29996,1,8,0:0:0:0:
256,192,30071,5,0,0:0:0:0:
256,192,30221,5,8,0:0:0:0:
256,192,30371,5,4,0:0:0:0:
256,192,30521,1,4,0:0:0:0:
256,192,30671,5,8,0:0:0:0:
256,192,30721,1,8,0:0:0:0:
256,192,30771,1,8,0:0:0:0:
256,192,30821,5,0,0:0:0:0:
256,192,30896,5,8,0:0:0:0:
256,192,30971,5,0,0:0:0:0:
256,192,31021,1,0,0:0:0:0:
256,192,31071,1,0,0:0:0:0:
256,192,31121,5,8,0:0:0:0:
256,192,31196,1,8,0:0:0:0:
256,192,31271,5,0,0:0:0:0:
256,192,31346,1,0,0:0:0:0:
256,192,31421,5,8,0:0:0:0:
256,192,31571,5,4,0:0:0:0:
256,192,31721,5,8,0:0:0:0:
256,192,31796,5,0,0:0:0:0:
256,192,31871,5,8,0:0:0:0:
256,192,32021,5,0,0:0:0:0:
256,192,32171,5,12,0:0:0:0:
256,192,32321,5,0,0:0:0:0:
256,192,32471,5,12,0:0:0:0:
256,192,32771,5,8,0:0:0:0:
256,192,32821,1,8,0:0:0:0:
256,192,32871,1,8,0:0:0:0:
256,192,32921,5,0,0:0:0:0:
256,192,32996,1,0,0:0:0:0:
256,192,33071,1,0,0:0:0:0:
256,192,33146,1,0,0:0:0:0:
256,192,33221,5,8,0:0:0:0:
256,192,33271,1,8,0:0:0:0:
256,192,33321,1,8,0:0:0:0:
256,192,33371,5,0,0:0:0:0:
256,192,33446,1,0,0:0:0:0:
256,192,33521,1,0,0:0:0:0:
256,192,33596,1,0,0:0:0:0:
256,192,33671,5,8,0:0:0:0:
256,192,33721,1,8,0:0:0:0:
256,192,33771,1,8,0:0:0:0:
256,192,33821,5,0,0:0:0:0:
256,192,33896,1,0,0:0:0:0:
256,192,33971,5,8,0:0:0:0:
256,192,34021,1,8,0:0:0:0:
256,192,34071,1,8,0:0:0:0:
256,192,34121,5,0,0:0:0:0:
256,192,34196,1,0,0:0:0:0:
256,192,34271,1,0,0:0:0:0:
256,192,34346,1,0,0:0:0:0:
256,192,34421,5,8,0:0:0:0:
256,192,34471,1,8,0:0:0:0:
256,192,34521,1,8,0:0:0:0:
256,192,34571,5,0,0:0:0:0:
256,192,34721,5,0,0:0:0:0:
256,192,34871,5,12,0:0:0:0:
256,192,35171,5,0,0:0:0:0:
256,192,35221,1,0,0:0:0:0:
256,192,35271,1,0,0:0:0:0:
256,192,35321,5,8,0:0:0:0:
256,192,35396,1,8,0:0:0:0:
256,192,35471,1,8,0:0:0:0:
256,192,35546,1,8,0:0:0:0:
256,192,35621,5,0,0:0:0:0:
256,192,35671,1,0,0:0:0:0:
256,192,35721,1,0,0:0:0:0:
256,192,35771,5,8,0:0:0:0:
256,192,35846,1,8,0:0:0:0:
256,192,35921,1,8,0:0:0:0:
256,192,35996,1,8,0:0:0:0:
256,192,36071,5,0,0:0:0:0:
256,192,36121,1,0,0:0:0:0:
256,192,36171,1,0,0:0:0:0:
256,192,36221,5,8,0:0:0:0:
256,192,36296,1,8,0:0:0:0:
256,192,36371,5,0,0:0:0:0:
256,192,36421,1,0,0:0:0:0:
256,192,36471,1,0,0:0:0:0:
256,192,36521,5,8,0:0:0:0:
256,192,36596,1,8,0:0:0:0:
256,192,36671,5,0,0:0:0:0:
256,192,36746,5,8,0:0:0:0:
256,192,36821,5,0,0:0:0:0:
256,192,36871,1,0,0:0:0:0:
256,192,36921,1,0,0:0:0:0:
256,192,36971,5,8,0:0:0:0:
256,192,37121,5,0,0:0:0:0:
256,192,37271,5,8,0:0:0:0:
256,192,37421,1,8,0:0:0:0:
256,192,37571,5,8,0:0:0:0:
256,192,37621,1,8,0:0:0:0:
256,192,37671,1,8,0:0:0:0:
256,192,37721,5,0,0:0:0:0:
256,192,37796,1,0,0:0:0:0:
256,192,37871,5,8,0:0:0:0:
256,192,37946,5,0,0:0:0:0:
256,192,38021,5,8,0:0:0:0:
256,192,38071,1,8,0:0:0:0:
256,192,38121,1,8,0:0:0:0:
256,192,38171,5,0,0:0:0:0:
256,192,38246,1,0,0:0:0:0:
256,192,38321,5,8,0:0:0:0:
256,192,38396,5,0,0:0:0:0:
256,192,38471,5,8,0:0:0:0:
256,192,38521,1,8,0:0:0:0:
256,192,38571,1,8,0:0:0:0:
256,192,38621,5,0,0:0:0:0:
256,192,38696,1,0,0:0:0:0:
256,192,38771,5,8,0:0:0:0:
256,192,38821,1,8,0:0:0:0:
256,192,38871,1,8,0:0:0:0:
256,192,38921,5,0,0:0:0:0:
256,192,38996,1,0,0:0:0:0:
256,192,39071,5,8,0:0:0:0:
256,192,39146,5,0,0:0:0:0:
256,192,39221,5,8,0:0:0:0:
256,192,39271,1,8,0:0:0:0:
256,192,39321,1,8,0:0:0:0:
256,192,39371,5,0,0:0:0:0:
256,192,39521,1,0,0:0:0:0:
256,192,39671,5,12,0:0:0:0:
256,192,39971,5,0,0:0:0:0:
256,192,40021,1,0,0:0:0:0:
256,192,40071,1,0,0:0:0:0:
256,192,40121,5,8,0:0:0:0:
256,192,40196,1,8,0:0:0:0:
256,192,40271,5,0,0:0:0:0:
256,192,40346,5,8,0:0:0:0:
256,192,40421,5,0,0:0:0:0:
256,192,40471,1,0,0:0:0:0:
256,192,40521,1,0,0:0:0:0:
256,192,40571,5,8,0:0:0:0:
256,192,40646,1,8,0:0:0:0:
256,192,40721,5,0,0:0:0:0:
256,192,40796,5,8,0:0:0:0:
256,192,40871,5,0,0:0:0:0:
256,192,40921,1,0,0:0:0:0:
256,192,40971,1,0,0:0:0:0:
256,192,41021,5,8,0:0:0:0:
256,192,41096,1,8,0:0:0:0:
256,192,41171,5,0,0:0:0:0:
256,192,41221,1,0,0:0:0:0:
256,192,41271,1,0,0:0:0:0:
256,192,41321,5,8,0:0:0:0:
256,192,41396,1,8,0:0:0:0:
256,192,41471,5,0,0:0:0:0:
256,192,41546,5,8,0:0:0:0:
256,192,41621,5,0,0:0:0:0:
256,192,41671,1,0,0:0:0:0:
256,192,41721,1,0,0:0:0:0:
256,192,41771,5,8,0:0:0:0:
256,192,42071,1,12,0:0:0:0:
256,192,42371,5,0,0:0:0:0:
256,192,42521,5,8,0:0:0:0:
256,192,42596,1,8,0:0:0:0:
256,192,42671,5,0,0:0:0:0:
256,192,42746,5,8,0:0:0:0:
256,192,42896,1,8,0:0:0:0:
256,192,42971,5,0,0:0:0:0:
256,192,43121,5,8,0:0:0:0:
256,192,43196,1,8,0:0:0:0:
256,192,43271,5,0,0:0:0:0:
256,192,43346,5,8,0:0:0:0:
256,192,43421,1,8,0:0:0:0:
256,192,43571,5,0,0:0:0:0:
256,192,43721,5,8,0:0:0:0:
256,192,43796,1,8,0:0:0:0:
256,192,43871,5,0,0:0:0:0:
256,192,43946,5,8,0:0:0:0:
256,192,44096,1,8,0:0:0:0:
256,192,44171,5,0,0:0:0:0:
256,192,44246,5,8,0:0:0:0:
256,192,44321,5,0,0:0:0:0:
256,192,44396,1,0,0:0:0:0:
256,192,44471,5,8,0:0:0:0:
256,192,44546,5,0,0:0:0:0:
256,192,44621,5,8,0:0:0:0:
256,192,44696,1,8,0:0:0:0:
256,192,44771,5,0,0:0:0:0:
256,192,44921,1,8,0:0:0:0:
256,192,44996,5,8,0:0:0:0:
256,192,45071,5,0,0:0:0:0:
256,192,45146,5,8,0:0:0:0:
256,192,45296,1,8,0:0:0:0:
256,192,45371,5,0,0:0:0:0:
256,192,45521,5,8,0:0:0:0:
256,192,45596,1,8,0:0:0:0:
256,192,45671,5,0,0:0:0:0:
256,192,45746,5,8,0:0:0:0:
256,192,45821,1,8,0:0:0:0:
256,192,45971,5,0,0:0:0:0:
256,192,46121,5,8,0:0:0:0:
256,192,46196,1,8,0:0:0:0:
256,192,46271,5,0,0:0:0:0:
256,192,46346,5,8,0:0:0:0:
256,192,46496,1,8,0:0:0:0:
256,192,46571,5,0,0:0:0:0:
256,192,46646,1,0,0:0:0:0:
256,192,46721,5,8,0:0:0:0:
256,192,46796,5,0,0:0:0:0:
256,192,46871,5,8,0:0:0:0:
256,192,46946,1,8,0:0:0:0:
256,192,47021,1,8,0:0:0:0:
256,192,47096,1,8,0:0:0:0:
256,192,47171,5,0,0:0:0:0:
256,192,47321,5,8,0:0:0:0:
256,192,47396,1,8,0:0:0:0:
256,192,47471,5,0,0:0:0:0:
256,192,47546,5,8,0:0:0:0:
256,192,47621,5,0,0:0:0:0:
256,192,47771,1,0,0:0:0:0:
256,192,47921,5,8,0:0:0:0:
256,192,47996,1,8,0:0:0:0:
256,192,48071,5,0,0:0:0:0:
256,192,48146,5,8,0:0:0:0:
256,192,48221,1,8,0:0:0:0:
256,192,48371,5,0,0:0:0:0:
256,192,48521,1,0,0:0:0:0:
256,192,48596,5,8,0:0:0:0:
256,192,48671,5,0,0:0:0:0:
256,192,48746,5,8,0:0:0:0:
256,192,48896,1,8,0:0:0:0:
256,192,48971,5,0,0:0:0:0:
256,192,49046,5,8,0:0:0:0:
256,192,49121,1,8,0:0:0:0:
256,192,49196,1,8,0:0:0:0:
256,192,49271,5,0,0:0:0:0:
256,192,49346,1,0,0:0:0:0:
256,192,49421,5,8,0:0:0:0:
256,192,49496,1,8,0:0:0:0:
256,192,49571,5,0,0:0:0:0:
256,192,49721,5,8,0:0:0:0:
256,192,49796,1,8,0:0:0:0:
256,192,49871,1,8,0:0:0:0:
256,192,50021,5,0,0:0:0:0:
256,192,50171,5,0,0:0:0:0:
256,192,50221,5,8,0:0:0:0:
256,192,50271,1,8,0:0:0:0:
256,192,50321,1,8,0:0:0:0:
256,192,50396,1,8,0:0:0:0:
256,192,50471,5,0,0:0:0:0:
256,192,50521,5,8,0:0:0:0:
256,192,50571,1,8,0:0:0:0:
256,192,50621,1,8,0:0:0:0:
256,192,50696,1,8,0:0:0:0:
256,192,51671,5,12,0:0:0:0:
256,192,51971,5,0,0:0:0:0:
256,192,52421,1,0,0:0:0:0:
256,192,52571,5,8,0:0:0:0:
256,192,52721,5,0,0:0:0:0:
256,192,53021,1,0,0:0:0:0:
256,192,53471,1,0,0:0:0:0:
256,192,53771,5,8,0:0:0:0:
256,192,54071,1,0,0:0:0:0:
256,192,54221,1,0,0:0:0:0:
256,192,54371,1,0,0:0:0:0:
256,192,54821,1,0,0:0:0:0:
256,192,54971,5,8,0:0:0:0:
256,192,55121,5,0,0:0:0:0:
256,192,55421,1,0,0:0:0:0:
256,192,55721,1,0,0:0:0:0:
256,192,55871,1,0,0:0:0:0:
256,192,56171,5,8,0:0:0:0:
256,192,56321,1,8,0:0:0:0:
256,192,56396,1,8,0:0:0:0:
256,192,56471,1,8,0:0:0:0:
256,192,56621,1,8,0:0:0:0:
256,192,56771,5,0,0:0:0:0:
256,192,57221,1,0,0:0:0:0:
256,192,57371,5,8,0:0:0:0:
256,192,57521,5,0,0:0:0:0:
256,192,57821,1,0,0:0:0:0:
256,192,58271,1,0,0:0:0:0:
256,192,58571,5,8,0:0:0:0:
256,192,58871,5,0,0:0:0:0:
256,192,59021,1,0,0:0:0:0:
256,192,59171,1,0,0:0:0:0:
256,192,59621,1,0,0:0:0:0:
256,192,59771,5,8,0:0:0:0:
256,192,59921,5,0,0:0:0:0:
256,192,60371,5,12,0:0:0:0:
256,192,60671,1,8,0:0:0:0:
256,192,60821,1,8,0:0:0:0:
256,192,60971,1,8,0:0:0:0:
256,192,61121,1,8,0:0:0:0:
256,192,61196,1,8,0:0:0:0:
256,192,61271,1,8,0:0:0:0:
256,192,61421,1,8,0:0:0:0:
256,192,61571,5,0,0:0:0:0:
256,192,61871,5,8,0:0:0:0:
256,192,62021,5,0,0:0:0:0:
256,192,62171,5,8,0:0:0:0:
256,192,62321,5,0,0:0:0:0:
256,192,62621,5,8,0:0:0:0:
256,192,62921,1,8,0:0:0:0:
256,192,63071,5,0,0:0:0:0:
256,192,63371,5,8,0:0:0:0:
256,192,63671,1,8,0:0:0:0:
256,192,63746,1,8,0:0:0:0:
256,192,63821,1,8,0:0:0:0:
256,192,63896,1,8,0:0:0:0:
256,192,63971,5,0,0:0:0:0:
256,192,64271,5,8,0:0:0:0:
256,192,64421,5,0,0:0:0:0:
256,192,64571,5,8,0:0:0:0:
256,192,64721,5,0,0:0:0:0:
256,192,65021,5,8,0:0:0:0:
256,192,65321,1,8,0:0:0:0:
256,192,65471,5,0,0:0:0:0:
256,192,65771,5,8,0:0:0:0:
256,192,65921,1,8,0:0:0:0:
256,192,65996,1,8,0:0:0:0:
256,192,66071,1,8,0:0:0:0:
256,192,66221,1,8,0:0:0:0:
256,192,66371,5,0,0:0:0:0:
256,192,66671,5,8,0:0:0:0:
256,192,66821,5,0,0:0:0:0:
256,192,66971,5,8,0:0:0:0:
256,192,67121,5,0,0:0:0:0:
256,192,67421,5,8,0:0:0:0:
256,192,67721,1,8,0:0:0:0:
256,192,67871,5,0,0:0:0:0:
256,192,68171,5,8,0:0:0:0:
256,192,68471,1,8,0:0:0:0:
256,192,68546,1,8,0:0:0:0:
256,192,68621,1,8,0:0:0:0:
256,192,68696,1,8,0:0:0:0:
256,192,68771,5,0,0:0:0:0:
256,192,68921,5,8,0:0:0:0:
256,192,68996,1,8,0:0:0:0:
256,192,69071,1,8,0:0:0:0:
256,192,69221,5,0,0:0:0:0:
256,192,69371,5,8,0:0:0:0:
256,192,69521,5,0,0:0:0:0:
256,192,69671,1,8,0:0:0:0:
256,192,69746,1,8,0:0:0:0:
256,192,69821,5,8,0:0:0:0:
256,192,69971,1,8,0:0:0:0:
256,192,70121,1,8,0:0:0:0:
256,192,70196,1,8,0:0:0:0:
256,192,70271,1,8,0:0:0:0:
256,192,70421,5,0,0:0:0:0:
256,192,70571,1,0,0:0:0:0:
256,192,70646,5,8,0:0:0:0:
256,192,70721,1,8,0:0:0:0:
256,192,70796,1,8,0:0:0:0:
256,192,70871,5,0,0:0:0:0:
256,192,70946,1,0,0:0:0:0:
256,192,71021,1,0,0:0:0:0:
256,192,71096,1,0,0:0:0:0:
256,192,71171,5,12,0:0:0:0:
256,192,75971,5,8,0:0:0:0:
256,192,76271,1,8,0:0:0:0:
256,192,76421,1,8,0:0:0:0:
256,192,76496,1,8,0:0:0:0:
256,192,76571,1,8,0:0:0:0:
256,192,76721,1,8,0:0:0:0:
256,192,76871,1,8,0:0:0:0:
256,192,76946,1,8,0:0:0:0:
256,192,77021,1,8,0:0:0:0:
256,192,77171,1,8,0:0:0:0:
256,192,77396,1,8,0:0:0:0:
256,192,77471,1,8,0:0:0:0:
256,192,77621,1,8,0:0:0:0:
256,192,77696,1,8,0:0:0:0:
256,192,77771,1,8,0:0:0:0:
256,192,77921,1,8,0:0:0:0:
256,192,78071,1,8,0:0:0:0:
256,192,78371,1,8,0:0:0:0:
256,192,78521,1,8,0:0:0:0:
256,192,78671,1,8,0:0:0:0:
256,192,78746,1,8,0:0:0:0:
256,192,78896,1,8,0:0:0:0:
256,192,79046,1,8,0:0:0:0:
256,192,79121,1,8,0:0:0:0:
256,192,79271,1,8,0:0:0:0:
256,192,79421,1,8,0:0:0:0:
256,192,80246,5,0,0:0:0:0:
256,192,80321,5,8,0:0:0:0:
256,192,80471,5,0,0:0:0:0:
256,192,80621,5,8,0:0:0:0:
256,192,80771,5,0,0:0:0:0:
256,192,80921,1,0,0:0:0:0:
256,192,80996,5,8,0:0:0:0:
256,192,81071,1,8,0:0:0:0:
256,192,81221,1,8,0:0:0:0:
256,192,81296,1,8,0:0:0:0:
256,192,81371,5,0,0:0:0:0:
256,192,81521,5,8,0:0:0:0:
256,192,81671,5,0,0:0:0:0:
256,192,81746,5,8,0:0:0:0:
256,192,81821,5,0,0:0:0:0:
256,192,81971,5,8,0:0:0:0:
256,192,82121,1,8,0:0:0:0:
256,192,82196,5,0,0:0:0:0:
256,192,82271,1,0,0:0:0:0:
256,192,82421,1,0,0:0:0:0:
256,192,82496,1,0,0:0:0:0:
256,192,82571,5,8,0:0:0:0:
256,192,82721,5,0,0:0:0:0:
256,192,82871,5,8,0:0:0:0:
256,192,82946,1,8,0:0:0:0:
256,192,83021,1,8,0:0:0:0:
256,192,83171,5,0,0:0:0:0:
256,192,83321,5,8,0:0:0:0:
256,192,83471,5,0,0:0:0:0:
256,192,83546,5,8,0:0:0:0:
256,192,83696,1,8,0:0:0:0:
256,192,83846,1,0,0:0:0:0:
256,192,83921,5,8,0:0:0:0:
256,192,84071,5,0,0:0:0:0:
256,192,84146,1,0,0:0:0:0:
256,192,84221,5,8,0:0:0:0:
256,192,84296,1,8,0:0:0:0:
256,192,84371,5,0,0:0:0:0:
256,192,84521,5,8,0:0:0:0:
256,192,84596,5,0,0:0:0:0:
256,192,84671,5,8,0:0:0:0:
256,192,84746,1,8,0:0:0:0:
256,192,84821,5,0,0:0:0:0:
256,192,84896,5,8,0:0:0:0:
256,192,85046,1,0,0:0:0:0:
256,192,85121,5,8,0:0:0:0:
256,192,85271,1,8,0:0:0:0:
256,192,85421,1,8,0:0:0:0:
256,192,85571,5,0,0:0:0:0:
256,192,85721,1,0,0:0:0:0:
256,192,85796,1,0,0:0:0:0:
256,192,85871,5,8,0:0:0:0:
256,192,86021,1,8,0:0:0:0:
256,192,86096,1,8,0:0:0:0:
256,192,86171,5,0,0:0:0:0:
256,192,86321,5,8,0:0:0:0:
256,192,86471,5,0,0:0:0:0:
256,192,86546,5,8,0:0:0:0:
256,192,86621,5,0,0:0:0:0:
256,192,86771,5,8,0:0:0:0:
256,192,86921,1,8,0:0:0:0:
256,192,86996,1,8,0:0:0:0:
256,192,87071,5,0,0:0:0:0:
256,192,87221,1,0,0:0:0:0:
256,192,87296,1,0,0:0:0:0:
256,192,87371,5,8,0:0:0:0:
256,192,87521,5,0,0:0:0:0:
256,192,87671,5,8,0:0:0:0:
256,192,87746,1,8,0:0:0:0:
256,192,87821,1,8,0:0:0:0:
256,192,87971,5,0,0:0:0:0:
256,192,88121,5,8,0:0:0:0:
256,192,88196,5,8,0:0:0:0:
256,192,88271,5,0,0:0:0:0:
256,192,88346,5,8,0:0:0:0:
256,192,88496,1,8,0:0:0:0:
256,192,88646,5,0,0:0:0:0:
256,192,88721,5,8,0:0:0:0:
256,192,88871,5,0,0:0:0:0:
256,192,89021,5,8,0:0:0:0:
256,192,89096,1,8,0:0:0:0:
256,192,89171,5,0,0:0:0:0:
256,192,89246,5,8,0:0:0:0:
256,192,89321,5,0,0:0:0:0:
256,192,89396,1,0,0:0:0:0:
256,192,89471,5,8,0:0:0:0:
256,192,89546,5,0,0:0:0:0:
256,192,89621,5,8,0:0:0:0:
256,192,89696,1,8,0:0:0:0:
256,192,89771,5,0,0:0:0:0:
256,192,89846,5,8,0:0:0:0:
256,192,89996,1,8,0:0:0:0:
256,192,90071,5,0,0:0:0:0:
256,192,90146,1,0,0:0:0:0:
256,192,90221,5,8,0:0:0:0:
256,192,90371,5,4,0:0:0:0:
256,192,90596,1,0,0:0:0:0:
256,192,90671,5,8,0:0:0:0:
256,192,90821,1,8,0:0:0:0:
256,192,90896,1,8,0:0:0:0:
256,192,90971,5,0,0:0:0:0:
256,192,91121,5,8,0:0:0:0:
256,192,91271,5,0,0:0:0:0:
256,192,91346,5,8,0:0:0:0:
256,192,91421,5,0,0:0:0:0:
256,192,91571,5,12,0:0:0:0:
256,192,91796,1,8,0:0:0:0:
256,192,91871,5,0,0:0:0:0:
256,192,92021,1,0,0:0:0:0:
256,192,92096,1,0,0:0:0:0:
256,192,92171,5,8,0:0:0:0:
256,192,92321,5,0,0:0:0:0:
256,192,92471,5,8,0:0:0:0:
256,192,92546,5,0,0:0:0:0:
256,192,92621,5,8,0:0:0:0:
256,192,92771,5,4,0:0:0:0:
256,192,92996,1,0,0:0:0:0:
256,192,93071,5,8,0:0:0:0:
256,192,93221,1,8,0:0:0:0:
256,192,93296,1,8,0:0:0:0:
256,192,93371,5,0,0:0:0:0:
256,192,93521,5,8,0:0:0:0:
256,192,93671,5,0,0:0:0:0:
256,192,93746,5,8,0:0:0:0:
256,192,93821,5,0,0:0:0:0:
256,192,93971,5,12,0:0:0:0:
256,192,94196,1,8,0:0:0:0:
256,192,94271,5,0,0:0:0:0:
256,192,94421,1,0,0:0:0:0:
256,192,94496,1,0,0:0:0:0:
256,192,94571,5,8,0:0:0:0:
256,192,94721,5,0,0:0:0:0:
256,192,94871,5,8,0:0:0:0:
256,192,94946,5,0,0:0:0:0:
256,192,95021,5,8,0:0:0:0:
256,192,95171,5,4,0:0:0:0:
256,192,95321,5,8,0:0:0:0:
256,192,95396,1,8,0:0:0:0:
256,192,95471,5,0,0:0:0:0:
256,192,95546,5,8,0:0:0:0:
256,192,95621,5,0,0:0:0:0:
256,192,95696,1,8,0:0:0:0:
256,192,95771,5,0,0:0:0:0:
256,192,95846,1,0,0:0:0:0:
256,192,95921,5,8,0:0:0:0:
256,192,95996,1,0,0:0:0:0:
256,192,96071,5,8,0:0:0:0:
256,192,96146,1,0,0:0:0:0:
256,192,96221,5,8,0:0:0:0:
256,192,96296,1,8,0:0:0:0:
256,192,96371,5,0,0:0:0:0:
256,192,96446,5,8,0:0:0:0:
256,192,96521,5,0,0:0:0:0:
256,192,96596,1,8,0:0:0:0:
256,192,96671,5,0,0:0:0:0:
256,192,96746,1,0,0:0:0:0:
256,192,96821,5,8,0:0:0:0:
256,192,96896,5,0,0:0:0:0:
256,192,96971,5,8,0:0:0:0:
256,192,97046,1,0,0:0:0:0:
256,192,97121,5,8,0:0:0:0:
256,192,97196,1,8,0:0:0:0:
256,192,97271,5,0,0:0:0:0:
256,192,97346,5,8,0:0:0:0:
256,192,97421,5,0,0:0:0:0:
256,192,97496,1,8,0:0:0:0:
256,192,97571,5,0,0:0:0:0:
256,192,97646,1,8,0:0:0:0:
256,192,97721,5,8,0:0:0:0:
256,192,97796,1,8,0:0:0:0:
256,192,97871,5,0,0:0:0:0:
256,192,97921,5,8,0:0:0:0:
256,192,97971,1,8,0:0:0:0:
256,192,98021,1,8,0:0:0:0:
256,192,98096,1,8,0:0:0:0:
256,192,98171,5,0,0:0:0:0:
256,192,98221,5,8,0:0:0:0:
256,192,98271,1,8,0:0:0:0:
256,192,98321,1,8,0:0:0:0:
256,192,98396,1,8,0:0:0:0:
256,192,98471,5,0,0:0:0:0:
256,192,98521,5,8,0:0:0:0:
256,192,98571,1,8,0:0:0:0:
256,192,98621,1,8,0:0:0:0:
256,192,99671,5,12,0:0:0:0:
256,192,99971,5,4,0:0:0:0:
256,192,100121,5,12,0:0:0:0:
256,192,100271,5,8,0:0:0:0:
256,192,100321,1,8,0:0:0:0:
256,192,100371,1,8,0:0:0:0:
256,192,100421,5,0,0:0:0:0:
256,192,100496,1,0,0:0:0:0:
256,192,100571,1,0,0:0:0:0:
256,192,100621,1,0,0:0:0:0:
256,192,100671,1,0,0:0:0:0:
256,192,100721,5,8,0:0:0:0:
256,192,100796,5,0,0:0:0:0:
256,192,100871,5,8,0:0:0:0:
256,192,100946,5,0,0:0:0:0:
256,192,101021,5,8,0:0:0:0:
256,192,101096,1,8,0:0:0:0:
256,192,101171,5,0,0:0:0:0:
256,192,101246,5,8,0:0:0:0:
256,192,101321,5,0,0:0:0:0:
256,192,101396,1,0,0:0:0:0:
256,192,101471,5,8,0:0:0:0:
256,192,101521,1,8,0:0:0:0:
256,192,101571,1,8,0:0:0:0:
256,192,101621,5,0,0:0:0:0:
256,192,101696,5,8,0:0:0:0:
256,192,101771,1,8,0:0:0:0:
256,192,101846,5,0,0:0:0:0:
256,192,101921,5,8,0:0:0:0:
256,192,101996,5,0,0:0:0:0:
256,192,102071,1,0,0:0:0:0:
256,192,102121,1,0,0:0:0:0:
256,192,102171,1,0,0:0:0:0:
256,192,102221,5,8,0:0:0:0:
256,192,102271,1,8,0:0:0:0:
256,192,102321,1,8,0:0:0:0:
256,192,102371,5,4,0:0:0:0:
256,192,102521,5,12,0:0:0:0:
256,192,102671,1,8,0:0:0:0:
256,192,102721,1,8,0:0:0:0:
256,192,102771,1,8,0:0:0:0:
256,192,102821,5,0,0:0:0:0:
256,192,102896,1,0,0:0:0:0:
256,192,102971,1,0,0:0:0:0:
256,192,103021,1,0,0:0:0:0:
256,192,103071,1,0,0:0:0:0:
256,192,103121,5,8,0:0:0:0:
256,192,103196,1,8,0:0:0:0:
256,192,103271,5,0,0:0:0:0:
256,192,103346,5,8,0:0:0:0:
256,192,103421,5,0,0:0:0:0:
256,192,103496,1,0,0:0:0:0:
256,192,103571,5,8,0:0:0:0:
256,192,103646,5,0,0:0:0:0:
256,192,103721,1,8,0:0:0:0:
256,192,103796,1,8,0:0:0:0:
256,192,103871,5,8,0:0:0:0:
256,192,103921,1,8,0:0:0:0:
256,192,103971,1,8,0:0:0:0:
256,192,104021,5,0,0:0:0:0:
256,192,104096,1,0,0:0:0:0:
256,192,104171,5,8,0:0:0:0:
256,192,104321,5,0,0:0:0:0:
256,192,104471,5,8,0:0:0:0:
256,192,104621,1,8,0:0:0:0:
256,192,104771,5,4,0:0:0:0:
256,192,104921,5,12,0:0:0:0:
256,192,105071,5,8,0:0:0:0:
256,192,105121,1,8,0:0:0:0:
256,192,105171,1,8,0:0:0:0:
256,192,105221,5,0,0:0:0:0:
256,192,105296,1,0,0:0:0:0:
256,192,105371,1,0,0:0:0:0:
256,192,105421,1,0,0:0:0:0:
256,192,105471,1,0,0:0:0:0:
256,192,105521,5,8,0:0:0:0:
256,192,105596,5,0,0:0:0:0:
256,192,105671,5,8,0:0:0:0:
256,192,105746,5,0,0:0:0:0:
256,192,105821,5,8,0:0:0:0:
256,192,105896,1,8,0:0:0:0:
256,192,105971,5,0,0:0:0:0:
256,192,106046,1,0,0:0:0:0:
256,192,106121,5,8,0:0:0:0:
256,192,106196,5,0,0:0:0:0:
256,192,106271,5,8,0:0:0:0:
256,192,106321,1,8,0:0:0:0:
256,192,106371,1,8,0:0:0:0:
256,192,106421,5,0,0:0:0:0:
256,192,106496,5,8,0:0:0:0:
256,192,106571,5,0,0:0:0:0:
256,192,106646,1,0,0:0:0:0:
256,192,106721,5,8,0:0:0:0:
256,192,106796,5,8,0:0:0:0:
256,192,106871,5,0,0:0:0:0:
256,192,106921,1,0,0:0:0:0:
256,192,106971,1,0,0:0:0:0:
256,192,107021,5,8,0:0:0:0:
256,192,107071,1,8,0:0:0:0:
256,192,107121,1,8,0:0:0:0:
256,192,107171,5,4,0:0:0:0:
256,192,107321,5,12,0:0:0:0:
256,192,107471,1,8,0:0:0:0:
256,192,107521,1,8,0:0:0:0:
256,192,107571,1,8,0:0:0:0:
256,192,107621,5,0,0:0:0:0:
256,192,107696,1,0,0:0:0:0:
256,192,107771,1,0,0:0:0:0:
256,192,107821,1,0,0:0:0:0:
256,192,107871,1,0,0:0:0:0:
256,192,107921,5,8,0:0:0:0:
256,192,107996,1,8,0:0:0:0:
256,192,108071,5,0,0:0:0:0:
256,192,108146,1,0,0:0:0:0:
256,192,108221,5,8,0:0:0:0:
256,192,108296,5,0,0:0:0:0:
256,192,108371,5,8,0:0:0:0:
256,192,108521,5,0,0:0:0:0:
256,192,108671,5,8,0:0:0:0:
256,192,108821,1,8,0:0:0:0:
256,192,108971,5,4,0:0:0:0:
256,192,109271,5,12,0:0:0:0:
256,192,109571,5,4,0:0:0:0:
256,192,109721,5,8,0:0:0:0:
256,192,109796,5,0,0:0:0:0:
256,192,109871,1,8,0:0:0:0:
256,192,109921,1,8,0:0:0:0:
256,192,109971,1,8,0:0:0:0:
256,192,110021,5,0,0:0:0:0:
256,192,110096,5,8,0:0:0:0:
256,192,110171,5,0,0:0:0:0:
256,192,110221,1,0,0:0:0:0:
256,192,110271,1,0,0:0:0:0:
256,192,110321,5,8,0:0:0:0:
256,192,110396,5,0,0:0:0:0:
256,192,110471,5,8,0:0:0:0:
256,192,110546,5,0,0:0:0:0:
256,192,110621,5,8,0:0:0:0:
256,192,110771,5,4,0:0:0:0:
256,192,110921,5,8,0:0:0:0:
256,192,110996,5,0,0:0:0:0:
256,192,111071,5,8,0:0:0:0:
256,192,111121,1,8,0:0:0:0:
256,192,111171,1,8,0:0:0:0:
256,192,111221,5,0,0:0:0:0:
256,192,111296,1,0,0:0:0:0:
256,192,111371,5,8,0:0:0:0:
256,192,111446,5,0,0:0:0:0:
256,192,111521,5,8,0:0:0:0:
256,192,111596,1,8,0:0:0:0:
256,192,111671,5,0,0:0:0:0:
256,192,111721,1,0,0:0:0:0:
256,192,111771,1,0,0:0:0:0:
256,192,111821,5,8,0:0:0:0:
256,192,111971,5,4,0:0:0:0:
256,192,112121,1,4,0:0:0:0:
256,192,112271,5,8,0:0:0:0:
256,192,112321,1,8,0:0:0:0:
256,192,112371,1,8,0:0:0:0:
256,192,112421,5,0,0:0:0:0:
256,192,112496,5,8,0:0:0:0:
256,192,112571,5,0,0:0:0:0:
256,192,112621,1,0,0:0:0:0:
256,192,112671,1,0,0:0:0:0:
256,192,112721,5,8,0:0:0:0:
256,192,112796,1,8,0:0:0:0:
256,192,112871,5,0,0:0:0:0:
256,192,112946,5,8,0:0:0:0:
256,192,113021,5,0,0:0:0:0:
256,192,113171,1,4,0:0:0:0:
256,192,113321,1,8,0:0:0:0:
256,192,113396,5,0,0:0:0:0:
256,192,113471,5,8,0:0:0:0:
256,192,113521,1,8,0:0:0:0:
256,192,113571,1,8,0:0:0:0:
256,192,113621,5,0,0:0:0:0:
256,192,113771,5,4,0:0:0:0:
256,192,113921,1,4,0:0:0:0:
256,192,114071,5,12,0:0:0:0:
256,192,114221,1,12,0:0:0:0:
256,192,114371,5,0,0:0:0:0:
256,192,114421,1,0,0:0:0:0:
256,192,114471,1,0,0:0:0:0:
256,192,114521,5,8,0:0:0:0:
256,192,114596,5,0,0:0:0:0:
256,192,114671,5,8,0:0:0:0:
256,192,114721,1,8,0:0:0:0:
256,192,114771,1,8,0:0:0:0:
256,192,114821,5,0,0:0:0:0:
256,192,114896,1,0,0:0:0:0:
256,192,114971,1,0,0:0:0:0:
256,192,115021,1,0,0:0:0:0:
256,192,115071,1,0,0:0:0:0:
256,192,115121,5,8,0:0:0:0:
256,192,115196,5,0,0:0:0:0:
256,192,115271,5,8,0:0:0:0:
256,192,115346,5,0,0:0:0:0:
256,192,115421,5,8,0:0:0:0:
256,192,115471,1,8,0:0:0:0:
256,192,115521,1,8,0:0:0:0:
256,192,115571,5,0,0:0:0:0:
256,192,115646,5,8,0:0:0:0:
256,192,115721,5,0,0:0:0:0:
256,192,115796,1,0,0:0:0:0:
256,192,115871,5,8,0:0:0:0:
256,192,115921,1,8,0:0:0:0:
256,192,115971,1,8,0:0:0:0:
256,192,116021,5,0,0:0:0:0:
256,192,116096,1,0,0:0:0:0:
256,192,116171,5,8,0:0:0:0:
256,192,116246,5,0,0:0:0:0:
256,192,116321,5,8,0:0:0:0:
256,192,116471,5,0,0:0:0:0:
256,192,116621,5,8,0:0:0:0:
256,192,116771,5,0,0:0:0:0:
256,192,116821,1,0,0:0:0:0:
256,192,116871,1,0,0:0:0:0:
256,192,116921,5,8,0:0:0:0:
256,192,116996,5,0,0:0:0:0:
256,192,117071,5,8,0:0:0:0:
256,192,117121,1,8,0:0:0:0:
256,192,117171,1,8,0:0:0:0:
256,192,117221,5,0,0:0:0:0:
256,192,117296,1,0,0:0:0:0:
256,192,117371,1,0,0:0:0:0:
256,192,117421,1,0,0:0:0:0:
256,192,117471,1,0,0:0:0:0:
256,192,117521,5,8,0:0:0:0:
256,192,117596,1,8,0:0:0:0:
256,192,117671,5,0,0:0:0:0:
256,192,117721,1,0,0:0:0:0:
256,192,117771,1,0,0:0:0:0:
256,192,117821,5,8,0:0:0:0:
256,192,117871,1,8,0:0:0:0:
256,192,117921,1,8,0:0:0:0:
256,192,117971,5,0,0:0:0:0:
256,192,118046,5,8,0:0:0:0:
256,192,118121,1,8,0:0:0:0:
256,192,118271,5,0,0:0:0:0:
256,192,118421,1,0,0:0:0:0:
256,192,118571,5,12,0:0:0:0:
256,192,118871,1,12,0:0:0:0:
256,192,119171,5,8,0:0:0:0:
256,192,119221,1,8,0:0:0:0:
256,192,119271,1,8,0:0:0:0:
256,192,119321,5,0,0:0:0:0:
256,192,119396,1,0,0:0:0:0:
256,192,119471,1,0,0:0:0:0:
256,192,119546,1,0,0:0:0:0:
256,192,119621,5,8,0:0:0:0:
256,192,119671,1,8,0:0:0:0:
256,192,119721,1,8,0:0:0:0:
256,192,119771,5,0,0:0:0:0:
256,192,119846,1,0,0:0:0:0:
256,192,119921,1,0,0:0:0:0:
256,192,119996,1,0,0:0:0:0:
256,192,120071,5,8,0:0:0:0:
256,192,120121,1,8,0:0:0:0:
256,192,120171,1,8,0:0:0:0:
256,192,120221,5,0,0:0:0:0:
256,192,120296,1,0,0:0:0:0:
256,192,120371,5,8,0:0:0:0:
256,192,120421,1,8,0:0:0:0:
256,192,120471,1,8,0:0:0:0:
256,192,120521,5,0,0:0:0:0:
256,192,120596,1,0,0:0:0:0:
256,192,120671,1,0,0:0:0:0:
256,192,120746,1,0,0:0:0:0:
256,192,120821,5,8,0:0:0:0:
256,192,120871,1,8,0:0:0:0:
256,192,120921,1,8,0:0:0:0:
256,192,120971,5,0,0:0:0:0:
256,192,121121,5,0,0:0:0:0:
256,192,121271,5,12,0:0:0:0:
256,192,121571,5,0,0:0:0:0:
256,192,121621,1,0,0:0:0:0:
256,192,121671,1,0,0:0:0:0:
256,192,121721,5,8,0:0:0:0:
256,192,121796,1,8,0:0:0:0:
256,192,121871,1,8,0:0:0:0:
256,192,121946,1,8,0:0:0:0:
256,192,122021,5,0,0:0:0:0:
256,192,122071,1,0,0:0:0:0:
256,192,122121,1,0,0:0:0:0:
256,192,122171,5,8,0:0:0:0:
256,192,122246,1,8,0:0:0:0:
256,192,122321,1,8,0:0:0:0:
256,192,122396,1,8,0:0:0:0:
256,192,122471,5,0,0:0:0:0:
256,192,122521,1,0,0:0:0:0:
256,192,122571,1,0,0:0:0:0:
256,192,122621,5,8,0:0:0:0:
256,192,122696,1,8,0:0:0:0:
256,192,122771,5,0,0:0:0:0:
256,192,122821,1,0,0:0:0:0:
256,192,122871,1,0,0:0:0:0:
256,192,122921,5,8,0:0:0:0:
256,192,122996,1,8,0:0:0:0:
256,192,123071,5,0,0:0:0:0:
256,192,123146,5,8,0:0:0:0:
256,192,123221,5,0,0:0:0:0:
256,192,123271,1,0,0:0:0:0:
256,192,123321,1,0,0:0:0:0:
256,192,123371,5,8,0:0:0:0:
256,192,123521,5,0,0:0:0:0:
256,192,123671,5,8,0:0:0:0:
256,192,123821,1,8,0:0:0:0:
256,192,123971,5,8,0:0:0:0:
256,192,124021,1,8,0:0:0:0:
256,192,124071,1,8,0:0:0:0:
256,192,124121,5,0,0:0:0:0:
256,192,124196,1,0,0:0:0:0:
256,192,124271,5,8,0:0:0:0:
256,192,124346,5,0,0:0:0:0:
256,192,124421,5,8,0:0:0:0:
256,192,124471,1,8,0:0:0:0:
256,192,124521,1,8,0:0:0:0:
256,192,124571,5,0,0:0:0:0:
256,192,124646,1,0,0:0:0:0:
256,192,124721,5,8,0:0:0:0:
256,192,124796,5,0,0:0:0:0:
256,192,124871,5,8,0:0:0:0:
256,192,124921,1,8,0:0:0:0:
256,192,124971,1,8,0:0:0:0:
256,192,125021,5,0,0:0:0:0:
256,192,125096,1,0,0:0:0:0:
256,192,125171,5,8,0:0:0:0:
256,192,125221,1,8,0:0:0:0:
256,192,125271,1,8,0:0:0:0:
256,192,125321,5,0,0:0:0:0:
256,192,125396,1,0,0:0:0:0:
256,192,125471,5,8,0:0:0:0:
256,192,125546,5,0,0:0:0:0:
256,192,125621,5,8,0:0:0:0:
256,192,125671,1,8,0:0:0:0:
256,192,125721,1,8,0:0:0:0:
256,192,125771,5,0,0:0:0:0:
256,192,125921,1,0,0:0:0:0:
256,192,126071,5,12,0:0:0:0:
256,192,126371,5,0,0:0:0:0:
256,192,126421,1,0,0:0:0:0:
256,192,126471,1,0,0:0:0:0:
256,192,126521,5,8,0:0:0:0:
256,192,126596,1,8,0:0:0:0:
256,192,126671,5,0,0:0:0:0:
256,192,126746,5,8,0:0:0:0:
256,192,126821,5,0,0:0:0:0:
256,192,126871,1,0,0:0:0:0:
256,192,126921,1,0,0:0:0:0:
256,192,126971,5,8,0:0:0:0:
256,192,127046,1,8,0:0:0:0:
256,192,127121,5,0,0:0:0:0:
256,192,127196,5,8,0:0:0:0:
256,192,127271,5,0,0:0:0:0:
256,192,127321,1,0,0:0:0:0:
256,192,127371,1,0,0:0:0:0:
256,192,127421,5,8,0:0:0:0:
256,192,127496,1,8,0:0:0:0:
256,192,127571,5,0,0:0:0:0:
256,192,127621,1,0,0:0:0:0:
256,192,127671,1,0,0:0:0:0:
256,192,127721,5,8,0:0:0:0:
256,192,127796,1,8,0:0:0:0:
256,192,127871,5,0,0:0:0:0:
256,192,127946,5,8,0:0:0:0:
256,192,128021,5,0,0:0:0:0:
256,192,128071,1,0,0:0:0:0:
256,192,128121,1,0,0:0:0:0:
256,192,128171,5,8,0:0:0:0:
256,192,128471,1,12,0:0:0:0:
256,192,128771,5,4,0:0:0:0:
256,192,129071,5,8,0:0:0:0:
256,192,129671,1,8,0:0:0:0:
256,192,130271,1,8,0:0:0:0:
256,192,130571,1,8,0:0:0:0:
256,192,130721,1,8,0:0:0:0:
256,192,130796,1,8,0:0:0:0:
256,192,130871,1,8,0:0:0:0:
256,192,131021,1,8,0:0:0:0:
256,192,131171,5,0,0:0:0:0:
256,192,131471,5,8,0:0:0:0:
256,192,132071,1,8,0:0:0:0:
256,192,132371,1,8,0:0:0:0:
256,192,132521,1,8,0:0:0:0:
256,192,132596,1,8,0:0:0:0:
256,192,132671,1,8,0:0:0:0:
256,192,132821,1,8,0:0:0:0:
256,192,132971,1,8,0:0:0:0:
256,192,133046,1,8,0:0:0:0:
256,192,133121,1,8,0:0:0:0:
256,192,133196,1,8,0:0:0:0:
256,192,133271,1,8,0:0:0:0:
256,192,133346,1,8,0:0:0:0:
256,192,133421,1,8,0:0:0:0:
256,192,133571,5,0,0:0:0:0:
256,192,133871,5,8,0:0:0:0:
256,192,134471,1,8,0:0:0:0:
256,192,135071,1,8,0:0:0:0:
256,192,135371,1,8,0:0:0:0:
256,192,135521,1,8,0:0:0:0:
256,192,135596,1,8,0:0:0:0:
256,192,135671,1,8,0:0:0:0:
256,192,135821,1,8,0:0:0:0:
256,192,135971,5,0,0:0:0:0:
256,192,136271,5,8,0:0:0:0:
256,192,136871,1,8,0:0:0:0:
256,192,137171,1,8,0:0:0:0:
256,192,137321,1,8,0:0:0:0:
256,192,137396,1,8,0:0:0:0:
256,192,137471,1,8,0:0:0:0:
256,192,137621,1,8,0:0:0:0:
256,192,137771,1,8,0:0:0:0:
256,192,137921,1,8,0:0:0:0:
256,192,138071,1,8,0:0:0:0:
256,192,138221,1,8,0:0:0:0:
256,192,138371,5,4,0:0:0:0:
256,192,143171,5,8,0:0:0:0:
256,192,143621,5,8,0:0:0:0:
256,192,143771,1,8,0:0:0:0:
256,192,144071,1,8,0:0:0:0:
256,192,144521,1,8,0:0:0:0:
256,192,144671,1,8,0:0:0:0:
256,192,144971,1,8,0:0:0:0:
256,192,145121,1,8,0:0:0:0:
256,192,145196,1,8,0:0:0:0:
256,192,145271,1,8,0:0:0:0:
256,192,145421,1,8,0:0:0:0:
256,192,145571,5,0,0:0:0:0:
256,192,145721,5,8,0:0:0:0:
256,192,145796,1,8,0:0:0:0:
256,192,145871,1,8,0:0:0:0:
256,192,146021,5,0,0:0:0:0:
256,192,146171,5,0,0:0:0:0:
256,192,146221,5,8,0:0:0:0:
256,192,146271,1,8,0:0:0:0:
256,192,146321,1,8,0:0:0:0:
256,192,146396,1,8,0:0:0:0:
256,192,146471,5,0,0:0:0:0:
256,192,146521,5,8,0:0:0:0:
256,192,146571,1,8,0:0:0:0:
256,192,146621,1,8,0:0:0:0:
256,192,146696,1,8,0:0:0:0:
256,192,147671,5,12,0:0:0:0:
